  0
SECTION
  2
HEADER
  9
$ACADVER
  1
AC1014
  9
$ACADMAINTVER
 70
     9
  9
$DWGCODEPAGE
  3
ANSI_1252
  9
$INSBASE
 10
0.0317645079295188
 20
12.55382276383112
 30
0.0
  9
$EXTMIN
 10
-4.296595936089994
 20
11.66208754801992
 30
0.0
  9
$EXTMAX
 10
12.01772662530154
 20
17.68238513373603
 30
0.0
  9
$LIMMIN
 10
0.0
 20
0.0
  9
$LIMMAX
 10
36.0
 20
36.0
  9
$ORTHOMODE
 70
     1
  9
$REGENMODE
 70
     1
  9
$FILLMODE
 70
     1
  9
$QTEXTMODE
 70
     0
  9
$MIRRTEXT
 70
     1
  9
$DRAGMODE
 70
     0
  9
$LTSCALE
 40
1.0
  9
$OSMODE
 70
    37
  9
$ATTMODE
 70
     1
  9
$TEXTSIZE
 40
0.2
  9
$TRACEWID
 40
0.05
  9
$TEXTSTYLE
  7
STANDARD
  9
$CLAYER
  8
ADP1DETAIL
  9
$CELTYPE
  6
BYLAYER
  9
$CECOLOR
 62
   256
  9
$CELTSCALE
 40
1.0
  9
$DELOBJ
 70
     1
  9
$DISPSILH
 70
     0
  9
$DIMSCALE
 40
1.0
  9
$DIMASZ
 40
0.125
  9
$DIMEXO
 40
0.0625
  9
$DIMDLI
 40
0.38
  9
$DIMRND
 40
0.0
  9
$DIMDLE
 40
0.0
  9
$DIMEXE
 40
0.18
  9
$DIMTP
 40
0.0
  9
$DIMTM
 40
0.0
  9
$DIMTXT
 40
0.125
  9
$DIMCEN
 40
0.1875
  9
$DIMTSZ
 40
0.125
  9
$DIMTOL
 70
     0
  9
$DIMLIM
 70
     0
  9
$DIMTIH
 70
     0
  9
$DIMTOH
 70
     0
  9
$DIMSE1
 70
     0
  9
$DIMSE2
 70
     0
  9
$DIMTAD
 70
     0
  9
$DIMZIN
 70
     3
  9
$DIMBLK
  1

  9
$DIMASO
 70
     1
  9
$DIMSHO
 70
     1
  9
$DIMPOST
  1

  9
$DIMAPOST
  1

  9
$DIMALT
 70
     0
  9
$DIMALTD
 70
     1
  9
$DIMALTF
 40
25.4
  9
$DIMLFAC
 40
1.0
  9
$DIMTOFL
 70
     0
  9
$DIMTVP
 40
0.0
  9
$DIMTIX
 70
     0
  9
$DIMSOXD
 70
     0
  9
$DIMSAH
 70
     0
  9
$DIMBLK1
  1

  9
$DIMBLK2
  1

  9
$DIMSTYLE
  2
STANDARD
  9
$DIMCLRD
 70
     0
  9
$DIMCLRE
 70
     0
  9
$DIMCLRT
 70
     0
  9
$DIMTFAC
 40
1.0
  9
$DIMGAP
 40
0.125
  9
$DIMJUST
 70
     0
  9
$DIMSD1
 70
     0
  9
$DIMSD2
 70
     0
  9
$DIMTOLJ
 70
     1
  9
$DIMTZIN
 70
     3
  9
$DIMALTZ
 70
     3
  9
$DIMALTTZ
 70
     3
  9
$DIMFIT
 70
     5
  9
$DIMUPT
 70
     0
  9
$DIMUNIT
 70
     5
  9
$DIMDEC
 70
     5
  9
$DIMTDEC
 70
     5
  9
$DIMALTU
 70
     5
  9
$DIMALTTD
 70
     1
  9
$DIMTXSTY
  7
STANDARD
  9
$DIMAUNIT
 70
     0
  9
$LUNITS
 70
     5
  9
$LUPREC
 70
     5
  9
$SKETCHINC
 40
0.1
  9
$FILLETRAD
 40
0.0
  9
$AUNITS
 70
     0
  9
$AUPREC
 70
     0
  9
$MENU
  1
acad
  9
$ELEVATION
 40
0.0
  9
$PELEVATION
 40
0.0
  9
$THICKNESS
 40
0.0
  9
$LIMCHECK
 70
     0
  9
$BLIPMODE
 70
     0
  9
$CHAMFERA
 40
0.0
  9
$CHAMFERB
 40
0.0
  9
$CHAMFERC
 40
0.0
  9
$CHAMFERD
 40
0.0
  9
$SKPOLY
 70
     0
  9
$TDCREATE
 40
2450415.606344710
  9
$TDUPDATE
 40
2452297.083688506
  9
$TDINDWG
 40
0.0128721875
  9
$TDUSRTIMER
 40
0.0128721875
  9
$USRTIMER
 70
     1
  9
$ANGBASE
 50
0.0
  9
$ANGDIR
 70
     0
  9
$PDMODE
 70
     0
  9
$PDSIZE
 40
0.0
  9
$PLINEWID
 40
0.0
  9
$COORDS
 70
     2
  9
$SPLFRAME
 70
     0
  9
$SPLINETYPE
 70
     6
  9
$SPLINESEGS
 70
     8
  9
$ATTDIA
 70
     0
  9
$ATTREQ
 70
     1
  9
$HANDLING
 70
 22529
  9
$HANDSEED
  5
4BF
  9
$SURFTAB1
 70
     6
  9
$SURFTAB2
 70
     6
  9
$SURFTYPE
 70
     6
  9
$SURFU
 70
     6
  9
$SURFV
 70
     6
  9
$UCSNAME
  2

  9
$UCSORG
 10
0.0
 20
0.0
 30
0.0
  9
$UCSXDIR
 10
1.0
 20
0.0
 30
0.0
  9
$UCSYDIR
 10
0.0
 20
1.0
 30
0.0
  9
$PUCSNAME
  2

  9
$PUCSORG
 10
0.0
 20
0.0
 30
0.0
  9
$PUCSXDIR
 10
1.0
 20
0.0
 30
0.0
  9
$PUCSYDIR
 10
0.0
 20
1.0
 30
0.0
  9
$USERI1
 70
     0
  9
$USERI2
 70
     0
  9
$USERI3
 70
     0
  9
$USERI4
 70
     0
  9
$USERI5
 70
     0
  9
$USERR1
 40
0.0
  9
$USERR2
 40
0.0
  9
$USERR3
 40
0.0
  9
$USERR4
 40
0.0
  9
$USERR5
 40
0.0
  9
$WORLDVIEW
 70
     1
  9
$SHADEDGE
 70
     3
  9
$SHADEDIF
 70
    70
  9
$TILEMODE
 70
     1
  9
$MAXACTVP
 70
    15
  9
$PINSBASE
 10
0.0
 20
0.0
 30
1.090021678113471E+99
  9
$PLIMCHECK
 70
     0
  9
$PEXTMIN
 10
1.000000000000000E+20
 20
1.000000000000000E+20
 30
1.000000000000000E+20
  9
$PEXTMAX
 10
-1.000000000000000E+20
 20
-1.000000000000000E+20
 30
-1.000000000000000E+20
  9
$PLIMMIN
 10
0.0
 20
0.0
  9
$PLIMMAX
 10
12.0
 20
9.0
  9
$UNITMODE
 70
     0
  9
$VISRETAIN
 70
     0
  9
$PLINEGEN
 70
     0
  9
$PSLTSCALE
 70
     1
  9
$TREEDEPTH
 70
  3020
  9
$PICKSTYLE
 70
     1
  9
$CMLSTYLE
  2
STANDARD
  9
$CMLJUST
 70
     0
  9
$CMLSCALE
 40
1.0
  9
$PROXYGRAPHICS
 70
     1
  9
$MEASUREMENT
 70
     0
  0
ENDSEC
  0
SECTION
  2
CLASSES
  0
CLASS
  1
ACDBDICTIONARYWDFLT
  2
AcDbDictionaryWithDefault
  3
AutoCAD 2000
 90
        0
280
     0
281
     0
  0
CLASS
  1
ACDBPLACEHOLDER
  2
AcDbPlaceHolder
  3
AutoCAD 2000
 90
        0
280
     0
281
     0
  0
CLASS
  1
LAYOUT
  2
AcDbLayout
  3
AutoCAD 2000
 90
        0
280
     0
281
     0
  0
CLASS
  1
DICTIONARYVAR
  2
AcDbDictionaryVar
  3
AutoCAD 2000
 90
        0
280
     0
281
     0
  0
CLASS
  1
LONG_TRANSACTION
  2
AcDbLongTransaction
  3
AutoCAD 2000
 90
        0
280
     0
281
     0
  0
CLASS
  1
LWPOLYLINE
  2
AcDbPolyline
  3
AutoCAD 2000
 90
        0
280
     0
281
     1
  0
CLASS
  1
HATCH
  2
AcDbHatch
  3
AutoCAD 2000
 90
        0
280
     0
281
     1
  0
CLASS
  1
XRECORD
  2
AcDbXrecord
  3
AutoCAD 2000
 90
        0
280
     0
281
     0
  0
CLASS
  1
LONG_TRANSACTION
  2
AcDbLongTransaction
  3
AutoCAD 2000
 90
        0
280
     0
281
     0
  0
CLASS
  1
LWPOLYLINE
  2
AcDbPolyline
  3
AutoCAD 2000
 90
        0
280
     0
281
     1
  0
CLASS
  1
HATCH
  2
AcDbHatch
  3
AutoCAD 2000
 90
        0
280
     0
281
     1
  0
CLASS
  1
XRECORD
  2
AcDbXrecord
  3
AutoCAD 2000
 90
        0
280
     0
281
     0
  0
CLASS
  1
LONG_TRANSACTION
  2
AcDbLongTransaction
  3
AutoCAD 2000
 90
        0
280
     0
281
     0
  0
CLASS
  1
LWPOLYLINE
  2
AcDbPolyline
  3
AutoCAD 2000
 90
        0
280
     0
281
     1
  0
CLASS
  1
HATCH
  2
AcDbHatch
  3
AutoCAD 2000
 90
        0
280
     0
281
     1
  0
CLASS
  1
XRECORD
  2
AcDbXrecord
  3
AutoCAD 2000
 90
        0
280
     0
281
     0
  0
CLASS
  1
LONG_TRANSACTION
  2
AcDbLongTransaction
  3
AutoCAD 2000
 90
        0
280
     0
281
     0
  0
CLASS
  1
LWPOLYLINE
  2
AcDbPolyline
  3
AutoCAD 2000
 90
        0
280
     0
281
     1
  0
CLASS
  1
HATCH
  2
AcDbHatch
  3
AutoCAD 2000
 90
        0
280
     0
281
     1
  0
CLASS
  1
XRECORD
  2
AcDbXrecord
  3
AutoCAD 2000
 90
        0
280
     0
281
     0
  0
CLASS
  1
LONG_TRANSACTION
  2
AcDbLongTransaction
  3
AutoCAD 2000
 90
        0
280
     0
281
     0
  0
CLASS
  1
LWPOLYLINE
  2
AcDbPolyline
  3
AutoCAD 2000
 90
        0
280
     0
281
     1
  0
CLASS
  1
HATCH
  2
AcDbHatch
  3
AutoCAD 2000
 90
        0
280
     0
281
     1
  0
CLASS
  1
XRECORD
  2
AcDbXrecord
  3
AutoCAD 2000
 90
        0
280
     0
281
     0
  0
CLASS
  1
LONG_TRANSACTION
  2
AcDbLongTransaction
  3
AutoCAD 2000
 90
        0
280
     0
281
     0
  0
CLASS
  1
LWPOLYLINE
  2
AcDbPolyline
  3
AutoCAD 2000
 90
        0
280
     0
281
     1
  0
CLASS
  1
HATCH
  2
AcDbHatch
  3
AutoCAD 2000
 90
        0
280
     0
281
     1
  0
CLASS
  1
XRECORD
  2
AcDbXrecord
  3
AutoCAD 2000
 90
        0
280
     0
281
     0
  0
CLASS
  1
LONG_TRANSACTION
  2
AcDbLongTransaction
  3
AutoCAD 2000
 90
        0
280
     0
281
     0
  0
CLASS
  1
LWPOLYLINE
  2
AcDbPolyline
  3
AutoCAD 2000
 90
        0
280
     0
281
     1
  0
CLASS
  1
HATCH
  2
AcDbHatch
  3
AutoCAD 2000
 90
        0
280
     0
281
     1
  0
CLASS
  1
XRECORD
  2
AcDbXrecord
  3
AutoCAD 2000
 90
        0
280
     0
281
     0
  0
ENDSEC
  0
SECTION
  2
TABLES
  0
TABLE
  2
VPORT
  5
8
330
0
100
AcDbSymbolTable
 70
     2
  0
VPORT
  5
49B
330
8
100
AcDbSymbolTableRecord
100
AcDbViewportTableRecord
  2
*ACTIVE
 70
     0
 10
0.0
 20
0.0
 11
1.0
 21
1.0
 12
3.873105833972555
 22
14.67251594908596
 13
0.0
 23
0.0
 14
0.5740882589684922
 24
0.5740882589684922
 15
0.5
 25
0.5
 16
0.0
 26
0.0
 36
1.0
 17
0.0
 27
0.0
 37
0.0
 40
10.45554590537543
 41
1.570528967254407
 42
50.0
 43
0.0
 44
0.0
 50
0.0
 51
0.0
 71
     0
 72
   100
 73
     1
 74
     0
 75
     0
 76
     0
 77
     0
 78
     0
  0
ENDTAB
  0
TABLE
  2
LTYPE
  5
5
330
0
100
AcDbSymbolTable
 70
     1
  0
LTYPE
  5
13
330
5
100
AcDbSymbolTableRecord
100
AcDbLinetypeTableRecord
  2
BYBLOCK
 70
     0
  3

 72
    65
 73
     0
 40
0.0
  0
LTYPE
  5
14
330
5
100
AcDbSymbolTableRecord
100
AcDbLinetypeTableRecord
  2
BYLAYER
 70
     0
  3

 72
    65
 73
     0
 40
0.0
  0
LTYPE
  5
15
330
5
100
AcDbSymbolTableRecord
100
AcDbLinetypeTableRecord
  2
CONTINUOUS
 70
     0
  3
Solid line
 72
    65
 73
     0
 40
0.0
  0
ENDTAB
  0
TABLE
  2
LAYER
  5
2
330
0
100
AcDbSymbolTable
 70
     4
  0
LAYER
  5
10
330
2
100
AcDbSymbolTableRecord
100
AcDbLayerTableRecord
  2
0
 70
     0
 62
     7
  6
CONTINUOUS
  0
LAYER
  5
62
330
2
100
AcDbSymbolTableRecord
100
AcDbLayerTableRecord
  2
ADPDIM
 70
     0
 62
     3
  6
CONTINUOUS
  0
LAYER
  5
64
330
2
100
AcDbSymbolTableRecord
100
AcDbLayerTableRecord
  2
ADP1DETAIL
 70
     0
 62
     7
  6
CONTINUOUS
  0
LAYER
  5
66
330
2
100
AcDbSymbolTableRecord
100
AcDbLayerTableRecord
  2
DEFPOINTS
 70
     0
 62
     7
  6
CONTINUOUS
  0
ENDTAB
  0
TABLE
  2
STYLE
  5
3
330
0
100
AcDbSymbolTable
 70
     2
  0
STYLE
  5
11
330
3
100
AcDbSymbolTableRecord
100
AcDbTextStyleTableRecord
  2
STANDARD
 70
     0
 40
0.0
 41
1.0
 50
0.0
 71
     0
 42
0.2
  3
txt
  4

  0
STYLE
  5
294
330
3
100
AcDbSymbolTableRecord
100
AcDbTextStyleTableRecord
  2
ARIAL_WIDE
 70
     0
 40
0.0
 41
1.25
 50
0.0
 71
     0
 42
0.2
  3
ARIAL.TTF
  4

1001
ACAD
1000
Arial
1071
       34
  0
ENDTAB
  0
TABLE
  2
VIEW
  5
6
330
0
100
AcDbSymbolTable
 70
     0
  0
ENDTAB
  0
TABLE
  2
UCS
  5
7
330
0
100
AcDbSymbolTable
 70
     0
  0
ENDTAB
  0
TABLE
  2
APPID
  5
9
330
0
100
AcDbSymbolTable
 70
     1
  0
APPID
  5
12
330
9
100
AcDbSymbolTableRecord
100
AcDbRegAppTableRecord
  2
ACAD
 70
     0
  0
ENDTAB
  0
TABLE
  2
DIMSTYLE
  5
A
330
0
100
AcDbSymbolTable
 70
     1
  0
DIMSTYLE
105
292
330
A
100
AcDbSymbolTableRecord
100
AcDbDimStyleTableRecord
  2
STANDARD
 70
     0
  3

  4

  5

  6

  7

 40
1.0
 41
0.18
 42
0.0625
 43
0.38
 44
0.18
 45
0.0
 46
0.0
 47
0.0
 48
0.0
140
0.18
141
0.09
142
0.0
143
25.4
144
1.0
145
0.0
146
1.0
147
0.09
 71
     0
 72
     0
 73
     1
 74
     1
 75
     0
 76
     0
 77
     0
 78
     0
170
     0
171
     2
172
     0
173
     0
174
     0
175
     0
176
     0
177
     0
178
     0
270
     2
271
     4
272
     4
273
     2
274
     2
340
11
275
     0
280
     0
281
     0
282
     0
283
     1
284
     0
285
     0
286
     0
287
     3
288
     0
  0
ENDTAB
  0
TABLE
  2
BLOCK_RECORD
  5
1
330
0
100
AcDbSymbolTable
 70
     2
  0
BLOCK_RECORD
  5
1E
102
{ACAD_XDICTIONARY
360
2D1
102
}
330
1
100
AcDbSymbolTableRecord
100
AcDbBlockTableRecord
  2
*MODEL_SPACE
  0
BLOCK_RECORD
  5
1A
102
{ACAD_XDICTIONARY
360
2D3
102
}
330
1
100
AcDbSymbolTableRecord
100
AcDbBlockTableRecord
  2
*PAPER_SPACE
  0
BLOCK_RECORD
  5
5B
330
1
100
AcDbSymbolTableRecord
100
AcDbBlockTableRecord
  2
*D0
  0
BLOCK_RECORD
  5
60
330
1
100
AcDbSymbolTableRecord
100
AcDbBlockTableRecord
  2
*D1
  0
ENDTAB
  0
ENDSEC
  0
SECTION
  2
BLOCKS
  0
BLOCK
  5
69
330
1E
100
AcDbEntity
  8
0
100
AcDbBlockBegin
  2
*MODEL_SPACE
 70
     0
 10
0.0
 20
0.0
 30
0.0
  3
*MODEL_SPACE
  1

  0
ENDBLK
  5
6A
330
1E
100
AcDbEntity
  8
0
100
AcDbBlockEnd
  0
BLOCK
  5
67
330
1A
100
AcDbEntity
 67
     1
  8
0
100
AcDbBlockBegin
  2
*PAPER_SPACE
 70
     0
 10
0.0
 20
0.0
 30
0.0
  3
*PAPER_SPACE
  1

  0
ENDBLK
  5
68
330
1A
100
AcDbEntity
 67
     1
  8
0
100
AcDbBlockEnd
  0
BLOCK
  5
6C
330
5B
100
AcDbEntity
  8
0
100
AcDbBlockBegin
  2
*D0
 70
     1
 10
0.0
 20
0.0
 30
0.0
  3
*D0
  1
*U
  0
LINE
  5
6D
330
5B
100
AcDbEntity
  8
0
  6
BYBLOCK
 62
     0
100
AcDbLine
 10
0.039210217430213
 20
10.83902325649782
 30
0.0
 11
0.039210217430213
 21
11.56317154620551
 31
0.0
  0
LINE
  5
6E
330
5B
100
AcDbEntity
  8
0
  6
BYBLOCK
 62
     0
100
AcDbLine
 10
7.796481621040039
 20
10.83902325649782
 30
0.0
 11
7.796481621040039
 21
11.56317154620551
 31
0.0
  0
LINE
  5
6F
330
5B
100
AcDbEntity
  8
0
  6
BYBLOCK
 62
     0
100
AcDbLine
 10
0.039210217430213
 20
11.38317154620551
 30
0.0
 11
3.657429252568459
 21
11.38317154620551
 31
0.0
  0
LINE
  5
70
330
5B
100
AcDbEntity
  8
0
  6
BYBLOCK
 62
     0
100
AcDbLine
 10
7.796481621040039
 20
11.38317154620551
 30
0.0
 11
4.178262585901793
 21
11.38317154620551
 31
0.0
  0
LINE
  5
71
330
5B
100
AcDbEntity
  8
0
  6
BYBLOCK
 62
     0
100
AcDbLine
 10
-0.085789782569787
 20
11.25817154620551
 30
0.0
 11
0.164210217430213
 21
11.50817154620551
 31
0.0
  0
LINE
  5
72
330
5B
100
AcDbEntity
  8
0
  6
BYBLOCK
 62
     0
100
AcDbLine
 10
7.671481621040039
 20
11.25817154620551
 30
0.0
 11
7.921481621040039
 21
11.50817154620551
 31
0.0
  0
TEXT
  5
73
330
5B
100
AcDbEntity
  8
0
  6
BYBLOCK
 62
     0
100
AcDbText
 10
3.782429252568459
 20
11.3206715462055
 30
0.0
 40
0.125
  1
120
 72
     1
 11
3.917845919235126
 21
11.38317154620551
 31
0.0
100
AcDbText
 73
     2
  0
POINT
  5
75
330
5B
100
AcDbEntity
  8
DEFPOINTS
  6
BYBLOCK
 62
     0
100
AcDbPoint
 10
0.039210217430213
 20
10.77652325649782
 30
0.0
  0
POINT
  5
76
330
5B
100
AcDbEntity
  8
DEFPOINTS
  6
BYBLOCK
 62
     0
100
AcDbPoint
 10
7.796481621040039
 20
10.77652325649782
 30
0.0
  0
POINT
  5
77
330
5B
100
AcDbEntity
  8
DEFPOINTS
  6
BYBLOCK
 62
     0
100
AcDbPoint
 10
7.796481621040039
 20
11.38317154620551
 30
0.0
  0
ENDBLK
  5
78
330
5B
100
AcDbEntity
  8
0
100
AcDbBlockEnd
  0
BLOCK
  5
79
330
60
100
AcDbEntity
  8
0
100
AcDbBlockBegin
  2
*D1
 70
     1
 10
0.0
 20
0.0
 30
0.0
  3
*D1
  1
*U
  0
LINE
  5
7A
330
60
100
AcDbEntity
  8
0
  6
BYBLOCK
 62
     0
100
AcDbLine
 10
0.3178289690132964
 20
12.4823927179458
 30
0.0
 11
-0.5903968570723911
 21
12.4823927179458
 31
0.0
  0
LINE
  5
7B
330
60
100
AcDbEntity
  8
0
  6
BYBLOCK
 62
     0
100
AcDbLine
 10
0.3110722969945667
 20
16.96716688991366
 30
0.0
 11
-0.5903968570723909
 21
16.96716688991366
 31
0.0
  0
LINE
  5
7C
330
60
100
AcDbEntity
  8
0
  6
BYBLOCK
 62
     0
100
AcDbLine
 10
-0.410396857072391
 20
12.4823927179458
 30
0.0
 11
-0.4103968570723909
 21
14.32894647059639
 31
0.0
  0
LINE
  5
7D
330
60
100
AcDbEntity
  8
0
  6
BYBLOCK
 62
     0
100
AcDbLine
 10
-0.4103968570723908
 20
16.96716688991366
 30
0.0
 11
-0.4103968570723909
 21
15.12061313726306
 31
0.0
  0
LINE
  5
7E
330
60
100
AcDbEntity
  8
0
  6
BYBLOCK
 62
     0
100
AcDbLine
 10
-0.285396857072391
 20
12.3573927179458
 30
0.0
 11
-0.5353968570723909
 21
12.6073927179458
 31
0.0
  0
LINE
  5
7F
330
60
100
AcDbEntity
  8
0
  6
BYBLOCK
 62
     0
100
AcDbLine
 10
-0.2853968570723907
 20
16.84216688991366
 30
0.0
 11
-0.5353968570723908
 21
17.09216688991365
 31
0.0
  0
TEXT
  5
80
330
60
100
AcDbEntity
  8
0
  6
BYBLOCK
 62
     0
100
AcDbText
 10
-0.3478968570723909
 20
14.45394647059639
 30
0.0
 40
0.125
  1
4 1/2
 50
90.0
 72
     1
 11
-0.4103968570723909
 21
14.72477980392973
 31
0.0
100
AcDbText
 73
     2
  0
POINT
  5
81
330
60
100
AcDbEntity
  8
DEFPOINTS
  6
BYBLOCK
 62
     0
100
AcDbPoint
 10
0.3803289690132965
 20
12.4823927179458
 30
0.0
  0
POINT
  5
82
330
60
100
AcDbEntity
  8
DEFPOINTS
  6
BYBLOCK
 62
     0
100
AcDbPoint
 10
0.3735722969945667
 20
16.96716688991366
 30
0.0
  0
POINT
  5
83
330
60
100
AcDbEntity
  8
DEFPOINTS
  6
BYBLOCK
 62
     0
100
AcDbPoint
 10
-0.4103968570723908
 20
16.96716688991366
 30
0.0
  0
ENDBLK
  5
84
330
60
100
AcDbEntity
  8
0
100
AcDbBlockEnd
  0
ENDSEC
  0
SECTION
  2
ENTITIES
  0
LINE
  5
85
330
1E
100
AcDbEntity
  8
ADP1DETAIL
100
AcDbLine
 10
6.761518535575837
 20
16.3001380864876
 30
0.0
 11
6.34300691522812
 21
15.89159102852912
 31
0.0
  0
LINE
  5
86
330
1E
100
AcDbEntity
  8
ADP1DETAIL
100
AcDbLine
 10
6.04825180690832
 20
15.89772541531403
 30
0.0
 11
5.636024192535385
 21
16.3001380864876
 31
0.0
  0
LINE
  5
87
330
1E
100
AcDbEntity
  8
ADP1DETAIL
100
AcDbLine
 10
4.992884567940843
 20
16.3001380864876
 30
0.0
 11
4.577498851069371
 21
15.89464250573212
 31
0.0
  0
LINE
  5
88
330
1E
100
AcDbEntity
  8
ADP1DETAIL
100
AcDbLine
 10
4.285012570271844
 20
15.89591448329521
 30
0.0
 11
3.880788967079446
 21
16.3001380864876
 31
0.0
  0
LINE
  5
89
330
1E
100
AcDbEntity
  8
ADP1DETAIL
100
AcDbLine
 10
2.112154999444465
 20
16.3001380864876
 30
0.0
 11
2.530036624796913
 21
15.89220602364355
 31
0.0
  0
LINE
  5
8A
330
1E
100
AcDbEntity
  8
ADP1DETAIL
100
AcDbLine
 10
2.822377720910886
 20
15.89826520709263
 30
0.0
 11
3.224250600305862
 21
16.3001380864876
 31
0.0
  0
LINE
  5
8B
330
1E
100
AcDbEntity
  8
ADP1DETAIL
100
AcDbLine
 10
1.057460013709553
 20
15.89838166251725
 30
0.0
 11
1.469015374849923
 21
16.3001380864876
 31
0.0
  0
LINE
  5
8C
330
1E
100
AcDbEntity
  8
ADP1DETAIL
100
AcDbLine
 10
0.3435210318094715
 20
16.3001380864876
 30
0.0
 11
0.7627605630139205
 21
15.89088044888326
 31
0.0
  0
DIMENSION
  5
8D
330
1E
100
AcDbEntity
  8
ADPDIM
100
AcDbDimension
  2
*D1
 10
-0.4103968570723908
 20
16.96716688991366
 30
0.0
 11
-0.4103968570723909
 21
14.72477980392973
 31
0.0
100
AcDbAlignedDimension
 13
0.3803289690132965
 23
12.4823927179458
 33
0.0
 14
0.3735722969945667
 24
16.96716688991366
 34
0.0
 50
90.0
100
AcDbRotatedDimension
  0
LINE
  5
8E
330
1E
100
AcDbEntity
  8
ADP1DETAIL
100
AcDbLine
 10
0.0250078359107891
 20
16.89573684402834
 30
0.0
 11
0.0265994241205602
 21
15.87296420703712
 31
0.0
  0
LINE
  5
8F
330
1E
100
AcDbEntity
  8
ADP1DETAIL
100
AcDbLine
 10
6.355443688543392
 20
13.54410977926355
 30
0.0
 11
6.761518535575837
 21
13.1380349322311
 31
0.0
  0
LINE
  5
90
330
1E
100
AcDbEntity
  8
ADP1DETAIL
100
AcDbLine
 10
6.922303441724472
 20
14.71908650935936
 30
0.0
 11
6.339369081029843
 21
14.14694722941833
 31
0.0
  0
LINE
  5
91
330
1E
100
AcDbEntity
  8
ADP1DETAIL
100
AcDbLine
 10
6.352467404181028
 20
15.2889225469028
 30
0.0
 11
6.922303441724472
 21
14.71908650935936
 31
0.0
  0
LINE
  5
92
330
1E
100
AcDbEntity
  8
ADP1DETAIL
100
AcDbLine
 10
6.761518535575837
 20
13.1380349322311
 30
0.0
 11
5.636024192535385
 21
13.1380349322311
 31
0.0
  0
CIRCLE
  5
93
330
1E
100
AcDbEntity
  8
ADP1DETAIL
100
AcDbCircle
 10
6.189242437075742
 20
15.58776879038702
 30
0.0
 40
0.3405164711598396
  0
CIRCLE
  5
94
330
1E
100
AcDbEntity
  8
ADP1DETAIL
100
AcDbCircle
 10
6.189242437075742
 20
13.8413110766055
 30
0.0
 40
0.3405164711598396
  0
LINE
  5
95
330
1E
100
AcDbEntity
  8
ADP1DETAIL
100
AcDbLine
 10
0.7503602712223876
 20
13.54487417164402
 30
0.0
 11
0.3435210318094715
 21
13.1380349322311
 31
0.0
  0
LINE
  5
96
330
1E
100
AcDbEntity
  8
ADP1DETAIL
100
AcDbLine
 10
0.3512808747011223
 20
14.55366295937537
 30
0.0
 11
0.7663816676846884
 21
14.14624921811372
 31
0.0
  0
LINE
  5
97
330
1E
100
AcDbEntity
  8
ADP1DETAIL
100
AcDbLine
 10
0.7533250922138077
 20
15.28967547591233
 30
0.0
 11
0.3490273340278082
 21
14.88537771772633
 31
0.0
  0
CIRCLE
  5
98
330
1E
100
AcDbEntity
  8
ADP1DETAIL
100
AcDbCircle
 10
0.9179210915474573
 20
15.58776879038702
 30
0.0
 40
0.3405164711598396
  0
LINE
  5
99
330
1E
100
AcDbEntity
  8
ADP1DETAIL
100
AcDbLine
 10
1.469015374849923
 20
13.1380349322311
 30
0.0
 11
0.3435210318094723
 21
13.1380349322311
 31
0.0
  0
LWPOLYLINE
  5
9A
330
1E
100
AcDbEntity
  8
ADP1DETAIL
100
AcDbPolyline
 90
        5
 70
     0
 43
0.0
 10
0.8906756375300961
 20
12.96805665150644
 10
0.7902336213689561
 20
13.06180253325684
 42
0.9284189221609072
 10
0.6429186643326208
 20
12.92118371063124
 10
0.8705872342978695
 20
12.66003446861228
 42
0.9058375253520349
 10
1.044686728977175
 20
12.78056488800565
 42
0.5885974569407209
  0
LWPOLYLINE
  5
A1
330
1E
100
AcDbEntity
  8
ADP1DETAIL
100
AcDbPolyline
 90
        5
 70
     0
 43
0.0
 10
0.6186814017521165
 20
12.96805665150644
 10
0.5182393855909764
 20
13.06180253325684
 42
0.9284189221609072
 10
0.3709244285546411
 20
12.92118371063124
 10
0.5985929985198899
 20
12.66003446861228
 42
0.9058375253520349
 10
0.7726924931991963
 20
12.78056488800565
 42
0.5885974569407209
  0
ARC
  5
A8
330
1E
100
AcDbEntity
  8
ADP1DETAIL
100
AcDbCircle
 10
0.6875011035144525
 20
12.85810626548065
 30
0.0
 40
0.375724530279794
100
AcDbArc
 50
234.0673535627094
 51
305.9326464372905
  0
CIRCLE
  5
A9
330
1E
100
AcDbEntity
  8
ADP1DETAIL
100
AcDbCircle
 10
0.9179210915474573
 20
13.8413110766055
 30
0.0
 40
0.3405164711598396
  0
LWPOLYLINE
  5
AA
330
1E
100
AcDbEntity
  8
ADP1DETAIL
100
AcDbPolyline
 90
        5
 70
     0
 43
0.0
 10
0.343442082256356
 20
12.96805665150644
 10
0.2430000660952158
 20
13.06180253325684
 42
0.9284189221609072
 10
0.0956851090588806
 20
12.92118371063124
 10
0.3233536790241294
 20
12.66003446861228
 42
0.9058375253520349
 10
0.4974531737034358
 20
12.78056488800565
 42
0.5885974569407209
  0
LINE
  5
B1
330
1E
100
AcDbEntity
  8
ADP1DETAIL
100
AcDbLine
 10
0.0275326378314874
 20
15.27327049094791
 30
0.0
 11
0.0317645079295188
 21
12.55382276383112
 31
0.0
  0
ARC
  5
B2
330
1E
100
AcDbEntity
  8
ADP1DETAIL
100
AcDbCircle
 10
0.2493504503542721
 20
12.84950638047721
 30
0.0
 40
0.3671136656320204
100
AcDbArc
 50
233.6516075405736
 51
306.3632857695612
  0
LWPOLYLINE
  5
B3
330
1E
100
AcDbEntity
  8
ADP1DETAIL
100
AcDbPolyline
 90
        2
 70
     0
 43
0.0
 10
0.0677884313010662
 20
12.64320820074641
 42
0.8052163537849938
 10
0.2238363960665657
 20
12.78056488800565
 42
0.5885974569407209
  0
LWPOLYLINE
  5
B7
330
1E
100
AcDbEntity
  8
ADP1DETAIL
100
AcDbPolyline
 90
        2
 70
     0
 43
0.0
 10
0.0698253046194859
 20
12.96805665150644
 10
0.0677884313010662
 20
12.9699577332703
 42
0.9284189221609054
  0
ARC
  5
BB
330
1E
100
AcDbEntity
  8
ADP1DETAIL
100
AcDbCircle
 10
0.4888220587494203
 20
14.71896551277464
 30
0.0
 40
0.1220554438309162
100
AcDbArc
 50
213.3730505774714
 51
147.0120680397022
  0
ARC
  5
BC
330
1E
100
AcDbEntity
  8
ADP1DETAIL
100
AcDbCircle
 10
0.0527697644483132
 20
14.71750002534881
 30
0.0
 40
0.3405164711598396
100
AcDbArc
 50
265.9847448705578
 51
94.19357670402254
  0
ARC
  5
BD
330
1E
100
AcDbEntity
  8
ADP1DETAIL
100
AcDbCircle
 10
0.0527697644483132
 20
14.71750002534881
 30
0.0
 40
0.1366200844219628
100
AcDbArc
 50
259.8129186637183
 51
100.3654029108621
  0
ARC
  5
BE
330
1E
100
AcDbEntity
  8
ADP1DETAIL
100
AcDbCircle
 10
0.4818687972463512
 20
13.83984558917966
 30
0.0
 40
0.1220554438309162
100
AcDbArc
 50
33.37305057747155
 51
327.0120680397013
  0
LINE
  5
BF
330
1E
100
AcDbEntity
  8
ADP1DETAIL
100
AcDbLine
 10
0.1827361256608366
 20
13.29881983837974
 30
0.0
 11
0.6009092885091503
 21
13.71699300122805
 31
0.0
  0
ARC
  5
C0
330
1E
100
AcDbEntity
  8
ADP1DETAIL
100
AcDbCircle
 10
0.0405224766752719
 20
13.13470991436818
 30
0.0
 40
0.2104669030591818
100
AcDbArc
 50
42.9361802715412
 51
92.7203630945941
  0
ARC
  5
C1
330
1E
100
AcDbEntity
  8
ADP1DETAIL
100
AcDbCircle
 10
0.043712753745762
 20
13.41327187666157
 30
0.0
 40
0.1383104644476331
100
AcDbArc
 50
313.8683883765742
 51
95.60130951998162
  0
LINE
  5
C2
330
1E
100
AcDbEntity
  8
ADP1DETAIL
100
AcDbLine
 10
0.6048976807906528
 20
13.97535514193226
 30
0.0
 11
0.1790057647329672
 21
14.40124705798995
 31
0.0
  0
LINE
  5
C3
330
1E
100
AcDbEntity
  8
ADP1DETAIL
100
AcDbLine
 10
0.0286556701997779
 20
14.55159715252314
 30
0.0
 11
0.0219512195122009
 21
14.55830160321072
 31
0.0
  0
ARC
  5
C4
330
1E
100
AcDbEntity
  8
ADP1DETAIL
100
AcDbCircle
 10
0.0542352518741449
 20
14.2814477310477
 30
0.0
 40
0.1220554438309162
100
AcDbArc
 50
258.1935672681956
 51
57.01206803970293
  0
LINE
  5
C5
330
1E
100
AcDbEntity
  8
ADP1DETAIL
100
AcDbLine
 10
0.1767312427598709
 20
15.03465143875566
 30
0.0
 11
0.6022253800111147
 21
15.46014557600691
 31
0.0
  0
LINE
  5
C6
330
1E
100
AcDbEntity
  8
ADP1DETAIL
100
AcDbLine
 10
0.1891551012138208
 20
14.72550548491234
 30
0.0
 11
0.1827361256608366
 21
14.71908650935936
 31
0.0
  0
LINE
  5
C7
330
1E
100
AcDbEntity
  8
ADP1DETAIL
100
AcDbLine
 10
0.1827361256608366
 20
14.71908650935936
 30
0.0
 11
0.1893034079871302
 21
14.71264084337244
 31
0.0
  0
ARC
  5
C8
330
1E
100
AcDbEntity
  8
ADP1DETAIL
100
AcDbCircle
 10
0.051304277022485
 20
15.15355231964992
 30
0.0
 40
0.1220554438309162
100
AcDbArc
 50
303.3730505774702
 51
101.2307616907202
  0
LINE
  5
C9
330
1E
100
AcDbEntity
  8
ADP1DETAIL
100
AcDbLine
 10
0.0219512195122009
 20
14.87987141550799
 30
0.0
 11
0.0281352028131892
 21
14.88605539880898
 31
0.0
  0
LINE
  5
CA
330
1E
100
AcDbEntity
  8
ADP1DETAIL
100
AcDbLine
 10
0.6044469797913484
 20
15.72075543779896
 30
0.0
 11
0.1827361256608366
 21
16.15275192251802
 31
0.0
  0
ARC
  5
CB
330
1E
100
AcDbEntity
  8
ADP1DETAIL
100
AcDbCircle
 10
0.4818687972463512
 20
15.58630330296119
 30
0.0
 40
0.1220554438309162
100
AcDbArc
 50
33.37305057747155
 51
327.0120680397013
  0
ARC
  5
CC
330
1E
100
AcDbEntity
  8
ADP1DETAIL
100
AcDbCircle
 10
0.043712753745762
 20
16.01021186102384
 30
0.0
 40
0.1383104644476331
100
AcDbArc
 50
262.8925057824528
 51
46.13161162342571
  0
ARC
  5
CD
330
1E
100
AcDbEntity
  8
ADP1DETAIL
100
AcDbCircle
 10
0.0405224766752719
 20
16.28877382331723
 30
0.0
 40
0.2104669030591818
100
AcDbArc
 50
266.1195422661687
 51
317.0638197284588
  0
ARC
  5
CE
330
1E
100
AcDbEntity
  8
ADP1DETAIL
100
AcDbCircle
 10
3.566232558891527
 20
14.2814477310477
 30
0.0
 40
0.1220554438309162
100
AcDbArc
 50
123.3730505774706
 51
57.01206803970286
  0
ARC
  5
CF
330
1E
100
AcDbEntity
  8
ADP1DETAIL
100
AcDbCircle
 10
3.563301584039867
 20
15.15355231964992
 30
0.0
 40
0.1220554438309162
100
AcDbArc
 50
303.3730505774702
 51
237.0120680397026
  0
LWPOLYLINE
  5
D0
330
1E
100
AcDbEntity
  8
ADP1DETAIL
100
AcDbPolyline
 90
        5
 70
     0
 43
0.0
 10
3.604009892745909
 20
12.96805665150644
 10
3.503567876584769
 20
13.06180253325684
 42
0.9284189221609072
 10
3.356252919548434
 20
12.92118371063124
 10
3.583921489513683
 20
12.66003446861228
 42
0.9058375253520349
 10
3.758020984192989
 20
12.78056488800565
 42
0.5885974569407209
  0
LWPOLYLINE
  5
D7
330
1E
100
AcDbEntity
  8
ADP1DETAIL
100
AcDbPolyline
 90
        5
 70
     0
 43
0.0
 10
3.87600412852389
 20
12.96805665150644
 10
3.775562112362749
 20
13.06180253325684
 42
0.9284189221609072
 10
3.628247155326413
 20
12.92118371063124
 10
3.855915725291662
 20
12.66003446861228
 42
0.9058375253520349
 10
4.030015219970969
 20
12.78056488800565
 42
0.5885974569407209
  0
ARC
  5
DE
330
1E
100
AcDbEntity
  8
ADP1DETAIL
100
AcDbCircle
 10
3.749497463919068
 20
12.84950638047721
 30
0.0
 40
0.3671136656320204
100
AcDbArc
 50
233.6516075405736
 51
306.3632857695612
  0
ARC
  5
DF
330
1E
100
AcDbEntity
  8
ADP1DETAIL
100
AcDbCircle
 10
3.552519783692654
 20
13.13470991436818
 30
0.0
 40
0.2104669030591818
100
AcDbArc
 50
42.9361802715412
 51
137.0638197284589
  0
ARC
  5
E0
330
1E
100
AcDbEntity
  8
ADP1DETAIL
100
AcDbCircle
 10
3.555710060763144
 20
13.41327187666157
 30
0.0
 40
0.1383104644476331
100
AcDbArc
 50
313.8683883765742
 51
222.2268895472
  0
CIRCLE
  5
E1
330
1E
100
AcDbEntity
  8
ADP1DETAIL
100
AcDbCircle
 10
3.564767071465695
 20
14.71750002534881
 30
0.0
 40
0.3405164711598396
  0
CIRCLE
  5
E2
330
1E
100
AcDbEntity
  8
ADP1DETAIL
100
AcDbCircle
 10
3.564767071465695
 20
14.71750002534881
 30
0.0
 40
0.1366200844219628
  0
ARC
  5
E3
330
1E
100
AcDbEntity
  8
ADP1DETAIL
100
AcDbCircle
 10
3.555710060763144
 20
16.01021186102384
 30
0.0
 40
0.1383104644476331
100
AcDbArc
 50
137.7731104527999
 51
46.13161162342571
  0
ARC
  5
E4
330
1E
100
AcDbEntity
  8
ADP1DETAIL
100
AcDbCircle
 10
3.552519783692654
 20
16.28877382331723
 30
0.0
 40
0.2104669030591818
100
AcDbArc
 50
222.936180271541
 51
317.0638197284588
  0
LWPOLYLINE
  5
E5
330
1E
100
AcDbEntity
  8
ADP1DETAIL
100
AcDbPolyline
 90
        5
 70
     0
 43
0.0
 10
3.328770573250149
 20
12.96805665150644
 10
3.228328557089009
 20
13.06180253325684
 42
0.9284189221609072
 10
3.081013600052673
 20
12.92118371063124
 10
3.308682170017922
 20
12.66003446861228
 42
0.9058375253520349
 10
3.482781664697228
 20
12.78056488800565
 42
0.5885974569407209
  0
LWPOLYLINE
  5
EC
330
1E
100
AcDbEntity
  8
ADP1DETAIL
100
AcDbPolyline
 90
        5
 70
     0
 43
0.0
 10
2.778073013405254
 20
12.96805665150644
 10
2.677630997244115
 20
13.06180253325684
 42
0.9284189221609072
 10
2.530316040207779
 20
12.92118371063124
 10
2.757984610173028
 20
12.66003446861228
 42
0.9058375253520349
 10
2.932084104852334
 20
12.78056488800565
 42
0.5885974569407209
  0
LWPOLYLINE
  5
F3
330
1E
100
AcDbEntity
  8
ADP1DETAIL
100
AcDbPolyline
 90
        5
 70
     0
 43
0.0
 10
3.051689791042124
 20
12.96805665150644
 10
2.951247774880984
 20
13.06180253325684
 42
0.9284189221609072
 10
2.803932817844649
 20
12.92118371063124
 10
3.031601387809898
 20
12.66003446861228
 42
0.9058375253520349
 10
3.205700882489204
 20
12.78056488800565
 42
0.5885974569407209
  0
LWPOLYLINE
  5
FA
330
1E
100
AcDbEntity
  8
ADP1DETAIL
100
AcDbPolyline
 90
        5
 70
     0
 43
0.0
 10
2.504456235768384
 20
12.96805665150644
 10
2.404014219607244
 20
13.06180253325684
 42
0.9284189221609072
 10
2.256699262570909
 20
12.92118371063124
 10
2.484367832536158
 20
12.66003446861228
 42
0.9058375253520349
 10
2.658467327215464
 20
12.78056488800565
 42
0.5885974569407209
  0
LWPOLYLINE
  5
101
330
1E
100
AcDbEntity
  8
ADP1DETAIL
100
AcDbPolyline
 90
        5
 70
     0
 43
0.0
 10
1.158708372819347
 20
12.96805665150644
 10
1.058266356658207
 20
13.06180253325684
 42
0.9284189221609072
 10
0.9109513996218723
 20
12.92118371063124
 10
1.138619969587121
 20
12.66003446861228
 42
0.9058375253520349
 10
1.312719464266427
 20
12.78056488800565
 42
0.5885974569407209
  0
LWPOLYLINE
  5
108
330
1E
100
AcDbEntity
  8
ADP1DETAIL
100
AcDbPolyline
 90
        5
 70
     0
 43
0.0
 10
1.96839066908644
 20
12.96805665150644
 10
1.8679486529253
 20
13.06180253325684
 42
0.9284189221609072
 10
1.720633695888965
 20
12.92118371063124
 10
1.948302265854215
 20
12.66003446861228
 42
0.9058375253520349
 10
2.12240176053352
 20
12.78056488800565
 42
0.5885974569407209
  0
LWPOLYLINE
  5
10F
330
1E
100
AcDbEntity
  8
ADP1DETAIL
100
AcDbPolyline
 90
        5
 70
     0
 43
0.0
 10
1.700357933797189
 20
12.96805665150644
 10
1.59991591763605
 20
13.06180253325684
 42
0.9284189221609072
 10
1.452600960599713
 20
12.92118371063124
 10
1.680269530564963
 20
12.66003446861228
 42
0.9058375253520349
 10
1.854369025244269
 20
12.78056488800565
 42
0.5885974569407209
  0
LWPOLYLINE
  5
116
330
1E
100
AcDbEntity
  8
ADP1DETAIL
100
AcDbPolyline
 90
        5
 70
     0
 43
0.0
 10
1.42674115616032
 20
12.96805665150644
 10
1.326299139999179
 20
13.06180253325684
 42
0.9284189221609072
 10
1.178984182962844
 20
12.92118371063124
 10
1.406652752928092
 20
12.66003446861228
 42
0.9058375253520349
 10
1.580752247607398
 20
12.78056488800565
 42
0.5885974569407209
  0
LWPOLYLINE
  5
11D
330
1E
100
AcDbEntity
  8
ADP1DETAIL
100
AcDbPolyline
 90
        5
 70
     0
 43
0.0
 10
2.236423452427413
 20
12.96805665150644
 10
2.135981436266273
 20
13.06180253325684
 42
0.9284189221609072
 10
1.988666479229937
 20
12.92118371063124
 10
2.216335049195186
 20
12.66003446861228
 42
0.9058375253520349
 10
2.390434543874492
 20
12.78056488800565
 42
0.5885974569407209
  0
ARC
  5
124
330
1E
100
AcDbEntity
  8
ADP1DETAIL
100
AcDbCircle
 10
2.002569921146088
 20
12.84950638047721
 30
0.0
 40
0.3671136656320204
100
AcDbArc
 50
233.6516075405736
 51
306.3632857695612
  0
ARC
  5
125
330
1E
100
AcDbEntity
  8
ADP1DETAIL
100
AcDbCircle
 10
1.567016684255799
 20
12.84950638047721
 30
0.0
 40
0.3671136656320204
100
AcDbArc
 50
233.6516075405736
 51
306.3632857695612
  0
ARC
  5
126
330
1E
100
AcDbEntity
  8
ADP1DETAIL
100
AcDbCircle
 10
1.131463447365511
 20
12.84950638047721
 30
0.0
 40
0.3671136656320204
100
AcDbArc
 50
233.6516075405736
 51
306.3632857695612
  0
ARC
  5
127
330
1E
100
AcDbEntity
  8
ADP1DETAIL
100
AcDbCircle
 10
2.884682918157327
 20
12.84950638047721
 30
0.0
 40
0.3671136656320204
100
AcDbArc
 50
233.6516075405736
 51
306.3632857695612
  0
ARC
  5
128
330
1E
100
AcDbEntity
  8
ADP1DETAIL
100
AcDbCircle
 10
2.440720574306268
 20
12.85810626548065
 30
0.0
 40
0.375724530279794
100
AcDbArc
 50
234.0673535627094
 51
305.9326464372905
  0
ARC
  5
129
330
1E
100
AcDbEntity
  8
ADP1DETAIL
100
AcDbCircle
 10
3.320236155047616
 20
12.84950638047721
 30
0.0
 40
0.3671136656320204
100
AcDbArc
 50
233.6516075405736
 51
306.3632857695612
  0
ARC
  5
12A
330
1E
100
AcDbEntity
  8
ADP1DETAIL
100
AcDbCircle
 10
2.246527564165019
 20
15.58630330296119
 30
0.0
 40
0.1220554438309162
100
AcDbArc
 50
33.37305057747158
 51
327.0120680397013
  0
LINE
  5
12B
330
1E
100
AcDbEntity
  8
ADP1DETAIL
100
AcDbLine
 10
2.375195209791261
 20
15.44125549784951
 30
0.0
 11
1.960459937337715
 21
15.02652022539597
 31
0.0
  0
LINE
  5
12C
330
1E
100
AcDbEntity
  8
ADP1DETAIL
100
AcDbLine
 10
2.369363019798848
 20
15.72136025383595
 30
0.0
 11
1.937971351116775
 21
16.15275192251802
 31
0.0
  0
LINE
  5
12D
330
1E
100
AcDbEntity
  8
ADP1DETAIL
100
AcDbLine
 10
2.520554203567894
 20
15.28827061963142
 30
0.0
 11
2.115114745979735
 21
14.88283116204326
 31
0.0
  0
LINE
  5
12E
330
1E
100
AcDbEntity
  8
ADP1DETAIL
100
AcDbLine
 10
2.517567890628109
 20
13.54344782341475
 30
0.0
 11
2.112154999444465
 21
13.1380349322311
 31
0.0
  0
LINE
  5
12F
330
1E
100
AcDbEntity
  8
ADP1DETAIL
100
AcDbLine
 10
2.117322205330644
 20
14.55620758458444
 30
0.0
 11
2.533689096251782
 21
14.14755119164332
 31
0.0
  0
LINE
  5
130
330
1E
100
AcDbEntity
  8
ADP1DETAIL
100
AcDbLine
 10
2.37075854730254
 20
13.97812824305537
 30
0.0
 11
1.946495128380387
 21
14.40239166197753
 31
0.0
  0
LINE
  5
131
330
1E
100
AcDbEntity
  8
ADP1DETAIL
100
AcDbLine
 10
1.937971351116775
 20
13.29881983837974
 30
0.0
 11
2.36578322307019
 21
13.71644571338188
 31
0.0
  0
ARC
  5
132
330
1E
100
AcDbEntity
  8
ADP1DETAIL
100
AcDbCircle
 10
2.246527564165019
 20
13.83984558917966
 30
0.0
 40
0.1220554438309162
100
AcDbArc
 50
33.37305057747158
 51
327.0120680397013
  0
ARC
  5
133
330
1E
100
AcDbEntity
  8
ADP1DETAIL
100
AcDbCircle
 10
2.253480825668088
 20
14.71896551277464
 30
0.0
 40
0.1220554438309162
100
AcDbArc
 50
213.3730505774715
 51
147.0120680397013
  0
LINE
  5
134
330
1E
100
AcDbEntity
  8
ADP1DETAIL
100
AcDbLine
 10
3.237649342484915
 20
13.1380349322311
 30
0.0
 11
2.112154999444464
 21
13.1380349322311
 31
0.0
  0
CIRCLE
  5
135
330
1E
100
AcDbEntity
  8
ADP1DETAIL
100
AcDbCircle
 10
1.817428531366982
 20
14.71750002534881
 30
0.0
 40
0.3405164711598396
  0
ARC
  5
136
330
1E
100
AcDbEntity
  8
ADP1DETAIL
100
AcDbCircle
 10
1.381376237065875
 20
14.71603453792298
 30
0.0
 40
0.1220554438309162
100
AcDbArc
 50
33.37305057747152
 51
327.0120680397013
  0
CIRCLE
  5
137
330
1E
100
AcDbEntity
  8
ADP1DETAIL
100
AcDbCircle
 10
1.817428531366982
 20
14.71750002534881
 30
0.0
 40
0.1366200844219628
  0
LINE
  5
138
330
1E
100
AcDbEntity
  8
ADP1DETAIL
100
AcDbLine
 10
1.469015374849923
 20
13.1380349322311
 30
0.0
 11
1.070272503530881
 21
13.53677780355014
 31
0.0
  0
ARC
  5
139
330
1E
100
AcDbEntity
  8
ADP1DETAIL
100
AcDbCircle
 10
1.353973385848563
 20
13.84277656403133
 30
0.0
 40
0.1220554438309162
100
AcDbArc
 50
213.3730505774714
 51
147.0120680397013
  0
LINE
  5
13A
330
1E
100
AcDbEntity
  8
ADP1DETAIL
100
AcDbLine
 10
1.228009530402895
 20
13.7006105889754
 30
0.0
 11
1.629800280998558
 21
13.29881983837974
 31
0.0
  0
LINE
  5
13B
330
1E
100
AcDbEntity
  8
ADP1DETAIL
100
AcDbLine
 10
1.652097394672529
 20
14.41981381073606
 30
0.0
 11
1.223611268700391
 21
13.99132768476392
 31
0.0
  0
LINE
  5
13C
330
1E
100
AcDbEntity
  8
ADP1DETAIL
100
AcDbLine
 10
1.053651370829484
 20
14.15360702345267
 30
0.0
 11
1.500724201176056
 21
14.59240072731134
 31
0.0
  0
CIRCLE
  5
13D
330
1E
100
AcDbEntity
  8
ADP1DETAIL
100
AcDbCircle
 10
0.9179210915474573
 20
13.8413110766055
 30
0.0
 40
0.1366200844219628
  0
ARC
  5
13E
330
1E
100
AcDbEntity
  8
ADP1DETAIL
100
AcDbCircle
 10
0.9193865789732882
 20
13.40525878230439
 30
0.0
 40
0.1220554438309162
100
AcDbArc
 50
123.3730505774704
 51
57.01206803970286
  0
ARC
  5
13F
330
1E
100
AcDbEntity
  8
ADP1DETAIL
100
AcDbCircle
 10
0.9164556041216282
 20
14.2773633709066
 30
0.0
 40
0.1220554438309162
100
AcDbArc
 50
303.3730505774703
 51
237.0120680397026
  0
ARC
  5
140
330
1E
100
AcDbEntity
  8
ADP1DETAIL
100
AcDbCircle
 10
1.80518124359394
 20
13.13470991436818
 30
0.0
 40
0.2104669030591818
100
AcDbArc
 50
42.9361802715412
 51
137.0638197284589
  0
ARC
  5
141
330
1E
100
AcDbEntity
  8
ADP1DETAIL
100
AcDbCircle
 10
1.808371520664429
 20
13.41327187666157
 30
0.0
 40
0.1383104644476331
100
AcDbArc
 50
313.8683883765742
 51
222.2268895472
  0
ARC
  5
142
330
1E
100
AcDbEntity
  8
ADP1DETAIL
100
AcDbCircle
 10
1.818894018792812
 20
14.2814477310477
 30
0.0
 40
0.1220554438309162
100
AcDbArc
 50
123.3730505774704
 51
57.01206803970286
  0
LINE
  5
143
330
1E
100
AcDbEntity
  8
ADP1DETAIL
100
AcDbLine
 10
1.502320167995697
 20
14.84656662236222
 30
0.0
 11
1.067179228583304
 21
15.28170756177461
 31
0.0
  0
LINE
  5
144
330
1E
100
AcDbEntity
  8
ADP1DETAIL
100
AcDbLine
 10
1.22655368505858
 20
15.4439029175966
 30
0.0
 11
1.654143272241845
 21
15.01631333041334
 31
0.0
  0
ARC
  5
145
330
1E
100
AcDbEntity
  8
ADP1DETAIL
100
AcDbCircle
 10
1.353973385848563
 20
15.58923427781285
 30
0.0
 40
0.1220554438309162
100
AcDbArc
 50
213.3730505774714
 51
147.0120680397013
  0
LINE
  5
146
330
1E
100
AcDbEntity
  8
ADP1DETAIL
100
AcDbLine
 10
1.629800280998558
 20
16.15275192251802
 30
0.0
 11
1.223979381773327
 21
15.73703295257998
 31
0.0
  0
ARC
  5
147
330
1E
100
AcDbEntity
  8
ADP1DETAIL
100
AcDbCircle
 10
0.9193865789732882
 20
15.15171649608591
 30
0.0
 40
0.1220554438309162
100
AcDbArc
 50
123.3730505774704
 51
57.01206803970286
  0
ARC
  5
148
330
1E
100
AcDbEntity
  8
ADP1DETAIL
100
AcDbCircle
 10
0.9164556041216282
 20
16.02382108468813
 30
0.0
 40
0.1220554438309162
100
AcDbArc
 50
303.3730505774703
 51
237.0120680397026
  0
CIRCLE
  5
149
330
1E
100
AcDbEntity
  8
ADP1DETAIL
100
AcDbCircle
 10
0.9179210915474573
 20
15.58776879038702
 30
0.0
 40
0.1366200844219628
  0
ARC
  5
14A
330
1E
100
AcDbEntity
  8
ADP1DETAIL
100
AcDbCircle
 10
1.815963043941152
 20
15.15355231964992
 30
0.0
 40
0.1220554438309162
100
AcDbArc
 50
303.3730505774703
 51
237.0120680397026
  0
LINE
  5
14B
330
1E
100
AcDbEntity
  8
ADP1DETAIL
100
AcDbLine
 10
1.951370093295829
 20
14.71908650935936
 30
0.0
 11
1.954044668250212
 21
14.7164614635708
 31
0.0
  0
LINE
  5
14C
330
1E
100
AcDbEntity
  8
ADP1DETAIL
100
AcDbLine
 10
1.953984029028003
 20
14.72170044509153
 30
0.0
 11
1.951370093295829
 21
14.71908650935936
 31
0.0
  0
ARC
  5
14D
330
1E
100
AcDbEntity
  8
ADP1DETAIL
100
AcDbCircle
 10
1.808371520664429
 20
16.01021186102384
 30
0.0
 40
0.1383104644476331
100
AcDbArc
 50
137.7731104527999
 51
46.13161162342571
  0
ARC
  5
14E
330
1E
100
AcDbEntity
  8
ADP1DETAIL
100
AcDbCircle
 10
1.80518124359394
 20
16.28877382331723
 30
0.0
 40
0.2104669030591818
100
AcDbArc
 50
222.936180271541
 51
317.0638197284588
  0
ARC
  5
14F
330
1E
100
AcDbEntity
  8
ADP1DETAIL
100
AcDbCircle
 10
3.128714777164589
 20
14.71603453792298
 30
0.0
 40
0.1220554438309162
100
AcDbArc
 50
33.37305057747146
 51
327.0120680397021
  0
LINE
  5
150
330
1E
100
AcDbEntity
  8
ADP1DETAIL
100
AcDbLine
 10
2.821055128891352
 20
14.15239959553831
 30
0.0
 11
3.25430487033694
 21
14.57762619362379
 31
0.0
  0
LINE
  5
151
330
1E
100
AcDbEntity
  8
ADP1DETAIL
100
AcDbLine
 10
3.237649342484915
 20
13.1380349322311
 30
0.0
 11
2.837571334039424
 21
13.53811294067659
 31
0.0
  0
CIRCLE
  5
152
330
1E
100
AcDbEntity
  8
ADP1DETAIL
100
AcDbCircle
 10
2.682579858466125
 20
13.8413110766055
 30
0.0
 40
0.3405164711598396
  0
CIRCLE
  5
153
330
1E
100
AcDbEntity
  8
ADP1DETAIL
100
AcDbCircle
 10
2.682579858466125
 20
13.8413110766055
 30
0.0
 40
0.1366200844219628
  0
ARC
  5
154
330
1E
100
AcDbEntity
  8
ADP1DETAIL
100
AcDbCircle
 10
2.684045345891956
 20
13.40525878230439
 30
0.0
 40
0.1220554438309162
100
AcDbArc
 50
123.3730505774704
 51
57.01206803970286
  0
ARC
  5
155
330
1E
100
AcDbEntity
  8
ADP1DETAIL
100
AcDbCircle
 10
2.681114371040296
 20
14.2773633709066
 30
0.0
 40
0.1220554438309162
100
AcDbArc
 50
303.3730505774704
 51
237.0120680397026
  0
ARC
  5
156
330
1E
100
AcDbEntity
  8
ADP1DETAIL
100
AcDbCircle
 10
3.118632152767231
 20
13.84277656403133
 30
0.0
 40
0.1220554438309162
100
AcDbArc
 50
213.3730505774715
 51
147.0120680397013
  0
LINE
  5
157
330
1E
100
AcDbEntity
  8
ADP1DETAIL
100
AcDbLine
 10
2.993899004653491
 20
13.7033550823598
 30
0.0
 11
3.398434248633551
 21
13.29881983837974
 31
0.0
  0
LINE
  5
158
330
1E
100
AcDbEntity
  8
ADP1DETAIL
100
AcDbLine
 10
3.413395886646378
 20
14.41247833507491
 30
0.0
 11
2.989568943810042
 21
13.98865139223858
 31
0.0
  0
LINE
  5
159
330
1E
100
AcDbEntity
  8
ADP1DETAIL
100
AcDbLine
 10
3.545820412603121
 20
14.55830160321072
 30
0.0
 11
3.552519783692654
 21
14.55160223212119
 31
0.0
  0
LINE
  5
15A
330
1E
100
AcDbEntity
  8
ADP1DETAIL
100
AcDbLine
 10
3.256140958368422
 20
14.86137979962449
 30
0.0
 11
2.834500410012213
 21
15.28302034798069
 31
0.0
  0
CIRCLE
  5
15B
330
1E
100
AcDbEntity
  8
ADP1DETAIL
100
AcDbCircle
 10
2.682579858466125
 20
15.58776879038702
 30
0.0
 40
0.3405164711598396
  0
ARC
  5
15C
330
1E
100
AcDbEntity
  8
ADP1DETAIL
100
AcDbCircle
 10
2.684045345891956
 20
15.15171649608591
 30
0.0
 40
0.1220554438309162
100
AcDbArc
 50
123.3730505774704
 51
57.01206803970286
  0
ARC
  5
15D
330
1E
100
AcDbEntity
  8
ADP1DETAIL
100
AcDbCircle
 10
2.681114371040296
 20
16.02382108468813
 30
0.0
 40
0.1220554438309162
100
AcDbArc
 50
303.3730505774704
 51
237.0120680397026
  0
CIRCLE
  5
15E
330
1E
100
AcDbEntity
  8
ADP1DETAIL
100
AcDbCircle
 10
2.682579858466125
 20
15.58776879038702
 30
0.0
 40
0.1366200844219628
  0
LINE
  5
15F
330
1E
100
AcDbEntity
  8
ADP1DETAIL
100
AcDbLine
 10
2.992466394152335
 20
15.44662417613784
 30
0.0
 11
3.415522635198422
 21
15.02356793509175
 31
0.0
  0
LINE
  5
160
330
1E
100
AcDbEntity
  8
ADP1DETAIL
100
AcDbLine
 10
3.398434248633551
 20
16.15275192251802
 30
0.0
 11
2.989952521404578
 21
15.73430722633225
 31
0.0
  0
ARC
  5
161
330
1E
100
AcDbEntity
  8
ADP1DETAIL
100
AcDbCircle
 10
3.118632152767231
 20
15.58923427781285
 30
0.0
 40
0.1220554438309162
100
AcDbArc
 50
213.3730505774715
 51
147.0120680397013
  0
LWPOLYLINE
  5
162
330
1E
100
AcDbEntity
  8
ADP1DETAIL
100
AcDbPolyline
 90
        5
 70
     0
 43
0.0
 10
6.037018282035917
 20
12.96805665150644
 10
5.936576265874778
 20
13.06180253325684
 42
0.9284189221609072
 10
5.789261308838442
 20
12.92118371063124
 10
6.016929878803692
 20
12.66003446861228
 42
0.9058375253520349
 10
6.191029373482997
 20
12.78056488800565
 42
0.5885974569407209
  0
LWPOLYLINE
  5
169
330
1E
100
AcDbEntity
  8
ADP1DETAIL
100
AcDbPolyline
 90
        5
 70
     0
 43
0.0
 10
5.763401504399047
 20
12.96805665150644
 10
5.662959488237907
 20
13.06180253325684
 42
0.9284189221609072
 10
5.515644531201572
 20
12.92118371063124
 10
5.743313101166821
 20
12.66003446861228
 42
0.9058375253520349
 10
5.917412595846126
 20
12.78056488800565
 42
0.5885974569407209
  0
LWPOLYLINE
  5
170
330
1E
100
AcDbEntity
  8
ADP1DETAIL
100
AcDbPolyline
 90
        5
 70
     0
 43
0.0
 10
5.221751943421206
 20
12.96805665150644
 10
5.121309927260066
 20
13.06180253325684
 42
0.9284189221609072
 10
4.97399497022373
 20
12.92118371063124
 10
5.201663540188979
 20
12.66003446861228
 42
0.9058375253520349
 10
5.375763034868286
 20
12.78056488800565
 42
0.5885974569407209
  0
LWPOLYLINE
  5
177
330
1E
100
AcDbEntity
  8
ADP1DETAIL
100
AcDbPolyline
 90
        5
 70
     0
 43
0.0
 10
5.489784726762177
 20
12.96805665150644
 10
5.389342710601038
 20
13.06180253325684
 42
0.9284189221609072
 10
5.242027753564702
 20
12.92118371063124
 10
5.469696323529952
 20
12.66003446861228
 42
0.9058375253520349
 10
5.643795818209257
 20
12.78056488800565
 42
0.5885974569407209
  0
LWPOLYLINE
  5
17E
330
1E
100
AcDbEntity
  8
ADP1DETAIL
100
AcDbPolyline
 90
        5
 70
     0
 43
0.0
 10
4.14403686381314
 20
12.96805665150644
 10
4.043594847652
 20
13.06180253325684
 42
0.9284189221609072
 10
3.896279890615665
 20
12.92118371063124
 10
4.123948460580914
 20
12.66003446861228
 42
0.9058375253520349
 10
4.29804795526022
 20
12.78056488800565
 42
0.5885974569407209
  0
LWPOLYLINE
  5
185
330
1E
100
AcDbEntity
  8
ADP1DETAIL
100
AcDbPolyline
 90
        5
 70
     0
 43
0.0
 10
4.953719160080233
 20
12.96805665150644
 10
4.853277143919093
 20
13.06180253325684
 42
0.9284189221609072
 10
4.705962186882758
 20
12.92118371063124
 10
4.933630756848008
 20
12.66003446861228
 42
0.9058375253520349
 10
5.107730251527313
 20
12.78056488800565
 42
0.5885974569407209
  0
LWPOLYLINE
  5
18C
330
1E
100
AcDbEntity
  8
ADP1DETAIL
100
AcDbPolyline
 90
        5
 70
     0
 43
0.0
 10
4.685686424790983
 20
12.96805665150644
 10
4.585244408629843
 20
13.06180253325684
 42
0.9284189221609072
 10
4.437929451593507
 20
12.92118371063124
 10
4.665598021558755
 20
12.66003446861228
 42
0.9058375253520349
 10
4.839697516238062
 20
12.78056488800565
 42
0.5885974569407209
  0
LWPOLYLINE
  5
193
330
1E
100
AcDbEntity
  8
ADP1DETAIL
100
AcDbPolyline
 90
        5
 70
     0
 43
0.0
 10
4.412069647154113
 20
12.96805665150644
 10
4.311627630992973
 20
13.06180253325684
 42
0.9284189221609072
 10
4.164312673956636
 20
12.92118371063124
 10
4.391981243921886
 20
12.66003446861228
 42
0.9058375253520349
 10
4.566080738601192
 20
12.78056488800565
 42
0.5885974569407209
  0
ARC
  5
19A
330
1E
100
AcDbEntity
  8
ADP1DETAIL
100
AcDbCircle
 10
5.067163697820595
 20
12.84950638047721
 30
0.0
 40
0.3671136656320204
100
AcDbArc
 50
233.6516075405736
 51
306.3632857695612
  0
ARC
  5
19B
330
1E
100
AcDbEntity
  8
ADP1DETAIL
100
AcDbCircle
 10
4.187648117079248
 20
12.85810626548065
 30
0.0
 40
0.375724530279794
100
AcDbArc
 50
234.0673535627094
 51
305.9326464372905
  0
LINE
  5
19C
330
1E
100
AcDbEntity
  8
ADP1DETAIL
100
AcDbLine
 10
3.867390224900392
 20
13.04129676506007
 30
0.0
 11
3.867390224900392
 21
13.04129676506007
 31
0.0
  0
ARC
  5
19D
330
1E
100
AcDbEntity
  8
ADP1DETAIL
100
AcDbCircle
 10
4.631610460930307
 20
12.84950638047721
 30
0.0
 40
0.3671136656320204
100
AcDbArc
 50
233.6516075405736
 51
306.3632857695612
  0
ARC
  5
19E
330
1E
100
AcDbEntity
  8
ADP1DETAIL
100
AcDbCircle
 10
5.502716934710885
 20
12.84950638047721
 30
0.0
 40
0.3671136656320204
100
AcDbArc
 50
233.6516075405736
 51
306.3632857695612
  0
LINE
  5
19F
330
1E
100
AcDbEntity
  8
ADP1DETAIL
100
AcDbLine
 10
5.636024192535385
 20
13.04129676506007
 30
0.0
 11
5.636024192535385
 21
13.04129676506007
 31
0.0
  0
ARC
  5
1A0
330
1E
100
AcDbEntity
  8
ADP1DETAIL
100
AcDbCircle
 10
5.940867587871064
 20
12.85810626548065
 30
0.0
 40
0.375724530279794
100
AcDbArc
 50
234.0673535627094
 51
305.9326464372905
  0
LINE
  5
1A1
330
1E
100
AcDbEntity
  8
ADP1DETAIL
100
AcDbLine
 10
4.587070891754033
 20
15.2856850916948
 30
0.0
 11
5.014175404471171
 21
14.85858057897766
 31
0.0
  0
LINE
  5
1A2
330
1E
100
AcDbEntity
  8
ADP1DETAIL
100
AcDbLine
 10
4.736046316788605
 20
15.43864748132914
 30
0.0
 11
5.15924094212315
 21
15.0154528559946
 31
0.0
  0
ARC
  5
1A3
330
1E
100
AcDbEntity
  8
ADP1DETAIL
100
AcDbCircle
 10
4.865970692865945
 20
15.58923427781285
 30
0.0
 40
0.1220554438309162
100
AcDbArc
 50
213.3730505774715
 51
147.0120680397013
  0
LINE
  5
1A4
330
1E
100
AcDbEntity
  8
ADP1DETAIL
100
AcDbLine
 10
4.740869239359019
 20
15.72655294560851
 30
0.0
 11
5.167068216268533
 21
16.15275192251802
 31
0.0
  0
ARC
  5
1A5
330
1E
100
AcDbEntity
  8
ADP1DETAIL
100
AcDbCircle
 10
4.888038815675491
 20
14.71603453792298
 30
0.0
 40
0.1220554438309162
100
AcDbArc
 50
33.37305057747135
 51
327.0120680397023
  0
LINE
  5
1A6
330
1E
100
AcDbEntity
  8
ADP1DETAIL
100
AcDbLine
 10
5.012385672182093
 20
14.58041907415396
 30
0.0
 11
4.573786860853898
 21
14.14994246303554
 31
0.0
  0
LINE
  5
1A7
330
1E
100
AcDbEntity
  8
ADP1DETAIL
100
AcDbLine
 10
4.739429611269394
 20
13.98327683424199
 30
0.0
 11
5.169997408427605
 21
14.41384463140021
 31
0.0
  0
LINE
  5
1A8
330
1E
100
AcDbEntity
  8
ADP1DETAIL
100
AcDbLine
 10
4.590097974895225
 20
13.54082152527672
 30
0.0
 11
4.992884567940843
 21
13.1380349322311
 31
0.0
  0
LINE
  5
1A9
330
1E
100
AcDbEntity
  8
ADP1DETAIL
100
AcDbLine
 10
5.167068216268533
 20
13.29881983837974
 30
0.0
 11
4.744606435783443
 21
13.71122300504376
 31
0.0
  0
ARC
  5
1AA
330
1E
100
AcDbEntity
  8
ADP1DETAIL
100
AcDbCircle
 10
4.865970692865945
 20
13.84277656403133
 30
0.0
 40
0.1220554438309162
100
AcDbArc
 50
213.3730505774715
 51
147.0120680397013
  0
LINE
  5
1AB
330
1E
100
AcDbEntity
  8
ADP1DETAIL
100
AcDbLine
 10
4.992884567940843
 20
13.1380349322311
 30
0.0
 11
3.867390224900392
 21
13.1380349322311
 31
0.0
  0
CIRCLE
  5
1AC
330
1E
100
AcDbEntity
  8
ADP1DETAIL
100
AcDbCircle
 10
5.324091109976598
 20
14.71750002534881
 30
0.0
 40
0.3405164711598396
  0
ARC
  5
1AD
330
1E
100
AcDbEntity
  8
ADP1DETAIL
100
AcDbCircle
 10
4.000819365766802
 20
14.71896551277464
 30
0.0
 40
0.1220554438309162
100
AcDbArc
 50
213.3730505774714
 51
147.0120680397021
  0
LINE
  5
1AE
330
1E
100
AcDbEntity
  8
ADP1DETAIL
100
AcDbLine
 10
4.28634701375041
 20
14.15008077167549
 30
0.0
 11
3.867352626903742
 21
14.56131600321018
 31
0.0
  0
CIRCLE
  5
1AF
330
1E
100
AcDbEntity
  8
ADP1DETAIL
100
AcDbCircle
 10
4.429918398564839
 20
13.8413110766055
 30
0.0
 40
0.3405164711598396
  0
ARC
  5
1B0
330
1E
100
AcDbEntity
  8
ADP1DETAIL
100
AcDbCircle
 10
3.993866104263733
 20
13.83984558917966
 30
0.0
 40
0.1220554438309162
100
AcDbArc
 50
33.37305057747158
 51
327.0120680397013
  0
LINE
  5
1B1
330
1E
100
AcDbEntity
  8
ADP1DETAIL
100
AcDbLine
 10
3.867390224900392
 20
13.1380349322311
 30
0.0
 11
4.270024635959242
 21
13.54066934328995
 31
0.0
  0
LINE
  5
1B2
330
1E
100
AcDbEntity
  8
ADP1DETAIL
100
AcDbLine
 10
4.116344759184902
 20
13.70855927881288
 30
0.0
 11
3.706605318751757
 21
13.29881983837974
 31
0.0
  0
LINE
  5
1B3
330
1E
100
AcDbEntity
  8
ADP1DETAIL
100
AcDbLine
 10
3.699394812803343
 20
14.4047272030105
 30
0.0
 11
4.120545033286785
 21
13.98357698252705
 31
0.0
  0
CIRCLE
  5
1B4
330
1E
100
AcDbEntity
  8
ADP1DETAIL
100
AcDbCircle
 10
4.429918398564839
 20
13.8413110766055
 30
0.0
 40
0.1366200844219628
  0
ARC
  5
1B5
330
1E
100
AcDbEntity
  8
ADP1DETAIL
100
AcDbCircle
 10
4.43138388599067
 20
13.40525878230439
 30
0.0
 40
0.1220554438309162
100
AcDbArc
 50
123.3730505774704
 51
57.01206803970286
  0
ARC
  5
1B6
330
1E
100
AcDbEntity
  8
ADP1DETAIL
100
AcDbCircle
 10
4.42845291113901
 20
14.2773633709066
 30
0.0
 40
0.1220554438309162
100
AcDbArc
 50
303.3730505774704
 51
237.0120680397025
  0
CIRCLE
  5
1B7
330
1E
100
AcDbEntity
  8
ADP1DETAIL
100
AcDbCircle
 10
4.429918398564839
 20
15.58776879038702
 30
0.0
 40
0.3405164711598396
  0
LINE
  5
1B8
330
1E
100
AcDbEntity
  8
ADP1DETAIL
100
AcDbLine
 10
4.128976628211919
 20
15.44535442129295
 30
0.0
 11
3.712024125104992
 21
15.02840191818603
 31
0.0
  0
LINE
  5
1B9
330
1E
100
AcDbEntity
  8
ADP1DETAIL
100
AcDbLine
 10
3.865236379947161
 20
14.87771757055476
 30
0.0
 11
4.273054132043291
 21
15.28553532265089
 31
0.0
  0
LINE
  5
1BA
330
1E
100
AcDbEntity
  8
ADP1DETAIL
100
AcDbLine
 10
3.706605318751757
 20
16.15275192251802
 30
0.0
 11
4.120133919575692
 21
15.72913725825936
 31
0.0
  0
ARC
  5
1BB
330
1E
100
AcDbEntity
  8
ADP1DETAIL
100
AcDbCircle
 10
3.993866104263733
 20
15.58630330296119
 30
0.0
 40
0.1220554438309162
100
AcDbArc
 50
33.37305057747158
 51
327.0120680397013
  0
ARC
  5
1BC
330
1E
100
AcDbEntity
  8
ADP1DETAIL
100
AcDbCircle
 10
4.43138388599067
 20
15.15171649608591
 30
0.0
 40
0.1220554438309162
100
AcDbArc
 50
123.3730505774704
 51
57.01206803970286
  0
ARC
  5
1BD
330
1E
100
AcDbEntity
  8
ADP1DETAIL
100
AcDbCircle
 10
4.42845291113901
 20
16.02382108468813
 30
0.0
 40
0.1220554438309162
100
AcDbArc
 50
303.3730505774704
 51
237.0120680397025
  0
CIRCLE
  5
1BE
330
1E
100
AcDbEntity
  8
ADP1DETAIL
100
AcDbCircle
 10
4.429918398564839
 20
15.58776879038702
 30
0.0
 40
0.1366200844219628
  0
CIRCLE
  5
1BF
330
1E
100
AcDbEntity
  8
ADP1DETAIL
100
AcDbCircle
 10
5.330195665624904
 20
14.71603453792298
 30
0.0
 40
0.1220554438309162
  0
ARC
  5
1C0
330
1E
100
AcDbEntity
  8
ADP1DETAIL
100
AcDbCircle
 10
5.760143404277705
 20
14.71896551277464
 30
0.0
 40
0.1220554438309162
100
AcDbArc
 50
213.3730505774713
 51
147.0120680397022
  0
ARC
  5
1C1
330
1E
100
AcDbEntity
  8
ADP1DETAIL
100
AcDbCircle
 10
5.753190142774636
 20
13.83984558917966
 30
0.0
 40
0.1220554438309162
100
AcDbArc
 50
33.37305057747158
 51
327.0120680397013
  0
LINE
  5
1C2
330
1E
100
AcDbEntity
  8
ADP1DETAIL
100
AcDbLine
 10
5.878493926442039
 20
13.70207447843503
 30
0.0
 11
5.47523928638675
 21
13.29881983837974
 31
0.0
  0
LINE
  5
1C3
330
1E
100
AcDbEntity
  8
ADP1DETAIL
100
AcDbLine
 10
5.636024192535385
 20
13.1380349322311
 30
0.0
 11
6.035478051775311
 21
13.53748879147103
 31
0.0
  0
LINE
  5
1C4
330
1E
100
AcDbEntity
  8
ADP1DETAIL
100
AcDbLine
 10
5.465171663605452
 20
14.40758431984338
 30
0.0
 11
5.882855829583924
 21
13.98990015386491
 31
0.0
  0
LINE
  5
1C5
330
1E
100
AcDbEntity
  8
ADP1DETAIL
100
AcDbLine
 10
6.052042975993024
 20
14.1529643695606
 30
0.0
 11
5.629755773387118
 21
14.56743143878492
 31
0.0
  0
ARC
  5
1C6
330
1E
100
AcDbEntity
  8
ADP1DETAIL
100
AcDbCircle
 10
5.315034099274047
 20
13.41327187666157
 30
0.0
 40
0.1383104644476331
100
AcDbArc
 50
313.8683883765742
 51
222.2268895472
  0
ARC
  5
1C7
330
1E
100
AcDbEntity
  8
ADP1DETAIL
100
AcDbCircle
 10
5.311843822203557
 20
13.13470991436818
 30
0.0
 40
0.2104669030591818
100
AcDbArc
 50
42.9361802715412
 51
137.0638197284589
  0
ARC
  5
1C8
330
1E
100
AcDbEntity
  8
ADP1DETAIL
100
AcDbCircle
 10
5.32555659740243
 20
14.2814477310477
 30
0.0
 40
0.1220554438309162
100
AcDbArc
 50
123.3730505774704
 51
57.01206803970286
  0
CIRCLE
  5
1C9
330
1E
100
AcDbEntity
  8
ADP1DETAIL
100
AcDbCircle
 10
6.189242437075742
 20
13.8413110766055
 30
0.0
 40
0.1366200844219628
  0
ARC
  5
1CA
330
1E
100
AcDbEntity
  8
ADP1DETAIL
100
AcDbCircle
 10
6.190707924501573
 20
13.40525878230439
 30
0.0
 40
0.1220554438309162
100
AcDbArc
 50
123.3730505774704
 51
57.01206803970286
  0
ARC
  5
1CB
330
1E
100
AcDbEntity
  8
ADP1DETAIL
100
AcDbCircle
 10
6.187776949649913
 20
14.2773633709066
 30
0.0
 40
0.1220554438309162
100
AcDbArc
 50
303.3730505774704
 51
237.0120680397025
  0
LINE
  5
1CC
330
1E
100
AcDbEntity
  8
ADP1DETAIL
100
AcDbLine
 10
5.627746503925198
 20
14.8715937268978
 30
0.0
 11
6.038559360332059
 21
15.28240658330466
 31
0.0
  0
ARC
  5
1CD
330
1E
100
AcDbEntity
  8
ADP1DETAIL
100
AcDbCircle
 10
5.753190142774636
 20
15.58630330296119
 30
0.0
 40
0.1220554438309162
100
AcDbArc
 50
33.37305057747158
 51
327.0120680397013
  0
LINE
  5
1CE
330
1E
100
AcDbEntity
  8
ADP1DETAIL
100
AcDbLine
 10
5.47523928638675
 20
16.15275192251802
 30
0.0
 11
5.882479387202701
 21
15.73557913631632
 31
0.0
  0
ARC
  5
1CF
330
1E
100
AcDbEntity
  8
ADP1DETAIL
100
AcDbCircle
 10
5.32262562255077
 20
15.15355231964992
 30
0.0
 40
0.1220554438309162
100
AcDbArc
 50
303.3730505774704
 51
237.0120680397025
  0
ARC
  5
1D0
330
1E
100
AcDbEntity
  8
ADP1DETAIL
100
AcDbCircle
 10
5.311843822203557
 20
16.28877382331723
 30
0.0
 40
0.2104669030591818
100
AcDbArc
 50
222.936180271541
 51
317.0638197284588
  0
ARC
  5
1D1
330
1E
100
AcDbEntity
  8
ADP1DETAIL
100
AcDbCircle
 10
5.315034099274047
 20
16.01021186102384
 30
0.0
 40
0.1383104644476331
100
AcDbArc
 50
137.7731104527999
 51
46.13161162342571
  0
CIRCLE
  5
1D2
330
1E
100
AcDbEntity
  8
ADP1DETAIL
100
AcDbCircle
 10
6.190707924501573
 20
15.15171649608591
 30
0.0
 40
0.1220554438309162
  0
CIRCLE
  5
1D3
330
1E
100
AcDbEntity
  8
ADP1DETAIL
100
AcDbCircle
 10
6.189242437075742
 20
15.58776879038702
 30
0.0
 40
0.1366200844219628
  0
ARC
  5
1D4
330
1E
100
AcDbEntity
  8
ADP1DETAIL
100
AcDbCircle
 10
6.187776949649913
 20
16.02382108468813
 30
0.0
 40
0.1220554438309162
100
AcDbArc
 50
303.3730505774704
 51
237.0120680397025
  0
ARC
  5
1D5
330
1E
100
AcDbEntity
  8
ADP1DETAIL
100
AcDbCircle
 10
6.625294731376849
 20
13.84277656403133
 30
0.0
 40
0.1220554438309162
100
AcDbArc
 50
213.3730505774715
 51
147.0120680397013
  0
LINE
  5
1D6
330
1E
100
AcDbEntity
  8
ADP1DETAIL
100
AcDbLine
 10
6.922303441724472
 20
13.29881983837974
 30
0.0
 11
6.50565290586463
 21
13.71547037423958
 31
0.0
  0
LINE
  5
1D7
330
1E
100
AcDbEntity
  8
ADP1DETAIL
100
AcDbLine
 10
6.501626099925303
 20
13.97683935526291
 30
0.0
 11
7.083088347873108
 21
14.55830160321072
 31
0.0
  0
LINE
  5
1D8
330
1E
100
AcDbEntity
  8
ADP1DETAIL
100
AcDbLine
 10
7.083088347873108
 20
14.87987141550799
 30
0.0
 11
6.504323704166032
 21
15.45863605921507
 31
0.0
  0
LINE
  5
1D9
330
1E
100
AcDbEntity
  8
ADP1DETAIL
100
AcDbLine
 10
6.502070119447665
 20
15.72226900701495
 30
0.0
 11
6.922303441724472
 21
16.15275192251802
 31
0.0
  0
ARC
  5
1DA
330
1E
100
AcDbEntity
  8
ADP1DETAIL
100
AcDbCircle
 10
6.625294731376849
 20
15.58923427781285
 30
0.0
 40
0.1220554438309162
100
AcDbArc
 50
213.3730505774715
 51
147.0120680397013
  0
DIMENSION
  5
1DB
330
1E
100
AcDbEntity
  8
ADPDIM
100
AcDbDimension
  2
*D0
 10
7.782279239520615
 20
17.50238513373603
 30
0.0
 11
3.903643537715702
 21
17.50238513373603
 31
0.0
 12
-0.0142023815194239
 22
6.11921358753052
 32
0.0
  1
120
100
AcDbAlignedDimension
 13
0.0250078359107891
 23
16.89573684402834
 33
0.0
 14
7.782279239520615
 24
16.89573684402834
 34
0.0
100
AcDbRotatedDimension
  0
LINE
  5
1DC
330
1E
100
AcDbEntity
  8
ADP1DETAIL
100
AcDbLine
 10
5.636024192535385
 20
16.3001380864876
 30
0.0
 11
6.761518535575837
 21
16.3001380864876
 31
0.0
  0
LINE
  5
1DD
330
1E
100
AcDbEntity
  8
ADP1DETAIL
100
AcDbLine
 10
1.469015374849923
 20
16.3001380864876
 30
0.0
 11
0.3435210318094715
 21
16.3001380864876
 31
0.0
  0
LWPOLYLINE
  5
1DE
330
1E
100
AcDbEntity
  8
ADP1DETAIL
100
AcDbPolyline
 90
        5
 70
     0
 43
0.0
 10
0.8839189655113663
 20
16.68992062301487
 10
0.7834769493502263
 20
16.78366650476527
 42
0.9284189221609072
 10
0.6361619923138911
 20
16.64304768213968
 10
0.8638305622791397
 20
16.38189844012071
 42
0.9058375253520349
 10
1.037930056958445
 20
16.50242885951409
 42
0.5885974569407209
  0
LWPOLYLINE
  5
1E5
330
1E
100
AcDbEntity
  8
ADP1DETAIL
100
AcDbPolyline
 90
        5
 70
     0
 43
0.0
 10
0.6119247297333868
 20
16.68992062301487
 10
0.5114827135722467
 20
16.78366650476527
 42
0.9284189221609072
 10
0.3641677565359114
 20
16.64304768213968
 10
0.5918363265011602
 20
16.38189844012071
 42
0.9058375253520349
 10
0.7659358211804657
 20
16.50242885951409
 42
0.5885974569407209
  0
ARC
  5
1EC
330
1E
100
AcDbEntity
  8
ADP1DETAIL
100
AcDbCircle
 10
0.6807444314957227
 20
16.59145334237881
 30
0.0
 40
0.375724530279794
100
AcDbArc
 50
54.06735356270946
 51
125.9326464372905
  0
LWPOLYLINE
  5
1ED
330
1E
100
AcDbEntity
  8
ADP1DETAIL
100
AcDbPolyline
 90
        5
 70
     0
 43
0.0
 10
0.3366854102376262
 20
16.68992062301487
 10
0.2362433940764861
 20
16.78366650476527
 42
0.9284189221609072
 10
0.0889284370401509
 20
16.64304768213968
 10
0.3165970070053996
 20
16.38189844012071
 42
0.9058375253520349
 10
0.4906965016847052
 20
16.50242885951409
 42
0.5885974569407209
  0
ARC
  5
1F4
330
1E
100
AcDbEntity
  8
ADP1DETAIL
100
AcDbCircle
 10
0.2425937783355423
 20
16.60005322738225
 30
0.0
 40
0.3671136656320204
100
AcDbArc
 50
53.63671423043872
 51
126.3483924594263
  0
LWPOLYLINE
  5
1F5
330
1E
100
AcDbEntity
  8
ADP1DETAIL
100
AcDbPolyline
 90
        2
 70
     0
 43
0.0
 10
0.0610317592823364
 20
16.36507217225485
 42
0.8052163537849938
 10
0.2170797240478359
 20
16.50242885951409
 42
0.5885974569407209
  0
LWPOLYLINE
  5
1F9
330
1E
100
AcDbEntity
  8
ADP1DETAIL
100
AcDbPolyline
 90
        2
 70
     0
 43
0.0
 10
0.0630686326007561
 20
16.68992062301487
 10
0.0610317592823364
 20
16.69182170477873
 42
0.9284189221609054
  0
LWPOLYLINE
  5
1FD
330
1E
100
AcDbEntity
  8
ADP1DETAIL
100
AcDbPolyline
 90
        5
 70
     0
 43
0.0
 10
3.597253220727179
 20
16.68992062301487
 10
3.496811204566039
 20
16.78366650476527
 42
0.9284189221609072
 10
3.349496247529704
 20
16.64304768213968
 10
3.577164817494953
 20
16.38189844012071
 42
0.9058375253520349
 10
3.751264312174259
 20
16.50242885951409
 42
0.5885974569407209
  0
LWPOLYLINE
  5
204
330
1E
100
AcDbEntity
  8
ADP1DETAIL
100
AcDbPolyline
 90
        5
 70
     0
 43
0.0
 10
3.86924745650516
 20
16.68992062301487
 10
3.768805440344019
 20
16.78366650476527
 42
0.9284189221609072
 10
3.621490483307684
 20
16.64304768213968
 10
3.849159053272932
 20
16.38189844012071
 42
0.9058375253520349
 10
4.023258547952239
 20
16.50242885951409
 42
0.5885974569407209
  0
ARC
  5
20B
330
1E
100
AcDbEntity
  8
ADP1DETAIL
100
AcDbCircle
 10
3.742740791900338
 20
16.60005322738225
 30
0.0
 40
0.3671136656320204
100
AcDbArc
 50
53.63671423043872
 51
126.3483924594263
  0
LINE
  5
20C
330
1E
100
AcDbEntity
  8
ADP1DETAIL
100
AcDbLine
 10
3.224250600305862
 20
16.3001380864876
 30
0.0
 11
2.112154999444465
 21
16.3001380864876
 31
0.0
  0
LWPOLYLINE
  5
20D
330
1E
100
AcDbEntity
  8
ADP1DETAIL
100
AcDbPolyline
 90
        5
 70
     0
 43
0.0
 10
2.229666780408683
 20
16.68992062301487
 10
2.129224764247543
 20
16.78366650476527
 42
0.9284189221609072
 10
1.981909807211207
 20
16.64304768213968
 10
2.209578377176456
 20
16.38189844012071
 42
0.9058375253520349
 10
2.383677871855763
 20
16.50242885951409
 42
0.5885974569407209
  0
LWPOLYLINE
  5
214
330
1E
100
AcDbEntity
  8
ADP1DETAIL
100
AcDbPolyline
 90
        5
 70
     0
 43
0.0
 10
1.961633997067711
 20
16.68992062301487
 10
1.861191980906571
 20
16.78366650476527
 42
0.9284189221609072
 10
1.713877023870235
 20
16.64304768213968
 10
1.941545593835484
 20
16.38189844012071
 42
0.9058375253520349
 10
2.11564508851479
 20
16.50242885951409
 42
0.5885974569407209
  0
ARC
  5
21B
330
1E
100
AcDbEntity
  8
ADP1DETAIL
100
AcDbCircle
 10
1.995813249127358
 20
16.60005322738225
 30
0.0
 40
0.3671136656320204
100
AcDbArc
 50
53.63671423043872
 51
126.3483924594263
  0
LWPOLYLINE
  5
21C
330
1E
100
AcDbEntity
  8
ADP1DETAIL
100
AcDbPolyline
 90
        5
 70
     0
 43
0.0
 10
1.419984484141589
 20
16.68992062301487
 10
1.31954246798045
 20
16.78366650476527
 42
0.9284189221609072
 10
1.172227510944114
 20
16.64304768213968
 10
1.399896080909363
 20
16.38189844012071
 42
0.9058375253520349
 10
1.573995575588669
 20
16.50242885951409
 42
0.5885974569407209
  0
LWPOLYLINE
  5
223
330
1E
100
AcDbEntity
  8
ADP1DETAIL
100
AcDbPolyline
 90
        5
 70
     0
 43
0.0
 10
1.69360126177846
 20
16.68992062301487
 10
1.593159245617319
 20
16.78366650476527
 42
0.9284189221609072
 10
1.445844288580985
 20
16.64304768213968
 10
1.673512858546233
 20
16.38189844012071
 42
0.9058375253520349
 10
1.847612353225539
 20
16.50242885951409
 42
0.5885974569407209
  0
ARC
  5
22A
330
1E
100
AcDbEntity
  8
ADP1DETAIL
100
AcDbCircle
 10
1.560260012237069
 20
16.60005322738225
 30
0.0
 40
0.3671136656320204
100
AcDbArc
 50
53.63671423043872
 51
126.3483924594263
  0
LWPOLYLINE
  5
22B
330
1E
100
AcDbEntity
  8
ADP1DETAIL
100
AcDbPolyline
 90
        5
 70
     0
 43
0.0
 10
1.151951700800617
 20
16.68992062301487
 10
1.051509684639477
 20
16.78366650476527
 42
0.9284189221609072
 10
0.9041947276031425
 20
16.64304768213968
 10
1.131863297568391
 20
16.38189844012071
 42
0.9058375253520349
 10
1.305962792247696
 20
16.50242885951409
 42
0.5885974569407209
  0
ARC
  5
232
330
1E
100
AcDbEntity
  8
ADP1DETAIL
100
AcDbCircle
 10
1.124706775346781
 20
16.60005322738225
 30
0.0
 40
0.3671136656320204
100
AcDbArc
 50
53.63671423043872
 51
126.3483924594263
  0
LWPOLYLINE
  5
233
330
1E
100
AcDbEntity
  8
ADP1DETAIL
100
AcDbPolyline
 90
        5
 70
     0
 43
0.0
 10
2.771316341386524
 20
16.68992062301487
 10
2.670874325225385
 20
16.78366650476527
 42
0.9284189221609072
 10
2.523559368189049
 20
16.64304768213968
 10
2.751227938154298
 20
16.38189844012071
 42
0.9058375253520349
 10
2.925327432833604
 20
16.50242885951409
 42
0.5885974569407209
  0
LWPOLYLINE
  5
23A
330
1E
100
AcDbEntity
  8
ADP1DETAIL
100
AcDbPolyline
 90
        5
 70
     0
 43
0.0
 10
3.044933119023395
 20
16.68992062301487
 10
2.944491102862255
 20
16.78366650476527
 42
0.9284189221609072
 10
2.797176145825919
 20
16.64304768213968
 10
3.024844715791168
 20
16.38189844012071
 42
0.9058375253520349
 10
3.198944210470474
 20
16.50242885951409
 42
0.5885974569407209
  0
ARC
  5
241
330
1E
100
AcDbEntity
  8
ADP1DETAIL
100
AcDbCircle
 10
2.877926246138597
 20
16.60005322738225
 30
0.0
 40
0.3671136656320204
100
AcDbArc
 50
53.63671423043872
 51
126.3483924594263
  0
LWPOLYLINE
  5
242
330
1E
100
AcDbEntity
  8
ADP1DETAIL
100
AcDbPolyline
 90
        5
 70
     0
 43
0.0
 10
2.497699563749654
 20
16.68992062301487
 10
2.397257547588515
 20
16.78366650476527
 42
0.9284189221609072
 10
2.249942590552179
 20
16.64304768213968
 10
2.477611160517428
 20
16.38189844012071
 42
0.9058375253520349
 10
2.651710655196734
 20
16.50242885951409
 42
0.5885974569407209
  0
ARC
  5
249
330
1E
100
AcDbEntity
  8
ADP1DETAIL
100
AcDbCircle
 10
2.433963902287539
 20
16.59145334237881
 30
0.0
 40
0.375724530279794
100
AcDbArc
 50
54.06735356270946
 51
125.9326464372905
  0
LWPOLYLINE
  5
24A
330
1E
100
AcDbEntity
  8
ADP1DETAIL
100
AcDbPolyline
 90
        5
 70
     0
 43
0.0
 10
3.322013901231419
 20
16.68992062301487
 10
3.221571885070279
 20
16.78366650476527
 42
0.9284189221609072
 10
3.074256928033944
 20
16.64304768213968
 10
3.301925497999192
 20
16.38189844012071
 42
0.9058375253520349
 10
3.476024992678498
 20
16.50242885951409
 42
0.5885974569407209
  0
ARC
  5
251
330
1E
100
AcDbEntity
  8
ADP1DETAIL
100
AcDbCircle
 10
3.313479483028886
 20
16.60005322738225
 30
0.0
 40
0.3671136656320204
100
AcDbArc
 50
53.63671423043872
 51
126.3483924594263
  0
LINE
  5
252
330
1E
100
AcDbEntity
  8
ADP1DETAIL
100
AcDbLine
 10
3.880788967079446
 20
16.3001380864876
 30
0.0
 11
4.992884567940843
 21
16.3001380864876
 31
0.0
  0
LWPOLYLINE
  5
253
330
1E
100
AcDbEntity
  8
ADP1DETAIL
100
AcDbPolyline
 90
        5
 70
     0
 43
0.0
 10
4.946962488061504
 20
16.68992062301487
 10
4.846520471900364
 20
16.78366650476527
 42
0.9284189221609072
 10
4.699205514864028
 20
16.64304768213968
 10
4.926874084829278
 20
16.38189844012071
 42
0.9058375253520349
 10
5.100973579508583
 20
16.50242885951409
 42
0.5885974569407209
  0
LWPOLYLINE
  5
25A
330
1E
100
AcDbEntity
  8
ADP1DETAIL
100
AcDbPolyline
 90
        5
 70
     0
 43
0.0
 10
5.214995271402476
 20
16.68992062301487
 10
5.114553255241336
 20
16.78366650476527
 42
0.9284189221609072
 10
4.967238298205001
 20
16.64304768213968
 10
5.194906868170249
 20
16.38189844012071
 42
0.9058375253520349
 10
5.369006362849556
 20
16.50242885951409
 42
0.5885974569407209
  0
ARC
  5
261
330
1E
100
AcDbEntity
  8
ADP1DETAIL
100
AcDbCircle
 10
5.060407025801866
 20
16.60005322738225
 30
0.0
 40
0.3671136656320204
100
AcDbArc
 50
53.63671423043872
 51
126.3483924594263
  0
LWPOLYLINE
  5
262
330
1E
100
AcDbEntity
  8
ADP1DETAIL
100
AcDbPolyline
 90
        5
 70
     0
 43
0.0
 10
4.405312975135383
 20
16.68992062301487
 10
4.304870958974243
 20
16.78366650476527
 42
0.9284189221609072
 10
4.157556001937907
 20
16.64304768213968
 10
4.385224571903156
 20
16.38189844012071
 42
0.9058375253520349
 10
4.559324066582462
 20
16.50242885951409
 42
0.5885974569407209
  0
LWPOLYLINE
  5
269
330
1E
100
AcDbEntity
  8
ADP1DETAIL
100
AcDbPolyline
 90
        5
 70
     0
 43
0.0
 10
4.137280191794411
 20
16.68992062301487
 10
4.03683817563327
 20
16.78366650476527
 42
0.9284189221609072
 10
3.889523218596935
 20
16.64304768213968
 10
4.117191788562184
 20
16.38189844012071
 42
0.9058375253520349
 10
4.29129128324149
 20
16.50242885951409
 42
0.5885974569407209
  0
ARC
  5
270
330
1E
100
AcDbEntity
  8
ADP1DETAIL
100
AcDbCircle
 10
4.180891445060519
 20
16.59145334237881
 30
0.0
 40
0.375724530279794
100
AcDbArc
 50
54.06735356270946
 51
125.9326464372905
  0
LWPOLYLINE
  5
271
330
1E
100
AcDbEntity
  8
ADP1DETAIL
100
AcDbPolyline
 90
        5
 70
     0
 43
0.0
 10
4.678929752772253
 20
16.68992062301487
 10
4.578487736611113
 20
16.78366650476527
 42
0.9284189221609072
 10
4.431172779574778
 20
16.64304768213968
 10
4.658841349540026
 20
16.38189844012071
 42
0.9058375253520349
 10
4.832940844219332
 20
16.50242885951409
 42
0.5885974569407209
  0
ARC
  5
278
330
1E
100
AcDbEntity
  8
ADP1DETAIL
100
AcDbCircle
 10
4.624853788911577
 20
16.60005322738225
 30
0.0
 40
0.3671136656320204
100
AcDbArc
 50
53.63671423043872
 51
126.3483924594263
  0
LWPOLYLINE
  5
279
330
1E
100
AcDbEntity
  8
ADP1DETAIL
100
AcDbPolyline
 90
        5
 70
     0
 43
0.0
 10
5.756644832380318
 20
16.68992062301487
 10
5.656202816219177
 20
16.78366650476527
 42
0.9284189221609072
 10
5.508887859182842
 20
16.64304768213968
 10
5.736556429148091
 20
16.38189844012071
 42
0.9058375253520349
 10
5.910655923827397
 20
16.50242885951409
 42
0.5885974569407209
  0
ARC
  5
280
330
1E
100
AcDbEntity
  8
ADP1DETAIL
100
AcDbCircle
 10
5.495960262692155
 20
16.60005322738225
 30
0.0
 40
0.3671136656320204
100
AcDbArc
 50
53.63671423043872
 51
126.3483924594263
  0
LWPOLYLINE
  5
281
330
1E
100
AcDbEntity
  8
ADP1DETAIL
100
AcDbPolyline
 90
        5
 70
     0
 43
0.0
 10
5.483028054743448
 20
16.68992062301487
 10
5.382586038582308
 20
16.78366650476527
 42
0.9284189221609072
 10
5.235271081545972
 20
16.64304768213968
 10
5.462939651511222
 20
16.38189844012071
 42
0.9058375253520349
 10
5.637039146190527
 20
16.50242885951409
 42
0.5885974569407209
  0
LINE
  5
288
330
1E
100
AcDbEntity
  8
ADP1DETAIL
100
AcDbLine
 10
4.992884567940843
 20
16.3938880864876
 30
0.0
 11
4.992884567940843
 21
16.3938880864876
 31
0.0
  0
LWPOLYLINE
  5
289
330
1E
100
AcDbEntity
  8
ADP1DETAIL
100
AcDbPolyline
 90
        5
 70
     0
 43
0.0
 10
6.030261610017188
 20
16.68992062301487
 10
5.929819593856048
 20
16.78366650476527
 42
0.9284189221609072
 10
5.782504636819712
 20
16.64304768213968
 10
6.010173206784962
 20
16.38189844012071
 42
0.9058375253520349
 10
6.184272701464267
 20
16.50242885951409
 42
0.5885974569407209
  0
ARC
  5
290
330
1E
100
AcDbEntity
  8
ADP1DETAIL
100
AcDbCircle
 10
5.934110915852334
 20
16.59145334237881
 30
0.0
 40
0.375724530279794
100
AcDbArc
 50
54.06735356270946
 51
125.9326464372905
  0
LINE
  5
291
330
1E
100
AcDbEntity
  8
ADP1DETAIL
100
AcDbLine
 10
6.761518535575837
 20
16.3001380864876
 30
0.0
 11
6.761518535575837
 21
16.3001380864876
 31
0.0
  0
TEXT
  5
295
330
1E
100
AcDbEntity
  8
ADPDIM
100
AcDbText
 10
-4.296595936089994
 20
11.70834436930233
 30
0.0
 40
0.15625
  1
J U L I U S  B L U M  &  C O . ,  I N C .      ( 8 0 0 )  5 2 6 - 6 2 9 3        W W W . J U L I U S B L U M . C O M        P A R T  N o .  2 8 5 8
 41
1.25
  7
ARIAL_WIDE
 72
     1
 11
3.860565344605775
 21
11.86459436930233
 31
0.0
100
AcDbText
 73
     3
  0
ENDSEC
  0
SECTION
  2
OBJECTS
  0
DICTIONARY
  5
C
330
0
100
AcDbDictionary
  3
ACAD_GROUP
350
D
  3
ACAD_LAYOUT
350
19
  3
ACAD_MLINESTYLE
350
16
  3
ACAD_PLOTSETTINGS
350
18
  3
ACAD_PLOTSTYLENAME
350
E
  3
ACDBHEADERROUNDTRIPXREC
350
49C
  3
ACDBVARIABLEDICTIONARY
350
306
  0
DICTIONARY
  5
2D1
330
1E
100
AcDbDictionary
280
     1
  3
ACAD_LAYOUTSELFREF
360
4BE
  0
DICTIONARY
  5
2D3
330
1A
100
AcDbDictionary
280
     1
  3
ACAD_LAYOUTSELFREF
360
4BD
  0
DICTIONARY
  5
D
102
{ACAD_REACTORS
330
C
102
}
330
C
100
AcDbDictionary
  0
DICTIONARY
  5
19
102
{ACAD_REACTORS
330
C
102
}
330
C
100
AcDbDictionary
  0
DICTIONARY
  5
16
102
{ACAD_REACTORS
330
C
102
}
330
C
100
AcDbDictionary
  3
STANDARD
350
17
  0
DICTIONARY
  5
18
102
{ACAD_REACTORS
330
C
102
}
330
C
100
AcDbDictionary
  0
ACDBDICTIONARYWDFLT
  5
E
102
{ACAD_REACTORS
330
C
102
}
330
C
100
AcDbDictionary
281
     1
  3
Normal
350
F
100
AcDbDictionaryWithDefault
340
F
  0
DICTIONARY
  5
49C
102
{ACAD_REACTORS
330
C
102
}
330
C
100
AcDbDictionary
  3
CEPSNTYPE
350
4A6
  3
DIMSTYLEDATA
350
4AA
  3
FINGERPRINTGUID
350
4A7
  3
HYPERLINKBASE
350
49F
  3
INSUNITS
350
4A5
  3
LAYOUTDICT
350
4A1
  3
LWETCUNION
350
4A4
  3
PLOTSETDICT
350
4A2
  3
PLOTSTYLNAMDICT
350
4A3
  3
PSVPSCALE
350
4A9
  3
PUCSBASE
350
4AD
  3
PUCSORGBACK
350
4B3
  3
PUCSORGBOTTOM
350
4AF
  3
PUCSORGFRONT
350
4B2
  3
PUCSORGLEFT
350
4B0
  3
PUCSORGRIGHT
350
4B1
  3
PUCSORGTOP
350
4AE
  3
PUCSORTHOREF
350
4AB
  3
PUCSORTHOVIEW
350
4AC
  3
STYLESHEET
350
4A0
  3
TSTACKALIGN
350
49D
  3
TSTACKSIZE
350
49E
  3
UCSBASE
350
4B6
  3
UCSORGBACK
350
4BC
  3
UCSORGBOTTOM
350
4B8
  3
UCSORGFRONT
350
4BB
  3
UCSORGLEFT
350
4B9
  3
UCSORGRIGHT
350
4BA
  3
UCSORGTOP
350
4B7
  3
UCSORTHOREF
350
4B4
  3
UCSORTHOVIEW
350
4B5
  3
VERSIONGUID
350
4A8
  0
DICTIONARY
  5
306
102
{ACAD_REACTORS
330
C
102
}
330
C
100
AcDbDictionary
  3
DIMASSOC
350
308
  3
HIDETEXT
350
307
  0
XRECORD
  5
4BE
102
{ACAD_REACTORS
330
2D1
102
}
330
2D1
100
AcDbXrecord
340
1E
  0
XRECORD
  5
4BD
102
{ACAD_REACTORS
330
2D3
102
}
330
2D3
100
AcDbXrecord
340
1A
  0
MLINESTYLE
  5
17
102
{ACAD_REACTORS
330
16
102
}
330
16
100
AcDbMlineStyle
  2
STANDARD
 70
     0
  3

 62
   256
 51
90.0
 52
90.0
 71
     2
 49
0.5
 62
   256
  6
BYLAYER
 49
-0.5
 62
   256
  6
BYLAYER
  0
ACDBPLACEHOLDER
  5
F
102
{ACAD_REACTORS
330
E
102
}
330
E
100
AcDbPlaceHolder
280
     0
  0
XRECORD
  5
4A6
102
{ACAD_REACTORS
330
49C
102
}
330
49C
100
AcDbXrecord
 90
        0
  0
XRECORD
  5
4AA
102
{ACAD_REACTORS
330
49C
102
}
330
49C
100
AcDbXrecord
1000
DSTYLE
1002
{
1070
   277
 70
     5
1070
   279
 70
     2
1002
}
  0
XRECORD
  5
4A7
102
{ACAD_REACTORS
330
49C
102
}
330
49C
100
AcDbXrecord
  1
{4F7DED88-EF89-4814-B412-5B132D1F6039}
  0
XRECORD
  5
49F
102
{ACAD_REACTORS
330
49C
102
}
330
49C
100
AcDbXrecord
  1

  0
XRECORD
  5
4A5
102
{ACAD_REACTORS
330
49C
102
}
330
49C
100
AcDbXrecord
 90
        0
  0
XRECORD
  5
4A1
102
{ACAD_REACTORS
330
49C
102
}
330
49C
100
AcDbXrecord
340
19
  0
XRECORD
  5
4A4
102
{ACAD_REACTORS
330
49C
102
}
330
49C
100
AcDbXrecord
 90
    14877
  0
XRECORD
  5
4A2
102
{ACAD_REACTORS
330
49C
102
}
330
49C
100
AcDbXrecord
340
18
  0
XRECORD
  5
4A3
102
{ACAD_REACTORS
330
49C
102
}
330
49C
100
AcDbXrecord
340
E
  0
XRECORD
  5
4A9
102
{ACAD_REACTORS
330
49C
102
}
330
49C
100
AcDbXrecord
 40
0.0
  0
XRECORD
  5
4AD
102
{ACAD_REACTORS
330
49C
102
}
330
49C
100
AcDbXrecord
340
0
  0
XRECORD
  5
4B3
102
{ACAD_REACTORS
330
49C
102
}
330
49C
100
AcDbXrecord
 10
0.0
 20
0.0
 30
0.0
  0
XRECORD
  5
4AF
102
{ACAD_REACTORS
330
49C
102
}
330
49C
100
AcDbXrecord
 10
0.0
 20
0.0
 30
0.0
  0
XRECORD
  5
4B2
102
{ACAD_REACTORS
330
49C
102
}
330
49C
100
AcDbXrecord
 10
0.0
 20
0.0
 30
0.0
  0
XRECORD
  5
4B0
102
{ACAD_REACTORS
330
49C
102
}
330
49C
100
AcDbXrecord
 10
0.0
 20
0.0
 30
0.0
  0
XRECORD
  5
4B1
102
{ACAD_REACTORS
330
49C
102
}
330
49C
100
AcDbXrecord
 10
0.0
 20
0.0
 30
0.0
  0
XRECORD
  5
4AE
102
{ACAD_REACTORS
330
49C
102
}
330
49C
100
AcDbXrecord
 10
0.0
 20
0.0
 30
0.0
  0
XRECORD
  5
4AB
102
{ACAD_REACTORS
330
49C
102
}
330
49C
100
AcDbXrecord
340
0
  0
XRECORD
  5
4AC
102
{ACAD_REACTORS
330
49C
102
}
330
49C
100
AcDbXrecord
 70
     0
  0
XRECORD
  5
4A0
102
{ACAD_REACTORS
330
49C
102
}
330
49C
100
AcDbXrecord
  1

  0
XRECORD
  5
49D
102
{ACAD_REACTORS
330
49C
102
}
330
49C
100
AcDbXrecord
 90
        1
  0
XRECORD
  5
49E
102
{ACAD_REACTORS
330
49C
102
}
330
49C
100
AcDbXrecord
 90
       70
  0
XRECORD
  5
4B6
102
{ACAD_REACTORS
330
49C
102
}
330
49C
100
AcDbXrecord
340
0
  0
XRECORD
  5
4BC
102
{ACAD_REACTORS
330
49C
102
}
330
49C
100
AcDbXrecord
 10
0.0
 20
0.0
 30
0.0
  0
XRECORD
  5
4B8
102
{ACAD_REACTORS
330
49C
102
}
330
49C
100
AcDbXrecord
 10
0.0
 20
0.0
 30
0.0
  0
XRECORD
  5
4BB
102
{ACAD_REACTORS
330
49C
102
}
330
49C
100
AcDbXrecord
 10
0.0
 20
0.0
 30
0.0
  0
XRECORD
  5
4B9
102
{ACAD_REACTORS
330
49C
102
}
330
49C
100
AcDbXrecord
 10
0.0
 20
0.0
 30
0.0
  0
XRECORD
  5
4BA
102
{ACAD_REACTORS
330
49C
102
}
330
49C
100
AcDbXrecord
 10
0.0
 20
0.0
 30
0.0
  0
XRECORD
  5
4B7
102
{ACAD_REACTORS
330
49C
102
}
330
49C
100
AcDbXrecord
 10
0.0
 20
0.0
 30
0.0
  0
XRECORD
  5
4B4
102
{ACAD_REACTORS
330
49C
102
}
330
49C
100
AcDbXrecord
340
0
  0
XRECORD
  5
4B5
102
{ACAD_REACTORS
330
49C
102
}
330
49C
100
AcDbXrecord
 70
     0
  0
XRECORD
  5
4A8
102
{ACAD_REACTORS
330
49C
102
}
330
49C
100
AcDbXrecord
  1
{14BE7B64-1783-4444-84F1-A83635DA42FA}
  0
DICTIONARYVAR
  5
308
102
{ACAD_REACTORS
330
306
102
}
330
306
100
DictionaryVariables
280
     0
  1
2
  0
DICTIONARYVAR
  5
307
102
{ACAD_REACTORS
330
306
102
}
330
306
100
DictionaryVariables
280
     0
  1
1
  0
ENDSEC
  0
EOF
