  0
SECTION
  2
HEADER
  9
$ACADVER
  1
AC1014
  9
$ACADMAINTVER
 70
     9
  9
$DWGCODEPAGE
  3
ANSI_1252
  9
$INSBASE
 10
0.0315763333243028
 20
-3.537383186873167
 30
0.0
  9
$EXTMIN
 10
-2.994005677667517
 20
-4.28931246327933
 30
0.0
  9
$EXTMAX
 10
10.05745237144571
 20
0.3420378122460828
 30
0.0
  9
$LIMMIN
 10
0.0
 20
0.0
  9
$LIMMAX
 10
36.0
 20
36.0
  9
$ORTHOMODE
 70
     1
  9
$REGENMODE
 70
     1
  9
$FILLMODE
 70
     1
  9
$QTEXTMODE
 70
     0
  9
$MIRRTEXT
 70
     1
  9
$DRAGMODE
 70
     0
  9
$LTSCALE
 40
1.0
  9
$OSMODE
 70
    37
  9
$ATTMODE
 70
     1
  9
$TEXTSIZE
 40
0.2
  9
$TRACEWID
 40
0.05
  9
$TEXTSTYLE
  7
STANDARD
  9
$CLAYER
  8
ADPDIM
  9
$CELTYPE
  6
BYLAYER
  9
$CECOLOR
 62
   256
  9
$CELTSCALE
 40
1.0
  9
$DELOBJ
 70
     1
  9
$DISPSILH
 70
     0
  9
$DIMSCALE
 40
1.0
  9
$DIMASZ
 40
0.125
  9
$DIMEXO
 40
0.0625
  9
$DIMDLI
 40
0.38
  9
$DIMRND
 40
0.0
  9
$DIMDLE
 40
0.0
  9
$DIMEXE
 40
0.18
  9
$DIMTP
 40
0.0
  9
$DIMTM
 40
0.0
  9
$DIMTXT
 40
0.125
  9
$DIMCEN
 40
0.1875
  9
$DIMTSZ
 40
0.125
  9
$DIMTOL
 70
     0
  9
$DIMLIM
 70
     0
  9
$DIMTIH
 70
     0
  9
$DIMTOH
 70
     0
  9
$DIMSE1
 70
     0
  9
$DIMSE2
 70
     0
  9
$DIMTAD
 70
     0
  9
$DIMZIN
 70
     3
  9
$DIMBLK
  1

  9
$DIMASO
 70
     1
  9
$DIMSHO
 70
     1
  9
$DIMPOST
  1

  9
$DIMAPOST
  1

  9
$DIMALT
 70
     0
  9
$DIMALTD
 70
     1
  9
$DIMALTF
 40
25.4
  9
$DIMLFAC
 40
1.0
  9
$DIMTOFL
 70
     0
  9
$DIMTVP
 40
0.0
  9
$DIMTIX
 70
     0
  9
$DIMSOXD
 70
     0
  9
$DIMSAH
 70
     0
  9
$DIMBLK1
  1

  9
$DIMBLK2
  1

  9
$DIMSTYLE
  2
STANDARD
  9
$DIMCLRD
 70
     0
  9
$DIMCLRE
 70
     0
  9
$DIMCLRT
 70
     0
  9
$DIMTFAC
 40
1.0
  9
$DIMGAP
 40
0.125
  9
$DIMJUST
 70
     0
  9
$DIMSD1
 70
     0
  9
$DIMSD2
 70
     0
  9
$DIMTOLJ
 70
     1
  9
$DIMTZIN
 70
     3
  9
$DIMALTZ
 70
     3
  9
$DIMALTTZ
 70
     3
  9
$DIMFIT
 70
     5
  9
$DIMUPT
 70
     0
  9
$DIMUNIT
 70
     5
  9
$DIMDEC
 70
     5
  9
$DIMTDEC
 70
     5
  9
$DIMALTU
 70
     5
  9
$DIMALTTD
 70
     1
  9
$DIMTXSTY
  7
STANDARD
  9
$DIMAUNIT
 70
     0
  9
$LUNITS
 70
     5
  9
$LUPREC
 70
     5
  9
$SKETCHINC
 40
0.1
  9
$FILLETRAD
 40
0.062
  9
$AUNITS
 70
     0
  9
$AUPREC
 70
     0
  9
$MENU
  1
acad
  9
$ELEVATION
 40
0.0
  9
$PELEVATION
 40
0.0
  9
$THICKNESS
 40
0.0
  9
$LIMCHECK
 70
     0
  9
$BLIPMODE
 70
     0
  9
$CHAMFERA
 40
0.0
  9
$CHAMFERB
 40
0.0
  9
$CHAMFERC
 40
0.0
  9
$CHAMFERD
 40
0.0
  9
$SKPOLY
 70
     0
  9
$TDCREATE
 40
2450415.513210648
  9
$TDUPDATE
 40
2452297.083629374
  9
$TDINDWG
 40
0.0127059722
  9
$TDUSRTIMER
 40
0.0127059722
  9
$USRTIMER
 70
     1
  9
$ANGBASE
 50
0.0
  9
$ANGDIR
 70
     0
  9
$PDMODE
 70
     0
  9
$PDSIZE
 40
0.0
  9
$PLINEWID
 40
0.0
  9
$COORDS
 70
     2
  9
$SPLFRAME
 70
     0
  9
$SPLINETYPE
 70
     6
  9
$SPLINESEGS
 70
     8
  9
$ATTDIA
 70
     0
  9
$ATTREQ
 70
     1
  9
$HANDLING
 70
 22529
  9
$HANDSEED
  5
525
  9
$SURFTAB1
 70
     6
  9
$SURFTAB2
 70
     6
  9
$SURFTYPE
 70
     6
  9
$SURFU
 70
     6
  9
$SURFV
 70
     6
  9
$UCSNAME
  2

  9
$UCSORG
 10
0.0
 20
0.0
 30
0.0
  9
$UCSXDIR
 10
1.0
 20
0.0
 30
0.0
  9
$UCSYDIR
 10
0.0
 20
1.0
 30
0.0
  9
$PUCSNAME
  2

  9
$PUCSORG
 10
0.0
 20
0.0
 30
0.0
  9
$PUCSXDIR
 10
1.0
 20
0.0
 30
0.0
  9
$PUCSYDIR
 10
0.0
 20
1.0
 30
0.0
  9
$USERI1
 70
     0
  9
$USERI2
 70
     0
  9
$USERI3
 70
     0
  9
$USERI4
 70
     0
  9
$USERI5
 70
     0
  9
$USERR1
 40
0.0
  9
$USERR2
 40
0.0
  9
$USERR3
 40
0.0
  9
$USERR4
 40
0.0
  9
$USERR5
 40
0.0
  9
$WORLDVIEW
 70
     1
  9
$SHADEDGE
 70
     3
  9
$SHADEDIF
 70
    70
  9
$TILEMODE
 70
     1
  9
$MAXACTVP
 70
    15
  9
$PINSBASE
 10
0.0546881854534149
 20
80.01812949427586
 30
0.0
  9
$PLIMCHECK
 70
     0
  9
$PEXTMIN
 10
1.000000000000000E+20
 20
1.000000000000000E+20
 30
1.000000000000000E+20
  9
$PEXTMAX
 10
-1.000000000000000E+20
 20
-1.000000000000000E+20
 30
-1.000000000000000E+20
  9
$PLIMMIN
 10
0.0
 20
0.0
  9
$PLIMMAX
 10
12.0
 20
9.0
  9
$UNITMODE
 70
     0
  9
$VISRETAIN
 70
     0
  9
$PLINEGEN
 70
     0
  9
$PSLTSCALE
 70
     1
  9
$TREEDEPTH
 70
  3020
  9
$PICKSTYLE
 70
     1
  9
$CMLSTYLE
  2
STANDARD
  9
$CMLJUST
 70
     0
  9
$CMLSCALE
 40
1.0
  9
$PROXYGRAPHICS
 70
     1
  9
$MEASUREMENT
 70
     0
  0
ENDSEC
  0
SECTION
  2
CLASSES
  0
CLASS
  1
ACDBDICTIONARYWDFLT
  2
AcDbDictionaryWithDefault
  3
AutoCAD 2000
 90
        0
280
     0
281
     0
  0
CLASS
  1
ACDBPLACEHOLDER
  2
AcDbPlaceHolder
  3
AutoCAD 2000
 90
        0
280
     0
281
     0
  0
CLASS
  1
LAYOUT
  2
AcDbLayout
  3
AutoCAD 2000
 90
        0
280
     0
281
     0
  0
CLASS
  1
DICTIONARYVAR
  2
AcDbDictionaryVar
  3
AutoCAD 2000
 90
        0
280
     0
281
     0
  0
CLASS
  1
LONG_TRANSACTION
  2
AcDbLongTransaction
  3
AutoCAD 2000
 90
        0
280
     0
281
     0
  0
CLASS
  1
LWPOLYLINE
  2
AcDbPolyline
  3
AutoCAD 2000
 90
        0
280
     0
281
     1
  0
CLASS
  1
HATCH
  2
AcDbHatch
  3
AutoCAD 2000
 90
        0
280
     0
281
     1
  0
CLASS
  1
XRECORD
  2
AcDbXrecord
  3
AutoCAD 2000
 90
        0
280
     0
281
     0
  0
CLASS
  1
LONG_TRANSACTION
  2
AcDbLongTransaction
  3
AutoCAD 2000
 90
        0
280
     0
281
     0
  0
CLASS
  1
LWPOLYLINE
  2
AcDbPolyline
  3
AutoCAD 2000
 90
        0
280
     0
281
     1
  0
CLASS
  1
HATCH
  2
AcDbHatch
  3
AutoCAD 2000
 90
        0
280
     0
281
     1
  0
CLASS
  1
XRECORD
  2
AcDbXrecord
  3
AutoCAD 2000
 90
        0
280
     0
281
     0
  0
CLASS
  1
LONG_TRANSACTION
  2
AcDbLongTransaction
  3
AutoCAD 2000
 90
        0
280
     0
281
     0
  0
CLASS
  1
LWPOLYLINE
  2
AcDbPolyline
  3
AutoCAD 2000
 90
        0
280
     0
281
     1
  0
CLASS
  1
HATCH
  2
AcDbHatch
  3
AutoCAD 2000
 90
        0
280
     0
281
     1
  0
CLASS
  1
XRECORD
  2
AcDbXrecord
  3
AutoCAD 2000
 90
        0
280
     0
281
     0
  0
CLASS
  1
LONG_TRANSACTION
  2
AcDbLongTransaction
  3
AutoCAD 2000
 90
        0
280
     0
281
     0
  0
CLASS
  1
LWPOLYLINE
  2
AcDbPolyline
  3
AutoCAD 2000
 90
        0
280
     0
281
     1
  0
CLASS
  1
HATCH
  2
AcDbHatch
  3
AutoCAD 2000
 90
        0
280
     0
281
     1
  0
CLASS
  1
XRECORD
  2
AcDbXrecord
  3
AutoCAD 2000
 90
        0
280
     0
281
     0
  0
CLASS
  1
LONG_TRANSACTION
  2
AcDbLongTransaction
  3
AutoCAD 2000
 90
        0
280
     0
281
     0
  0
CLASS
  1
LWPOLYLINE
  2
AcDbPolyline
  3
AutoCAD 2000
 90
        0
280
     0
281
     1
  0
CLASS
  1
HATCH
  2
AcDbHatch
  3
AutoCAD 2000
 90
        0
280
     0
281
     1
  0
CLASS
  1
XRECORD
  2
AcDbXrecord
  3
AutoCAD 2000
 90
        0
280
     0
281
     0
  0
CLASS
  1
LONG_TRANSACTION
  2
AcDbLongTransaction
  3
AutoCAD 2000
 90
        0
280
     0
281
     0
  0
CLASS
  1
LWPOLYLINE
  2
AcDbPolyline
  3
AutoCAD 2000
 90
        0
280
     0
281
     1
  0
CLASS
  1
HATCH
  2
AcDbHatch
  3
AutoCAD 2000
 90
        0
280
     0
281
     1
  0
CLASS
  1
XRECORD
  2
AcDbXrecord
  3
AutoCAD 2000
 90
        0
280
     0
281
     0
  0
ENDSEC
  0
SECTION
  2
TABLES
  0
TABLE
  2
VPORT
  5
8
330
0
100
AcDbSymbolTable
 70
     2
  0
VPORT
  5
501
330
8
100
AcDbSymbolTableRecord
100
AcDbViewportTableRecord
  2
*ACTIVE
 70
     0
 10
0.0
 20
0.0
 11
1.0
 21
1.0
 12
3.543104079301891
 22
-1.973491180732731
 13
0.0
 23
0.0
 14
0.5740882589684922
 24
0.5740882589684922
 15
0.5
 25
0.5
 16
0.0
 26
0.0
 36
1.0
 17
0.0
 27
0.0
 37
0.0
 40
8.364994411100289
 41
1.570528967254408
 42
50.0
 43
0.0
 44
0.0
 50
0.0
 51
0.0
 71
     0
 72
   100
 73
     1
 74
     0
 75
     0
 76
     0
 77
     0
 78
     0
  0
ENDTAB
  0
TABLE
  2
LTYPE
  5
5
330
0
100
AcDbSymbolTable
 70
     1
  0
LTYPE
  5
13
330
5
100
AcDbSymbolTableRecord
100
AcDbLinetypeTableRecord
  2
BYBLOCK
 70
     0
  3

 72
    65
 73
     0
 40
0.0
  0
LTYPE
  5
14
330
5
100
AcDbSymbolTableRecord
100
AcDbLinetypeTableRecord
  2
BYLAYER
 70
     0
  3

 72
    65
 73
     0
 40
0.0
  0
LTYPE
  5
15
330
5
100
AcDbSymbolTableRecord
100
AcDbLinetypeTableRecord
  2
CONTINUOUS
 70
     0
  3
Solid line
 72
    65
 73
     0
 40
0.0
  0
ENDTAB
  0
TABLE
  2
LAYER
  5
2
330
0
100
AcDbSymbolTable
 70
     4
  0
LAYER
  5
10
330
2
100
AcDbSymbolTableRecord
100
AcDbLayerTableRecord
  2
0
 70
     0
 62
     7
  6
CONTINUOUS
  0
LAYER
  5
40
330
2
100
AcDbSymbolTableRecord
100
AcDbLayerTableRecord
  2
ADPDIM
 70
     0
 62
     3
  6
CONTINUOUS
  0
LAYER
  5
42
330
2
100
AcDbSymbolTableRecord
100
AcDbLayerTableRecord
  2
ADP1DETAIL
 70
     0
 62
     7
  6
CONTINUOUS
  0
LAYER
  5
44
330
2
100
AcDbSymbolTableRecord
100
AcDbLayerTableRecord
  2
DEFPOINTS
 70
     0
 62
     7
  6
CONTINUOUS
  0
ENDTAB
  0
TABLE
  2
STYLE
  5
3
330
0
100
AcDbSymbolTable
 70
     2
  0
STYLE
  5
11
330
3
100
AcDbSymbolTableRecord
100
AcDbTextStyleTableRecord
  2
STANDARD
 70
     0
 40
0.0
 41
1.0
 50
0.0
 71
     0
 42
0.2
  3
txt
  4

  0
STYLE
  5
334
330
3
100
AcDbSymbolTableRecord
100
AcDbTextStyleTableRecord
  2
ARIAL_WIDE
 70
     0
 40
0.0
 41
1.25
 50
0.0
 71
     0
 42
0.2
  3
ARIAL.TTF
  4

1001
ACAD
1000
Arial
1071
       34
  0
ENDTAB
  0
TABLE
  2
VIEW
  5
6
330
0
100
AcDbSymbolTable
 70
     0
  0
ENDTAB
  0
TABLE
  2
UCS
  5
7
330
0
100
AcDbSymbolTable
 70
     0
  0
ENDTAB
  0
TABLE
  2
APPID
  5
9
330
0
100
AcDbSymbolTable
 70
     1
  0
APPID
  5
12
330
9
100
AcDbSymbolTableRecord
100
AcDbRegAppTableRecord
  2
ACAD
 70
     0
  0
ENDTAB
  0
TABLE
  2
DIMSTYLE
  5
A
330
0
100
AcDbSymbolTable
 70
     1
  0
DIMSTYLE
105
332
330
A
100
AcDbSymbolTableRecord
100
AcDbDimStyleTableRecord
  2
STANDARD
 70
     0
  3

  4

  5

  6

  7

 40
1.0
 41
0.18
 42
0.0625
 43
0.38
 44
0.18
 45
0.0
 46
0.0
 47
0.0
 48
0.0
140
0.18
141
0.09
142
0.0
143
25.4
144
1.0
145
0.0
146
1.0
147
0.09
 71
     0
 72
     0
 73
     1
 74
     1
 75
     0
 76
     0
 77
     0
 78
     0
170
     0
171
     2
172
     0
173
     0
174
     0
175
     0
176
     0
177
     0
178
     0
270
     2
271
     4
272
     4
273
     2
274
     2
340
11
275
     0
280
     0
281
     0
282
     0
283
     1
284
     0
285
     0
286
     0
287
     3
288
     0
  0
ENDTAB
  0
TABLE
  2
BLOCK_RECORD
  5
1
330
0
100
AcDbSymbolTable
 70
     2
  0
BLOCK_RECORD
  5
1E
102
{ACAD_XDICTIONARY
360
371
102
}
330
1
100
AcDbSymbolTableRecord
100
AcDbBlockTableRecord
  2
*MODEL_SPACE
  0
BLOCK_RECORD
  5
1A
102
{ACAD_XDICTIONARY
360
373
102
}
330
1
100
AcDbSymbolTableRecord
100
AcDbBlockTableRecord
  2
*PAPER_SPACE
  0
BLOCK_RECORD
  5
3D
330
1
100
AcDbSymbolTableRecord
100
AcDbBlockTableRecord
  2
*D0
  0
BLOCK_RECORD
  5
3E
330
1
100
AcDbSymbolTableRecord
100
AcDbBlockTableRecord
  2
*D1
  0
ENDTAB
  0
ENDSEC
  0
SECTION
  2
BLOCKS
  0
BLOCK
  5
47
330
1E
100
AcDbEntity
  8
0
100
AcDbBlockBegin
  2
*MODEL_SPACE
 70
     0
 10
0.0
 20
0.0
 30
0.0
  3
*MODEL_SPACE
  1

  0
ENDBLK
  5
48
330
1E
100
AcDbEntity
  8
0
100
AcDbBlockEnd
  0
BLOCK
  5
45
330
1A
100
AcDbEntity
 67
     1
  8
0
100
AcDbBlockBegin
  2
*PAPER_SPACE
 70
     0
 10
0.0
 20
0.0
 30
0.0
  3
*PAPER_SPACE
  1

  0
ENDBLK
  5
46
330
1A
100
AcDbEntity
 67
     1
  8
0
100
AcDbBlockEnd
  0
BLOCK
  5
4A
330
3D
100
AcDbEntity
  8
0
100
AcDbBlockBegin
  2
*D0
 70
     1
 10
0.0
 20
0.0
 30
0.0
  3
*D0
  1
*U
  0
LINE
  5
4B
330
3D
100
AcDbEntity
  8
0
  6
BYBLOCK
 62
     0
100
AcDbLine
 10
0.1867099890161422
 20
-3.608813232758484
 30
0.0
 11
-0.4266776541774883
 21
-3.608813232758484
 31
0.0
  0
LINE
  5
4C
330
3D
100
AcDbEntity
  8
0
  6
BYBLOCK
 62
     0
100
AcDbLine
 10
0.1867099890161422
 20
-0.3731804315762885
 30
0.0
 11
-0.4266776541774881
 21
-0.3731804315762885
 31
0.0
  0
LINE
  5
4D
330
3D
100
AcDbEntity
  8
0
  6
BYBLOCK
 62
     0
100
AcDbLine
 10
-0.2466776541774882
 20
-3.608813232758484
 30
0.0
 11
-0.2466776541774881
 21
-2.38683016550072
 31
0.0
  0
LINE
  5
4E
330
3D
100
AcDbEntity
  8
0
  6
BYBLOCK
 62
     0
100
AcDbLine
 10
-0.246677654177488
 20
-0.3731804315762885
 30
0.0
 11
-0.2466776541774881
 21
-1.595163498834053
 31
0.0
  0
LINE
  5
4F
330
3D
100
AcDbEntity
  8
0
  6
BYBLOCK
 62
     0
100
AcDbLine
 10
-0.1216776541774882
 20
-3.733813232758484
 30
0.0
 11
-0.3716776541774882
 21
-3.483813232758484
 31
0.0
  0
LINE
  5
50
330
3D
100
AcDbEntity
  8
0
  6
BYBLOCK
 62
     0
100
AcDbLine
 10
-0.121677654177488
 20
-0.4981804315762886
 30
0.0
 11
-0.371677654177488
 21
-0.2481804315762885
 31
0.0
  0
TEXT
  5
51
330
3D
100
AcDbEntity
  8
0
  6
BYBLOCK
 62
     0
100
AcDbText
 10
-0.1841776541774881
 20
-2.26183016550072
 30
0.0
 40
0.125
  1
3 1/4
 50
90.0
 72
     1
 11
-0.2466776541774881
 21
-1.990996832167386
 31
0.0
100
AcDbText
 73
     2
  0
POINT
  5
53
330
3D
100
AcDbEntity
  8
DEFPOINTS
  6
BYBLOCK
 62
     0
100
AcDbPoint
 10
0.2492099890161422
 20
-3.608813232758484
 30
0.0
  0
POINT
  5
54
330
3D
100
AcDbEntity
  8
DEFPOINTS
  6
BYBLOCK
 62
     0
100
AcDbPoint
 10
0.2492099890161422
 20
-0.3731804315762885
 30
0.0
  0
POINT
  5
55
330
3D
100
AcDbEntity
  8
DEFPOINTS
  6
BYBLOCK
 62
     0
100
AcDbPoint
 10
-0.246677654177488
 20
-0.3731804315762885
 30
0.0
  0
ENDBLK
  5
56
330
3D
100
AcDbEntity
  8
0
100
AcDbBlockEnd
  0
BLOCK
  5
57
330
3E
100
AcDbEntity
  8
0
100
AcDbBlockBegin
  2
*D1
 70
     1
 10
0.0
 20
0.0
 30
0.0
  3
*D1
  1
*U
  0
LINE
  5
58
330
3E
100
AcDbEntity
  8
0
  6
BYBLOCK
 62
     0
100
AcDbLine
 10
0.0315763333243027
 20
-0.3821104774616063
 30
0.0
 11
0.0315763333243027
 21
0.3420378122460828
 31
0.0
  0
LINE
  5
59
330
3E
100
AcDbEntity
  8
0
  6
BYBLOCK
 62
     0
100
AcDbLine
 10
7.788847736934129
 20
-0.3821104774616063
 30
0.0
 11
7.788847736934129
 21
0.3420378122460828
 31
0.0
  0
LINE
  5
5A
330
3E
100
AcDbEntity
  8
0
  6
BYBLOCK
 62
     0
100
AcDbLine
 10
0.0315763333243027
 20
0.1620378122460829
 30
0.0
 11
3.649795368462549
 21
0.1620378122460829
 31
0.0
  0
LINE
  5
5B
330
3E
100
AcDbEntity
  8
0
  6
BYBLOCK
 62
     0
100
AcDbLine
 10
7.788847736934129
 20
0.1620378122460829
 30
0.0
 11
4.170628701795882
 21
0.1620378122460829
 31
0.0
  0
LINE
  5
5C
330
3E
100
AcDbEntity
  8
0
  6
BYBLOCK
 62
     0
100
AcDbLine
 10
-0.0934236666756973
 20
0.0370378122460829
 30
0.0
 11
0.1565763333243027
 21
0.2870378122460829
 31
0.0
  0
LINE
  5
5D
330
3E
100
AcDbEntity
  8
0
  6
BYBLOCK
 62
     0
100
AcDbLine
 10
7.663847736934129
 20
0.0370378122460829
 30
0.0
 11
7.913847736934129
 21
0.2870378122460829
 31
0.0
  0
TEXT
  5
5E
330
3E
100
AcDbEntity
  8
0
  6
BYBLOCK
 62
     0
100
AcDbText
 10
3.774795368462549
 20
0.099537812246083
 30
0.0
 40
0.125
  1
120
 72
     1
 11
3.910212035129216
 21
0.1620378122460829
 31
0.0
100
AcDbText
 73
     2
  0
POINT
  5
5F
330
3E
100
AcDbEntity
  8
DEFPOINTS
  6
BYBLOCK
 62
     0
100
AcDbPoint
 10
0.0315763333243027
 20
-0.4446104774616063
 30
0.0
  0
POINT
  5
60
330
3E
100
AcDbEntity
  8
DEFPOINTS
  6
BYBLOCK
 62
     0
100
AcDbPoint
 10
7.788847736934129
 20
-0.4446104774616063
 30
0.0
  0
POINT
  5
61
330
3E
100
AcDbEntity
  8
DEFPOINTS
  6
BYBLOCK
 62
     0
100
AcDbPoint
 10
7.788847736934129
 20
0.1620378122460829
 30
0.0
  0
ENDBLK
  5
62
330
3E
100
AcDbEntity
  8
0
100
AcDbBlockEnd
  0
ENDSEC
  0
SECTION
  2
ENTITIES
  0
DIMENSION
  5
63
330
1E
100
AcDbEntity
  8
ADPDIM
100
AcDbDimension
  2
*D1
 10
7.788847736934129
 20
0.1620378122460829
 30
0.0
 11
3.910212035129216
 21
0.1620378122460829
 31
0.0
  1
120
100
AcDbAlignedDimension
 13
0.0315763333243027
 23
-0.4446104774616063
 33
0.0
 14
7.788847736934129
 24
-0.4446104774616063
 34
0.0
100
AcDbRotatedDimension
  0
ARC
  5
64
330
1E
100
AcDbEntity
  8
ADP1DETAIL
100
AcDbCircle
 10
6.384641757116908
 20
-0.7402940941076946
 30
0.0
 40
0.3671136656320204
100
AcDbArc
 50
53.63671423043872
 51
126.3483924594263
  0
ARC
  5
65
330
1E
100
AcDbEntity
  8
ADP1DETAIL
100
AcDbCircle
 10
6.384641757116908
 20
-3.241699570227078
 30
0.0
 40
0.3671136656320204
100
AcDbArc
 50
233.6516075405736
 51
306.3632857695612
  0
ARC
  5
66
330
1E
100
AcDbEntity
  8
ADP1DETAIL
100
AcDbCircle
 10
0.6873129289092362
 20
-0.74889397911114
 30
0.0
 40
0.375724530279794
100
AcDbArc
 50
54.06735356270946
 51
125.9326464372905
  0
LWPOLYLINE
  5
67
330
1E
100
AcDbEntity
  8
ADP1DETAIL
100
AcDbPolyline
 90
        5
 70
     0
 43
0.0
 10
0.5824693037753532
 20
-0.7861699011001658
 10
0.4820272876142131
 20
-0.6924240193497698
 42
0.9284189221609072
 10
0.3347123305778776
 20
-0.833042841975363
 10
0.5623809005431266
 20
-1.094192083994326
 42
0.9058375253520349
 10
0.7364803952224327
 20
-0.9736616646009563
 42
0.5885974569407209
  0
LWPOLYLINE
  5
6E
330
1E
100
AcDbEntity
  8
ADP1DETAIL
100
AcDbPolyline
 90
        9
 70
     0
 43
0.0
 10
0.8168340081513443
 20
-2.132092917659423
 42
-0.0514101544340771
 10
0.6293422446505521
 20
-2.112004514427196
 42
0.3333333333333133
 10
0.5088118252571854
 20
-2.232534933820562
 42
-0.199999999999989
 10
0.5155079596679278
 20
-2.3329769499817
 42
0.2248662268476127
 10
0.5155079596679278
 20
-2.393242159678384
 42
-0.2248662268476128
 10
0.5155079596679278
 20
-2.453507369375067
 42
0.2248662268476127
 10
0.5155079596679278
 20
-2.51377257907175
 42
-0.2248662268476128
 10
0.5155079596679278
 20
-2.574037788768434
 42
0.2685142439288102
 10
0.5359641043389438
 20
-2.687504332312268
 42
-0.2248662268476422
  0
ARC
  5
79
330
1E
100
AcDbEntity
  8
ADP1DETAIL
100
AcDbCircle
 10
0.6873129289092363
 20
-3.233099685223634
 30
0.0
 40
0.375724530279794
100
AcDbArc
 50
234.0673535627094
 51
305.9326464372905
  0
LWPOLYLINE
  5
7A
330
1E
100
AcDbEntity
  8
ADP1DETAIL
100
AcDbPolyline
 90
        5
 70
     0
 43
0.0
 10
0.5824693037753532
 20
-3.104703457309912
 10
0.4820272876142131
 20
-3.010957575559515
 42
0.9284189221609072
 10
0.3347123305778776
 20
-3.151576398185109
 10
0.5623809005431266
 20
-3.412725640204072
 42
0.9058375253520349
 10
0.7364803952224327
 20
-3.292195220810702
 42
0.5885974569407209
  0
LWPOLYLINE
  5
81
330
1E
100
AcDbEntity
  8
ADP1DETAIL
100
AcDbPolyline
 90
        9
 70
     0
 43
0.0
 10
0.8168340081513443
 20
-1.904424347694176
 42
0.0514101544340771
 10
0.6293422446505521
 20
-1.924512750926403
 42
-0.3333333333333133
 10
0.5088118252571854
 20
-1.803982331533036
 42
0.199999999999989
 10
0.5155079596679278
 20
-1.703540315371898
 42
-0.2248662268476127
 10
0.5155079596679278
 20
-1.643275105675215
 42
0.2248662268476128
 10
0.5155079596679278
 20
-1.583009895978531
 42
-0.2248662268476127
 10
0.5155079596679278
 20
-1.522744686281848
 42
0.2248662268476128
 10
0.5155079596679278
 20
-1.462479476585165
 42
-0.2685142439288102
 10
0.5359641043389438
 20
-1.34901293304133
 42
0.2248662268476422
  0
LWPOLYLINE
  5
8C
330
1E
100
AcDbEntity
  8
ADP1DETAIL
100
AcDbPolyline
 90
        5
 70
     0
 43
0.0
 10
0.854463539553333
 20
-0.7861699011001658
 10
0.7540215233921929
 20
-0.6924240193497698
 42
0.9284189221609072
 10
0.6067065663558574
 20
-0.833042841975363
 10
0.8343751363211062
 20
-1.094192083994326
 42
0.9058375253520349
 10
1.008474631000412
 20
-0.9736616646009563
 42
0.5885974569407209
  0
LWPOLYLINE
  5
93
330
1E
100
AcDbEntity
  8
ADP1DETAIL
100
AcDbPolyline
 90
        5
 70
     0
 43
0.0
 10
0.854463539553333
 20
-3.104703457309912
 10
0.7540215233921929
 20
-3.010957575559515
 42
0.9284189221609072
 10
0.6067065663558574
 20
-3.151576398185109
 10
0.8343751363211062
 20
-3.412725640204072
 42
0.9058375253520349
 10
1.008474631000412
 20
-3.292195220810702
 42
0.5885974569407209
  0
LWPOLYLINE
  5
9A
330
1E
100
AcDbEntity
  8
ADP1DETAIL
100
AcDbPolyline
 90
        9
 70
     0
 43
0.0
 10
1.091375518991789
 20
-1.629882836853731
 42
-0.0514101544340771
 10
1.111463922224017
 20
-1.442391073352938
 42
0.3333333333333133
 10
0.9909335028306504
 20
-1.321860653959572
 42
-0.199999999999989
 10
0.8904914866695122
 20
-1.328556788370314
 42
0.2248662268476127
 10
0.8302262769728287
 20
-1.328556788370314
 42
-0.2248662268476128
 10
0.7699610672761455
 20
-1.328556788370314
 42
0.2248662268476127
 10
0.7096958575794621
 20
-1.328556788370314
 42
-0.2248662268476128
 10
0.6494306478827788
 20
-1.328556788370314
 42
0.2685142439288102
 10
0.5359641043389438
 20
-1.34901293304133
 42
-0.2248662268476422
  0
LWPOLYLINE
  5
A5
330
1E
100
AcDbEntity
  8
ADP1DETAIL
100
AcDbPolyline
 90
        9
 70
     0
 43
0.0
 10
1.091375518991789
 20
-2.406634428499868
 42
0.0514101544340771
 10
1.111463922224017
 20
-2.59412619200066
 42
-0.3333333333333133
 10
0.9909335028306502
 20
-2.714656611394027
 42
0.199999999999989
 10
0.8904914866695119
 20
-2.707960476983285
 42
-0.2248662268476127
 10
0.8302262769728285
 20
-2.707960476983285
 42
0.2248662268476128
 10
0.7699610672761451
 20
-2.707960476983285
 42
-0.2248662268476127
 10
0.7096958575794618
 20
-2.707960476983285
 42
0.2248662268476128
 10
0.6494306478827784
 20
-2.707960476983285
 42
-0.2685142439288102
 10
0.5359641043389435
 20
-2.687504332312268
 42
0.2248662268476422
  0
LINE
  5
B0
330
1E
100
AcDbEntity
  8
ADP1DETAIL
100
AcDbLine
 10
0.0315763333243028
 20
-0.4446104774616062
 30
0.0
 11
0.0315763333243028
 21
-3.537383186873167
 31
0.0
  0
DIMENSION
  5
B1
330
1E
100
AcDbEntity
  8
ADPDIM
100
AcDbDimension
  2
*D0
 10
-0.246677654177488
 20
-0.3731804315762885
 30
0.0
 11
-0.2466776541774881
 21
-1.990996832167386
 31
0.0
100
AcDbAlignedDimension
 13
0.2492099890161422
 23
-3.608813232758484
 33
0.0
 14
0.2492099890161422
 24
-0.3731804315762885
 34
0.0
 50
90.0
100
AcDbRotatedDimension
  0
LWPOLYLINE
  5
B2
330
1E
100
AcDbEntity
  8
ADP1DETAIL
100
AcDbPolyline
 90
        5
 70
     0
 43
0.0
 10
0.3072299842795925
 20
-3.104703457309912
 10
0.2067879681184524
 20
-3.010957575559515
 42
0.9284189221609072
 10
0.059473011082117
 20
-3.151576398185109
 10
0.287141581047366
 20
-3.412725640204072
 42
0.9058375253520349
 10
0.461241075726672
 20
-3.292195220810702
 42
0.5885974569407209
  0
ARC
  5
B9
330
1E
100
AcDbEntity
  8
ADP1DETAIL
100
AcDbCircle
 10
0.249162275749056
 20
-3.241699570227078
 30
0.0
 40
0.3671136656320204
100
AcDbArc
 50
233.6516075405736
 51
306.3632857695612
  0
LWPOLYLINE
  5
BA
330
1E
100
AcDbEntity
  8
ADP1DETAIL
100
AcDbPolyline
 90
        2
 70
     0
 43
0.0
 10
0.0315763333243028
 20
-3.429551908069938
 42
0.8052163537849938
 10
0.1876242980898018
 20
-3.292195220810702
 42
0.5885974569407209
  0
LWPOLYLINE
  5
BE
330
1E
100
AcDbEntity
  8
ADP1DETAIL
100
AcDbPolyline
 90
        2
 70
     0
 43
0.0
 10
0.0336132066427224
 20
-3.104703457309912
 10
0.0315763333243028
 20
-3.102802375546053
 42
0.9284189221609054
  0
LWPOLYLINE
  5
C2
330
1E
100
AcDbEntity
  8
ADP1DETAIL
100
AcDbPolyline
 90
        5
 70
     0
 43
0.0
 10
0.3072299842795925
 20
-0.7861699011001658
 10
0.2067879681184524
 20
-0.6924240193497698
 42
0.9284189221609072
 10
0.059473011082117
 20
-0.833042841975363
 10
0.287141581047366
 20
-1.094192083994326
 42
0.9058375253520349
 10
0.461241075726672
 20
-0.9736616646009563
 42
0.5885974569407209
  0
LWPOLYLINE
  5
C9
330
1E
100
AcDbEntity
  8
ADP1DETAIL
100
AcDbPolyline
 90
        2
 70
     0
 43
0.0
 10
0.0315763333243028
 20
-1.111018351860192
 42
0.8052163537849938
 10
0.1876242980898018
 20
-0.9736616646009563
 42
0.5885974569407209
  0
ARC
  5
CD
330
1E
100
AcDbEntity
  8
ADP1DETAIL
100
AcDbCircle
 10
0.249162275749056
 20
-0.7402940941076946
 30
0.0
 40
0.3671136656320204
100
AcDbArc
 50
53.63671423043872
 51
126.3483924594263
  0
LWPOLYLINE
  5
CE
330
1E
100
AcDbEntity
  8
ADP1DETAIL
100
AcDbPolyline
 90
        2
 70
     0
 43
0.0
 10
0.0336132066427224
 20
-0.7861699011001658
 10
0.0315763333243028
 20
-0.7842688193363072
 42
0.9284189221609054
  0
LWPOLYLINE
  5
D2
330
1E
100
AcDbEntity
  8
ADP1DETAIL
100
AcDbPolyline
 90
        9
 70
     0
 43
0.0
 10
5.772231015732034
 20
-2.132092917659424
 42
0.0514101544340771
 10
5.959722779232826
 20
-2.112004514427196
 42
-0.3333333333333133
 10
6.080253198626193
 20
-2.232534933820563
 42
0.199999999999989
 10
6.07355706421545
 20
-2.332976949981701
 42
-0.2248662268476127
 10
6.07355706421545
 20
-2.393242159678384
 42
0.2248662268476128
 10
6.07355706421545
 20
-2.453507369375067
 42
-0.2248662268476127
 10
6.07355706421545
 20
-2.51377257907175
 42
0.2248662268476128
 10
6.07355706421545
 20
-2.574037788768434
 42
-0.2685142439288102
 10
6.053100919544434
 20
-2.687504332312268
 42
0.2248662268476422
  0
LWPOLYLINE
  5
DD
330
1E
100
AcDbEntity
  8
ADP1DETAIL
100
AcDbPolyline
 90
        9
 70
     0
 43
0.0
 10
5.497689504891589
 20
-2.406634428499868
 42
-0.0514101544340771
 10
5.477601101659361
 20
-2.59412619200066
 42
0.3333333333333133
 10
5.598131521052728
 20
-2.714656611394027
 42
-0.199999999999989
 10
5.698573537213866
 20
-2.707960476983285
 42
0.2248662268476127
 10
5.75883874691055
 20
-2.707960476983285
 42
-0.2248662268476128
 10
5.819103956607233
 20
-2.707960476983285
 42
0.2248662268476127
 10
5.879369166303916
 20
-2.707960476983285
 42
-0.2248662268476128
 10
5.9396343760006
 20
-2.707960476983285
 42
0.2685142439288102
 10
6.053100919544434
 20
-2.687504332312269
 42
-0.2248662268476422
  0
LWPOLYLINE
  5
E8
330
1E
100
AcDbEntity
  8
ADP1DETAIL
100
AcDbPolyline
 90
        9
 70
     0
 43
0.0
 10
4.995479424085896
 20
-2.132092917659423
 42
-0.0514101544340771
 10
4.807987660585104
 20
-2.112004514427196
 42
0.3333333333333133
 10
4.687457241191737
 20
-2.232534933820562
 42
-0.199999999999989
 10
4.69415337560248
 20
-2.3329769499817
 42
0.2248662268476127
 10
4.69415337560248
 20
-2.393242159678384
 42
-0.2248662268476128
 10
4.69415337560248
 20
-2.453507369375067
 42
0.2248662268476127
 10
4.69415337560248
 20
-2.51377257907175
 42
-0.2248662268476128
 10
4.69415337560248
 20
-2.574037788768434
 42
0.2685142439288102
 10
4.714609520273495
 20
-2.687504332312268
 42
-0.2248662268476422
  0
LWPOLYLINE
  5
F3
330
1E
100
AcDbEntity
  8
ADP1DETAIL
100
AcDbPolyline
 90
        9
 70
     0
 43
0.0
 10
5.270020934926341
 20
-2.406634428499868
 42
0.0514101544340771
 10
5.290109338158569
 20
-2.59412619200066
 42
-0.3333333333333133
 10
5.169578918765203
 20
-2.714656611394027
 42
0.199999999999989
 10
5.069136902604063
 20
-2.707960476983285
 42
-0.2248662268476127
 10
5.008871692907381
 20
-2.707960476983285
 42
0.2248662268476128
 10
4.948606483210697
 20
-2.707960476983285
 42
-0.2248662268476127
 10
4.888341273514014
 20
-2.707960476983285
 42
0.2248662268476128
 10
4.828076063817331
 20
-2.707960476983285
 42
-0.2685142439288102
 10
4.714609520273495
 20
-2.687504332312268
 42
0.2248662268476422
  0
LWPOLYLINE
  5
FE
330
1E
100
AcDbEntity
  8
ADP1DETAIL
100
AcDbPolyline
 90
        9
 70
     0
 43
0.0
 10
2.895082787031502
 20
-2.132092917659423
 42
-0.0514101544340771
 10
2.707591023530709
 20
-2.112004514427196
 42
0.3333333333333133
 10
2.587060604137342
 20
-2.232534933820562
 42
-0.199999999999989
 10
2.593756738548085
 20
-2.3329769499817
 42
0.2248662268476127
 10
2.593756738548085
 20
-2.393242159678384
 42
-0.2248662268476128
 10
2.593756738548085
 20
-2.453507369375067
 42
0.2248662268476127
 10
2.593756738548085
 20
-2.51377257907175
 42
-0.2248662268476128
 10
2.593756738548085
 20
-2.574037788768434
 42
0.2685142439288102
 10
2.614212883219101
 20
-2.687504332312268
 42
-0.2248662268476422
  0
LWPOLYLINE
  5
109
330
1E
100
AcDbEntity
  8
ADP1DETAIL
100
AcDbPolyline
 90
        9
 70
     0
 43
0.0
 10
3.169624297871946
 20
-2.406634428499868
 42
0.0514101544340771
 10
3.189712701104173
 20
-2.59412619200066
 42
-0.3333333333333133
 10
3.069182281710807
 20
-2.714656611394027
 42
0.199999999999989
 10
2.968740265549669
 20
-2.707960476983285
 42
-0.2248662268476127
 10
2.908475055852985
 20
-2.707960476983285
 42
0.2248662268476128
 10
2.848209846156302
 20
-2.707960476983285
 42
-0.2248662268476127
 10
2.787944636459619
 20
-2.707960476983285
 42
0.2248662268476128
 10
2.727679426762935
 20
-2.707960476983285
 42
-0.2685142439288102
 10
2.614212883219101
 20
-2.687504332312268
 42
0.2248662268476422
  0
LWPOLYLINE
  5
114
330
1E
100
AcDbEntity
  8
ADP1DETAIL
100
AcDbPolyline
 90
        9
 70
     0
 43
0.0
 10
1.319044088957036
 20
-2.406634428499868
 42
-0.0514101544340771
 10
1.298955685724809
 20
-2.59412619200066
 42
0.3333333333333133
 10
1.419486105118175
 20
-2.714656611394027
 42
-0.199999999999989
 10
1.519928121279313
 20
-2.707960476983285
 42
0.2248662268476127
 10
1.580193330975997
 20
-2.707960476983285
 42
-0.2248662268476128
 10
1.64045854067268
 20
-2.707960476983285
 42
0.2248662268476127
 10
1.700723750369363
 20
-2.707960476983285
 42
-0.2248662268476128
 10
1.760988960066047
 20
-2.707960476983285
 42
0.2685142439288102
 10
1.874455503609882
 20
-2.687504332312269
 42
-0.2248662268476422
  0
LWPOLYLINE
  5
11F
330
1E
100
AcDbEntity
  8
ADP1DETAIL
100
AcDbPolyline
 90
        9
 70
     0
 43
0.0
 10
1.593585599797481
 20
-2.132092917659424
 42
0.0514101544340771
 10
1.781077363298273
 20
-2.112004514427196
 42
-0.3333333333333133
 10
1.90160778269164
 20
-2.232534933820563
 42
0.199999999999989
 10
1.894911648280898
 20
-2.332976949981701
 42
-0.2248662268476127
 10
1.894911648280898
 20
-2.393242159678384
 42
0.2248662268476128
 10
1.894911648280898
 20
-2.453507369375067
 42
-0.2248662268476127
 10
1.894911648280898
 20
-2.51377257907175
 42
0.2248662268476128
 10
1.894911648280898
 20
-2.574037788768434
 42
-0.2685142439288102
 10
1.874455503609882
 20
-2.687504332312268
 42
0.2248662268476422
  0
LWPOLYLINE
  5
12A
330
1E
100
AcDbEntity
  8
ADP1DETAIL
100
AcDbPolyline
 90
        9
 70
     0
 43
0.0
 10
3.671834378677639
 20
-2.132092917659424
 42
0.0514101544340771
 10
3.859326142178431
 20
-2.112004514427196
 42
-0.3333333333333133
 10
3.979856561571797
 20
-2.232534933820563
 42
0.199999999999989
 10
3.973160427161055
 20
-2.332976949981701
 42
-0.2248662268476127
 10
3.973160427161055
 20
-2.393242159678384
 42
0.2248662268476128
 10
3.973160427161055
 20
-2.453507369375067
 42
-0.2248662268476127
 10
3.973160427161055
 20
-2.51377257907175
 42
0.2248662268476128
 10
3.973160427161055
 20
-2.574037788768434
 42
-0.2685142439288102
 10
3.952704282490039
 20
-2.687504332312268
 42
0.2248662268476422
  0
LWPOLYLINE
  5
135
330
1E
100
AcDbEntity
  8
ADP1DETAIL
100
AcDbPolyline
 90
        9
 70
     0
 43
0.0
 10
3.397292867837194
 20
-2.406634428499868
 42
-0.0514101544340771
 10
3.377204464604966
 20
-2.59412619200066
 42
0.3333333333333133
 10
3.497734883998333
 20
-2.714656611394027
 42
-0.199999999999989
 10
3.598176900159471
 20
-2.707960476983285
 42
0.2248662268476127
 10
3.658442109856154
 20
-2.707960476983285
 42
-0.2248662268476128
 10
3.718707319552838
 20
-2.707960476983285
 42
0.2248662268476127
 10
3.778972529249521
 20
-2.707960476983285
 42
-0.2248662268476128
 10
3.839237738946204
 20
-2.707960476983285
 42
0.2685142439288102
 10
3.95270428249004
 20
-2.687504332312269
 42
-0.2248662268476422
  0
LWPOLYLINE
  5
140
330
1E
100
AcDbEntity
  8
ADP1DETAIL
100
AcDbPolyline
 90
        5
 70
     0
 43
0.0
 10
3.567797794769146
 20
-3.104703457309912
 10
3.467355778608006
 20
-3.010957575559515
 42
0.9284189221609072
 10
3.32004082157167
 20
-3.151576398185109
 10
3.547709391536919
 20
-3.412725640204072
 42
0.9058375253520349
 10
3.721808886216225
 20
-3.292195220810702
 42
0.5885974569407209
  0
ARC
  5
147
330
1E
100
AcDbEntity
  8
ADP1DETAIL
100
AcDbCircle
 10
3.749309289313852
 20
-3.241699570227078
 30
0.0
 40
0.3671136656320204
100
AcDbArc
 50
233.6516075405736
 51
306.3632857695612
  0
LWPOLYLINE
  5
148
330
1E
100
AcDbEntity
  8
ADP1DETAIL
100
AcDbPolyline
 90
        5
 70
     0
 43
0.0
 10
3.839792030547126
 20
-3.104703457309912
 10
3.739350014385986
 20
-3.010957575559515
 42
0.9284189221609072
 10
3.59203505734965
 20
-3.151576398185109
 10
3.819703627314899
 20
-3.412725640204072
 42
0.9058375253520349
 10
3.993803121994205
 20
-3.292195220810702
 42
0.5885974569407209
  0
ARC
  5
14F
330
1E
100
AcDbEntity
  8
ADP1DETAIL
100
AcDbCircle
 10
2.002381746540872
 20
-3.241699570227078
 30
0.0
 40
0.3671136656320204
100
AcDbArc
 50
233.6516075405736
 51
306.3632857695612
  0
LWPOLYLINE
  5
150
330
1E
100
AcDbEntity
  8
ADP1DETAIL
100
AcDbPolyline
 90
        5
 70
     0
 43
0.0
 10
1.932178571109677
 20
-3.104703457309912
 10
1.831736554948537
 20
-3.010957575559515
 42
0.9284189221609072
 10
1.684421597912202
 20
-3.151576398185109
 10
1.912090167877451
 20
-3.412725640204072
 42
0.9058375253520349
 10
2.086189662556757
 20
-3.292195220810702
 42
0.5885974569407209
  0
LWPOLYLINE
  5
157
330
1E
100
AcDbEntity
  8
ADP1DETAIL
100
AcDbPolyline
 90
        5
 70
     0
 43
0.0
 10
2.200211354450649
 20
-3.104703457309912
 10
2.099769338289509
 20
-3.010957575559515
 42
0.9284189221609072
 10
1.952454381253174
 20
-3.151576398185109
 10
2.180122951218423
 20
-3.412725640204072
 42
0.9058375253520349
 10
2.354222445897729
 20
-3.292195220810702
 42
0.5885974569407209
  0
ARC
  5
15E
330
1E
100
AcDbEntity
  8
ADP1DETAIL
100
AcDbCircle
 10
1.566828509650583
 20
-3.241699570227078
 30
0.0
 40
0.3671136656320204
100
AcDbArc
 50
233.6516075405736
 51
306.3632857695612
  0
LWPOLYLINE
  5
15F
330
1E
100
AcDbEntity
  8
ADP1DETAIL
100
AcDbPolyline
 90
        5
 70
     0
 43
0.0
 10
1.664145835820426
 20
-3.104703457309912
 10
1.563703819659286
 20
-3.010957575559515
 42
0.9284189221609072
 10
1.416388862622951
 20
-3.151576398185109
 10
1.644057432588199
 20
-3.412725640204072
 42
0.9058375253520349
 10
1.818156927267505
 20
-3.292195220810702
 42
0.5885974569407209
  0
LWPOLYLINE
  5
166
330
1E
100
AcDbEntity
  8
ADP1DETAIL
100
AcDbPolyline
 90
        5
 70
     0
 43
0.0
 10
1.390529058183556
 20
-3.104703457309912
 10
1.290087042022416
 20
-3.010957575559515
 42
0.9284189221609072
 10
1.14277208498608
 20
-3.151576398185109
 10
1.370440654951329
 20
-3.412725640204072
 42
0.9058375253520349
 10
1.544540149630635
 20
-3.292195220810702
 42
0.5885974569407209
  0
LWPOLYLINE
  5
16D
330
1E
100
AcDbEntity
  8
ADP1DETAIL
100
AcDbPolyline
 90
        5
 70
     0
 43
0.0
 10
1.122496274842584
 20
-3.104703457309912
 10
1.022054258681444
 20
-3.010957575559515
 42
0.9284189221609072
 10
0.8747393016451086
 20
-3.151576398185109
 10
1.102407871610357
 20
-3.412725640204072
 42
0.9058375253520349
 10
1.276507366289663
 20
-3.292195220810702
 42
0.5885974569407209
  0
ARC
  5
174
330
1E
100
AcDbEntity
  8
ADP1DETAIL
100
AcDbCircle
 10
1.131275272760294
 20
-3.241699570227078
 30
0.0
 40
0.3671136656320204
100
AcDbArc
 50
233.6516075405736
 51
306.3632857695612
  0
ARC
  5
175
330
1E
100
AcDbEntity
  8
ADP1DETAIL
100
AcDbCircle
 10
2.884494743552111
 20
-3.241699570227078
 30
0.0
 40
0.3671136656320204
100
AcDbArc
 50
233.6516075405736
 51
306.3632857695612
  0
LWPOLYLINE
  5
176
330
1E
100
AcDbEntity
  8
ADP1DETAIL
100
AcDbPolyline
 90
        5
 70
     0
 43
0.0
 10
3.015477693065361
 20
-3.104703457309912
 10
2.915035676904221
 20
-3.010957575559515
 42
0.9284189221609072
 10
2.767720719867885
 20
-3.151576398185109
 10
2.995389289833135
 20
-3.412725640204072
 42
0.9058375253520349
 10
3.169488784512441
 20
-3.292195220810702
 42
0.5885974569407209
  0
LWPOLYLINE
  5
17D
330
1E
100
AcDbEntity
  8
ADP1DETAIL
100
AcDbPolyline
 90
        5
 70
     0
 43
0.0
 10
2.741860915428491
 20
-3.104703457309912
 10
2.641418899267351
 20
-3.010957575559515
 42
0.9284189221609072
 10
2.494103942231015
 20
-3.151576398185109
 10
2.721772512196265
 20
-3.412725640204072
 42
0.9058375253520349
 10
2.895872006875571
 20
-3.292195220810702
 42
0.5885974569407209
  0
LWPOLYLINE
  5
184
330
1E
100
AcDbEntity
  8
ADP1DETAIL
100
AcDbPolyline
 90
        5
 70
     0
 43
0.0
 10
2.468244137791621
 20
-3.104703457309912
 10
2.367802121630481
 20
-3.010957575559515
 42
0.9284189221609072
 10
2.220487164594145
 20
-3.151576398185109
 10
2.448155734559394
 20
-3.412725640204072
 42
0.9058375253520349
 10
2.6222552292387
 20
-3.292195220810702
 42
0.5885974569407209
  0
ARC
  5
18B
330
1E
100
AcDbEntity
  8
ADP1DETAIL
100
AcDbCircle
 10
2.440532399701053
 20
-3.233099685223634
 30
0.0
 40
0.375724530279794
100
AcDbArc
 50
234.0673535627094
 51
305.9326464372905
  0
LWPOLYLINE
  5
18C
330
1E
100
AcDbEntity
  8
ADP1DETAIL
100
AcDbPolyline
 90
        5
 70
     0
 43
0.0
 10
3.292558475273385
 20
-3.104703457309912
 10
3.192116459112245
 20
-3.010957575559515
 42
0.9284189221609072
 10
3.04480150207591
 20
-3.151576398185109
 10
3.272470072041159
 20
-3.412725640204072
 42
0.9058375253520349
 10
3.446569566720464
 20
-3.292195220810702
 42
0.5885974569407209
  0
ARC
  5
193
330
1E
100
AcDbEntity
  8
ADP1DETAIL
100
AcDbCircle
 10
3.3200479804424
 20
-3.241699570227078
 30
0.0
 40
0.3671136656320204
100
AcDbArc
 50
233.6516075405736
 51
306.3632857695612
  0
LWPOLYLINE
  5
194
330
1E
100
AcDbEntity
  8
ADP1DETAIL
100
AcDbPolyline
 90
        5
 70
     0
 43
0.0
 10
4.91750706210347
 20
-3.104703457309912
 10
4.81706504594233
 20
-3.010957575559515
 42
0.9284189221609072
 10
4.669750088905995
 20
-3.151576398185109
 10
4.897418658871244
 20
-3.412725640204072
 42
0.9058375253520349
 10
5.07151815355055
 20
-3.292195220810702
 42
0.5885974569407209
  0
ARC
  5
19B
330
1E
100
AcDbEntity
  8
ADP1DETAIL
100
AcDbCircle
 10
5.066975523215379
 20
-3.241699570227078
 30
0.0
 40
0.3671136656320204
100
AcDbArc
 50
233.6516075405736
 51
306.3632857695612
  0
LWPOLYLINE
  5
19C
330
1E
100
AcDbEntity
  8
ADP1DETAIL
100
AcDbPolyline
 90
        5
 70
     0
 43
0.0
 10
5.185539845444442
 20
-3.104703457309912
 10
5.085097829283302
 20
-3.010957575559515
 42
0.9284189221609072
 10
4.937782872246967
 20
-3.151576398185109
 10
5.165451442212216
 20
-3.412725640204072
 42
0.9058375253520349
 10
5.339550936891522
 20
-3.292195220810702
 42
0.5885974569407209
  0
ARC
  5
1A3
330
1E
100
AcDbEntity
  8
ADP1DETAIL
100
AcDbCircle
 10
4.187459942474032
 20
-3.233099685223634
 30
0.0
 40
0.375724530279794
100
AcDbArc
 50
234.0673535627094
 51
305.9326464372905
  0
LWPOLYLINE
  5
1A4
330
1E
100
AcDbEntity
  8
ADP1DETAIL
100
AcDbPolyline
 90
        5
 70
     0
 43
0.0
 10
4.375857549177349
 20
-3.104703457309912
 10
4.275415533016209
 20
-3.010957575559515
 42
0.9284189221609072
 10
4.128100575979873
 20
-3.151576398185109
 10
4.355769145945123
 20
-3.412725640204072
 42
0.9058375253520349
 10
4.529868640624428
 20
-3.292195220810702
 42
0.5885974569407209
  0
LWPOLYLINE
  5
1AB
330
1E
100
AcDbEntity
  8
ADP1DETAIL
100
AcDbPolyline
 90
        5
 70
     0
 43
0.0
 10
4.107824765836377
 20
-3.104703457309912
 10
4.007382749675237
 20
-3.010957575559515
 42
0.9284189221609072
 10
3.860067792638901
 20
-3.151576398185109
 10
4.08773636260415
 20
-3.412725640204072
 42
0.9058375253520349
 10
4.261835857283457
 20
-3.292195220810702
 42
0.5885974569407209
  0
LWPOLYLINE
  5
1B2
330
1E
100
AcDbEntity
  8
ADP1DETAIL
100
AcDbPolyline
 90
        5
 70
     0
 43
0.0
 10
4.649474326814219
 20
-3.104703457309912
 10
4.549032310653079
 20
-3.010957575559515
 42
0.9284189221609072
 10
4.401717353616744
 20
-3.151576398185109
 10
4.629385923581993
 20
-3.412725640204072
 42
0.9058375253520349
 10
4.803485418261299
 20
-3.292195220810702
 42
0.5885974569407209
  0
ARC
  5
1B9
330
1E
100
AcDbEntity
  8
ADP1DETAIL
100
AcDbCircle
 10
4.631422286325091
 20
-3.241699570227078
 30
0.0
 40
0.3671136656320204
100
AcDbArc
 50
233.6516075405736
 51
306.3632857695612
  0
ARC
  5
1BA
330
1E
100
AcDbEntity
  8
ADP1DETAIL
100
AcDbCircle
 10
5.502528760105668
 20
-3.241699570227078
 30
0.0
 40
0.3671136656320204
100
AcDbArc
 50
233.6516075405736
 51
306.3632857695612
  0
LWPOLYLINE
  5
1BB
330
1E
100
AcDbEntity
  8
ADP1DETAIL
100
AcDbPolyline
 90
        5
 70
     0
 43
0.0
 10
5.727189406422284
 20
-3.104703457309912
 10
5.626747390261144
 20
-3.010957575559515
 42
0.9284189221609072
 10
5.479432433224808
 20
-3.151576398185109
 10
5.707101003190057
 20
-3.412725640204072
 42
0.9058375253520349
 10
5.881200497869364
 20
-3.292195220810702
 42
0.5885974569407209
  0
LWPOLYLINE
  5
1C2
330
1E
100
AcDbEntity
  8
ADP1DETAIL
100
AcDbPolyline
 90
        5
 70
     0
 43
0.0
 10
6.000806184059154
 20
-3.104703457309912
 10
5.900364167898015
 20
-3.010957575559515
 42
0.9284189221609072
 10
5.753049210861679
 20
-3.151576398185109
 10
5.980717780826928
 20
-3.412725640204072
 42
0.9058375253520349
 10
6.154817275506234
 20
-3.292195220810702
 42
0.5885974569407209
  0
LWPOLYLINE
  5
1C9
330
1E
100
AcDbEntity
  8
ADP1DETAIL
100
AcDbPolyline
 90
        5
 70
     0
 43
0.0
 10
5.453572628785414
 20
-3.104703457309912
 10
5.353130612624275
 20
-3.010957575559515
 42
0.9284189221609072
 10
5.205815655587938
 20
-3.151576398185109
 10
5.433484225553188
 20
-3.412725640204072
 42
0.9058375253520349
 10
5.607583720232494
 20
-3.292195220810702
 42
0.5885974569407209
  0
ARC
  5
1D0
330
1E
100
AcDbEntity
  8
ADP1DETAIL
100
AcDbCircle
 10
5.940679413265849
 20
-3.233099685223634
 30
0.0
 40
0.375724530279794
100
AcDbArc
 50
234.0673535627094
 51
305.9326464372905
  0
LWPOLYLINE
  5
1D1
330
1E
100
AcDbEntity
  8
ADP1DETAIL
100
AcDbPolyline
 90
        5
 70
     0
 43
0.0
 10
3.567797794769146
 20
-0.7861699011001658
 10
3.467355778608006
 20
-0.6924240193497698
 42
0.9284189221609072
 10
3.32004082157167
 20
-0.833042841975363
 10
3.547709391536919
 20
-1.094192083994326
 42
0.9058375253520349
 10
3.721808886216225
 20
-0.9736616646009563
 42
0.5885974569407209
  0
LWPOLYLINE
  5
1D8
330
1E
100
AcDbEntity
  8
ADP1DETAIL
100
AcDbPolyline
 90
        2
 70
     0
 43
0.0
 10
3.578088496927244
 20
-2.0182586326768
 42
0.4490660643102647
 10
3.698618916320607
 20
-2.138789052070166
 42
-0.0304367258819094
  0
LWPOLYLINE
  5
1DC
330
1E
100
AcDbEntity
  8
ADP1DETAIL
100
AcDbPolyline
 90
        2
 70
     0
 43
0.0
 10
3.578088496927244
 20
-2.0182586326768
 42
-0.4490660643102647
 10
3.698618916320607
 20
-1.897728213283433
 42
0.0304367258819094
  0
ARC
  5
1E0
330
1E
100
AcDbEntity
  8
ADP1DETAIL
100
AcDbCircle
 10
3.749309289313852
 20
-0.7402940941076946
 30
0.0
 40
0.3671136656320204
100
AcDbArc
 50
53.63671423043872
 51
126.3483924594263
  0
LWPOLYLINE
  5
1E1
330
1E
100
AcDbEntity
  8
ADP1DETAIL
100
AcDbPolyline
 90
        5
 70
     0
 43
0.0
 10
3.839792030547126
 20
-0.7861699011001658
 10
3.739350014385986
 20
-0.6924240193497698
 42
0.9284189221609072
 10
3.59203505734965
 20
-0.833042841975363
 10
3.819703627314899
 20
-1.094192083994326
 42
0.9058375253520349
 10
3.993803121994205
 20
-0.9736616646009563
 42
0.5885974569407209
  0
LWPOLYLINE
  5
1E8
330
1E
100
AcDbEntity
  8
ADP1DETAIL
100
AcDbPolyline
 90
        9
 70
     0
 43
0.0
 10
3.397292867837194
 20
-1.629882836853731
 42
0.0514101544340771
 10
3.377204464604966
 20
-1.442391073352938
 42
-0.3333333333333133
 10
3.497734883998333
 20
-1.321860653959572
 42
0.199999999999989
 10
3.598176900159472
 20
-1.328556788370314
 42
-0.2248662268476127
 10
3.658442109856155
 20
-1.328556788370314
 42
0.2248662268476128
 10
3.718707319552838
 20
-1.328556788370314
 42
-0.2248662268476127
 10
3.778972529249521
 20
-1.328556788370314
 42
0.2248662268476128
 10
3.839237738946205
 20
-1.328556788370314
 42
-0.2685142439288102
 10
3.95270428249004
 20
-1.34901293304133
 42
0.2248662268476422
  0
ARC
  5
1F3
330
1E
100
AcDbEntity
  8
ADP1DETAIL
100
AcDbCircle
 10
2.002381746540872
 20
-0.7402940941076946
 30
0.0
 40
0.3671136656320204
100
AcDbArc
 50
53.63671423043872
 51
126.3483924594263
  0
LWPOLYLINE
  5
1F4
330
1E
100
AcDbEntity
  8
ADP1DETAIL
100
AcDbPolyline
 90
        5
 70
     0
 43
0.0
 10
1.932178571109677
 20
-0.7861699011001658
 10
1.831736554948537
 20
-0.6924240193497698
 42
0.9284189221609072
 10
1.684421597912202
 20
-0.833042841975363
 10
1.912090167877451
 20
-1.094192083994326
 42
0.9058375253520349
 10
2.086189662556757
 20
-0.9736616646009563
 42
0.5885974569407209
  0
LWPOLYLINE
  5
1FB
330
1E
100
AcDbEntity
  8
ADP1DETAIL
100
AcDbPolyline
 90
        5
 70
     0
 43
0.0
 10
2.200211354450649
 20
-0.7861699011001658
 10
2.099769338289509
 20
-0.6924240193497698
 42
0.9284189221609072
 10
1.952454381253174
 20
-0.833042841975363
 10
2.180122951218423
 20
-1.094192083994326
 42
0.9058375253520349
 10
2.354222445897729
 20
-0.9736616646009563
 42
0.5885974569407209
  0
LWPOLYLINE
  5
202
330
1E
100
AcDbEntity
  8
ADP1DETAIL
100
AcDbPolyline
 90
        5
 70
     0
 43
0.0
 10
1.390529058183556
 20
-0.7861699011001658
 10
1.290087042022416
 20
-0.6924240193497698
 42
0.9284189221609072
 10
1.14277208498608
 20
-0.833042841975363
 10
1.370440654951329
 20
-1.094192083994326
 42
0.9058375253520349
 10
1.544540149630635
 20
-0.9736616646009563
 42
0.5885974569407209
  0
LWPOLYLINE
  5
209
330
1E
100
AcDbEntity
  8
ADP1DETAIL
100
AcDbPolyline
 90
        5
 70
     0
 43
0.0
 10
1.664145835820426
 20
-0.7861699011001658
 10
1.563703819659286
 20
-0.6924240193497698
 42
0.9284189221609072
 10
1.41638886262295
 20
-0.833042841975363
 10
1.644057432588199
 20
-1.094192083994326
 42
0.9058375253520349
 10
1.818156927267505
 20
-0.9736616646009563
 42
0.5885974569407209
  0
LWPOLYLINE
  5
210
330
1E
100
AcDbEntity
  8
ADP1DETAIL
100
AcDbPolyline
 90
        5
 70
     0
 43
0.0
 10
1.122496274842584
 20
-0.7861699011001658
 10
1.022054258681444
 20
-0.6924240193497698
 42
0.9284189221609072
 10
0.8747393016451086
 20
-0.833042841975363
 10
1.102407871610357
 20
-1.094192083994326
 42
0.9058375253520349
 10
1.276507366289663
 20
-0.9736616646009563
 42
0.5885974569407209
  0
LWPOLYLINE
  5
217
330
1E
100
AcDbEntity
  8
ADP1DETAIL
100
AcDbPolyline
 90
        9
 70
     0
 43
0.0
 10
1.319044088957036
 20
-1.629882836853731
 42
0.0514101544340771
 10
1.298955685724809
 20
-1.442391073352938
 42
-0.3333333333333133
 10
1.419486105118175
 20
-1.321860653959572
 42
0.199999999999989
 10
1.519928121279314
 20
-1.328556788370314
 42
-0.2248662268476127
 10
1.580193330975997
 20
-1.328556788370314
 42
0.2248662268476128
 10
1.640458540672681
 20
-1.328556788370314
 42
-0.2248662268476127
 10
1.700723750369364
 20
-1.328556788370314
 42
0.2248662268476128
 10
1.760988960066047
 20
-1.328556788370314
 42
-0.2685142439288102
 10
1.874455503609882
 20
-1.34901293304133
 42
0.2248662268476422
  0
LWPOLYLINE
  5
222
330
1E
100
AcDbEntity
  8
ADP1DETAIL
100
AcDbPolyline
 90
        2
 70
     0
 43
0.0
 10
1.205209803974413
 20
-1.723628718604125
 42
-0.4490660643102647
 10
1.084679384581046
 20
-1.603098299210762
 42
0.0304367258819094
  0
LWPOLYLINE
  5
226
330
1E
100
AcDbEntity
  8
ADP1DETAIL
100
AcDbPolyline
 90
        2
 70
     0
 43
0.0
 10
1.205209803974413
 20
-1.723628718604125
 42
0.4490660643102647
 10
1.325740223367779
 20
-1.603098299210762
 42
-0.0304367258819094
  0
LWPOLYLINE
  5
22A
330
1E
100
AcDbEntity
  8
ADP1DETAIL
100
AcDbPolyline
 90
        2
 70
     0
 43
0.0
 10
1.205209803974412
 20
-2.312888546749474
 42
0.4490660643102647
 10
1.084679384581046
 20
-2.433418966142837
 42
-0.0304367258819094
  0
LWPOLYLINE
  5
22E
330
1E
100
AcDbEntity
  8
ADP1DETAIL
100
AcDbPolyline
 90
        2
 70
     0
 43
0.0
 10
0.9105798899017386
 20
-2.0182586326768
 42
-0.4490660643102647
 10
0.7900494705083756
 20
-2.138789052070166
 42
0.0304367258819094
  0
LWPOLYLINE
  5
232
330
1E
100
AcDbEntity
  8
ADP1DETAIL
100
AcDbPolyline
 90
        2
 70
     0
 43
0.0
 10
0.9105798899017386
 20
-2.0182586326768
 42
0.4490660643102647
 10
0.7900494705083756
 20
-1.897728213283433
 42
-0.0304367258819094
  0
LWPOLYLINE
  5
236
330
1E
100
AcDbEntity
  8
ADP1DETAIL
100
AcDbPolyline
 90
        2
 70
     0
 43
0.0
 10
1.205209803974412
 20
-2.312888546749474
 42
-0.4490660643102647
 10
1.325740223367779
 20
-2.433418966142837
 42
0.0304367258819094
  0
LWPOLYLINE
  5
23A
330
1E
100
AcDbEntity
  8
ADP1DETAIL
100
AcDbPolyline
 90
        9
 70
     0
 43
0.0
 10
1.593585599797481
 20
-1.904424347694176
 42
-0.0514101544340771
 10
1.781077363298273
 20
-1.924512750926403
 42
0.3333333333333133
 10
1.90160778269164
 20
-1.803982331533037
 42
-0.199999999999989
 10
1.894911648280898
 20
-1.703540315371898
 42
0.2248662268476127
 10
1.894911648280898
 20
-1.643275105675215
 42
-0.2248662268476128
 10
1.894911648280898
 20
-1.583009895978532
 42
0.2248662268476127
 10
1.894911648280898
 20
-1.522744686281849
 42
-0.2248662268476128
 10
1.894911648280898
 20
-1.462479476585166
 42
0.2685142439288102
 10
1.874455503609882
 20
-1.34901293304133
 42
-0.2248662268476422
  0
LWPOLYLINE
  5
245
330
1E
100
AcDbEntity
  8
ADP1DETAIL
100
AcDbPolyline
 90
        2
 70
     0
 43
0.0
 10
1.499839718047087
 20
-2.0182586326768
 42
0.4490660643102647
 10
1.62037013744045
 20
-2.138789052070166
 42
-0.0304367258819094
  0
LWPOLYLINE
  5
249
330
1E
100
AcDbEntity
  8
ADP1DETAIL
100
AcDbPolyline
 90
        2
 70
     0
 43
0.0
 10
1.499839718047087
 20
-2.0182586326768
 42
-0.4490660643102647
 10
1.62037013744045
 20
-1.897728213283433
 42
0.0304367258819094
  0
ARC
  5
24D
330
1E
100
AcDbEntity
  8
ADP1DETAIL
100
AcDbCircle
 10
1.566828509650583
 20
-0.7402940941076946
 30
0.0
 40
0.3671136656320204
100
AcDbArc
 50
53.63671423043872
 51
126.3483924594263
  0
ARC
  5
24E
330
1E
100
AcDbEntity
  8
ADP1DETAIL
100
AcDbCircle
 10
1.131275272760294
 20
-0.7402940941076946
 30
0.0
 40
0.3671136656320204
100
AcDbArc
 50
53.63671423043872
 51
126.3483924594263
  0
LWPOLYLINE
  5
24F
330
1E
100
AcDbEntity
  8
ADP1DETAIL
100
AcDbPolyline
 90
        5
 70
     0
 43
0.0
 10
2.741860915428491
 20
-0.7861699011001658
 10
2.641418899267351
 20
-0.6924240193497698
 42
0.9284189221609072
 10
2.494103942231015
 20
-0.833042841975363
 10
2.721772512196265
 20
-1.094192083994326
 42
0.9058375253520349
 10
2.895872006875571
 20
-0.9736616646009563
 42
0.5885974569407209
  0
LWPOLYLINE
  5
256
330
1E
100
AcDbEntity
  8
ADP1DETAIL
100
AcDbPolyline
 90
        5
 70
     0
 43
0.0
 10
3.292558475273385
 20
-0.7861699011001658
 10
3.192116459112245
 20
-0.6924240193497698
 42
0.9284189221609072
 10
3.04480150207591
 20
-0.833042841975363
 10
3.272470072041159
 20
-1.094192083994326
 42
0.9058375253520349
 10
3.446569566720464
 20
-0.9736616646009563
 42
0.5885974569407209
  0
LWPOLYLINE
  5
25D
330
1E
100
AcDbEntity
  8
ADP1DETAIL
100
AcDbPolyline
 90
        5
 70
     0
 43
0.0
 10
3.015477693065361
 20
-0.7861699011001658
 10
2.915035676904221
 20
-0.6924240193497698
 42
0.9284189221609072
 10
2.767720719867885
 20
-0.833042841975363
 10
2.995389289833135
 20
-1.094192083994326
 42
0.9058375253520349
 10
3.169488784512441
 20
-0.9736616646009563
 42
0.5885974569407209
  0
LWPOLYLINE
  5
264
330
1E
100
AcDbEntity
  8
ADP1DETAIL
100
AcDbPolyline
 90
        5
 70
     0
 43
0.0
 10
2.468244137791621
 20
-0.7861699011001658
 10
2.367802121630481
 20
-0.6924240193497698
 42
0.9284189221609072
 10
2.220487164594145
 20
-0.833042841975363
 10
2.448155734559394
 20
-1.094192083994326
 42
0.9058375253520349
 10
2.6222552292387
 20
-0.9736616646009563
 42
0.5885974569407209
  0
LWPOLYLINE
  5
26B
330
1E
100
AcDbEntity
  8
ADP1DETAIL
100
AcDbPolyline
 90
        9
 70
     0
 43
0.0
 10
3.169624297871947
 20
-1.629882836853731
 42
-0.0514101544340771
 10
3.189712701104174
 20
-1.442391073352938
 42
0.3333333333333133
 10
3.069182281710808
 20
-1.321860653959572
 42
-0.199999999999989
 10
2.968740265549669
 20
-1.328556788370314
 42
0.2248662268476127
 10
2.908475055852986
 20
-1.328556788370314
 42
-0.2248662268476128
 10
2.848209846156303
 20
-1.328556788370314
 42
0.2248662268476127
 10
2.787944636459619
 20
-1.328556788370314
 42
-0.2248662268476128
 10
2.727679426762936
 20
-1.328556788370314
 42
0.2685142439288102
 10
2.614212883219101
 20
-1.34901293304133
 42
-0.2248662268476422
  0
LWPOLYLINE
  5
276
330
1E
100
AcDbEntity
  8
ADP1DETAIL
100
AcDbPolyline
 90
        9
 70
     0
 43
0.0
 10
2.895082787031502
 20
-1.904424347694176
 42
0.0514101544340771
 10
2.707591023530709
 20
-1.924512750926403
 42
-0.3333333333333133
 10
2.587060604137342
 20
-1.803982331533036
 42
0.199999999999989
 10
2.593756738548085
 20
-1.703540315371898
 42
-0.2248662268476127
 10
2.593756738548085
 20
-1.643275105675215
 42
0.2248662268476128
 10
2.593756738548085
 20
-1.583009895978531
 42
-0.2248662268476127
 10
2.593756738548085
 20
-1.522744686281848
 42
0.2248662268476128
 10
2.593756738548085
 20
-1.462479476585165
 42
-0.2685142439288102
 10
2.614212883219101
 20
-1.34901293304133
 42
0.2248662268476422
  0
LWPOLYLINE
  5
281
330
1E
100
AcDbEntity
  8
ADP1DETAIL
100
AcDbPolyline
 90
        2
 70
     0
 43
0.0
 10
3.28345858285457
 20
-1.723628718604125
 42
-0.4490660643102647
 10
3.162928163461204
 20
-1.603098299210762
 42
0.0304367258819094
  0
LWPOLYLINE
  5
285
330
1E
100
AcDbEntity
  8
ADP1DETAIL
100
AcDbPolyline
 90
        2
 70
     0
 43
0.0
 10
3.28345858285457
 20
-1.723628718604125
 42
0.4490660643102647
 10
3.403989002247937
 20
-1.603098299210762
 42
-0.0304367258819094
  0
LWPOLYLINE
  5
289
330
1E
100
AcDbEntity
  8
ADP1DETAIL
100
AcDbPolyline
 90
        2
 70
     0
 43
0.0
 10
3.28345858285457
 20
-2.312888546749474
 42
0.4490660643102647
 10
3.162928163461203
 20
-2.433418966142837
 42
-0.0304367258819094
  0
LWPOLYLINE
  5
28D
330
1E
100
AcDbEntity
  8
ADP1DETAIL
100
AcDbPolyline
 90
        2
 70
     0
 43
0.0
 10
2.988828668781896
 20
-2.0182586326768
 42
-0.4490660643102647
 10
2.868298249388533
 20
-2.138789052070166
 42
0.0304367258819094
  0
LWPOLYLINE
  5
291
330
1E
100
AcDbEntity
  8
ADP1DETAIL
100
AcDbPolyline
 90
        2
 70
     0
 43
0.0
 10
2.988828668781896
 20
-2.0182586326768
 42
0.4490660643102647
 10
2.868298249388533
 20
-1.897728213283433
 42
-0.0304367258819094
  0
LWPOLYLINE
  5
295
330
1E
100
AcDbEntity
  8
ADP1DETAIL
100
AcDbPolyline
 90
        2
 70
     0
 43
0.0
 10
3.28345858285457
 20
-2.312888546749474
 42
-0.4490660643102647
 10
3.403989002247937
 20
-2.433418966142837
 42
0.0304367258819094
  0
ARC
  5
299
330
1E
100
AcDbEntity
  8
ADP1DETAIL
100
AcDbCircle
 10
2.884494743552111
 20
-0.7402940941076946
 30
0.0
 40
0.3671136656320204
100
AcDbArc
 50
53.63671423043872
 51
126.3483924594263
  0
ARC
  5
29A
330
1E
100
AcDbEntity
  8
ADP1DETAIL
100
AcDbCircle
 10
2.440532399701053
 20
-0.74889397911114
 30
0.0
 40
0.375724530279794
100
AcDbArc
 50
54.06735356270946
 51
125.9326464372905
  0
ARC
  5
29B
330
1E
100
AcDbEntity
  8
ADP1DETAIL
100
AcDbCircle
 10
3.3200479804424
 20
-0.7402940941076946
 30
0.0
 40
0.3671136656320204
100
AcDbArc
 50
53.63671423043872
 51
126.3483924594263
  0
LWPOLYLINE
  5
29C
330
1E
100
AcDbEntity
  8
ADP1DETAIL
100
AcDbPolyline
 90
        5
 70
     0
 43
0.0
 10
4.91750706210347
 20
-0.7861699011001658
 10
4.81706504594233
 20
-0.6924240193497698
 42
0.9284189221609072
 10
4.669750088905995
 20
-0.833042841975363
 10
4.897418658871244
 20
-1.094192083994326
 42
0.9058375253520349
 10
5.07151815355055
 20
-0.9736616646009563
 42
0.5885974569407209
  0
ARC
  5
2A3
330
1E
100
AcDbEntity
  8
ADP1DETAIL
100
AcDbCircle
 10
5.066975523215379
 20
-0.7402940941076946
 30
0.0
 40
0.3671136656320204
100
AcDbArc
 50
53.63671423043872
 51
126.3483924594263
  0
LWPOLYLINE
  5
2A4
330
1E
100
AcDbEntity
  8
ADP1DETAIL
100
AcDbPolyline
 90
        5
 70
     0
 43
0.0
 10
5.185539845444442
 20
-0.7861699011001658
 10
5.085097829283302
 20
-0.6924240193497698
 42
0.9284189221609072
 10
4.937782872246967
 20
-0.833042841975363
 10
5.165451442212216
 20
-1.094192083994326
 42
0.9058375253520349
 10
5.339550936891522
 20
-0.9736616646009563
 42
0.5885974569407209
  0
LWPOLYLINE
  5
2AB
330
1E
100
AcDbEntity
  8
ADP1DETAIL
100
AcDbPolyline
 90
        9
 70
     0
 43
0.0
 10
5.270020934926341
 20
-1.629882836853731
 42
-0.0514101544340771
 10
5.290109338158569
 20
-1.442391073352938
 42
0.3333333333333133
 10
5.169578918765203
 20
-1.321860653959572
 42
-0.199999999999989
 10
5.069136902604063
 20
-1.328556788370314
 42
0.2248662268476127
 10
5.008871692907381
 20
-1.328556788370314
 42
-0.2248662268476128
 10
4.948606483210697
 20
-1.328556788370314
 42
0.2248662268476127
 10
4.888341273514014
 20
-1.328556788370314
 42
-0.2248662268476128
 10
4.828076063817331
 20
-1.328556788370314
 42
0.2685142439288102
 10
4.714609520273495
 20
-1.34901293304133
 42
-0.2248662268476422
  0
LWPOLYLINE
  5
2B6
330
1E
100
AcDbEntity
  8
ADP1DETAIL
100
AcDbPolyline
 90
        2
 70
     0
 43
0.0
 10
5.089225305836291
 20
-2.0182586326768
 42
-0.4490660643102647
 10
4.968694886442928
 20
-2.138789052070166
 42
0.0304367258819094
  0
LWPOLYLINE
  5
2BA
330
1E
100
AcDbEntity
  8
ADP1DETAIL
100
AcDbPolyline
 90
        2
 70
     0
 43
0.0
 10
5.089225305836291
 20
-2.0182586326768
 42
0.4490660643102647
 10
4.968694886442928
 20
-1.897728213283433
 42
-0.0304367258819094
  0
LWPOLYLINE
  5
2BE
330
1E
100
AcDbEntity
  8
ADP1DETAIL
100
AcDbPolyline
 90
        9
 70
     0
 43
0.0
 10
4.995479424085896
 20
-1.904424347694176
 42
0.0514101544340771
 10
4.807987660585104
 20
-1.924512750926403
 42
-0.3333333333333133
 10
4.687457241191737
 20
-1.803982331533036
 42
0.199999999999989
 10
4.69415337560248
 20
-1.703540315371898
 42
-0.2248662268476127
 10
4.69415337560248
 20
-1.643275105675215
 42
0.2248662268476128
 10
4.69415337560248
 20
-1.583009895978531
 42
-0.2248662268476127
 10
4.69415337560248
 20
-1.522744686281848
 42
0.2248662268476128
 10
4.69415337560248
 20
-1.462479476585165
 42
-0.2685142439288102
 10
4.714609520273495
 20
-1.34901293304133
 42
0.2248662268476422
  0
LWPOLYLINE
  5
2C9
330
1E
100
AcDbEntity
  8
ADP1DETAIL
100
AcDbPolyline
 90
        5
 70
     0
 43
0.0
 10
4.107824765836377
 20
-0.7861699011001658
 10
4.007382749675237
 20
-0.6924240193497698
 42
0.9284189221609072
 10
3.860067792638901
 20
-0.833042841975363
 10
4.08773636260415
 20
-1.094192083994326
 42
0.9058375253520349
 10
4.261835857283457
 20
-0.9736616646009563
 42
0.5885974569407209
  0
LWPOLYLINE
  5
2D0
330
1E
100
AcDbEntity
  8
ADP1DETAIL
100
AcDbPolyline
 90
        5
 70
     0
 43
0.0
 10
4.375857549177349
 20
-0.7861699011001658
 10
4.275415533016209
 20
-0.6924240193497698
 42
0.9284189221609072
 10
4.128100575979873
 20
-0.833042841975363
 10
4.355769145945123
 20
-1.094192083994326
 42
0.9058375253520349
 10
4.529868640624428
 20
-0.9736616646009563
 42
0.5885974569407209
  0
LWPOLYLINE
  5
2D7
330
1E
100
AcDbEntity
  8
ADP1DETAIL
100
AcDbPolyline
 90
        5
 70
     0
 43
0.0
 10
4.649474326814219
 20
-0.7861699011001658
 10
4.549032310653079
 20
-0.6924240193497698
 42
0.9284189221609072
 10
4.401717353616744
 20
-0.833042841975363
 10
4.629385923581992
 20
-1.094192083994326
 42
0.9058375253520349
 10
4.803485418261298
 20
-0.9736616646009563
 42
0.5885974569407209
  0
LWPOLYLINE
  5
2DE
330
1E
100
AcDbEntity
  8
ADP1DETAIL
100
AcDbPolyline
 90
        9
 70
     0
 43
0.0
 10
3.671834378677639
 20
-1.904424347694176
 42
-0.0514101544340771
 10
3.859326142178431
 20
-1.924512750926403
 42
0.3333333333333133
 10
3.979856561571797
 20
-1.803982331533037
 42
-0.199999999999989
 10
3.973160427161055
 20
-1.703540315371898
 42
0.2248662268476127
 10
3.973160427161055
 20
-1.643275105675215
 42
-0.2248662268476128
 10
3.973160427161055
 20
-1.583009895978532
 42
0.2248662268476127
 10
3.973160427161055
 20
-1.522744686281849
 42
-0.2248662268476128
 10
3.973160427161055
 20
-1.462479476585166
 42
0.2685142439288102
 10
3.95270428249004
 20
-1.34901293304133
 42
-0.2248662268476422
  0
ARC
  5
2E9
330
1E
100
AcDbEntity
  8
ADP1DETAIL
100
AcDbCircle
 10
4.187459942474032
 20
-0.74889397911114
 30
0.0
 40
0.375724530279794
100
AcDbArc
 50
54.06735356270946
 51
125.9326464372905
  0
ARC
  5
2EA
330
1E
100
AcDbEntity
  8
ADP1DETAIL
100
AcDbCircle
 10
4.631422286325091
 20
-0.7402940941076946
 30
0.0
 40
0.3671136656320204
100
AcDbArc
 50
53.63671423043872
 51
126.3483924594263
  0
LWPOLYLINE
  5
2EB
330
1E
100
AcDbEntity
  8
ADP1DETAIL
100
AcDbPolyline
 90
        5
 70
     0
 43
0.0
 10
5.727189406422284
 20
-0.7861699011001658
 10
5.626747390261144
 20
-0.6924240193497698
 42
0.9284189221609072
 10
5.479432433224808
 20
-0.833042841975363
 10
5.707101003190057
 20
-1.094192083994326
 42
0.9058375253520349
 10
5.881200497869364
 20
-0.9736616646009563
 42
0.5885974569407209
  0
LWPOLYLINE
  5
2F2
330
1E
100
AcDbEntity
  8
ADP1DETAIL
100
AcDbPolyline
 90
        5
 70
     0
 43
0.0
 10
6.000806184059154
 20
-0.7861699011001658
 10
5.900364167898015
 20
-0.6924240193497698
 42
0.9284189221609072
 10
5.753049210861679
 20
-0.833042841975363
 10
5.980717780826928
 20
-1.094192083994326
 42
0.9058375253520349
 10
6.154817275506234
 20
-0.9736616646009563
 42
0.5885974569407209
  0
LWPOLYLINE
  5
2F9
330
1E
100
AcDbEntity
  8
ADP1DETAIL
100
AcDbPolyline
 90
        5
 70
     0
 43
0.0
 10
5.453572628785414
 20
-0.7861699011001658
 10
5.353130612624275
 20
-0.6924240193497698
 42
0.9284189221609072
 10
5.205815655587938
 20
-0.833042841975363
 10
5.433484225553188
 20
-1.094192083994326
 42
0.9058375253520349
 10
5.607583720232494
 20
-0.9736616646009563
 42
0.5885974569407209
  0
LWPOLYLINE
  5
300
330
1E
100
AcDbEntity
  8
ADP1DETAIL
100
AcDbPolyline
 90
        9
 70
     0
 43
0.0
 10
5.497689504891589
 20
-1.629882836853731
 42
0.0514101544340771
 10
5.477601101659361
 20
-1.442391073352938
 42
-0.3333333333333133
 10
5.598131521052728
 20
-1.321860653959572
 42
0.199999999999989
 10
5.698573537213866
 20
-1.328556788370314
 42
-0.2248662268476127
 10
5.75883874691055
 20
-1.328556788370314
 42
0.2248662268476128
 10
5.819103956607233
 20
-1.328556788370314
 42
-0.2248662268476127
 10
5.879369166303916
 20
-1.328556788370314
 42
0.2248662268476128
 10
5.9396343760006
 20
-1.328556788370314
 42
-0.2685142439288102
 10
6.053100919544435
 20
-1.34901293304133
 42
0.2248662268476422
  0
LWPOLYLINE
  5
30B
330
1E
100
AcDbEntity
  8
ADP1DETAIL
100
AcDbPolyline
 90
        2
 70
     0
 43
0.0
 10
5.67848513398164
 20
-2.0182586326768
 42
0.4490660643102647
 10
5.799015553375003
 20
-2.138789052070166
 42
-0.0304367258819094
  0
LWPOLYLINE
  5
30F
330
1E
100
AcDbEntity
  8
ADP1DETAIL
100
AcDbPolyline
 90
        2
 70
     0
 43
0.0
 10
5.67848513398164
 20
-2.0182586326768
 42
-0.4490660643102647
 10
5.799015553375003
 20
-1.897728213283433
 42
0.0304367258819094
  0
LWPOLYLINE
  5
313
330
1E
100
AcDbEntity
  8
ADP1DETAIL
100
AcDbPolyline
 90
        2
 70
     0
 43
0.0
 10
5.383855219908965
 20
-1.723628718604125
 42
0.4490660643102647
 10
5.504385639302332
 20
-1.603098299210762
 42
-0.0304367258819094
  0
LWPOLYLINE
  5
317
330
1E
100
AcDbEntity
  8
ADP1DETAIL
100
AcDbPolyline
 90
        2
 70
     0
 43
0.0
 10
5.383855219908965
 20
-1.723628718604125
 42
-0.4490660643102647
 10
5.263324800515599
 20
-1.603098299210762
 42
0.0304367258819094
  0
LWPOLYLINE
  5
31B
330
1E
100
AcDbEntity
  8
ADP1DETAIL
100
AcDbPolyline
 90
        2
 70
     0
 43
0.0
 10
5.383855219908965
 20
-2.312888546749474
 42
0.4490660643102647
 10
5.263324800515599
 20
-2.433418966142837
 42
-0.0304367258819094
  0
LWPOLYLINE
  5
31F
330
1E
100
AcDbEntity
  8
ADP1DETAIL
100
AcDbPolyline
 90
        2
 70
     0
 43
0.0
 10
5.383855219908965
 20
-2.312888546749474
 42
-0.4490660643102647
 10
5.504385639302332
 20
-2.433418966142837
 42
0.0304367258819094
  0
LWPOLYLINE
  5
323
330
1E
100
AcDbEntity
  8
ADP1DETAIL
100
AcDbPolyline
 90
        9
 70
     0
 43
0.0
 10
5.772231015732034
 20
-1.904424347694176
 42
-0.0514101544340771
 10
5.959722779232826
 20
-1.924512750926403
 42
0.3333333333333133
 10
6.080253198626193
 20
-1.803982331533037
 42
-0.199999999999989
 10
6.07355706421545
 20
-1.703540315371898
 42
0.2248662268476127
 10
6.07355706421545
 20
-1.643275105675215
 42
-0.2248662268476128
 10
6.07355706421545
 20
-1.583009895978532
 42
0.2248662268476127
 10
6.07355706421545
 20
-1.522744686281849
 42
-0.2248662268476128
 10
6.07355706421545
 20
-1.462479476585166
 42
0.2685142439288102
 10
6.053100919544434
 20
-1.34901293304133
 42
-0.2248662268476422
  0
ARC
  5
32E
330
1E
100
AcDbEntity
  8
ADP1DETAIL
100
AcDbCircle
 10
5.502528760105668
 20
-0.7402940941076946
 30
0.0
 40
0.3671136656320204
100
AcDbArc
 50
53.63671423043872
 51
126.3483924594263
  0
ARC
  5
32F
330
1E
100
AcDbEntity
  8
ADP1DETAIL
100
AcDbCircle
 10
5.940679413265849
 20
-0.74889397911114
 30
0.0
 40
0.375724530279794
100
AcDbArc
 50
54.06735356270946
 51
125.9326464372905
  0
ARC
  5
330
330
1E
100
AcDbEntity
  8
ADP1DETAIL
100
AcDbCircle
 10
6.820194994007197
 20
-3.241699570227078
 30
0.0
 40
0.3671136656320204
100
AcDbArc
 50
233.6516075405736
 51
306.3632857695612
  0
ARC
  5
331
330
1E
100
AcDbEntity
  8
ADP1DETAIL
100
AcDbCircle
 10
6.820194994007197
 20
-0.7402940941076946
 30
0.0
 40
0.3671136656320204
100
AcDbArc
 50
53.63671423043872
 51
126.3483924594263
  0
TEXT
  5
335
330
1E
100
AcDbEntity
  8
ADPDIM
100
AcDbText
 10
-2.994005677667517
 20
-4.252307006253409
 30
0.0
 40
0.125
  1
J U L I U S  B L U M  &  C O . ,  I N C .      ( 8 0 0 )  5 2 6 - 6 2 9 3        W W W . J U L I U S B L U M . C O M        P A R T  N o .  2 8 5 5
 41
1.25
  7
ARIAL_WIDE
 72
     1
 11
3.531723346889099
 21
-4.127307006253409
 31
0.0
100
AcDbText
 73
     3
  0
ENDSEC
  0
SECTION
  2
OBJECTS
  0
DICTIONARY
  5
C
330
0
100
AcDbDictionary
  3
ACAD_GROUP
350
D
  3
ACAD_LAYOUT
350
19
  3
ACAD_MLINESTYLE
350
16
  3
ACAD_PLOTSETTINGS
350
18
  3
ACAD_PLOTSTYLENAME
350
E
  3
ACDBHEADERROUNDTRIPXREC
350
502
  3
ACDBVARIABLEDICTIONARY
350
3A6
  0
DICTIONARY
  5
371
330
1E
100
AcDbDictionary
280
     1
  3
ACAD_LAYOUTSELFREF
360
524
  0
DICTIONARY
  5
373
330
1A
100
AcDbDictionary
280
     1
  3
ACAD_LAYOUTSELFREF
360
523
  0
DICTIONARY
  5
D
102
{ACAD_REACTORS
330
C
102
}
330
C
100
AcDbDictionary
  0
DICTIONARY
  5
19
102
{ACAD_REACTORS
330
C
102
}
330
C
100
AcDbDictionary
  0
DICTIONARY
  5
16
102
{ACAD_REACTORS
330
C
102
}
330
C
100
AcDbDictionary
  3
STANDARD
350
17
  0
DICTIONARY
  5
18
102
{ACAD_REACTORS
330
C
102
}
330
C
100
AcDbDictionary
  0
ACDBDICTIONARYWDFLT
  5
E
102
{ACAD_REACTORS
330
C
102
}
330
C
100
AcDbDictionary
281
     1
  3
Normal
350
F
100
AcDbDictionaryWithDefault
340
F
  0
DICTIONARY
  5
502
102
{ACAD_REACTORS
330
C
102
}
330
C
100
AcDbDictionary
  3
CEPSNTYPE
350
50C
  3
DIMSTYLEDATA
350
510
  3
FINGERPRINTGUID
350
50D
  3
HYPERLINKBASE
350
505
  3
INSUNITS
350
50B
  3
LAYOUTDICT
350
507
  3
LWETCUNION
350
50A
  3
PLOTSETDICT
350
508
  3
PLOTSTYLNAMDICT
350
509
  3
PSVPSCALE
350
50F
  3
PUCSBASE
350
513
  3
PUCSORGBACK
350
519
  3
PUCSORGBOTTOM
350
515
  3
PUCSORGFRONT
350
518
  3
PUCSORGLEFT
350
516
  3
PUCSORGRIGHT
350
517
  3
PUCSORGTOP
350
514
  3
PUCSORTHOREF
350
511
  3
PUCSORTHOVIEW
350
512
  3
STYLESHEET
350
506
  3
TSTACKALIGN
350
503
  3
TSTACKSIZE
350
504
  3
UCSBASE
350
51C
  3
UCSORGBACK
350
522
  3
UCSORGBOTTOM
350
51E
  3
UCSORGFRONT
350
521
  3
UCSORGLEFT
350
51F
  3
UCSORGRIGHT
350
520
  3
UCSORGTOP
350
51D
  3
UCSORTHOREF
350
51A
  3
UCSORTHOVIEW
350
51B
  3
VERSIONGUID
350
50E
  0
DICTIONARY
  5
3A6
102
{ACAD_REACTORS
330
C
102
}
330
C
100
AcDbDictionary
  3
DIMASSOC
350
3A8
  3
HIDETEXT
350
3A7
  0
XRECORD
  5
524
102
{ACAD_REACTORS
330
371
102
}
330
371
100
AcDbXrecord
340
1E
  0
XRECORD
  5
523
102
{ACAD_REACTORS
330
373
102
}
330
373
100
AcDbXrecord
340
1A
  0
MLINESTYLE
  5
17
102
{ACAD_REACTORS
330
16
102
}
330
16
100
AcDbMlineStyle
  2
STANDARD
 70
     0
  3

 62
   256
 51
90.0
 52
90.0
 71
     2
 49
0.5
 62
   256
  6
BYLAYER
 49
-0.5
 62
   256
  6
BYLAYER
  0
ACDBPLACEHOLDER
  5
F
102
{ACAD_REACTORS
330
E
102
}
330
E
100
AcDbPlaceHolder
280
     0
  0
XRECORD
  5
50C
102
{ACAD_REACTORS
330
502
102
}
330
502
100
AcDbXrecord
 90
        0
  0
XRECORD
  5
510
102
{ACAD_REACTORS
330
502
102
}
330
502
100
AcDbXrecord
1000
DSTYLE
1002
{
1070
   277
 70
     5
1070
   279
 70
     2
1002
}
  0
XRECORD
  5
50D
102
{ACAD_REACTORS
330
502
102
}
330
502
100
AcDbXrecord
  1
{D0493C9A-E2A2-4329-B29B-C73D5FE1907D}
  0
XRECORD
  5
505
102
{ACAD_REACTORS
330
502
102
}
330
502
100
AcDbXrecord
  1

  0
XRECORD
  5
50B
102
{ACAD_REACTORS
330
502
102
}
330
502
100
AcDbXrecord
 90
        0
  0
XRECORD
  5
507
102
{ACAD_REACTORS
330
502
102
}
330
502
100
AcDbXrecord
340
19
  0
XRECORD
  5
50A
102
{ACAD_REACTORS
330
502
102
}
330
502
100
AcDbXrecord
 90
    14877
  0
XRECORD
  5
508
102
{ACAD_REACTORS
330
502
102
}
330
502
100
AcDbXrecord
340
18
  0
XRECORD
  5
509
102
{ACAD_REACTORS
330
502
102
}
330
502
100
AcDbXrecord
340
E
  0
XRECORD
  5
50F
102
{ACAD_REACTORS
330
502
102
}
330
502
100
AcDbXrecord
 40
0.0
  0
XRECORD
  5
513
102
{ACAD_REACTORS
330
502
102
}
330
502
100
AcDbXrecord
340
0
  0
XRECORD
  5
519
102
{ACAD_REACTORS
330
502
102
}
330
502
100
AcDbXrecord
 10
0.0
 20
0.0
 30
0.0
  0
XRECORD
  5
515
102
{ACAD_REACTORS
330
502
102
}
330
502
100
AcDbXrecord
 10
0.0
 20
0.0
 30
0.0
  0
XRECORD
  5
518
102
{ACAD_REACTORS
330
502
102
}
330
502
100
AcDbXrecord
 10
0.0
 20
0.0
 30
0.0
  0
XRECORD
  5
516
102
{ACAD_REACTORS
330
502
102
}
330
502
100
AcDbXrecord
 10
0.0
 20
0.0
 30
0.0
  0
XRECORD
  5
517
102
{ACAD_REACTORS
330
502
102
}
330
502
100
AcDbXrecord
 10
0.0
 20
0.0
 30
0.0
  0
XRECORD
  5
514
102
{ACAD_REACTORS
330
502
102
}
330
502
100
AcDbXrecord
 10
0.0
 20
0.0
 30
0.0
  0
XRECORD
  5
511
102
{ACAD_REACTORS
330
502
102
}
330
502
100
AcDbXrecord
340
0
  0
XRECORD
  5
512
102
{ACAD_REACTORS
330
502
102
}
330
502
100
AcDbXrecord
 70
     0
  0
XRECORD
  5
506
102
{ACAD_REACTORS
330
502
102
}
330
502
100
AcDbXrecord
  1

  0
XRECORD
  5
503
102
{ACAD_REACTORS
330
502
102
}
330
502
100
AcDbXrecord
 90
        1
  0
XRECORD
  5
504
102
{ACAD_REACTORS
330
502
102
}
330
502
100
AcDbXrecord
 90
       70
  0
XRECORD
  5
51C
102
{ACAD_REACTORS
330
502
102
}
330
502
100
AcDbXrecord
340
0
  0
XRECORD
  5
522
102
{ACAD_REACTORS
330
502
102
}
330
502
100
AcDbXrecord
 10
0.0
 20
0.0
 30
0.0
  0
XRECORD
  5
51E
102
{ACAD_REACTORS
330
502
102
}
330
502
100
AcDbXrecord
 10
0.0
 20
0.0
 30
0.0
  0
XRECORD
  5
521
102
{ACAD_REACTORS
330
502
102
}
330
502
100
AcDbXrecord
 10
0.0
 20
0.0
 30
0.0
  0
XRECORD
  5
51F
102
{ACAD_REACTORS
330
502
102
}
330
502
100
AcDbXrecord
 10
0.0
 20
0.0
 30
0.0
  0
XRECORD
  5
520
102
{ACAD_REACTORS
330
502
102
}
330
502
100
AcDbXrecord
 10
0.0
 20
0.0
 30
0.0
  0
XRECORD
  5
51D
102
{ACAD_REACTORS
330
502
102
}
330
502
100
AcDbXrecord
 10
0.0
 20
0.0
 30
0.0
  0
XRECORD
  5
51A
102
{ACAD_REACTORS
330
502
102
}
330
502
100
AcDbXrecord
340
0
  0
XRECORD
  5
51B
102
{ACAD_REACTORS
330
502
102
}
330
502
100
AcDbXrecord
 70
     0
  0
XRECORD
  5
50E
102
{ACAD_REACTORS
330
502
102
}
330
502
100
AcDbXrecord
  1
{C6825725-9FCE-4219-B804-038C1F2E6143}
  0
DICTIONARYVAR
  5
3A8
102
{ACAD_REACTORS
330
3A6
102
}
330
3A6
100
DictionaryVariables
280
     0
  1
2
  0
DICTIONARYVAR
  5
3A7
102
{ACAD_REACTORS
330
3A6
102
}
330
3A6
100
DictionaryVariables
280
     0
  1
1
  0
ENDSEC
  0
EOF
