  0
SECTION
  2
HEADER
  9
$ACADVER
  1
AC1015
  9
$ACADMAINTVER
 70
    20
  9
$DWGCODEPAGE
  3
ANSI_1252
  9
$INSBASE
 10
4.278625977280838
 20
-0.0479409420985988
 30
0.0
  9
$EXTMIN
 10
-0.1846122373974284
 20
-2.307635304129097
 30
0.0
  9
$EXTMAX
 10
12.73319130966942
 20
1.823350209387679
 30
0.0
  9
$LIMMIN
 10
0.0
 20
0.0
  9
$LIMMAX
 10
36.0
 20
36.0
  9
$ORTHOMODE
 70
     0
  9
$REGENMODE
 70
     1
  9
$FILLMODE
 70
     1
  9
$QTEXTMODE
 70
     0
  9
$MIRRTEXT
 70
     1
  9
$LTSCALE
 40
1.0
  9
$ATTMODE
 70
     1
  9
$TEXTSIZE
 40
0.2
  9
$TRACEWID
 40
0.05
  9
$TEXTSTYLE
  7
STANDARD
  9
$CLAYER
  8
ADPDIM
  9
$CELTYPE
  6
ByLayer
  9
$CECOLOR
 62
   256
  9
$CELTSCALE
 40
1.0
  9
$DISPSILH
 70
     0
  9
$DIMSCALE
 40
1.0
  9
$DIMASZ
 40
0.125
  9
$DIMEXO
 40
0.0625
  9
$DIMDLI
 40
0.38
  9
$DIMRND
 40
0.0
  9
$DIMDLE
 40
0.0
  9
$DIMEXE
 40
0.18
  9
$DIMTP
 40
0.0
  9
$DIMTM
 40
0.0
  9
$DIMTXT
 40
0.125
  9
$DIMCEN
 40
0.1875
  9
$DIMTSZ
 40
0.125
  9
$DIMTOL
 70
     0
  9
$DIMLIM
 70
     0
  9
$DIMTIH
 70
     0
  9
$DIMTOH
 70
     0
  9
$DIMSE1
 70
     0
  9
$DIMSE2
 70
     0
  9
$DIMTAD
 70
     0
  9
$DIMZIN
 70
     3
  9
$DIMBLK
  1

  9
$DIMASO
 70
     1
  9
$DIMSHO
 70
     1
  9
$DIMPOST
  1

  9
$DIMAPOST
  1

  9
$DIMALT
 70
     0
  9
$DIMALTD
 70
     1
  9
$DIMALTF
 40
25.4
  9
$DIMLFAC
 40
1.0
  9
$DIMTOFL
 70
     0
  9
$DIMTVP
 40
0.0
  9
$DIMTIX
 70
     0
  9
$DIMSOXD
 70
     0
  9
$DIMSAH
 70
     0
  9
$DIMBLK1
  1

  9
$DIMBLK2
  1

  9
$DIMSTYLE
  2
Standard
  9
$DIMCLRD
 70
     0
  9
$DIMCLRE
 70
     0
  9
$DIMCLRT
 70
     0
  9
$DIMTFAC
 40
1.0
  9
$DIMGAP
 40
0.125
  9
$DIMJUST
 70
     0
  9
$DIMSD1
 70
     0
  9
$DIMSD2
 70
     0
  9
$DIMTOLJ
 70
     1
  9
$DIMTZIN
 70
     3
  9
$DIMALTZ
 70
     3
  9
$DIMALTTZ
 70
     3
  9
$DIMUPT
 70
     0
  9
$DIMDEC
 70
     4
  9
$DIMTDEC
 70
     4
  9
$DIMALTU
 70
     5
  9
$DIMALTTD
 70
     1
  9
$DIMTXSTY
  7
STANDARD
  9
$DIMAUNIT
 70
     0
  9
$DIMADEC
 70
     0
  9
$DIMALTRND
 40
0.0
  9
$DIMAZIN
 70
     0
  9
$DIMDSEP
 70
    46
  9
$DIMATFIT
 70
     3
  9
$DIMFRAC
 70
     0
  9
$DIMLDRBLK
  1

  9
$DIMLUNIT
 70
     5
  9
$DIMLWD
 70
    -2
  9
$DIMLWE
 70
    -2
  9
$DIMTMOVE
 70
     2
  9
$LUNITS
 70
     5
  9
$LUPREC
 70
     4
  9
$SKETCHINC
 40
0.1
  9
$FILLETRAD
 40
0.031
  9
$AUNITS
 70
     0
  9
$AUPREC
 70
     0
  9
$MENU
  1
acad
  9
$ELEVATION
 40
0.0
  9
$PELEVATION
 40
0.0
  9
$THICKNESS
 40
0.0
  9
$LIMCHECK
 70
     0
  9
$CHAMFERA
 40
0.0
  9
$CHAMFERB
 40
0.0
  9
$CHAMFERC
 40
0.0
  9
$CHAMFERD
 40
0.0
  9
$SKPOLY
 70
     0
  9
$TDCREATE
 40
2450226.559314815
  9
$TDUCREATE
 40
2450226.725981481
  9
$TDUPDATE
 40
2453949.929917812
  9
$TDUUPDATE
 40
2453950.096584479
  9
$TDINDWG
 40
0.0114843750
  9
$TDUSRTIMER
 40
0.0114843750
  9
$USRTIMER
 70
     1
  9
$ANGBASE
 50
0.0
  9
$ANGDIR
 70
     0
  9
$PDMODE
 70
     0
  9
$PDSIZE
 40
0.0
  9
$PLINEWID
 40
0.0
  9
$SPLFRAME
 70
     0
  9
$SPLINETYPE
 70
     6
  9
$SPLINESEGS
 70
     8
  9
$HANDSEED
  5
2DD
  9
$SURFTAB1
 70
     6
  9
$SURFTAB2
 70
     6
  9
$SURFTYPE
 70
     6
  9
$SURFU
 70
     6
  9
$SURFV
 70
     6
  9
$UCSBASE
  2

  9
$UCSNAME
  2

  9
$UCSORG
 10
0.0
 20
0.0
 30
0.0
  9
$UCSXDIR
 10
1.0
 20
0.0
 30
0.0
  9
$UCSYDIR
 10
0.0
 20
1.0
 30
0.0
  9
$UCSORTHOREF
  2

  9
$UCSORTHOVIEW
 70
     0
  9
$UCSORGTOP
 10
0.0
 20
0.0
 30
0.0
  9
$UCSORGBOTTOM
 10
0.0
 20
0.0
 30
0.0
  9
$UCSORGLEFT
 10
0.0
 20
0.0
 30
0.0
  9
$UCSORGRIGHT
 10
0.0
 20
0.0
 30
0.0
  9
$UCSORGFRONT
 10
0.0
 20
0.0
 30
0.0
  9
$UCSORGBACK
 10
0.0
 20
0.0
 30
0.0
  9
$PUCSBASE
  2

  9
$PUCSNAME
  2

  9
$PUCSORG
 10
0.0
 20
0.0
 30
0.0
  9
$PUCSXDIR
 10
1.0
 20
0.0
 30
0.0
  9
$PUCSYDIR
 10
0.0
 20
1.0
 30
0.0
  9
$PUCSORTHOREF
  2

  9
$PUCSORTHOVIEW
 70
     0
  9
$PUCSORGTOP
 10
0.0
 20
0.0
 30
0.0
  9
$PUCSORGBOTTOM
 10
0.0
 20
0.0
 30
0.0
  9
$PUCSORGLEFT
 10
0.0
 20
0.0
 30
0.0
  9
$PUCSORGRIGHT
 10
0.0
 20
0.0
 30
0.0
  9
$PUCSORGFRONT
 10
0.0
 20
0.0
 30
0.0
  9
$PUCSORGBACK
 10
0.0
 20
0.0
 30
0.0
  9
$USERI1
 70
     0
  9
$USERI2
 70
     0
  9
$USERI3
 70
     0
  9
$USERI4
 70
     0
  9
$USERI5
 70
     0
  9
$USERR1
 40
0.0
  9
$USERR2
 40
0.0
  9
$USERR3
 40
0.0
  9
$USERR4
 40
0.0
  9
$USERR5
 40
0.0
  9
$WORLDVIEW
 70
     1
  9
$SHADEDGE
 70
     3
  9
$SHADEDIF
 70
    70
  9
$TILEMODE
 70
     1
  9
$MAXACTVP
 70
    15
  9
$PINSBASE
 10
0.0008545056916773
 20
1.250276130627782
 30
0.0
  9
$PLIMCHECK
 70
     0
  9
$PEXTMIN
 10
1.000000000000000E+20
 20
1.000000000000000E+20
 30
1.000000000000000E+20
  9
$PEXTMAX
 10
-1.000000000000000E+20
 20
-1.000000000000000E+20
 30
-1.000000000000000E+20
  9
$PLIMMIN
 10
0.0
 20
0.0
  9
$PLIMMAX
 10
12.0
 20
9.0
  9
$UNITMODE
 70
     0
  9
$VISRETAIN
 70
     0
  9
$PLINEGEN
 70
     0
  9
$PSLTSCALE
 70
     1
  9
$TREEDEPTH
 70
  3020
  9
$CMLSTYLE
  2
Standard
  9
$CMLJUST
 70
     0
  9
$CMLSCALE
 40
1.0
  9
$PROXYGRAPHICS
 70
     1
  9
$MEASUREMENT
 70
     0
  9
$CELWEIGHT
370
    -1
  9
$ENDCAPS
280
     0
  9
$JOINSTYLE
280
     0
  9
$LWDISPLAY
290
     0
  9
$INSUNITS
 70
     0
  9
$HYPERLINKBASE
  1

  9
$STYLESHEET
  1

  9
$XEDIT
290
     1
  9
$CEPSNTYPE
380
     0
  9
$PSTYLEMODE
290
     1
  9
$FINGERPRINTGUID
  2
{85D3F471-3A32-40A5-9B6F-9908F627F671}
  9
$VERSIONGUID
  2
{F74F2BAD-4C75-4D0D-BFBA-0F4E4171C25D}
  9
$EXTNAMES
290
     1
  9
$PSVPSCALE
 40
0.0
  9
$OLESTARTUP
290
     0
  0
ENDSEC
  0
SECTION
  2
CLASSES
  0
CLASS
  1
ACDBDICTIONARYWDFLT
  2
AcDbDictionaryWithDefault
  3
ObjectDBX Classes
 90
        0
280
     0
281
     0
  0
CLASS
  1
ACDBPLACEHOLDER
  2
AcDbPlaceHolder
  3
ObjectDBX Classes
 90
        0
280
     0
281
     0
  0
CLASS
  1
LAYOUT
  2
AcDbLayout
  3
ObjectDBX Classes
 90
        0
280
     0
281
     0
  0
CLASS
  1
DICTIONARYVAR
  2
AcDbDictionaryVar
  3
ObjectDBX Classes
 90
        0
280
     0
281
     0
  0
CLASS
  1
MATERIAL
  2
AcDbMaterial
  3
ObjectDBX Classes
 90
     1024
280
     0
281
     0
  0
CLASS
  1
VISUALSTYLE
  2
AcDbVisualStyle
  3
ObjectDBX Classes
 90
     4095
280
     0
281
     0
  0
CLASS
  1
TABLESTYLE
  2
AcDbTableStyle
  3
ObjectDBX Classes
 90
     4095
280
     0
281
     0
  0
CLASS
  1
DIMASSOC
  2
AcDbDimAssoc
  3
"AcDbDimAssoc|Product Desc:     AcDim ARX App For Dimension|Company:          Autodesk, Inc.|WEB Address:      www.autodesk.com"
 90
        0
280
     0
281
     0
  0
ENDSEC
  0
SECTION
  2
TABLES
  0
TABLE
  2
VPORT
  5
8
330
0
100
AcDbSymbolTable
 70
     1
  0
VPORT
  5
1E9
330
8
100
AcDbSymbolTableRecord
100
AcDbViewportTableRecord
  2
*Active
 70
     0
 10
0.0
 20
0.0
 11
1.0
 21
1.0
 12
10.12071132979222
 22
0.1430555923800707
 13
0.0
 23
0.0
 14
0.5740882589684922
 24
0.5740882589684922
 15
0.5
 25
0.5
 16
0.0
 26
0.0
 36
1.0
 17
0.0
 27
0.0
 37
0.0
 40
7.330771326672809
 41
2.023012552301255
 42
50.0
 43
0.0
 44
0.0
 50
0.0
 51
0.0
 71
     0
 72
   100
 73
     1
 74
     0
 75
     0
 76
     0
 77
     0
 78
     0
281
     0
 65
     1
110
0.0
120
0.0
130
0.0
111
1.0
121
0.0
131
0.0
112
0.0
122
1.0
132
0.0
 79
     0
146
0.0
  0
ENDTAB
  0
TABLE
  2
LTYPE
  5
5
330
0
100
AcDbSymbolTable
 70
     3
  0
LTYPE
  5
13
330
5
100
AcDbSymbolTableRecord
100
AcDbLinetypeTableRecord
  2
ByBlock
 70
     0
  3

 72
    65
 73
     0
 40
0.0
  0
LTYPE
  5
14
330
5
100
AcDbSymbolTableRecord
100
AcDbLinetypeTableRecord
  2
ByLayer
 70
     0
  3

 72
    65
 73
     0
 40
0.0
  0
LTYPE
  5
15
330
5
100
AcDbSymbolTableRecord
100
AcDbLinetypeTableRecord
  2
CONTINUOUS
 70
     0
  3
Solid line
 72
    65
 73
     0
 40
0.0
  0
LTYPE
  5
25
330
5
100
AcDbSymbolTableRecord
100
AcDbLinetypeTableRecord
  2
HIDDEN2
 70
     0
  3
_ _ _ _ _ _ _ _ _ _ _ _ _ _ _ _ _ _ _ _ _ _ _ _
 72
    65
 73
     2
 40
0.1875
 49
0.125
 74
     0
 49
-0.0625
 74
     0
  0
ENDTAB
  0
TABLE
  2
LAYER
  5
2
330
0
100
AcDbSymbolTable
 70
     5
  0
LAYER
  5
10
330
2
100
AcDbSymbolTableRecord
100
AcDbLayerTableRecord
  2
0
 70
     0
 62
     7
  6
CONTINUOUS
370
    -3
390
F
  0
LAYER
  5
27
330
2
100
AcDbSymbolTableRecord
100
AcDbLayerTableRecord
  2
ADP2DETAIL
 70
     0
 62
     5
  6
CONTINUOUS
370
    -3
390
F
  0
LAYER
  5
28
330
2
100
AcDbSymbolTableRecord
100
AcDbLayerTableRecord
  2
ADPDIM
 70
     0
 62
     3
  6
CONTINUOUS
370
    -3
390
F
  0
LAYER
  5
29
330
2
100
AcDbSymbolTableRecord
100
AcDbLayerTableRecord
  2
ADP1DETAIL
 70
     0
 62
     7
  6
CONTINUOUS
370
    -3
390
F
  0
LAYER
  5
2A
330
2
100
AcDbSymbolTableRecord
100
AcDbLayerTableRecord
  2
DEFPOINTS
 70
     0
 62
     7
  6
CONTINUOUS
290
     0
370
    -3
390
F
  0
ENDTAB
  0
TABLE
  2
STYLE
  5
3
330
0
100
AcDbSymbolTable
 70
     2
  0
STYLE
  5
11
330
3
100
AcDbSymbolTableRecord
100
AcDbTextStyleTableRecord
  2
STANDARD
 70
     0
 40
0.0
 41
1.0
 50
0.0
 71
     0
 42
0.2
  3
txt
  4

  0
STYLE
  5
87
330
3
100
AcDbSymbolTableRecord
100
AcDbTextStyleTableRecord
  2
ARIAL_WIDE
 70
     0
 40
0.0
 41
1.25
 50
0.0
 71
     0
 42
0.2
  3
ARIAL.TTF
  4

1001
ACAD
1000
Arial
1071
       34
  0
ENDTAB
  0
TABLE
  2
VIEW
  5
6
330
0
100
AcDbSymbolTable
 70
     0
  0
ENDTAB
  0
TABLE
  2
UCS
  5
7
330
0
100
AcDbSymbolTable
 70
     0
  0
ENDTAB
  0
TABLE
  2
APPID
  5
9
330
0
100
AcDbSymbolTable
 70
     2
  0
APPID
  5
12
330
9
100
AcDbSymbolTableRecord
100
AcDbRegAppTableRecord
  2
ACAD
 70
     0
  0
APPID
  5
2AF
330
9
100
AcDbSymbolTableRecord
100
AcDbRegAppTableRecord
  2
DCO15
 70
     0
  0
ENDTAB
  0
TABLE
  2
DIMSTYLE
  5
A
330
0
100
AcDbSymbolTable
 70
     2
100
AcDbDimStyleTable
 71
     1
340
85
  0
DIMSTYLE
105
85
102
{ACAD_REACTORS
330
23B
330
255
330
293
102
}
330
A
100
AcDbSymbolTableRecord
100
AcDbDimStyleTableRecord
  2
Standard
 70
     0
340
11
  0
ENDTAB
  0
TABLE
  2
BLOCK_RECORD
  5
1
330
0
100
AcDbSymbolTable
 70
     7
  0
BLOCK_RECORD
  5
1E
102
{ACAD_XDICTIONARY
360
C8
102
}
330
1
100
AcDbSymbolTableRecord
100
AcDbBlockTableRecord
  2
*Model_Space
340
21
  0
BLOCK_RECORD
  5
1A
102
{ACAD_XDICTIONARY
360
CA
102
}
330
1
100
AcDbSymbolTableRecord
100
AcDbBlockTableRecord
  2
*Paper_Space
340
1D
  0
BLOCK_RECORD
  5
22
330
1
100
AcDbSymbolTableRecord
100
AcDbBlockTableRecord
  2
*D0
340
0
  0
BLOCK_RECORD
  5
23
330
1
100
AcDbSymbolTableRecord
100
AcDbBlockTableRecord
  2
*D1
340
0
  0
BLOCK_RECORD
  5
24
330
1
100
AcDbSymbolTableRecord
100
AcDbBlockTableRecord
  2
*D2
340
0
  0
BLOCK_RECORD
  5
23C
330
1
100
AcDbSymbolTableRecord
100
AcDbBlockTableRecord
  2
*D3
340
0
  0
BLOCK_RECORD
  5
256
330
1
100
AcDbSymbolTableRecord
100
AcDbBlockTableRecord
  2
*D4
340
0
  0
BLOCK_RECORD
  5
294
330
1
100
AcDbSymbolTableRecord
100
AcDbBlockTableRecord
  2
*D6
340
0
  0
ENDTAB
  0
ENDSEC
  0
SECTION
  2
BLOCKS
  0
BLOCK
  5
2D
330
1E
100
AcDbEntity
  8
0
100
AcDbBlockBegin
  2
*Model_Space
 70
     0
 10
0.0
 20
0.0
 30
0.0
  3
*Model_Space
  1

  0
ENDBLK
  5
2E
330
1E
100
AcDbEntity
  8
0
100
AcDbBlockEnd
  0
BLOCK
  5
2B
330
1A
100
AcDbEntity
 67
     1
  8
0
100
AcDbBlockBegin
  2
*Paper_Space
 70
     0
 10
0.0
 20
0.0
 30
0.0
  3
*Paper_Space
  1

  0
ENDBLK
  5
2C
330
1A
100
AcDbEntity
 67
     1
  8
0
100
AcDbBlockEnd
  0
BLOCK
  5
2F
330
22
100
AcDbEntity
  8
0
100
AcDbBlockBegin
  2
*D0
 70
     1
 10
0.0
 20
0.0
 30
0.0
  3
*D0
  1

  0
LINE
  5
30
330
22
100
AcDbEntity
  8
0
  6
ByBlock
 62
     0
100
AcDbLine
 10
4.278625977280838
 20
1.483865004244293
 30
0.0
 11
4.278625977280838
 21
1.823350209387679
 31
0.0
  0
LINE
  5
31
330
22
100
AcDbEntity
  8
0
  6
ByBlock
 62
     0
100
AcDbLine
 10
6.278625977280838
 20
1.483865004244293
 30
0.0
 11
6.278625977280838
 21
1.823350209387679
 31
0.0
  0
LINE
  5
32
330
22
100
AcDbEntity
  8
0
  6
ByBlock
 62
     0
100
AcDbLine
 10
4.278625977280838
 20
1.643350209387679
 30
0.0
 11
5.111959310614171
 21
1.643350209387679
 31
0.0
  0
LINE
  5
33
330
22
100
AcDbEntity
  8
0
  6
ByBlock
 62
     0
100
AcDbLine
 10
6.278625977280838
 20
1.643350209387679
 30
0.0
 11
5.445292643947505
 21
1.643350209387679
 31
0.0
  0
LINE
  5
34
330
22
100
AcDbEntity
  8
0
  6
ByBlock
 62
     0
100
AcDbLine
 10
4.153625977280838
 20
1.518350209387679
 30
0.0
 11
4.403625977280838
 21
1.768350209387679
 31
0.0
  0
LINE
  5
35
330
22
100
AcDbEntity
  8
0
  6
ByBlock
 62
     0
100
AcDbLine
 10
6.153625977280838
 20
1.518350209387679
 30
0.0
 11
6.403625977280838
 21
1.768350209387679
 31
0.0
  0
TEXT
  5
36
330
22
100
AcDbEntity
  8
0
  6
ByBlock
 62
     0
100
AcDbText
 10
5.236959310614171
 20
1.580850209387679
 30
0.0
 40
0.125
  1
2
 72
     1
 11
5.278625977280838
 21
1.643350209387679
 31
0.0
100
AcDbText
 73
     2
  0
POINT
  5
38
330
22
100
AcDbEntity
  8
DEFPOINTS
  6
ByBlock
 62
     0
100
AcDbPoint
 10
4.278625977280838
 20
1.421365004244293
 30
0.0
  0
POINT
  5
39
330
22
100
AcDbEntity
  8
DEFPOINTS
  6
ByBlock
 62
     0
100
AcDbPoint
 10
6.278625977280838
 20
1.421365004244293
 30
0.0
  0
POINT
  5
3A
330
22
100
AcDbEntity
  8
DEFPOINTS
  6
ByBlock
 62
     0
100
AcDbPoint
 10
6.278625977280838
 20
1.643350209387679
 30
0.0
  0
ENDBLK
  5
3B
330
22
100
AcDbEntity
  8
0
100
AcDbBlockEnd
  0
BLOCK
  5
3C
330
23
100
AcDbEntity
  8
0
100
AcDbBlockBegin
  2
*D1
 70
     1
 10
0.0
 20
0.0
 30
0.0
  3
*D1
  1

  0
LINE
  5
3D
330
23
100
AcDbEntity
  8
0
  6
ByBlock
 62
     0
100
AcDbLine
 10
6.291125977280838
 20
1.471365004244293
 30
0.0
 11
6.716976838565703
 21
1.471365004244293
 31
0.0
  0
LINE
  5
3E
330
23
100
AcDbEntity
  8
0
  6
ByBlock
 62
     0
100
AcDbLine
 10
6.291125977280838
 20
0.4713650042442938
 30
0.0
 11
6.716976838565703
 21
0.4713650042442938
 31
0.0
  0
LINE
  5
3F
330
23
100
AcDbEntity
  8
0
  6
ByBlock
 62
     0
100
AcDbLine
 10
6.536976838565704
 20
1.471365004244293
 30
0.0
 11
6.536976838565704
 21
1.117198337577626
 31
0.0
  0
LINE
  5
40
330
23
100
AcDbEntity
  8
0
  6
ByBlock
 62
     0
100
AcDbLine
 10
6.536976838565704
 20
0.4713650042442938
 30
0.0
 11
6.536976838565704
 21
0.8255316709109601
 31
0.0
  0
LINE
  5
41
330
23
100
AcDbEntity
  8
0
  6
ByBlock
 62
     0
100
AcDbLine
 10
6.661976838565704
 20
1.346365004244293
 30
0.0
 11
6.411976838565704
 21
1.596365004244293
 31
0.0
  0
LINE
  5
42
330
23
100
AcDbEntity
  8
0
  6
ByBlock
 62
     0
100
AcDbLine
 10
6.661976838565704
 20
0.3463650042442938
 30
0.0
 11
6.411976838565704
 21
0.5963650042442938
 31
0.0
  0
TEXT
  5
43
330
23
100
AcDbEntity
  8
0
  6
ByBlock
 62
     0
100
AcDbText
 10
6.599476838565704
 20
0.9505316709109601
 30
0.0
 40
0.125
  1
1
 50
90.0
 72
     1
 11
6.536976838565704
 21
0.9713650042442935
 31
0.0
100
AcDbText
 73
     2
  0
POINT
  5
44
330
23
100
AcDbEntity
  8
DEFPOINTS
  6
ByBlock
 62
     0
100
AcDbPoint
 10
6.228625977280838
 20
1.471365004244293
 30
0.0
  0
POINT
  5
45
330
23
100
AcDbEntity
  8
DEFPOINTS
  6
ByBlock
 62
     0
100
AcDbPoint
 10
6.228625977280838
 20
0.4713650042442938
 30
0.0
  0
POINT
  5
46
330
23
100
AcDbEntity
  8
DEFPOINTS
  6
ByBlock
 62
     0
100
AcDbPoint
 10
6.536976838565704
 20
0.4713650042442938
 30
0.0
  0
ENDBLK
  5
47
330
23
100
AcDbEntity
  8
0
100
AcDbBlockEnd
  0
BLOCK
  5
48
330
24
100
AcDbEntity
  8
0
100
AcDbBlockBegin
  2
*D2
 70
     1
 10
0.0
 20
0.0
 30
0.0
  3
*D2
  1

  0
LINE
  5
49
330
24
100
AcDbEntity
  8
0
  6
ByBlock
 62
     0
100
AcDbLine
 10
6.310125977280838
 20
0.0770590579014012
 30
0.0
 11
6.722538373439043
 21
0.0770590579014012
 31
0.0
  0
LINE
  5
4A
330
24
100
AcDbEntity
  8
0
  6
ByBlock
 62
     0
100
AcDbLine
 10
6.247375977280838
 20
-1.297940942098598
 30
0.0
 11
6.722538373439043
 21
-1.297940942098598
 31
0.0
  0
LINE
  5
4B
330
24
100
AcDbEntity
  8
0
  6
ByBlock
 62
     0
100
AcDbLine
 10
6.542538373439043
 20
0.0770590579014012
 30
0.0
 11
6.542538373439043
 21
-0.2146076087652654
 31
0.0
  0
LINE
  5
4C
330
24
100
AcDbEntity
  8
0
  6
ByBlock
 62
     0
100
AcDbLine
 10
6.542538373439043
 20
-1.297940942098598
 30
0.0
 11
6.542538373439043
 21
-1.006274275431932
 31
0.0
  0
LINE
  5
4D
330
24
100
AcDbEntity
  8
0
  6
ByBlock
 62
     0
100
AcDbLine
 10
6.667538373439043
 20
-0.0479409420985988
 30
0.0
 11
6.417538373439043
 21
0.2020590579014012
 31
0.0
  0
LINE
  5
4E
330
24
100
AcDbEntity
  8
0
  6
ByBlock
 62
     0
100
AcDbLine
 10
6.667538373439043
 20
-1.422940942098598
 30
0.0
 11
6.417538373439043
 21
-1.172940942098598
 31
0.0
  0
TEXT
  5
4F
330
24
100
AcDbEntity
  8
0
  6
ByBlock
 62
     0
100
AcDbText
 10
6.605038373439043
 20
-0.8812742754319319
 30
0.0
 40
0.125
  1
1 3/8
 50
90.0
 72
     1
 11
6.542538373439043
 21
-0.6104409420985988
 31
0.0
100
AcDbText
 73
     2
  0
POINT
  5
50
330
24
100
AcDbEntity
  8
DEFPOINTS
  6
ByBlock
 62
     0
100
AcDbPoint
 10
6.247625977280838
 20
0.0770590579014012
 30
0.0
  0
POINT
  5
51
330
24
100
AcDbEntity
  8
DEFPOINTS
  6
ByBlock
 62
     0
100
AcDbPoint
 10
6.184875977280838
 20
-1.297940942098598
 30
0.0
  0
POINT
  5
52
330
24
100
AcDbEntity
  8
DEFPOINTS
  6
ByBlock
 62
     0
100
AcDbPoint
 10
6.542538373439043
 20
-1.297940942098598
 30
0.0
  0
ENDBLK
  5
53
330
24
100
AcDbEntity
  8
0
100
AcDbBlockEnd
  0
BLOCK
  5
247
330
23C
100
AcDbEntity
  8
0
100
AcDbBlockBegin
  2
*D3
 70
     1
 10
0.0
 20
0.0
 30
0.0
  3
*D3
  1

  0
LINE
  5
289
330
23C
100
AcDbEntity
  8
ADPDIM
 62
     0
370
    -2
100
AcDbLine
 10
6.141629856098865
 20
-1.387049967600827
 30
0.0
 11
6.141629856098865
 21
-1.843643954997912
 31
0.0
  0
LINE
  5
28A
330
23C
100
AcDbEntity
  8
ADPDIM
 62
     0
370
    -2
100
AcDbLine
 10
4.391629856098865
 20
-1.387049967600827
 30
0.0
 11
4.391629856098865
 21
-1.843643954997912
 31
0.0
  0
LINE
  5
28B
330
23C
100
AcDbEntity
  8
ADPDIM
 62
     0
370
    -2
100
AcDbLine
 10
6.141629856098865
 20
-1.663643954997912
 30
0.0
 11
5.474963189432198
 21
-1.663643954997912
 31
0.0
  0
LINE
  5
28C
330
23C
100
AcDbEntity
  8
ADPDIM
 62
     0
370
    -2
100
AcDbLine
 10
4.391629856098865
 20
-1.663643954997912
 30
0.0
 11
5.058296522765532
 21
-1.663643954997912
 31
0.0
  0
LINE
  5
28D
330
23C
100
AcDbEntity
  8
ADPDIM
 62
     0
370
    -2
100
AcDbLine
 10
4.266629856098865
 20
-1.788643954997912
 30
0.0
 11
4.516629856098865
 21
-1.538643954997912
 31
0.0
  0
LINE
  5
28E
330
23C
100
AcDbEntity
  8
ADPDIM
 62
     0
370
    -2
100
AcDbLine
 10
6.016629856098865
 20
-1.788643954997912
 30
0.0
 11
6.266629856098865
 21
-1.538643954997912
 31
0.0
  0
MTEXT
  5
28F
330
23C
100
AcDbEntity
  8
ADPDIM
 62
     0
100
AcDbMText
 10
5.266629856098865
 20
-1.663643954997912
 30
0.0
 40
0.125
 41
0.0
 71
     5
 72
     1
  1
\A1;1{\H1.000000x;\S3/4;}
 73
     1
 44
1.0
1001
ACAD
1000
MTEXTBEGIN
1070
    73
1070
     1
1070
    44
1040
1.0
1070
    74
1070
     0
1000
MTEXTEND
  0
POINT
  5
290
330
23C
100
AcDbEntity
  8
DEFPOINTS
 62
     0
100
AcDbPoint
 10
6.141629856098865
 20
-1.324549967600827
 30
0.0
  0
POINT
  5
291
330
23C
100
AcDbEntity
  8
DEFPOINTS
 62
     0
100
AcDbPoint
 10
4.391629856098865
 20
-1.324549967600826
 30
0.0
  0
POINT
  5
292
330
23C
100
AcDbEntity
  8
DEFPOINTS
 62
     0
100
AcDbPoint
 10
4.391629856098865
 20
-1.663643954997912
 30
0.0
  0
ENDBLK
  5
248
330
23C
100
AcDbEntity
  8
0
100
AcDbBlockEnd
  0
BLOCK
  5
261
330
256
100
AcDbEntity
  8
0
 62
     3
100
AcDbBlockBegin
  2
*D4
 70
     1
 10
0.0
 20
0.0
 30
0.0
  3
*D4
  1

  0
LINE
  5
264
330
256
100
AcDbEntity
  8
ADPDIM
 62
     0
370
    -2
100
AcDbLine
 10
4.247125977280838
 20
0.0770590579014012
 30
0.0
 11
3.790752440504725
 21
0.0770590579014014
 31
0.0
  0
LINE
  5
265
330
256
100
AcDbEntity
  8
ADPDIM
 62
     0
370
    -2
100
AcDbLine
 10
4.247125977280838
 20
-1.380869813789313
 30
0.0
 11
3.790752440504725
 21
-1.380869813789313
 31
0.0
  0
LINE
  5
266
330
256
100
AcDbEntity
  8
ADPDIM
 62
     0
370
    -2
100
AcDbLine
 10
3.970752440504725
 20
0.0770590579014013
 30
0.0
 11
3.970752440504725
 21
-0.4019053779439563
 31
0.0
  0
LINE
  5
267
330
256
100
AcDbEntity
  8
ADPDIM
 62
     0
370
    -2
100
AcDbLine
 10
3.970752440504725
 20
-1.380869813789313
 30
0.0
 11
3.970752440504725
 21
-0.9019053779439563
 31
0.0
  0
LINE
  5
268
330
256
100
AcDbEntity
  8
ADPDIM
 62
     0
370
    -2
100
AcDbLine
 10
4.095752440504725
 20
-1.505869813789313
 30
0.0
 11
3.845752440504725
 21
-1.255869813789313
 31
0.0
  0
LINE
  5
269
330
256
100
AcDbEntity
  8
ADPDIM
 62
     0
370
    -2
100
AcDbLine
 10
4.095752440504725
 20
-0.0479409420985987
 30
0.0
 11
3.845752440504725
 21
0.2020590579014013
 31
0.0
  0
MTEXT
  5
26A
330
256
100
AcDbEntity
  8
ADPDIM
 62
     0
100
AcDbMText
 10
3.970752440504725
 20
-0.6519053779439556
 30
0.0
 40
0.125
 41
0.0
 71
     5
 72
     1
  1
\A1;1{\H1.000000x;\S7/16;}
 11
0.0000000000000001
 21
1.0
 31
0.0
 73
     1
 44
1.0
1001
ACAD
1000
MTEXTBEGIN
1070
    73
1070
     1
1070
    44
1040
1.0
1070
    74
1070
     0
1000
MTEXTEND
  0
POINT
  5
26B
330
256
100
AcDbEntity
  8
DEFPOINTS
 62
     0
100
AcDbPoint
 10
4.309625977280838
 20
0.0770590579014012
 30
0.0
  0
POINT
  5
26C
330
256
100
AcDbEntity
  8
DEFPOINTS
 62
     0
100
AcDbPoint
 10
4.309625977280838
 20
-1.380869813789313
 30
0.0
  0
POINT
  5
26D
330
256
100
AcDbEntity
  8
DEFPOINTS
 62
     0
100
AcDbPoint
 10
3.970752440504725
 20
-1.380869813789313
 30
0.0
  0
ENDBLK
  5
262
330
256
100
AcDbEntity
  8
0
 62
     3
100
AcDbBlockEnd
  0
BLOCK
  5
29F
330
294
100
AcDbEntity
  8
0
 62
     3
100
AcDbBlockBegin
  2
*D6
 70
     1
 10
0.0
 20
0.0
 30
0.0
  3
*D6
  1

  0
LINE
  5
2A2
330
294
100
AcDbEntity
  8
ADPDIM
 62
     0
370
    -2
100
AcDbLine
 10
6.212517409076053
 20
-0.4229409420985988
 30
0.0
 11
6.620376560239598
 21
-0.4229409420985989
 31
0.0
  0
LINE
  5
2A3
330
294
100
AcDbEntity
  8
ADPDIM
 62
     0
370
    -2
100
AcDbLine
 10
6.212517409076053
 20
-0.9229409420985987
 30
0.0
 11
6.620376560239598
 21
-0.9229409420985989
 31
0.0
  0
LINE
  5
2A4
330
294
100
AcDbEntity
  8
ADPDIM
 62
     0
370
    -2
100
AcDbLine
 10
6.440376560239599
 20
-0.4229409420985989
 30
0.0
 11
6.440376560239599
 21
-0.1729409420985988
 31
0.0
  0
LINE
  5
2A5
330
294
100
AcDbEntity
  8
ADPDIM
 62
     0
370
    -2
100
AcDbLine
 10
6.440376560239599
 20
-0.9229409420985989
 30
0.0
 11
6.440376560239599
 21
-1.172940942098598
 31
0.0
  0
LINE
  5
2A6
330
294
100
AcDbEntity
  8
ADPDIM
 62
     0
370
    -2
100
AcDbLine
 10
6.565376560239599
 20
-1.047940942098599
 30
0.0
 11
6.315376560239599
 21
-0.7979409420985989
 31
0.0
  0
LINE
  5
2A7
330
294
100
AcDbEntity
  8
ADPDIM
 62
     0
370
    -2
100
AcDbLine
 10
6.565376560239599
 20
-0.5479409420985989
 30
0.0
 11
6.315376560239599
 21
-0.2979409420985988
 31
0.0
  0
MTEXT
  5
2A8
330
294
100
AcDbEntity
  8
ADPDIM
 62
     0
100
AcDbMText
 10
6.440376560239599
 20
-0.6729409420985979
 30
0.0
 40
0.125
 41
0.0
 71
     5
 72
     1
  1
\A1;{\H1.000000x;\S1/2;}
 11
0.0000000000000001
 21
1.0
 31
0.0
 73
     1
 44
1.0
1001
ACAD
1000
MTEXTBEGIN
1070
    73
1070
     1
1070
    44
1040
1.0
1070
    74
1070
     0
1000
MTEXTEND
  0
POINT
  5
2A9
330
294
100
AcDbEntity
  8
DEFPOINTS
 62
     0
100
AcDbPoint
 10
6.150017409076053
 20
-0.4229409420985988
 30
0.0
  0
POINT
  5
2AA
330
294
100
AcDbEntity
  8
DEFPOINTS
 62
     0
100
AcDbPoint
 10
6.150017409076053
 20
-0.9229409420985987
 30
0.0
  0
POINT
  5
2AB
330
294
100
AcDbEntity
  8
DEFPOINTS
 62
     0
100
AcDbPoint
 10
6.440376560239599
 20
-0.9229409420985989
 30
0.0
  0
ENDBLK
  5
2A0
330
294
100
AcDbEntity
  8
0
 62
     3
100
AcDbBlockEnd
  0
ENDSEC
  0
SECTION
  2
ENTITIES
  0
LINE
  5
54
330
1E
100
AcDbEntity
  8
ADP1DETAIL
100
AcDbLine
 10
6.278625977280838
 20
-0.0479409420985988
 30
0.0
 11
4.278625977280838
 21
-0.0479409420985988
 31
0.0
  0
LINE
  5
55
330
1E
100
AcDbEntity
  8
ADP1DETAIL
100
AcDbLine
 10
4.309625977280838
 20
0.0770590579014012
 30
0.0
 11
6.247625977280838
 21
0.0770590579014012
 31
0.0
  0
LINE
  5
56
330
1E
100
AcDbEntity
  8
ADP1DETAIL
100
AcDbLine
 10
4.497375977280838
 20
-0.0479409420985988
 30
0.0
 11
6.059875977280838
 21
-0.0479409420985988
 31
0.0
  0
LINE
  5
58
330
1E
100
AcDbEntity
  8
ADP1DETAIL
100
AcDbLine
 10
4.397635257858154
 20
-1.382125934357567
 30
0.0
 11
4.397635257858154
 21
-0.0479409420985988
 31
0.0
  0
LINE
  5
5A
330
1E
100
AcDbEntity
  8
ADP1DETAIL
100
AcDbLine
 10
6.146987075883621
 20
-1.386335183970516
 30
0.0
 11
4.397635257858154
 21
-1.382125934357567
 31
0.0
  0
LINE
  5
5B
330
1E
100
AcDbEntity
  8
ADP2DETAIL
  6
HIDDEN2
100
AcDbLine
 10
6.151196962469433
 20
-0.9229409420985987
 30
0.0
 11
4.397635257858154
 21
-0.9229409420985987
 31
0.0
  0
ARC
  5
5C
102
{ACAD_REACTORS
330
26E
102
}
330
1E
100
AcDbEntity
  8
ADP1DETAIL
100
AcDbCircle
 10
4.309625977280838
 20
0.0460590579014012
 30
0.0
 40
0.031
100
AcDbArc
 50
90.0
 51
180.0
  0
LINE
  5
5D
330
1E
100
AcDbEntity
  8
ADP1DETAIL
100
AcDbLine
 10
4.278625977280838
 20
-0.0479409420985988
 30
0.0
 11
4.278625977280838
 21
0.0460590579014012
 31
0.0
  0
LINE
  5
5E
102
{ACAD_REACTORS
330
2AC
102
}
330
1E
100
AcDbEntity
  8
ADP2DETAIL
  6
HIDDEN2
100
AcDbLine
 10
4.397635257858154
 20
-0.4229409420985988
 30
0.0
 11
6.151196962469433
 21
-0.4229409420985988
 31
0.0
  0
LINE
  5
62
102
{ACAD_REACTORS
330
2AC
102
}
330
1E
100
AcDbEntity
  8
ADP1DETAIL
100
AcDbLine
 10
6.151196962469433
 20
-0.0479409420985988
 30
0.0
 11
6.146987075883621
 21
-1.386335183970516
 31
0.0
  0
LINE
  5
68
330
1E
100
AcDbEntity
  8
ADP1DETAIL
100
AcDbLine
 10
6.278625977280838
 20
0.0460590579014012
 30
0.0
 11
6.278625977280838
 21
-0.0479409420985988
 31
0.0
  0
ARC
  5
69
330
1E
100
AcDbEntity
  8
ADP1DETAIL
100
AcDbCircle
 10
6.247625977280838
 20
0.0460590579014012
 30
0.0
 40
0.031
100
AcDbArc
 50
0.0
 51
90.0
  0
LINE
  5
6B
330
1E
100
AcDbEntity
  8
ADP1DETAIL
100
AcDbLine
 10
6.228625977280838
 20
0.4713650042442938
 30
0.0
 11
4.328625977280838
 21
0.471365004244294
 31
0.0
  0
LINE
  5
6C
330
1E
100
AcDbEntity
  8
ADP1DETAIL
100
AcDbLine
 10
4.328625977280838
 20
1.471365004244293
 30
0.0
 11
6.228625977280838
 21
1.471365004244293
 31
0.0
  0
DIMENSION
  5
6D
330
1E
100
AcDbEntity
  8
ADPDIM
100
AcDbDimension
  2
*D0
 10
6.278625977280838
 20
1.643350209387679
 30
0.0
 11
5.278625977280838
 21
1.643350209387679
 31
0.0
 71
     5
 42
-1.0
100
AcDbAlignedDimension
 13
4.278625977280838
 23
1.421365004244293
 33
0.0
 14
6.278625977280838
 24
1.421365004244293
 34
0.0
100
AcDbRotatedDimension
  0
LINE
  5
6E
330
1E
100
AcDbEntity
  8
ADP2DETAIL
  6
HIDDEN2
100
AcDbLine
 10
6.184875977280838
 20
0.5651150042442939
 30
0.0
 11
4.372375977280838
 21
0.5651150042442939
 31
0.0
  0
LINE
  5
6F
330
1E
100
AcDbEntity
  8
ADP2DETAIL
  6
HIDDEN2
100
AcDbLine
 10
4.372375977280838
 20
1.377615004244293
 30
0.0
 11
6.184875977280838
 21
1.377615004244293
 31
0.0
  0
LINE
  5
70
330
1E
100
AcDbEntity
  8
ADP2DETAIL
  6
HIDDEN2
100
AcDbLine
 10
4.372375977280838
 20
0.5651150042442939
 30
0.0
 11
4.372375977280838
 21
1.377615004244293
 31
0.0
  0
LINE
  5
71
330
1E
100
AcDbEntity
  8
ADP2DETAIL
  6
HIDDEN2
100
AcDbLine
 10
4.497375977280838
 20
0.5651150042442939
 30
0.0
 11
4.497375977280838
 21
1.377615004244293
 31
0.0
  0
LINE
  5
72
330
1E
100
AcDbEntity
  8
ADP1DETAIL
100
AcDbLine
 10
4.278625977280838
 20
0.521365004244294
 30
0.0
 11
4.278625977280838
 21
1.421365004244293
 31
0.0
  0
ARC
  5
73
330
1E
100
AcDbEntity
  8
ADP1DETAIL
100
AcDbCircle
 10
4.328625977280838
 20
0.5213650042442938
 30
0.0
 40
0.0499999999999999
100
AcDbArc
 50
179.9999999999998
 51
270.0
  0
ARC
  5
74
330
1E
100
AcDbEntity
  8
ADP1DETAIL
100
AcDbCircle
 10
4.328625977280838
 20
1.421365004244293
 30
0.0
 40
0.0499999999999998
100
AcDbArc
 50
90.0
 51
180.0
  0
DIMENSION
  5
75
330
1E
100
AcDbEntity
  8
ADPDIM
100
AcDbDimension
  2
*D1
 10
6.536976838565704
 20
0.4713650042442938
 30
0.0
 11
6.536976838565704
 21
0.9713650042442935
 31
0.0
 71
     5
 42
-1.0
100
AcDbAlignedDimension
 13
6.228625977280838
 23
1.471365004244293
 33
0.0
 14
6.228625977280838
 24
0.4713650042442938
 34
0.0
 50
90.0
100
AcDbRotatedDimension
  0
LINE
  5
76
330
1E
100
AcDbEntity
  8
ADP1DETAIL
100
AcDbLine
 10
6.278625977280838
 20
1.421365004244293
 30
0.0
 11
6.278625977280838
 21
0.5213650042442938
 31
0.0
  0
LINE
  5
77
330
1E
100
AcDbEntity
  8
ADP2DETAIL
  6
HIDDEN2
100
AcDbLine
 10
6.059875977280838
 20
1.377615004244293
 30
0.0
 11
6.059875977280838
 21
0.5651150042442939
 31
0.0
  0
LINE
  5
78
330
1E
100
AcDbEntity
  8
ADP2DETAIL
  6
HIDDEN2
100
AcDbLine
 10
6.184875977280838
 20
1.377615004244293
 30
0.0
 11
6.184875977280838
 21
0.5651150042442939
 31
0.0
  0
ARC
  5
79
330
1E
100
AcDbEntity
  8
ADP1DETAIL
100
AcDbCircle
 10
6.228625977280838
 20
0.5213650042442937
 30
0.0
 40
0.0499999999999998
100
AcDbArc
 50
270.0
 51
0.0000000000001272
  0
ARC
  5
7A
330
1E
100
AcDbEntity
  8
ADP1DETAIL
100
AcDbCircle
 10
6.228625977280838
 20
1.421365004244293
 30
0.0
 40
0.0500000000000001
100
AcDbArc
 50
0.0
 51
90.0
  0
LINE
  5
7B
330
1E
100
AcDbEntity
  8
ADP1DETAIL
100
AcDbLine
 10
6.882663383681681
 20
-1.297940942098598
 30
0.0
 11
6.882663383681681
 21
-0.0479409420985988
 31
0.0
  0
LINE
  5
7C
330
1E
100
AcDbEntity
  8
ADP1DETAIL
100
AcDbLine
 10
7.849315724892798
 20
-0.0479409420985988
 30
0.0
 11
7.849315724892798
 21
-1.297940942098598
 31
0.0
  0
LINE
  5
7D
330
1E
100
AcDbEntity
  8
ADP1DETAIL
100
AcDbLine
 10
6.882663383681681
 20
-1.297940942098598
 30
0.0
 11
7.849315724892798
 21
-1.297940942098598
 31
0.0
  0
CIRCLE
  5
7E
330
1E
100
AcDbEntity
  8
ADP1DETAIL
100
AcDbCircle
 10
7.36598955428724
 20
-0.6873831976906456
 30
0.0
 40
0.25
  0
LINE
  5
7F
330
1E
100
AcDbEntity
  8
ADP1DETAIL
100
AcDbLine
 10
6.81991338368168
 20
0.0770590579014012
 30
0.0
 11
7.912065724892799
 21
0.0770590579014012
 31
0.0
  0
LINE
  5
80
330
1E
100
AcDbEntity
  8
ADP1DETAIL
100
AcDbLine
 10
7.943065724892798
 20
-0.0479409420985988
 30
0.0
 11
6.788913383681681
 21
-0.0479409420985988
 31
0.0
  0
ARC
  5
81
330
1E
100
AcDbEntity
  8
ADP1DETAIL
100
AcDbCircle
 10
6.81991338368168
 20
0.0460590579014013
 30
0.0
 40
0.031
100
AcDbArc
 50
90.0
 51
180.0
  0
LINE
  5
82
330
1E
100
AcDbEntity
  8
ADP1DETAIL
100
AcDbLine
 10
6.788913383681681
 20
-0.0479409420985988
 30
0.0
 11
6.788913383681681
 21
0.0460590579014013
 31
0.0
  0
LINE
  5
83
330
1E
100
AcDbEntity
  8
ADP1DETAIL
100
AcDbLine
 10
7.943065724892798
 20
0.0460590579014013
 30
0.0
 11
7.943065724892798
 21
-0.0479409420985988
 31
0.0
  0
ARC
  5
84
330
1E
100
AcDbEntity
  8
ADP1DETAIL
100
AcDbCircle
 10
7.912065724892799
 20
0.0460590579014013
 30
0.0
 40
0.031
100
AcDbArc
 50
0.0
 51
90.0
  0
TEXT
  5
13E
330
1E
100
AcDbEntity
  8
ADPDIM
100
AcDbText
 10
-0.1846122373974284
 20
-2.270629847103176
 30
0.0
 40
0.125
  1
J U L I U S  B L U M  &  C O . ,  I N C .      ( 8 0 0 )  5 2 6 - 6 2 9 3        W W W . J U L I U S B L U M . C O M        P A R T  N O .  2 8 4
 41
1.25
  7
ARIAL_WIDE
 72
     1
 11
6.274289536135995
 21
-2.145629847103176
 31
0.0
100
AcDbText
 73
     3
  0
DIMENSION
  5
23B
330
1E
100
AcDbEntity
  8
ADPDIM
100
AcDbDimension
  2
*D3
 10
4.391629856098865
 20
-1.663643954997912
 30
0.0
 11
5.266629856098865
 21
-1.663643954997912
 31
0.0
 70
    32
 71
     5
 42
1.75
  3
Standard
100
AcDbAlignedDimension
 13
6.141629856098865
 23
-1.324549967600827
 33
0.0
 14
4.391629856098865
 24
-1.324549967600826
 34
0.0
100
AcDbRotatedDimension
1001
ACAD
1000
DSTYLE
1002
{
1070
    41
1040
0.125
1070
    73
1070
     0
1070
    74
1070
     0
1070
    78
1070
     3
1070
   140
1040
0.125
1070
   141
1040
0.1875
1070
   142
1040
0.125
1070
   147
1040
0.125
1070
   171
1070
     1
1070
   273
1070
     5
1070
   274
1070
     1
1070
   277
1070
     5
1070
   279
1070
     2
1070
   284
1070
     3
1070
   285
1070
     3
1070
   286
1070
     3
1002
}
  0
DIMENSION
  5
255
102
{ACAD_XDICTIONARY
360
263
102
}
102
{ACAD_REACTORS
330
26E
102
}
330
1E
100
AcDbEntity
  8
ADPDIM
 62
     3
100
AcDbDimension
  2
*D4
 10
3.970752440504725
 20
-1.380869813789313
 30
0.0
 11
3.970752440504725
 21
-0.6519053779439556
 31
0.0
 70
    32
 71
     5
 42
1.457928871690715
  3
Standard
100
AcDbAlignedDimension
 13
4.309625977280838
 23
0.0770590579014012
 33
0.0
 14
4.309625977280838
 24
-1.380869813789313
 34
0.0
 50
90.0
100
AcDbRotatedDimension
1001
ACAD
1000
DSTYLE
1002
{
1070
    41
1040
0.125
1070
    73
1070
     0
1070
    74
1070
     0
1070
    78
1070
     3
1070
   140
1040
0.125
1070
   141
1040
0.1875
1070
   142
1040
0.125
1070
   147
1040
0.125
1070
   171
1070
     1
1070
   273
1070
     5
1070
   274
1070
     1
1070
   277
1070
     5
1070
   279
1070
     2
1070
   284
1070
     3
1070
   285
1070
     3
1070
   286
1070
     3
1002
}
  0
DIMENSION
  5
293
102
{ACAD_XDICTIONARY
360
2A1
102
}
102
{ACAD_REACTORS
330
2AC
102
}
330
1E
100
AcDbEntity
  8
ADPDIM
 62
     3
100
AcDbDimension
  2
*D6
 10
6.440376560239599
 20
-0.9229409420985989
 30
0.0
 11
6.440376560239599
 21
-0.6729409420985979
 31
0.0
 70
    32
 71
     5
 42
0.5
  3
Standard
100
AcDbAlignedDimension
 13
6.150017409076053
 23
-0.4229409420985988
 33
0.0
 14
6.150017409076053
 24
-0.9229409420985987
 34
0.0
 50
90.0
100
AcDbRotatedDimension
1001
ACAD
1000
DSTYLE
1002
{
1070
    41
1040
0.125
1070
    73
1070
     0
1070
    74
1070
     0
1070
    78
1070
     3
1070
   140
1040
0.125
1070
   141
1040
0.1875
1070
   142
1040
0.125
1070
   147
1040
0.125
1070
   171
1070
     1
1070
   273
1070
     5
1070
   274
1070
     1
1070
   277
1070
     5
1070
   279
1070
     2
1070
   284
1070
     3
1070
   285
1070
     3
1070
   286
1070
     3
1002
}
  0
ENDSEC
  0
SECTION
  2
OBJECTS
  0
DICTIONARY
  5
C
330
0
100
AcDbDictionary
281
     1
  3
ACAD_COLOR
350
235
  3
ACAD_GROUP
350
D
  3
ACAD_LAYOUT
350
19
  3
ACAD_MATERIAL
350
220
  3
ACAD_MLINESTYLE
350
16
  3
ACAD_PLOTSETTINGS
350
18
  3
ACAD_PLOTSTYLENAME
350
E
  3
ACAD_TABLESTYLE
350
236
  3
ACAD_VISUALSTYLE
350
224
  3
AcDbVariableDictionary
350
FD
  3
ASE_INDEX_DICTIONARY
350
2AE
  3
DWGPROPS
350
2D0
  0
DICTIONARY
  5
C8
330
1E
100
AcDbDictionary
280
     1
281
     1
  3
ACAD_LAYOUTSELFREF
360
21C
  0
DICTIONARY
  5
CA
330
1A
100
AcDbDictionary
280
     1
281
     1
  3
ACAD_LAYOUTSELFREF
360
21B
  0
DICTIONARY
  5
263
330
255
100
AcDbDictionary
280
     1
281
     1
  3
ACAD_DIMASSOC
360
26E
  0
DICTIONARY
  5
2A1
330
293
100
AcDbDictionary
280
     1
281
     1
  3
ACAD_DIMASSOC
360
2AC
  0
DICTIONARY
  5
235
102
{ACAD_REACTORS
330
C
102
}
330
C
100
AcDbDictionary
281
     1
  0
DICTIONARY
  5
D
102
{ACAD_REACTORS
330
C
102
}
330
C
100
AcDbDictionary
281
     1
  0
DICTIONARY
  5
19
102
{ACAD_REACTORS
330
C
102
}
330
C
100
AcDbDictionary
281
     1
  3
Layout1
350
1D
  3
Model
350
21
  0
DICTIONARY
  5
220
102
{ACAD_REACTORS
330
C
102
}
330
C
100
AcDbDictionary
281
     1
  3
ByBlock
350
222
  3
ByLayer
350
221
  3
Global
350
223
  0
DICTIONARY
  5
16
102
{ACAD_REACTORS
330
C
102
}
330
C
100
AcDbDictionary
281
     1
  3
Standard
350
17
  0
DICTIONARY
  5
18
102
{ACAD_REACTORS
330
C
102
}
330
C
100
AcDbDictionary
281
     1
  0
ACDBDICTIONARYWDFLT
  5
E
102
{ACAD_REACTORS
330
C
102
}
330
C
100
AcDbDictionary
281
     1
  3
Normal
350
F
100
AcDbDictionaryWithDefault
340
F
  0
DICTIONARY
  5
236
102
{ACAD_REACTORS
330
C
102
}
330
C
100
AcDbDictionary
281
     1
  3
Standard
350
237
  0
DICTIONARY
  5
224
102
{ACAD_REACTORS
330
C
102
}
330
C
100
AcDbDictionary
281
     1
  3
2dWireframe
350
22A
  3
3D Hidden
350
22C
  3
3dWireframe
350
22B
  3
Basic
350
229
  3
Brighten
350
230
  3
ColorChange
350
234
  3
Conceptual
350
22D
  3
Dim
350
22F
  3
Facepattern
350
233
  3
Flat
350
225
  3
FlatWithEdges
350
226
  3
Gouraud
350
227
  3
GouraudWithEdges
350
228
  3
Linepattern
350
232
  3
Realistic
350
22E
  3
Thicken
350
231
  0
DICTIONARY
  5
FD
102
{ACAD_REACTORS
330
C
102
}
330
C
100
AcDbDictionary
281
     1
  3
CTABLESTYLE
350
2CD
  3
DIMASSOC
350
FF
  3
HIDETEXT
350
FE
  3
INDEXCTL
350
2CF
  3
SORTENTS
350
2CE
  0
DICTIONARY
  5
2AE
102
{ACAD_REACTORS
330
C
102
}
330
C
100
AcDbDictionary
281
     1
  3
ASEBlockHierarchyIndexRecord
350
2B0
1001
DCO15
1040
1567876440.899
  0
XRECORD
  5
2D0
102
{ACAD_REACTORS
330
C
102
}
330
C
100
AcDbXrecord
280
     1
  1
DWGPROPS COOKIE
  2

  3

  4

  6

  7

  8
Yu Hu
  9

300
=
301
=
302
=
303
=
304
=
305
=
306
=
307
=
308
=
309
=
 40
0.011484375
 41
2450226.559314815
 42
2453949.929917812
  1

 90
        0
  0
XRECORD
  5
21C
102
{ACAD_REACTORS
330
C8
102
}
330
C8
100
AcDbXrecord
280
     1
340
1E
  0
XRECORD
  5
21B
102
{ACAD_REACTORS
330
CA
102
}
330
CA
100
AcDbXrecord
280
     1
340
1A
  0
DIMASSOC
  5
26E
102
{ACAD_REACTORS
330
263
102
}
330
263
100
AcDbDimAssoc
330
255
 90
        1
 70
     0
 71
     0
  1
AcDbOsnapPointRef
 72
    13
331
5C
 73
     2
 91
        0
 40
1.570796326794896
 10
0.0
 20
0.0
 30
2.000000000000000E+50
 75
     0
  0
DIMASSOC
  5
2AC
102
{ACAD_REACTORS
330
2A1
102
}
330
2A1
100
AcDbDimAssoc
330
293
 90
        1
 70
     0
 71
     0
  1
AcDbOsnapPointRef
 72
     6
331
62
 73
     2
 91
        0
 40
0.2801865013073533
 10
0.0
 20
0.0
 30
0.0
332
5E
 74
     2
 92
        0
 75
     0
  0
LAYOUT
  5
1D
102
{ACAD_XDICTIONARY
360
2D1
102
}
102
{ACAD_REACTORS
330
19
102
}
330
19
100
AcDbPlotSettings
  1

  2
Fax
  4

  6

 40
0.0
 41
0.0
 42
0.0
 43
0.0
 44
0.0
 45
0.0
 46
0.0
 47
0.0
 48
0.0
 49
0.0
140
0.0
141
0.0
142
1.0
143
1.0
 70
   688
 72
     0
 73
     0
 74
     5
  7
Default R14 pen assignments.ctb
 75
    16
147
1.0
148
0.0
149
0.0
100
AcDbLayout
  1
Layout1
 70
     1
 71
     1
 10
0.0
 20
0.0
 11
12.0
 21
9.0
 12
0.0008545056916773
 22
1.250276130627782
 32
0.0
 14
1.000000000000000E+20
 24
1.000000000000000E+20
 34
1.000000000000000E+20
 15
-1.000000000000000E+20
 25
-1.000000000000000E+20
 35
-1.000000000000000E+20
146
0.0
 13
0.0
 23
0.0
 33
0.0
 16
1.0
 26
0.0
 36
0.0
 17
0.0
 27
1.0
 37
0.0
 76
     0
330
1A
  0
LAYOUT
  5
21
102
{ACAD_XDICTIONARY
360
2D3
102
}
102
{ACAD_REACTORS
330
19
102
}
330
19
100
AcDbPlotSettings
  1

  2
Fax
  4

  6

 40
0.0
 41
0.0
 42
0.0
 43
0.0
 44
0.0
 45
0.0
 46
0.0
 47
0.0
 48
0.0
 49
0.0
140
0.0
141
0.0
142
1.0
143
1.0
 70
  1712
 72
     0
 73
     0
 74
     0
  7
Default R14 pen assignments.ctb
 75
     0
147
1.0
148
0.0
149
0.0
100
AcDbLayout
  1
Model
 70
     1
 71
     0
 10
0.0
 20
0.0
 11
12.0
 21
9.0
 12
0.0
 22
0.0
 32
0.0
 14
0.0
 24
0.0
 34
0.0
 15
0.0
 25
0.0
 35
0.0
146
0.0
 13
0.0
 23
0.0
 33
0.0
 16
1.0
 26
0.0
 36
0.0
 17
0.0
 27
1.0
 37
0.0
 76
     0
330
1E
331
1E9
  0
MATERIAL
  5
222
102
{ACAD_XDICTIONARY
360
2D7
102
}
102
{ACAD_REACTORS
330
220
102
}
330
220
100
AcDbMaterial
  1
ByBlock
  0
MATERIAL
  5
221
102
{ACAD_XDICTIONARY
360
2D5
102
}
102
{ACAD_REACTORS
330
220
102
}
330
220
100
AcDbMaterial
  1
ByLayer
  0
MATERIAL
  5
223
102
{ACAD_XDICTIONARY
360
2D9
102
}
102
{ACAD_REACTORS
330
220
102
}
330
220
100
AcDbMaterial
  1
Global
  0
MLINESTYLE
  5
17
102
{ACAD_REACTORS
330
16
102
}
330
16
100
AcDbMlineStyle
  2
STANDARD
 70
     0
  3

 62
   256
 51
90.0
 52
90.0
 71
     2
 49
0.5
 62
   256
  6
BYLAYER
 49
-0.5
 62
   256
  6
BYLAYER
  0
ACDBPLACEHOLDER
  5
F
102
{ACAD_REACTORS
330
E
102
}
330
E
  0
TABLESTYLE
  5
237
102
{ACAD_XDICTIONARY
360
2DB
102
}
102
{ACAD_REACTORS
330
236
102
}
330
236
100
AcDbTableStyle
  3
Standard
 70
     0
 71
     0
 40
0.06
 41
0.06
280
     0
281
     0
  7
STANDARD
140
0.18
170
     2
 62
     0
 63
     7
283
     0
274
    -2
284
     1
 64
     0
275
    -2
285
     1
 65
     0
276
    -2
286
     1
 66
     0
277
    -2
287
     1
 67
     0
278
    -2
288
     1
 68
     0
279
    -2
289
     1
 69
     0
  7
STANDARD
140
0.25
170
     5
 62
     0
 63
     7
283
     0
274
    -2
284
     1
 64
     0
275
    -2
285
     1
 65
     0
276
    -2
286
     1
 66
     0
277
    -2
287
     1
 67
     0
278
    -2
288
     1
 68
     0
279
    -2
289
     1
 69
     0
  7
STANDARD
140
0.18
170
     5
 62
     0
 63
     7
283
     0
274
    -2
284
     1
 64
     0
275
    -2
285
     1
 65
     0
276
    -2
286
     1
 66
     0
277
    -2
287
     1
 67
     0
278
    -2
288
     1
 68
     0
279
    -2
289
     1
 69
     0
  0
VISUALSTYLE
  5
22A
102
{ACAD_REACTORS
330
224
102
}
330
224
100
AcDbVisualStyle
  2
2dWireframe
 70
     4
 71
     0
 72
     2
 73
     0
 90
        0
 40
-0.6
 41
-30.0
 62
     5
 63
     7
 74
     1
 91
        4
 64
     7
 65
   257
 75
     1
175
     1
 42
1.0
 92
        0
 66
   257
 43
1.0
 76
     1
 77
     6
 78
     2
 67
     7
 79
     5
170
     0
171
     0
290
     0
174
     0
 93
        1
 44
0.0
173
     0
291
     0
 45
0.0
1001
ACAD
1000
AcDbSavedByObjectVersion
1070
     0
  0
VISUALSTYLE
  5
22C
102
{ACAD_REACTORS
330
224
102
}
330
224
100
AcDbVisualStyle
  2
3D Hidden
 70
     6
 71
     1
 72
     2
 73
     2
 90
        0
 40
-0.6
 41
-30.0
 62
     5
 63
     7
 74
     2
 91
        2
 64
     7
 65
   257
 75
     2
175
     1
 42
40.0
 92
        0
 66
   257
 43
1.0
 76
     1
 77
     6
 78
     2
 67
     7
 79
     3
170
     0
171
     0
290
     0
174
     0
 93
        1
 44
0.0
173
     0
291
     0
 45
0.0
1001
ACAD
1000
AcDbSavedByObjectVersion
1070
     0
  0
VISUALSTYLE
  5
22B
102
{ACAD_REACTORS
330
224
102
}
330
224
100
AcDbVisualStyle
  2
3dWireframe
 70
     5
 71
     0
 72
     2
 73
     0
 90
        0
 40
-0.6
 41
-30.0
 62
     5
 63
     7
 74
     1
 91
        4
 64
     7
 65
   257
 75
     1
175
     1
 42
1.0
 92
        0
 66
   257
 43
1.0
 76
     1
 77
     6
 78
     2
 67
     7
 79
     5
170
     0
171
     0
290
     0
174
     0
 93
        1
 44
0.0
173
     0
291
     0
 45
0.0
1001
ACAD
1000
AcDbSavedByObjectVersion
1070
     0
  0
VISUALSTYLE
  5
229
102
{ACAD_REACTORS
330
224
102
}
330
224
100
AcDbVisualStyle
  2
Basic
 70
     7
 71
     1
 72
     0
 73
     1
 90
        0
 40
-0.6
 41
-30.0
 62
     5
 63
     7
 74
     0
 91
        4
 64
     7
 65
   257
 75
     1
175
     1
 42
1.0
 92
        8
 66
     7
 43
1.0
 76
     1
 77
     6
 78
     2
 67
     7
 79
     5
170
     0
171
     0
290
     0
174
     0
 93
        1
 44
0.0
173
     0
291
     1
 45
0.0
1001
ACAD
1000
AcDbSavedByObjectVersion
1070
     0
  0
VISUALSTYLE
  5
230
102
{ACAD_REACTORS
330
224
102
}
330
224
100
AcDbVisualStyle
  2
Brighten
 70
    12
 71
     2
 72
     2
 73
     0
 90
        0
 40
-0.6
 41
-30.0
 62
     5
 63
     7
 74
     1
 91
        4
 64
     7
 65
   257
 75
     1
175
     1
 42
1.0
 92
        8
 66
     7
 43
1.0
 76
     1
 77
     6
 78
     2
 67
     7
 79
     5
170
     0
171
     0
290
     0
174
     0
 93
        1
 44
50.0
173
     0
291
     1
 45
0.0
1001
ACAD
1000
AcDbSavedByObjectVersion
1070
     0
  0
VISUALSTYLE
  5
234
102
{ACAD_REACTORS
330
224
102
}
330
224
100
AcDbVisualStyle
  2
ColorChange
 70
    16
 71
     2
 72
     2
 73
     3
 90
        0
 40
-0.6
 41
-30.0
 62
     5
 63
     8
 74
     1
 91
        4
 64
     7
 65
   257
 75
     1
175
     1
 42
1.0
 92
        8
 66
     8
 43
1.0
 76
     1
 77
     6
 78
     2
 67
     7
 79
     5
170
     0
171
     0
290
     0
174
     0
 93
        1
 44
0.0
173
     0
291
     1
 45
0.0
1001
ACAD
1000
AcDbSavedByObjectVersion
1070
     0
  0
VISUALSTYLE
  5
22D
102
{ACAD_REACTORS
330
224
102
}
330
224
100
AcDbVisualStyle
  2
Conceptual
 70
     9
 71
     3
 72
     2
 73
     0
 90
        0
 40
-0.6
 41
-30.0
 62
     5
 63
     7
 74
     2
 91
        2
 64
     7
 65
   257
 75
     1
175
     1
 42
40.0
 92
        8
 66
     7
 43
1.0
 76
     1
 77
     6
 78
     2
 67
     7
 79
     3
170
     0
171
     0
290
     0
174
     0
 93
        1
 44
0.0
173
     0
291
     0
 45
0.0
1001
ACAD
1000
AcDbSavedByObjectVersion
1070
     0
  0
VISUALSTYLE
  5
22F
102
{ACAD_REACTORS
330
224
102
}
330
224
100
AcDbVisualStyle
  2
Dim
 70
    11
 71
     2
 72
     2
 73
     0
 90
        0
 40
-0.6
 41
-30.0
 62
     5
 63
     7
 74
     1
 91
        4
 64
     7
 65
   257
 75
     1
175
     1
 42
1.0
 92
        8
 66
     7
 43
1.0
 76
     1
 77
     6
 78
     2
 67
     7
 79
     5
170
     0
171
     0
290
     0
174
     0
 93
        1
 44
-50.0
173
     0
291
     1
 45
0.0
1001
ACAD
1000
AcDbSavedByObjectVersion
1070
     0
  0
VISUALSTYLE
  5
233
102
{ACAD_REACTORS
330
224
102
}
330
224
100
AcDbVisualStyle
  2
Facepattern
 70
    15
 71
     2
 72
     2
 73
     0
 90
        0
 40
-0.6
 41
-30.0
 62
     5
 63
     7
 74
     1
 91
        4
 64
     7
 65
   257
 75
     1
175
     1
 42
1.0
 92
        8
 66
     7
 43
1.0
 76
     1
 77
     6
 78
     2
 67
     7
 79
     5
170
     0
171
     0
290
     0
174
     0
 93
        1
 44
0.0
173
     0
291
     1
 45
0.0
1001
ACAD
1000
AcDbSavedByObjectVersion
1070
     0
  0
VISUALSTYLE
  5
225
102
{ACAD_REACTORS
330
224
102
}
330
224
100
AcDbVisualStyle
  2
Flat
 70
     0
 71
     2
 72
     1
 73
     1
 90
        2
 40
-0.6
 41
30.0
 62
     5
 63
     7
 74
     0
 91
        4
 64
     7
 65
   257
 75
     1
175
     1
 42
1.0
 92
        8
 66
     7
 43
1.0
 76
     1
 77
     6
 78
     2
 67
     7
 79
     5
170
     0
171
     0
290
     0
174
     0
 93
       13
 44
0.0
173
     0
291
     1
 45
0.0
1001
ACAD
1000
AcDbSavedByObjectVersion
1070
     0
  0
VISUALSTYLE
  5
226
102
{ACAD_REACTORS
330
224
102
}
330
224
100
AcDbVisualStyle
  2
FlatWithEdges
 70
     1
 71
     2
 72
     1
 73
     1
 90
        2
 40
-0.6
 41
30.0
 62
     5
 63
     7
 74
     1
 91
        4
 64
     7
 65
   257
 75
     1
175
     1
 42
1.0
 92
        0
 66
   257
 43
1.0
 76
     1
 77
     6
 78
     2
 67
     7
 79
     5
170
     0
171
     0
290
     0
174
     0
 93
       13
 44
0.0
173
     0
291
     1
 45
0.0
1001
ACAD
1000
AcDbSavedByObjectVersion
1070
     0
  0
VISUALSTYLE
  5
227
102
{ACAD_REACTORS
330
224
102
}
330
224
100
AcDbVisualStyle
  2
Gouraud
 70
     2
 71
     2
 72
     2
 73
     1
 90
        2
 40
-0.6
 41
30.0
 62
     5
 63
     7
 74
     0
 91
        4
 64
     7
 65
   257
 75
     1
175
     1
 42
1.0
 92
        0
 66
     7
 43
1.0
 76
     1
 77
     6
 78
     2
 67
     7
 79
     5
170
     0
171
     0
290
     0
174
     0
 93
       13
 44
0.0
173
     0
291
     1
 45
0.0
1001
ACAD
1000
AcDbSavedByObjectVersion
1070
     0
  0
VISUALSTYLE
  5
228
102
{ACAD_REACTORS
330
224
102
}
330
224
100
AcDbVisualStyle
  2
GouraudWithEdges
 70
     3
 71
     2
 72
     2
 73
     1
 90
        2
 40
-0.6
 41
30.0
 62
     5
 63
     7
 74
     1
 91
        4
 64
     7
 65
   257
 75
     1
175
     1
 42
1.0
 92
        0
 66
   257
 43
1.0
 76
     1
 77
     6
 78
     2
 67
     7
 79
     5
170
     0
171
     0
290
     0
174
     0
 93
       13
 44
0.0
173
     0
291
     1
 45
0.0
1001
ACAD
1000
AcDbSavedByObjectVersion
1070
     0
  0
VISUALSTYLE
  5
232
102
{ACAD_REACTORS
330
224
102
}
330
224
100
AcDbVisualStyle
  2
Linepattern
 70
    14
 71
     2
 72
     2
 73
     0
 90
        0
 40
-0.6
 41
-30.0
 62
     5
 63
     7
 74
     1
 91
        4
 64
     7
 65
   257
 75
     7
175
     7
 42
1.0
 92
        8
 66
     7
 43
1.0
 76
     1
 77
     6
 78
     2
 67
     7
 79
     5
170
     0
171
     0
290
     0
174
     0
 93
        1
 44
0.0
173
     0
291
     1
 45
0.0
1001
ACAD
1000
AcDbSavedByObjectVersion
1070
     0
  0
VISUALSTYLE
  5
22E
102
{ACAD_REACTORS
330
224
102
}
330
224
100
AcDbVisualStyle
  2
Realistic
 70
     8
 71
     2
 72
     2
 73
     0
 90
        0
 40
-0.6
 41
-30.0
 62
     5
 63
     7
 74
     1
 91
        0
 64
     7
 65
   257
 75
     1
175
     1
 42
1.0
 92
        8
 66
     8
 43
1.0
 76
     1
 77
     6
 78
     2
 67
     7
 79
     5
170
     0
171
     0
290
     0
174
     0
 93
       13
 44
0.0
173
     0
291
     0
 45
0.0
1001
ACAD
1000
AcDbSavedByObjectVersion
1070
     0
  0
VISUALSTYLE
  5
231
102
{ACAD_REACTORS
330
224
102
}
330
224
100
AcDbVisualStyle
  2
Thicken
 70
    13
 71
     2
 72
     2
 73
     0
 90
        0
 40
-0.6
 41
-30.0
 62
     5
 63
     7
 74
     1
 91
        4
 64
     7
 65
   257
 75
     1
175
     1
 42
1.0
 92
       12
 66
     7
 43
1.0
 76
     1
 77
     6
 78
     2
 67
     7
 79
     5
170
     0
171
     0
290
     0
174
     0
 93
        1
 44
0.0
173
     0
291
     1
 45
0.0
1001
ACAD
1000
AcDbSavedByObjectVersion
1070
     0
  0
DICTIONARYVAR
  5
2CD
102
{ACAD_REACTORS
330
FD
102
}
330
FD
100
DictionaryVariables
280
     0
  1
STANDARD
  0
DICTIONARYVAR
  5
FF
102
{ACAD_REACTORS
330
FD
102
}
330
FD
100
DictionaryVariables
280
     0
  1
2
  0
DICTIONARYVAR
  5
FE
102
{ACAD_REACTORS
330
FD
102
}
330
FD
100
DictionaryVariables
280
     0
  1
1
  0
DICTIONARYVAR
  5
2CF
102
{ACAD_REACTORS
330
FD
102
}
330
FD
100
DictionaryVariables
280
     0
  1
0
  0
DICTIONARYVAR
  5
2CE
102
{ACAD_REACTORS
330
FD
102
}
330
FD
100
DictionaryVariables
280
     0
  1
127
  0
XRECORD
  5
2B0
102
{ACAD_REACTORS
330
2AE
102
}
330
2AE
100
AcDbXrecord
280
     1
  0
DICTIONARY
  5
2D1
330
1D
100
AcDbDictionary
280
     1
281
     1
  3
ACAD_XREC_ROUNDTRIP
360
2D2
  0
DICTIONARY
  5
2D3
330
21
100
AcDbDictionary
280
     1
281
     1
  3
ACAD_XREC_ROUNDTRIP
360
2D4
  0
DICTIONARY
  5
2D7
330
222
100
AcDbDictionary
280
     1
281
     1
  3
ACAD_XREC_ROUNDTRIP
360
2D8
  0
DICTIONARY
  5
2D5
330
221
100
AcDbDictionary
280
     1
281
     1
  3
ACAD_XREC_ROUNDTRIP
360
2D6
  0
DICTIONARY
  5
2D9
330
223
100
AcDbDictionary
280
     1
281
     1
  3
ACAD_XREC_ROUNDTRIP
360
2DA
  0
DICTIONARY
  5
2DB
330
237
100
AcDbDictionary
280
     1
281
     1
  3
ACAD_XREC_ROUNDTRIP
360
2DC
  0
XRECORD
  5
2D2
102
{ACAD_REACTORS
330
2D1
102
}
330
2D1
100
AcDbXrecord
280
     1
102
SHADEPLOT
 70
     0
102
SHADEPLOTRESLEVEL
 70
     2
102
SHADEPLOTCUSTOMDPI
 70
   300
  0
XRECORD
  5
2D4
102
{ACAD_REACTORS
330
2D3
102
}
330
2D3
100
AcDbXrecord
280
     1
102
SHADEPLOT
 70
     0
102
SHADEPLOTRESLEVEL
 70
     2
102
SHADEPLOTCUSTOMDPI
 70
   300
  0
XRECORD
  5
2D8
102
{ACAD_REACTORS
330
2D7
102
}
330
2D7
100
AcDbXrecord
280
     1
102
MATERIAL
148
0.0
149
0.0
149
0.0
 93
        0
 94
       63
282
     0
 72
     1
 77
     1
171
     1
175
     1
179
     1
273
     0
  0
XRECORD
  5
2D6
102
{ACAD_REACTORS
330
2D5
102
}
330
2D5
100
AcDbXrecord
280
     1
102
MATERIAL
148
0.0
149
0.0
149
0.0
 93
        0
 94
       63
282
     0
 72
     1
 77
     1
171
     1
175
     1
179
     1
273
     0
  0
XRECORD
  5
2DA
102
{ACAD_REACTORS
330
2D9
102
}
330
2D9
100
AcDbXrecord
280
     1
102
MATERIAL
148
0.0
149
0.0
149
0.0
 93
        0
 94
       63
282
     0
 72
     1
 77
     1
171
     1
175
     1
179
     1
273
     0
  0
XRECORD
  5
2DC
102
{ACAD_REACTORS
330
2DB
102
}
330
2DB
100
AcDbXrecord
280
     1
102
ACAD_ROUNDTRIP_PRE2007_TABLESTYLE
 90
      512
 91
        0
  1

 92
      512
 93
        0
  2

 94
      512
 95
        0
  3

  0
ENDSEC
  0
EOF
