  0
SECTION
  2
HEADER
  9
$ACADVER
  1
AC1015
  9
$ACADMAINTVER
 70
    20
  9
$DWGCODEPAGE
  3
ANSI_936
  9
$INSBASE
 10
0.0
 20
0.0
 30
0.0
  9
$EXTMIN
 10
21.22727415988682
 20
5.948166192242009
 30
-0.0000000349181948
  9
$EXTMAX
 10
34.09954140661302
 20
9.551790123534903
 30
0.0000000814935746
  9
$LIMMIN
 10
0.0
 20
0.0
  9
$LIMMAX
 10
0.0
 20
0.0
  9
$ORTHOMODE
 70
     0
  9
$REGENMODE
 70
     1
  9
$FILLMODE
 70
     1
  9
$QTEXTMODE
 70
     0
  9
$MIRRTEXT
 70
     1
  9
$LTSCALE
 40
1.0
  9
$ATTMODE
 70
     1
  9
$TEXTSIZE
 40
0.0
  9
$TRACEWID
 40
0.05
  9
$TEXTSTYLE
  7
STANDARD
  9
$CLAYER
  8
0
  9
$CELTYPE
  6
CONTINUOUS
  9
$CECOLOR
 62
   256
  9
$CELTSCALE
 40
1.0
  9
$DISPSILH
 70
     0
  9
$DIMSCALE
 40
1.0
  9
$DIMASZ
 40
0.18
  9
$DIMEXO
 40
0.0625
  9
$DIMDLI
 40
0.38
  9
$DIMRND
 40
0.0
  9
$DIMDLE
 40
0.0
  9
$DIMEXE
 40
0.18
  9
$DIMTP
 40
0.0
  9
$DIMTM
 40
0.0
  9
$DIMTXT
 40
0.18
  9
$DIMCEN
 40
0.09
  9
$DIMTSZ
 40
0.0
  9
$DIMTOL
 70
     0
  9
$DIMLIM
 70
     0
  9
$DIMTIH
 70
     1
  9
$DIMTOH
 70
     1
  9
$DIMSE1
 70
     0
  9
$DIMSE2
 70
     0
  9
$DIMTAD
 70
     0
  9
$DIMZIN
 70
     0
  9
$DIMBLK
  1

  9
$DIMASO
 70
     1
  9
$DIMSHO
 70
     1
  9
$DIMPOST
  1

  9
$DIMAPOST
  1

  9
$DIMALT
 70
     0
  9
$DIMALTD
 70
     2
  9
$DIMALTF
 40
25.4
  9
$DIMLFAC
 40
1.0
  9
$DIMTOFL
 70
     0
  9
$DIMTVP
 40
0.0
  9
$DIMTIX
 70
     0
  9
$DIMSOXD
 70
     0
  9
$DIMSAH
 70
     0
  9
$DIMBLK1
  1

  9
$DIMBLK2
  1

  9
$DIMSTYLE
  2
STANDARD
  9
$DIMCLRD
 70
     0
  9
$DIMCLRE
 70
     0
  9
$DIMCLRT
 70
     0
  9
$DIMTFAC
 40
1.0
  9
$DIMGAP
 40
0.09
  9
$DIMJUST
 70
     0
  9
$DIMSD1
 70
     0
  9
$DIMSD2
 70
     0
  9
$DIMTOLJ
 70
     1
  9
$DIMTZIN
 70
     0
  9
$DIMALTZ
 70
     0
  9
$DIMALTTZ
 70
     0
  9
$DIMUPT
 70
     0
  9
$DIMDEC
 70
     4
  9
$DIMTDEC
 70
     4
  9
$DIMALTU
 70
     2
  9
$DIMALTTD
 70
     2
  9
$DIMTXSTY
  7
STANDARD
  9
$DIMAUNIT
 70
     0
  9
$DIMADEC
 70
     0
  9
$DIMALTRND
 40
0.0
  9
$DIMAZIN
 70
     0
  9
$DIMDSEP
 70
    46
  9
$DIMATFIT
 70
     3
  9
$DIMFRAC
 70
     0
  9
$DIMLDRBLK
  1

  9
$DIMLUNIT
 70
     2
  9
$DIMLWD
 70
    -2
  9
$DIMLWE
 70
    -2
  9
$DIMTMOVE
 70
     0
  9
$LUNITS
 70
     2
  9
$LUPREC
 70
     4
  9
$SKETCHINC
 40
0.1
  9
$FILLETRAD
 40
0.0
  9
$AUNITS
 70
     0
  9
$AUPREC
 70
     0
  9
$MENU
  1
acad
  9
$ELEVATION
 40
0.0
  9
$PELEVATION
 40
0.0
  9
$THICKNESS
 40
0.0
  9
$LIMCHECK
 70
     0
  9
$CHAMFERA
 40
0.0
  9
$CHAMFERB
 40
0.0
  9
$CHAMFERC
 40
0.0
  9
$CHAMFERD
 40
0.0
  9
$SKPOLY
 70
     0
  9
$TDCREATE
 40
2444971.750000000
  9
$TDUCREATE
 40
2444971.958333334
  9
$TDUPDATE
 40
2455209.546356493
  9
$TDUUPDATE
 40
2455209.754689827
  9
$TDINDWG
 40
0.0293714468
  9
$TDUSRTIMER
 40
0.0293714468
  9
$USRTIMER
 70
     1
  9
$ANGBASE
 50
0.0
  9
$ANGDIR
 70
     0
  9
$PDMODE
 70
     0
  9
$PDSIZE
 40
0.0
  9
$PLINEWID
 40
0.0
  9
$SPLFRAME
 70
     0
  9
$SPLINETYPE
 70
     6
  9
$SPLINESEGS
 70
     8
  9
$HANDSEED
  5
6A9
  9
$SURFTAB1
 70
     6
  9
$SURFTAB2
 70
     6
  9
$SURFTYPE
 70
     6
  9
$SURFU
 70
     6
  9
$SURFV
 70
     6
  9
$UCSBASE
  2

  9
$UCSNAME
  2

  9
$UCSORG
 10
0.0
 20
0.0
 30
0.0
  9
$UCSXDIR
 10
1.0
 20
0.0
 30
0.0
  9
$UCSYDIR
 10
0.0
 20
1.0
 30
0.0
  9
$UCSORTHOREF
  2

  9
$UCSORTHOVIEW
 70
     0
  9
$UCSORGTOP
 10
0.0
 20
0.0
 30
0.0
  9
$UCSORGBOTTOM
 10
0.0
 20
0.0
 30
0.0
  9
$UCSORGLEFT
 10
0.0
 20
0.0
 30
0.0
  9
$UCSORGRIGHT
 10
0.0
 20
0.0
 30
0.0
  9
$UCSORGFRONT
 10
0.0
 20
0.0
 30
0.0
  9
$UCSORGBACK
 10
0.0
 20
0.0
 30
0.0
  9
$PUCSBASE
  2

  9
$PUCSNAME
  2

  9
$PUCSORG
 10
0.0
 20
0.0
 30
0.0
  9
$PUCSXDIR
 10
1.0
 20
0.0
 30
0.0
  9
$PUCSYDIR
 10
0.0
 20
1.0
 30
0.0
  9
$PUCSORTHOREF
  2

  9
$PUCSORTHOVIEW
 70
     0
  9
$PUCSORGTOP
 10
0.0
 20
0.0
 30
0.0
  9
$PUCSORGBOTTOM
 10
0.0
 20
0.0
 30
0.0
  9
$PUCSORGLEFT
 10
0.0
 20
0.0
 30
0.0
  9
$PUCSORGRIGHT
 10
0.0
 20
0.0
 30
0.0
  9
$PUCSORGFRONT
 10
0.0
 20
0.0
 30
0.0
  9
$PUCSORGBACK
 10
0.0
 20
0.0
 30
0.0
  9
$USERI1
 70
     0
  9
$USERI2
 70
     0
  9
$USERI3
 70
     0
  9
$USERI4
 70
     0
  9
$USERI5
 70
     0
  9
$USERR1
 40
0.0
  9
$USERR2
 40
0.0
  9
$USERR3
 40
0.0
  9
$USERR4
 40
0.0
  9
$USERR5
 40
0.0
  9
$WORLDVIEW
 70
     1
  9
$SHADEDGE
 70
     3
  9
$SHADEDIF
 70
    70
  9
$TILEMODE
 70
     1
  9
$MAXACTVP
 70
    16
  9
$PINSBASE
 10
0.0
 20
0.0
 30
0.0
  9
$PLIMCHECK
 70
     0
  9
$PEXTMIN
 10
1.000000000000000E+20
 20
1.000000000000000E+20
 30
1.000000000000000E+20
  9
$PEXTMAX
 10
-1.000000000000000E+20
 20
-1.000000000000000E+20
 30
-1.000000000000000E+20
  9
$PLIMMIN
 10
0.0
 20
0.0
  9
$PLIMMAX
 10
12.0
 20
9.0
  9
$UNITMODE
 70
     0
  9
$VISRETAIN
 70
     0
  9
$PLINEGEN
 70
     0
  9
$PSLTSCALE
 70
     0
  9
$TREEDEPTH
 70
  3020
  9
$CMLSTYLE
  2
STANDARD
  9
$CMLJUST
 70
     0
  9
$CMLSCALE
 40
1.0
  9
$PROXYGRAPHICS
 70
     1
  9
$MEASUREMENT
 70
     0
  9
$CELWEIGHT
370
    -1
  9
$ENDCAPS
280
     0
  9
$JOINSTYLE
280
     0
  9
$LWDISPLAY
290
     0
  9
$INSUNITS
 70
     0
  9
$HYPERLINKBASE
  1

  9
$STYLESHEET
  1

  9
$XEDIT
290
     1
  9
$CEPSNTYPE
380
     0
  9
$PSTYLEMODE
290
     1
  9
$FINGERPRINTGUID
  2
{BDE907C0-18E6-42D7-AB9A-EC7AC77716F4}
  9
$VERSIONGUID
  2
{E482E708-7125-4B13-B10C-960A27CDCEFE}
  9
$EXTNAMES
290
     1
  9
$PSVPSCALE
 40
0.0
  9
$OLESTARTUP
290
     0
  0
ENDSEC
  0
SECTION
  2
CLASSES
  0
CLASS
  1
IMAGE
  2
AcDbRasterImage
  3
ISM
 90
    34943
280
     0
281
     1
  0
CLASS
  1
DICTIONARYVAR
  2
AcDbDictionaryVar
  3
ObjectDBX Classes
 90
        0
280
     0
281
     0
  0
CLASS
  1
RASTERVARIABLES
  2
AcDbRasterVariables
  3
ISM
 90
    32768
280
     0
281
     0
  0
CLASS
  1
IMAGEDEF
  2
AcDbRasterImageDef
  3
ISM
 90
    32768
280
     0
281
     0
  0
CLASS
  1
IMAGEDEF_REACTOR
  2
AcDbRasterImageDefReactor
  3
ISM
 90
    32769
280
     0
281
     0
  0
CLASS
  1
IDBUFFER
  2
AcDbIdBuffer
  3
ObjectDBX Classes
 90
    32768
280
     0
281
     0
  0
CLASS
  1
SPATIAL_FILTER
  2
AcDbSpatialFilter
  3
ObjectDBX Classes
 90
    32768
280
     0
281
     0
  0
CLASS
  1
SORTENTSTABLE
  2
AcDbSortentsTable
  3
ObjectDBX Classes
 90
    32768
280
     0
281
     0
  0
CLASS
  1
LAYER_INDEX
  2
AcDbLayerIndex
  3
ObjectDBX Classes
 90
    32768
280
     0
281
     0
  0
CLASS
  1
SPATIAL_INDEX
  2
AcDbSpatialIndex
  3
ObjectDBX Classes
 90
    32768
280
     0
281
     0
  0
CLASS
  1
OBJECT_PTR
  2
CAseDLPNTableRecord
  3
ASE-LPNTableRecord
 90
    32769
280
     0
281
     0
  0
CLASS
  1
ACDBDICTIONARYWDFLT
  2
AcDbDictionaryWithDefault
  3
ObjectDBX Classes
 90
        0
280
     0
281
     0
  0
CLASS
  1
ACDBPLACEHOLDER
  2
AcDbPlaceHolder
  3
ObjectDBX Classes
 90
        0
280
     0
281
     0
  0
CLASS
  1
LAYOUT
  2
AcDbLayout
  3
ObjectDBX Classes
 90
        0
280
     0
281
     0
  0
CLASS
  1
MATERIAL
  2
AcDbMaterial
  3
ObjectDBX Classes
 90
     1024
280
     0
281
     0
  0
CLASS
  1
VISUALSTYLE
  2
AcDbVisualStyle
  3
ObjectDBX Classes
 90
     4095
280
     0
281
     0
  0
CLASS
  1
TABLESTYLE
  2
AcDbTableStyle
  3
ObjectDBX Classes
 90
     4095
280
     0
281
     0
  0
ENDSEC
  0
SECTION
  2
TABLES
  0
TABLE
  2
VPORT
  5
7
102
{ACAD_XDICTIONARY
360
455
102
}
330
0
100
AcDbSymbolTable
 70
     2
  0
VPORT
  5
2E
330
7
100
AcDbSymbolTableRecord
100
AcDbViewportTableRecord
  2
DCADVPORT
 70
     0
 10
24.6567755238379
 20
6.590100250722458
 11
31.31568933400537
 21
10.24654246049952
 12
6.209999999999999
 22
9.019999999999999
 13
0.0
 23
0.0
 14
1.0
 24
1.0
 15
0.0
 25
0.0
 16
0.0
 26
0.0
 36
1.0
 17
0.0
 27
0.0
 37
0.0
 40
18.04
 41
0.688564
 42
50.0
 43
1.0
 44
1.0
 50
0.0
 51
0.0
 71
     0
 72
   100
 73
     1
 74
     1
 75
     0
 76
     0
 77
     0
 78
     0
281
     0
 65
     1
110
0.0
120
0.0
130
0.0
111
1.0
121
0.0
131
0.0
112
0.0
122
1.0
132
0.0
 79
     0
146
0.0
  0
VPORT
  5
3B0
330
7
100
AcDbSymbolTableRecord
100
AcDbViewportTableRecord
  2
*Active
 70
     0
 10
0.0
 20
0.0
 11
1.0
 21
1.0
 12
27.66340778324992
 22
7.749978157888456
 13
0.0
 23
0.0
 14
1.0
 24
1.0
 15
0.0
 25
0.0
 16
0.0
 26
0.0
 36
1.0
 17
0.0
 27
0.0
 37
0.0
 40
5.329377063318894
 41
2.426443202979515
 42
50.0
 43
0.0
 44
0.0
 50
0.0
 51
0.0
 71
     0
 72
   100
 73
     1
 74
     1
 75
     0
 76
     0
 77
     0
 78
     0
281
     0
 65
     1
110
0.0
120
0.0
130
0.0
111
1.0
121
0.0
131
0.0
112
0.0
122
1.0
132
0.0
 79
     0
146
0.0
  0
ENDTAB
  0
TABLE
  2
LTYPE
  5
4
330
0
100
AcDbSymbolTable
 70
     3
  0
LTYPE
  5
11
330
4
100
AcDbSymbolTableRecord
100
AcDbLinetypeTableRecord
  2
BYBLOCK
 70
     0
  3

 72
    65
 73
     0
 40
0.0
  0
LTYPE
  5
12
330
4
100
AcDbSymbolTableRecord
100
AcDbLinetypeTableRecord
  2
BYLAYER
 70
     0
  3

 72
    65
 73
     0
 40
0.0
  0
LTYPE
  5
13
330
4
100
AcDbSymbolTableRecord
100
AcDbLinetypeTableRecord
  2
CONTINUOUS
 70
     0
  3
Solid line
 72
    65
 73
     0
 40
0.0
  0
LTYPE
  5
1E
330
4
100
AcDbSymbolTableRecord
100
AcDbLinetypeTableRecord
  2
CONTINUOUS
 70
     0
  3
Solid line
 72
    65
 73
     0
 40
0.0
  0
LTYPE
  5
24
330
4
100
AcDbSymbolTableRecord
100
AcDbLinetypeTableRecord
  2
DASHED
 70
     0
  3
__ __ __ __ __ __ __ __ __ __ __ __ __ __ __ __
 72
    65
 73
     2
 40
0.75
 49
0.5
 74
     0
 49
-0.25
 74
     0
  0
ENDTAB
  0
TABLE
  2
LAYER
  5
2
330
0
100
AcDbSymbolTable
 70
     6
  0
LAYER
  5
14
330
2
100
AcDbSymbolTableRecord
100
AcDbLayerTableRecord
  2
0
 70
     0
 62
     7
  6
CONTINUOUS
370
    -3
390
1E5
  0
LAYER
  5
2A
330
2
100
AcDbSymbolTableRecord
100
AcDbLayerTableRecord
  2
0
 70
     0
 62
   250
  6
CONTINUOUS
370
    -3
390
1E5
  0
LAYER
  5
2B
330
2
100
AcDbSymbolTableRecord
100
AcDbLayerTableRecord
  2
ADP1DETAIL
 70
     0
 62
   250
  6
CONTINUOUS
370
    -3
390
1E5
  0
LAYER
  5
2C
330
2
100
AcDbSymbolTableRecord
100
AcDbLayerTableRecord
  2
DEFPOINTS
 70
     0
 62
   250
  6
CONTINUOUS
290
     0
370
    -3
390
1E5
  0
LAYER
  5
2D
330
2
100
AcDbSymbolTableRecord
100
AcDbLayerTableRecord
  2
5
 70
     0
 62
   250
  6
CONTINUOUS
370
    -3
390
1E5
  0
LAYER
  5
1ED
330
2
100
AcDbSymbolTableRecord
100
AcDbLayerTableRecord
  2
ADPDIM
 70
     0
 62
     3
  6
CONTINUOUS
370
    -3
390
1E5
  0
ENDTAB
  0
TABLE
  2
STYLE
  5
3
330
0
100
AcDbSymbolTable
 70
     2
  0
STYLE
  5
17
330
3
100
AcDbSymbolTableRecord
100
AcDbTextStyleTableRecord
  2
STANDARD
 70
     0
 40
0.0
 41
1.0
 50
0.0
 71
     0
 42
0.0
  3
txt
  4

  0
STYLE
  5
1EE
330
3
100
AcDbSymbolTableRecord
100
AcDbTextStyleTableRecord
  2
ARIAL_WIDE
 70
     0
 40
0.0
 41
1.25
 50
0.0
 71
     0
 42
0.2
  3
arial.ttf
  4

1001
ACAD
1000
Arial
1071
       34
  0
ENDTAB
  0
TABLE
  2
VIEW
  5
5
330
0
100
AcDbSymbolTable
 70
     0
  0
ENDTAB
  0
TABLE
  2
UCS
  5
6
330
0
100
AcDbSymbolTable
 70
     0
  0
ENDTAB
  0
TABLE
  2
APPID
  5
8
330
0
100
AcDbSymbolTable
 70
     3
  0
APPID
  5
16
330
8
100
AcDbSymbolTableRecord
100
AcDbRegAppTableRecord
  2
ACAD
 70
     0
  0
APPID
  5
3FC
330
8
100
AcDbSymbolTableRecord
100
AcDbRegAppTableRecord
  2
ACAD_EXEMPT_FROM_CAD_STANDARDS
 70
     0
  0
APPID
  5
452
330
8
100
AcDbSymbolTableRecord
100
AcDbRegAppTableRecord
  2
DCO15
 70
     0
  0
ENDTAB
  0
TABLE
  2
DIMSTYLE
  5
9
330
0
100
AcDbSymbolTable
 70
     1
100
AcDbDimStyleTable
 71
     1
340
18
  0
DIMSTYLE
105
18
102
{ACAD_REACTORS
330
402
330
41A
330
528
330
536
330
5F8
330
606
102
}
330
9
100
AcDbSymbolTableRecord
100
AcDbDimStyleTableRecord
  2
STANDARD
 70
     0
289
     0
340
17
  0
ENDTAB
  0
TABLE
  2
BLOCK_RECORD
  5
1
330
0
100
AcDbSymbolTable
 70
     8
  0
BLOCK_RECORD
  5
A
102
{ACAD_XDICTIONARY
360
245
102
}
330
1
100
AcDbSymbolTableRecord
100
AcDbBlockTableRecord
  2
*MODEL_SPACE
340
1E8
  0
BLOCK_RECORD
  5
B
102
{ACAD_XDICTIONARY
360
247
102
}
330
1
100
AcDbSymbolTableRecord
100
AcDbBlockTableRecord
  2
*PAPER_SPACE
340
1E9
  0
BLOCK_RECORD
  5
403
330
1
100
AcDbSymbolTableRecord
100
AcDbBlockTableRecord
  2
*D0
340
0
  0
BLOCK_RECORD
  5
41B
330
1
100
AcDbSymbolTableRecord
100
AcDbBlockTableRecord
  2
*D1
340
0
  0
BLOCK_RECORD
  5
49E
330
1
100
AcDbSymbolTableRecord
100
AcDbBlockTableRecord
  2
_ArchTick
340
0
  0
BLOCK_RECORD
  5
4CA
330
1
100
AcDbSymbolTableRecord
100
AcDbBlockTableRecord
  2
_Oblique
340
0
102
{BLKREFS
331
4FA
331
4FB
331
504
331
505
331
5CA
331
5CB
331
5F2
331
5F3
331
668
331
669
331
67C
331
67D
102
}
  0
BLOCK_RECORD
  5
529
330
1
100
AcDbSymbolTableRecord
100
AcDbBlockTableRecord
  2
*D4
340
0
  0
BLOCK_RECORD
  5
537
330
1
100
AcDbSymbolTableRecord
100
AcDbBlockTableRecord
  2
*D5
340
0
  0
BLOCK_RECORD
  5
5F9
330
1
100
AcDbSymbolTableRecord
100
AcDbBlockTableRecord
  2
*D6
340
0
  0
BLOCK_RECORD
  5
607
330
1
100
AcDbSymbolTableRecord
100
AcDbBlockTableRecord
  2
*D7
340
0
  0
ENDTAB
  0
ENDSEC
  0
SECTION
  2
BLOCKS
  0
BLOCK
  5
D
330
A
100
AcDbEntity
  8
0
100
AcDbBlockBegin
  2
*MODEL_SPACE
 70
     0
 10
0.0
 20
0.0
 30
0.0
  3
*MODEL_SPACE
  1

  0
ENDBLK
  5
E
330
A
100
AcDbEntity
  8
0
100
AcDbBlockEnd
  0
BLOCK
  5
F
330
B
100
AcDbEntity
 67
     1
  8
0
100
AcDbBlockBegin
  2
*PAPER_SPACE
 70
     0
 10
0.0
 20
0.0
 30
0.0
  3
*PAPER_SPACE
  1

  0
ENDBLK
  5
10
330
B
100
AcDbEntity
 67
     1
  8
0
100
AcDbBlockEnd
  0
BLOCK
  5
40E
330
403
100
AcDbEntity
  8
0
 62
     3
100
AcDbBlockBegin
  2
*D0
 70
     1
 10
0.0
 20
0.0
 30
0.0
  3
*D0
  1

  0
LINE
  5
500
330
403
100
AcDbEntity
  8
ADPDIM
  6
Continuous
 62
     0
370
    -2
100
AcDbLine
 10
25.2428809835494
 20
8.527507315011849
 30
0.0
 11
24.35683741264519
 21
8.527507315011849
 31
0.0
  0
LINE
  5
501
330
403
100
AcDbEntity
  8
ADPDIM
  6
Continuous
 62
     0
370
    -2
100
AcDbLine
 10
25.2428809835494
 20
6.911258554878346
 30
0.0
 11
24.35683741264519
 21
6.911258554878346
 31
0.0
  0
LINE
  5
502
330
403
100
AcDbEntity
  8
ADPDIM
  6
Continuous
 62
     0
370
    -2
100
AcDbLine
 10
24.53683741264519
 20
8.527507315011849
 30
0.0
 11
24.53683741264519
 21
8.199382934945097
 31
0.0
  0
LINE
  5
503
330
403
100
AcDbEntity
  8
ADPDIM
  6
Continuous
 62
     0
370
    -2
100
AcDbLine
 10
24.53683741264519
 20
6.911258554878346
 30
0.0
 11
24.53683741264519
 21
7.239382934945096
 31
0.0
  0
INSERT
  5
504
330
403
100
AcDbEntity
  8
ADPDIM
  6
Continuous
 62
     0
370
    -2
100
AcDbBlockReference
  2
_Oblique
 10
24.53683741264519
 20
8.527507315011849
 30
0.0
 41
0.18
 42
0.18
 43
0.18
 50
90.0
  0
INSERT
  5
505
330
403
100
AcDbEntity
  8
ADPDIM
  6
Continuous
 62
     0
370
    -2
100
AcDbBlockReference
  2
_Oblique
 10
24.53683741264519
 20
6.911258554878346
 30
0.0
 41
0.18
 42
0.18
 43
0.18
 50
270.0
  0
MTEXT
  5
506
330
403
100
AcDbEntity
  8
ADPDIM
  6
Continuous
 62
     0
100
AcDbMText
 10
24.53683741264519
 20
7.719382934945101
 30
0.0
 40
0.18
 41
0.0
 71
     5
 72
     1
  1
\A1;1 5/8
 11
0.0000000000000001
 21
1.0
 31
0.0
 73
     1
 44
1.0
1001
ACAD
1000
MTEXTBEGIN
1070
    73
1070
     1
1070
    44
1040
1.0
1070
    74
1070
     0
1000
MTEXTEND
  0
POINT
  5
507
330
403
100
AcDbEntity
  8
DEFPOINTS
  6
Continuous
 62
     0
100
AcDbPoint
 10
25.3053809835494
 20
8.527507315011849
 30
0.0
  0
POINT
  5
508
330
403
100
AcDbEntity
  8
DEFPOINTS
  6
Continuous
 62
     0
100
AcDbPoint
 10
25.3053809835494
 20
6.911258554878346
 30
0.0
  0
POINT
  5
509
330
403
100
AcDbEntity
  8
DEFPOINTS
  6
Continuous
 62
     0
100
AcDbPoint
 10
24.53683741264519
 20
6.911258554878346
 30
0.0
  0
ENDBLK
  5
40F
330
403
100
AcDbEntity
  8
0
 62
     3
100
AcDbBlockEnd
  0
BLOCK
  5
426
330
41B
100
AcDbEntity
  8
0
 62
     3
100
AcDbBlockBegin
  2
*D1
 70
     1
 10
0.0
 20
0.0
 30
0.0
  3
*D1
  1

  0
LINE
  5
4F6
330
41B
100
AcDbEntity
  8
ADPDIM
  6
Continuous
 62
     0
370
    -2
100
AcDbLine
 10
25.3023452385762
 20
8.469634109104685
 30
0.0
 11
24.82521950718121
 21
8.469634109104685
 31
0.0
  0
LINE
  5
4F7
330
41B
100
AcDbEntity
  8
ADPDIM
  6
Continuous
 62
     0
370
    -2
100
AcDbLine
 10
25.3023452385762
 20
6.969634109104685
 30
0.0
 11
24.82521950718121
 21
6.969634109104685
 31
0.0
  0
LINE
  5
4F8
330
41B
100
AcDbEntity
  8
ADPDIM
  6
Continuous
 62
     0
370
    -2
100
AcDbLine
 10
25.00521950718121
 20
8.469634109104685
 30
0.0
 11
25.00521950718121
 21
8.169634109104684
 31
0.0
  0
LINE
  5
4F9
330
41B
100
AcDbEntity
  8
ADPDIM
  6
Continuous
 62
     0
370
    -2
100
AcDbLine
 10
25.00521950718121
 20
6.969634109104685
 30
0.0
 11
25.00521950718121
 21
7.269634109104685
 31
0.0
  0
INSERT
  5
4FA
330
41B
100
AcDbEntity
  8
ADPDIM
  6
Continuous
 62
     0
370
    -2
100
AcDbBlockReference
  2
_Oblique
 10
25.00521950718121
 20
8.469634109104685
 30
0.0
 41
0.18
 42
0.18
 43
0.18
 50
90.0
  0
INSERT
  5
4FB
330
41B
100
AcDbEntity
  8
ADPDIM
  6
Continuous
 62
     0
370
    -2
100
AcDbBlockReference
  2
_Oblique
 10
25.00521950718121
 20
6.969634109104685
 30
0.0
 41
0.18
 42
0.18
 43
0.18
 50
270.0
  0
MTEXT
  5
4FC
330
41B
100
AcDbEntity
  8
ADPDIM
  6
Continuous
 62
     0
100
AcDbMText
 10
25.00521950718121
 20
7.719634109104688
 30
0.0
 40
0.18
 41
0.0
 71
     5
 72
     1
  1
\A1;1 1/2
 11
0.0000000000000001
 21
1.0
 31
0.0
 73
     1
 44
1.0
1001
ACAD
1000
MTEXTBEGIN
1070
    73
1070
     1
1070
    44
1040
1.0
1070
    74
1070
     0
1000
MTEXTEND
  0
POINT
  5
4FD
330
41B
100
AcDbEntity
  8
DEFPOINTS
  6
Continuous
 62
     0
100
AcDbPoint
 10
25.3648452385762
 20
8.469634109104685
 30
0.0
  0
POINT
  5
4FE
330
41B
100
AcDbEntity
  8
DEFPOINTS
  6
Continuous
 62
     0
100
AcDbPoint
 10
25.3648452385762
 20
6.969634109104685
 30
0.0
  0
POINT
  5
4FF
330
41B
100
AcDbEntity
  8
DEFPOINTS
  6
Continuous
 62
     0
100
AcDbPoint
 10
25.00521950718121
 20
6.969634109104685
 30
0.0
  0
ENDBLK
  5
427
330
41B
100
AcDbEntity
  8
0
 62
     3
100
AcDbBlockEnd
  0
BLOCK
  5
4A0
330
49E
100
AcDbEntity
  8
0
100
AcDbBlockBegin
  2
_ArchTick
 70
     0
 10
0.0
 20
0.0
 30
0.0
  3
_ArchTick
  1

  0
LWPOLYLINE
  5
49F
330
49E
100
AcDbEntity
  8
0
  6
ByBlock
 62
     0
100
AcDbPolyline
 90
        2
 70
     0
 43
0.15
 10
-0.5
 20
-0.5
 10
0.5
 20
0.5
  0
ENDBLK
  5
4A1
330
49E
100
AcDbEntity
  8
0
100
AcDbBlockEnd
  0
BLOCK
  5
4CC
330
4CA
100
AcDbEntity
  8
0
100
AcDbBlockBegin
  2
_Oblique
 70
     0
 10
0.0
 20
0.0
 30
0.0
  3
_Oblique
  1

  0
LINE
  5
4CB
330
4CA
100
AcDbEntity
  8
0
  6
ByBlock
 62
     0
370
    -2
100
AcDbLine
 10
-0.5
 20
-0.5
 30
0.0
 11
0.5
 21
0.5
 31
0.0
  0
ENDBLK
  5
4CD
330
4CA
100
AcDbEntity
  8
0
100
AcDbBlockEnd
  0
BLOCK
  5
534
330
529
100
AcDbEntity
  8
0
100
AcDbBlockBegin
  2
*D4
 70
     1
 10
0.0
 20
0.0
 30
0.0
  3
*D4
  1

  0
LINE
  5
5C6
330
529
100
AcDbEntity
  8
ADPDIM
  6
Continuous
 62
     0
370
    -2
100
AcDbLine
 10
28.65543240549671
 20
8.392936411757062
 30
0.0
 11
30.28811440722753
 21
8.392936411757062
 31
0.0
  0
LINE
  5
5C7
330
529
100
AcDbEntity
  8
ADPDIM
  6
Continuous
 62
     0
370
    -2
100
AcDbLine
 10
28.65543240549671
 20
7.080436411757062
 30
0.0
 11
30.28811440722753
 21
7.080436411757061
 31
0.0
  0
LINE
  5
5C8
330
529
100
AcDbEntity
  8
ADPDIM
  6
Continuous
 62
     0
370
    -2
100
AcDbLine
 10
30.10811440722753
 20
8.392936411757062
 30
0.0
 11
30.10811440722753
 21
8.276686411757061
 31
0.0
  0
LINE
  5
5C9
330
529
100
AcDbEntity
  8
ADPDIM
  6
Continuous
 62
     0
370
    -2
100
AcDbLine
 10
30.10811440722753
 20
7.080436411757061
 30
0.0
 11
30.10811440722753
 21
7.196686411757062
 31
0.0
  0
INSERT
  5
5CA
330
529
100
AcDbEntity
  8
ADPDIM
  6
Continuous
 62
     0
370
    -2
100
AcDbBlockReference
  2
_Oblique
 10
30.10811440722753
 20
8.392936411757062
 30
0.0
 41
0.18
 42
0.18
 43
0.18
 50
90.0
  0
INSERT
  5
5CB
330
529
100
AcDbEntity
  8
ADPDIM
  6
Continuous
 62
     0
370
    -2
100
AcDbBlockReference
  2
_Oblique
 10
30.10811440722753
 20
7.080436411757061
 30
0.0
 41
0.18
 42
0.18
 43
0.18
 50
270.0
  0
MTEXT
  5
5CC
330
529
100
AcDbEntity
  8
ADPDIM
  6
Continuous
 62
     0
100
AcDbMText
 10
30.10811440722753
 20
7.736686411757068
 30
0.0
 40
0.18
 41
0.0
 71
     5
 72
     1
  1
\A1;1 5/16
 11
0.0000000000000001
 21
1.0
 31
0.0
 73
     1
 44
1.0
1001
ACAD
1000
MTEXTBEGIN
1070
    73
1070
     1
1070
    44
1040
1.0
1070
    74
1070
     0
1000
MTEXTEND
  0
POINT
  5
5CD
330
529
100
AcDbEntity
  8
DEFPOINTS
  6
Continuous
 62
     0
100
AcDbPoint
 10
28.5929324054967
 20
8.392936411757062
 30
0.0
  0
POINT
  5
5CE
330
529
100
AcDbEntity
  8
DEFPOINTS
  6
Continuous
 62
     0
100
AcDbPoint
 10
28.5929324054967
 20
7.080436411757062
 30
0.0
  0
POINT
  5
5CF
330
529
100
AcDbEntity
  8
DEFPOINTS
  6
Continuous
 62
     0
100
AcDbPoint
 10
30.10811440722753
 20
7.080436411757061
 30
0.0
  0
ENDBLK
  5
535
330
529
100
AcDbEntity
  8
0
100
AcDbBlockEnd
  0
BLOCK
  5
542
330
537
100
AcDbEntity
  8
0
100
AcDbBlockBegin
  2
*D5
 70
     1
 10
0.0
 20
0.0
 30
0.0
  3
*D5
  1

  0
LINE
  5
5EE
330
537
100
AcDbEntity
  8
ADPDIM
  6
Continuous
 62
     0
370
    -2
100
AcDbLine
 10
28.64950480863246
 20
8.524759677148482
 30
0.0
 11
30.90396260901341
 21
8.524759677148482
 31
0.0
  0
LINE
  5
5EF
330
537
100
AcDbEntity
  8
ADPDIM
  6
Continuous
 62
     0
370
    -2
100
AcDbLine
 10
28.64950480863246
 20
6.962259677148482
 30
0.0
 11
30.90396260901341
 21
6.962259677148481
 31
0.0
  0
LINE
  5
5F0
330
537
100
AcDbEntity
  8
ADPDIM
  6
Continuous
 62
     0
370
    -2
100
AcDbLine
 10
30.72396260901341
 20
8.524759677148482
 30
0.0
 11
30.72396260901341
 21
8.220114306378196
 31
0.0
  0
LINE
  5
5F1
330
537
100
AcDbEntity
  8
ADPDIM
  6
Continuous
 62
     0
370
    -2
100
AcDbLine
 10
30.72396260901341
 20
6.962259677148481
 30
0.0
 11
30.72396260901341
 21
7.140114306378195
 31
0.0
  0
INSERT
  5
5F2
330
537
100
AcDbEntity
  8
ADPDIM
  6
Continuous
 62
     0
370
    -2
100
AcDbBlockReference
  2
_Oblique
 10
30.72396260901341
 20
8.524759677148482
 30
0.0
 41
0.18
 42
0.18
 43
0.18
 50
90.0
  0
INSERT
  5
5F3
330
537
100
AcDbEntity
  8
ADPDIM
  6
Continuous
 62
     0
370
    -2
100
AcDbBlockReference
  2
_Oblique
 10
30.72396260901341
 20
6.962259677148481
 30
0.0
 41
0.18
 42
0.18
 43
0.18
 50
270.0
  0
MTEXT
  5
5F4
330
537
100
AcDbEntity
  8
ADPDIM
  6
Continuous
 62
     0
100
AcDbMText
 10
30.72396260901341
 20
7.6801143063782
 30
0.0
 40
0.18
 41
0.0
 71
     5
 72
     1
  1
\A1;1 9/16
 11
0.0000000000000001
 21
1.0
 31
0.0
 73
     1
 44
1.0
1001
ACAD
1000
MTEXTBEGIN
1070
    73
1070
     1
1070
    44
1040
1.0
1070
    74
1070
     0
1000
MTEXTEND
  0
POINT
  5
5F5
330
537
100
AcDbEntity
  8
DEFPOINTS
  6
Continuous
 62
     0
100
AcDbPoint
 10
28.58700480863246
 20
8.524759677148482
 30
0.0
  0
POINT
  5
5F6
330
537
100
AcDbEntity
  8
DEFPOINTS
  6
Continuous
 62
     0
100
AcDbPoint
 10
28.58700480863246
 20
6.962259677148482
 30
0.0
  0
POINT
  5
5F7
330
537
100
AcDbEntity
  8
DEFPOINTS
  6
Continuous
 62
     0
100
AcDbPoint
 10
30.72396260901341
 20
6.962259677148481
 30
0.0
  0
ENDBLK
  5
543
330
537
100
AcDbEntity
  8
0
100
AcDbBlockEnd
  0
BLOCK
  5
604
330
5F9
100
AcDbEntity
  8
0
100
AcDbBlockBegin
  2
*D6
 70
     1
 10
0.0
 20
0.0
 30
0.0
  3
*D6
  1

  0
LINE
  5
678
330
5F9
100
AcDbEntity
  8
ADPDIM
  6
Continuous
 62
     0
370
    -2
100
AcDbLine
 10
26.1197041075717
 20
8.711007637683925
 30
0.0
 11
27.27494541005848
 21
8.711007637683925
 31
0.0
  0
LINE
  5
679
330
5F9
100
AcDbEntity
  8
ADPDIM
  6
Continuous
 62
     0
370
    -2
100
AcDbLine
 10
26.11970410757171
 20
6.811007637683929
 30
0.0
 11
27.27494541005848
 21
6.811007637683929
 31
0.0
  0
LINE
  5
67A
330
5F9
100
AcDbEntity
  8
ADPDIM
  6
Continuous
 62
     0
370
    -2
100
AcDbLine
 10
27.09494541005848
 20
8.711007637683925
 30
0.0
 11
27.09494541005848
 21
8.241007637683928
 31
0.0
  0
LINE
  5
67B
330
5F9
100
AcDbEntity
  8
ADPDIM
  6
Continuous
 62
     0
370
    -2
100
AcDbLine
 10
27.09494541005848
 20
6.811007637683929
 30
0.0
 11
27.09494541005848
 21
7.281007637683926
 31
0.0
  0
INSERT
  5
67C
330
5F9
100
AcDbEntity
  8
ADPDIM
  6
Continuous
 62
     0
370
    -2
100
AcDbBlockReference
  2
_Oblique
 10
27.09494541005848
 20
8.711007637683925
 30
0.0
 41
0.18
 42
0.18
 43
0.18
 50
90.0
  0
INSERT
  5
67D
330
5F9
100
AcDbEntity
  8
ADPDIM
  6
Continuous
 62
     0
370
    -2
100
AcDbBlockReference
  2
_Oblique
 10
27.09494541005848
 20
6.811007637683929
 30
0.0
 41
0.18
 42
0.18
 43
0.18
 50
270.0
  0
MTEXT
  5
67E
330
5F9
100
AcDbEntity
  8
ADPDIM
  6
Continuous
 62
     0
100
AcDbMText
 10
27.09494541005848
 20
7.761007637683931
 30
0.0
 40
0.18
 41
0.0
 71
     5
 72
     1
  1
\A1;1 7/8
 11
0.0000000000000001
 21
1.0
 31
0.0
 73
     1
 44
1.0
1001
ACAD
1000
MTEXTBEGIN
1070
    73
1070
     1
1070
    44
1040
1.0
1070
    74
1070
     0
1000
MTEXTEND
  0
POINT
  5
67F
330
5F9
100
AcDbEntity
  8
DEFPOINTS
  6
Continuous
 62
     0
100
AcDbPoint
 10
26.0572041075717
 20
8.711007637683925
 30
0.0
  0
POINT
  5
680
330
5F9
100
AcDbEntity
  8
DEFPOINTS
  6
Continuous
 62
     0
100
AcDbPoint
 10
26.05720410757171
 20
6.811007637683929
 30
0.0
  0
POINT
  5
681
330
5F9
100
AcDbEntity
  8
DEFPOINTS
  6
Continuous
 62
     0
100
AcDbPoint
 10
27.09494541005848
 20
6.811007637683929
 30
0.0
  0
ENDBLK
  5
605
330
5F9
100
AcDbEntity
  8
0
100
AcDbBlockEnd
  0
BLOCK
  5
612
330
607
100
AcDbEntity
  8
0
100
AcDbBlockBegin
  2
*D7
 70
     1
 10
0.0
 20
0.0
 30
0.0
  3
*D7
  1

  0
LINE
  5
664
330
607
100
AcDbEntity
  8
ADPDIM
  6
Continuous
 62
     0
370
    -2
100
AcDbLine
 10
26.05720410757171
 20
8.773507637683923
 30
0.0
 11
26.05720410757171
 21
9.551250663168724
 31
0.0
  0
LINE
  5
665
330
607
100
AcDbEntity
  8
ADPDIM
  6
Continuous
 62
     0
370
    -2
100
AcDbLine
 10
26.62039212542894
 20
7.798748304291234
 30
0.0
 11
26.62039212542894
 21
9.551250663168724
 31
0.0
  0
LINE
  5
666
330
607
100
AcDbEntity
  8
ADPDIM
  6
Continuous
 62
     0
370
    -2
100
AcDbLine
 10
26.05720410757171
 20
9.371250663168725
 30
0.0
 11
26.62039212542894
 21
9.371250663168725
 31
0.0
  0
LINE
  5
667
330
607
100
AcDbEntity
  8
ADPDIM
  6
Continuous
 62
     0
370
    -2
100
AcDbLine
 10
26.62039212542894
 20
9.371250663168725
 30
0.0
 11
26.80039212542894
 21
9.371250663168725
 31
0.0
  0
INSERT
  5
668
330
607
100
AcDbEntity
  8
ADPDIM
  6
Continuous
 62
     0
370
    -2
100
AcDbBlockReference
  2
_Oblique
 10
26.05720410757171
 20
9.371250663168725
 30
0.0
 41
0.18
 42
0.18
 43
0.18
 50
180.0
  0
INSERT
  5
669
330
607
100
AcDbEntity
  8
ADPDIM
  6
Continuous
 62
     0
370
    -2
100
AcDbBlockReference
  2
_Oblique
 10
26.62039212542894
 20
9.371250663168725
 30
0.0
 41
0.18
 42
0.18
 43
0.18
  0
MTEXT
  5
66A
330
607
100
AcDbEntity
  8
ADPDIM
  6
Continuous
 62
     0
100
AcDbMText
 10
27.19039212542894
 20
9.371250663168725
 30
0.0
 40
0.18
 41
0.0
 71
     5
 72
     1
  1
\A1;9/16
 73
     1
 44
1.0
1001
ACAD
1000
MTEXTBEGIN
1070
    73
1070
     1
1070
    44
1040
1.0
1070
    74
1070
     0
1000
MTEXTEND
  0
POINT
  5
66B
330
607
100
AcDbEntity
  8
DEFPOINTS
  6
Continuous
 62
     0
100
AcDbPoint
 10
26.05720410757171
 20
8.711007637683923
 30
0.0
  0
POINT
  5
66C
330
607
100
AcDbEntity
  8
DEFPOINTS
  6
Continuous
 62
     0
100
AcDbPoint
 10
26.62039212542894
 20
7.736248304291234
 30
0.0
  0
POINT
  5
66D
330
607
100
AcDbEntity
  8
DEFPOINTS
  6
Continuous
 62
     0
100
AcDbPoint
 10
26.62039212542894
 20
9.371250663168725
 30
0.0
  0
ENDBLK
  5
613
330
607
100
AcDbEntity
  8
0
100
AcDbBlockEnd
  0
ENDSEC
  0
SECTION
  2
ENTITIES
  0
CIRCLE
  5
2F
330
A
100
AcDbEntity
  8
ADP1DETAIL
  6
Continuous
 62
     7
100
AcDbCircle
 10
-28.65674967114893
 20
7.761007637683925
 30
0.0
 40
0.9499999999999992
210
0.0
220
0.0
230
-1.0
  0
ARC
  5
30
330
A
100
AcDbEntity
  8
ADP1DETAIL
  6
Continuous
 62
     7
100
AcDbCircle
 10
-25.53810017299527
 20
7.761007637683927
 30
0.0
 40
1.082575122055151
210
0.0
220
0.0
230
-1.0
100
AcDbArc
 50
118.6533039838347
 51
241.3466960161652
  0
LWPOLYLINE
  5
31
330
A
100
AcDbEntity
  8
ADP1DETAIL
  6
Continuous
 62
     7
100
AcDbPolyline
 90
        2
 70
   128
 43
0.0
 10
26.0572041075717
 20
8.711007637683925
 10
26.0572041075717
 20
6.811007637683925
  0
LWPOLYLINE
  5
3A
330
A
100
AcDbEntity
  8
0
  6
Continuous
 48
2.0
100
AcDbPolyline
 90
        4
 70
   128
 43
0.0
 10
26.0551129972518
 20
8.527507315011849
 10
25.3053809835494
 20
8.527507315011849
 10
25.3053809835494
 20
6.912060815227624
 10
26.0551129972518
 20
6.911694887792764
  0
LWPOLYLINE
  5
40
330
A
100
AcDbEntity
  8
0
  6
DASHED
 62
     5
 48
2.0
100
AcDbPolyline
 90
        2
 70
   128
 43
0.0
 10
25.3053809835494
 20
8.469114281666296
 10
26.0572041075717
 20
8.469114281666296
  0
CIRCLE
  5
44
330
A
100
AcDbEntity
  8
0
  6
Continuous
 62
     5
 48
2.0
100
AcDbCircle
 10
-28.66378286202526
 20
7.74972263407181
 30
0.0
 40
0.7657115137399302
210
0.0
220
0.0
230
-1.0
  0
CIRCLE
  5
45
330
A
100
AcDbEntity
  8
0
  6
Continuous
 62
     5
 48
2.0
100
AcDbCircle
 10
-28.66020747855827
 20
7.748302997834242
 30
0.0
 40
0.6474723876073903
210
0.0
220
0.0
230
-1.0
  0
LWPOLYLINE
  5
73
330
A
100
AcDbEntity
  8
DEFPOINTS
  6
Continuous
 62
     3
 48
0.125
100
AcDbPolyline
 90
        2
 70
   128
 43
0.0
 10
26.05720410757171
 20
6.811007637683925
 10
26.05720410757171
 20
6.811007637683925
  0
LWPOLYLINE
  5
77
330
A
100
AcDbEntity
  8
DEFPOINTS
  6
Continuous
 62
     3
 48
0.125
100
AcDbPolyline
 90
        2
 70
   128
 43
0.0
 10
26.05720410757171
 20
6.811007637683925
 10
26.05720410757171
 20
6.811007637683925
  0
LWPOLYLINE
  5
7B
330
A
100
AcDbEntity
  8
DEFPOINTS
  6
Continuous
 62
     3
 48
0.125
100
AcDbPolyline
 90
        2
 70
   128
 43
0.0
 10
26.05720410757171
 20
6.590100250722458
 10
26.05720410757171
 20
6.590100250722458
  0
LWPOLYLINE
  5
7F
330
A
100
AcDbEntity
  8
DEFPOINTS
  6
Continuous
 62
     3
 48
0.125
100
AcDbPolyline
 90
        2
 70
   128
 43
0.0
 10
26.05720410757171
 20
6.590100250722458
 10
26.05720410757171
 20
6.590100250722458
  0
LWPOLYLINE
  5
D3
330
A
100
AcDbEntity
  8
0
  6
DASHED
 62
     5
 48
2.0
100
AcDbPolyline
 90
        2
 70
   128
 43
0.0
 10
25.30566701470967
 20
6.969827147634512
 10
26.0572041075717
 20
6.97220102350838
  0
LWPOLYLINE
  5
D7
330
A
100
AcDbEntity
  8
5
  6
Continuous
 62
     7
100
AcDbPolyline
 90
        2
 70
   128
 43
0.0
 10
25.5271201207607
 20
8.470943631825956
 10
25.6459914644701
 20
8.471295438010084
  0
LWPOLYLINE
  5
DB
330
A
100
AcDbEntity
  8
5
  6
Continuous
 62
     7
100
AcDbPolyline
 90
        2
 70
   128
 43
0.0
 10
25.5271201207607
 20
8.404795148997424
 10
25.64598977432158
 20
8.405155251200119
  0
LWPOLYLINE
  5
DF
330
A
100
AcDbEntity
  8
5
  6
Continuous
 62
     7
100
AcDbPolyline
 90
        2
 70
   128
 43
0.0
 10
25.5271201207607
 20
8.338646666168887
 10
25.64766050708351
 20
8.33902024736084
  0
LWPOLYLINE
  5
E3
330
A
100
AcDbEntity
  8
5
  6
Continuous
 62
     7
100
AcDbPolyline
 90
        2
 70
   128
 43
0.0
 10
25.5271201207607
 20
8.272498183340355
 10
25.64599144586605
 20
8.272874892881556
  0
LWPOLYLINE
  5
E7
330
A
100
AcDbEntity
  8
5
  6
Continuous
 62
     7
100
AcDbPolyline
 90
        2
 70
   128
 43
0.0
 10
25.52457594834422
 20
7.91202075408005
 10
25.52457594834422
 20
8.527507315011849
  0
LWPOLYLINE
  5
EB
330
A
100
AcDbEntity
  8
5
  6
Continuous
 62
     7
100
AcDbPolyline
 90
        2
 70
   128
 43
0.0
 10
25.5271201207607
 20
8.14528956251625
 10
25.64599300652199
 20
8.145641373264165
  0
LWPOLYLINE
  5
EF
330
A
100
AcDbEntity
  8
5
  6
Continuous
 62
     7
100
AcDbPolyline
 90
        2
 70
   128
 43
0.0
 10
25.5271201207607
 20
8.079141079687717
 10
25.64599135275871
 20
8.079501186672105
  0
LWPOLYLINE
  5
F3
330
A
100
AcDbEntity
  8
5
  6
Continuous
 62
     7
100
AcDbPolyline
 90
        2
 70
   128
 43
0.0
 10
25.5271201207607
 20
8.012992596859181
 10
25.64598962165453
 20
8.013360999609373
  0
LWPOLYLINE
  5
F7
330
A
100
AcDbEntity
  8
5
  6
Continuous
 62
     7
100
AcDbPolyline
 90
        2
 70
   128
 43
0.0
 10
25.5271201207607
 20
7.946844114030646
 10
25.64599309707353
 20
7.947220828804614
  0
LWPOLYLINE
  5
FB
330
A
100
AcDbEntity
  8
5
  6
Continuous
 62
     7
100
AcDbPolyline
 90
        2
 70
   128
 43
0.0
 10
25.64637820278331
 20
7.896119676477036
 10
25.6463782027833
 20
8.527507315011849
  0
LWPOLYLINE
  5
FF
330
A
100
AcDbEntity
  8
0
  6
Continuous
 48
2.0
100
AcDbPolyline
 90
        2
 70
   128
 43
0.0
 10
25.52712012076071
 20
8.211438045344783
 10
25.64432464857562
 20
8.211438045344783
  0
LWPOLYLINE
  5
103
330
A
100
AcDbEntity
  8
5
  6
Continuous
 62
     7
100
AcDbPolyline
 90
        2
 70
   128
 43
0.0
 10
25.52726005024361
 20
7.867841200067843
 10
25.64613139395301
 20
7.868193006251974
  0
LWPOLYLINE
  5
107
330
A
100
AcDbEntity
  8
5
  6
Continuous
 62
     7
100
AcDbPolyline
 90
        2
 70
   128
 43
0.0
 10
25.52726005024361
 20
7.735544234410774
 10
25.64780043656642
 20
7.735917815602727
  0
LWPOLYLINE
  5
10B
330
A
100
AcDbEntity
  8
5
  6
Continuous
 62
     7
100
AcDbPolyline
 90
        2
 70
   128
 43
0.0
 10
25.52726005024361
 20
7.669395751582241
 10
25.64613137534896
 20
7.669772461123443
  0
LWPOLYLINE
  5
10F
330
A
100
AcDbEntity
  8
5
  6
Continuous
 62
     7
100
AcDbPolyline
 90
        2
 70
   128
 43
0.0
 10
25.52471587782713
 20
7.30891832232194
 10
25.52471587782713
 20
7.930463847832864
  0
LWPOLYLINE
  5
113
330
A
100
AcDbEntity
  8
5
  6
Continuous
 62
     7
100
AcDbPolyline
 90
        2
 70
   128
 43
0.0
 10
25.52726005024361
 20
7.542187130758136
 10
25.6461329360049
 20
7.542538941506055
  0
LWPOLYLINE
  5
117
330
A
100
AcDbEntity
  8
5
  6
Continuous
 62
     7
100
AcDbPolyline
 90
        2
 70
   128
 43
0.0
 10
25.52726005024361
 20
7.476038647929604
 10
25.64613128224162
 20
7.476398754913993
  0
LWPOLYLINE
  5
11B
330
A
100
AcDbEntity
  8
5
  6
Continuous
 62
     7
100
AcDbPolyline
 90
        2
 70
   128
 43
0.0
 10
25.52726005024361
 20
7.409890165101067
 10
25.64612955113744
 20
7.41025856785126
  0
LWPOLYLINE
  5
11F
330
A
100
AcDbEntity
  8
5
  6
Continuous
 62
     7
100
AcDbPolyline
 90
        2
 70
   128
 43
0.0
 10
25.52726005024361
 20
7.343741682272534
 10
25.64613302655644
 20
7.344118397046503
  0
LWPOLYLINE
  5
123
330
A
100
AcDbEntity
  8
5
  6
Continuous
 62
     7
100
AcDbPolyline
 90
        2
 70
   128
 43
0.0
 10
25.64626142526942
 20
7.281619352293085
 10
25.64626142526941
 20
7.927016494208535
  0
LWPOLYLINE
  5
127
330
A
100
AcDbEntity
  8
0
  6
Continuous
 48
2.0
100
AcDbPolyline
 90
        2
 70
   128
 43
0.0
 10
25.52726005024362
 20
7.608335613586669
 10
25.64446457805853
 20
7.608335613586669
  0
LWPOLYLINE
  5
12B
330
A
100
AcDbEntity
  8
5
  6
Continuous
 62
     7
100
AcDbPolyline
 90
        2
 70
   128
 43
0.0
 10
25.52726005024361
 20
7.277593199444002
 10
25.64613139395301
 20
7.277945005628133
  0
LWPOLYLINE
  5
12F
330
A
100
AcDbEntity
  8
5
  6
Continuous
 62
     7
100
AcDbPolyline
 90
        2
 70
   128
 43
0.0
 10
25.52726005024361
 20
7.211444716615469
 10
25.64612970380449
 20
7.211804818818164
  0
LWPOLYLINE
  5
133
330
A
100
AcDbEntity
  8
5
  6
Continuous
 62
     7
100
AcDbPolyline
 90
        2
 70
   128
 43
0.0
 10
25.52726005024361
 20
7.145296233786932
 10
25.64780043656642
 20
7.145669814978885
  0
LWPOLYLINE
  5
137
330
A
100
AcDbEntity
  8
5
  6
Continuous
 62
     7
100
AcDbPolyline
 90
        2
 70
   128
 43
0.0
 10
25.52726005024361
 20
7.079147750958399
 10
25.64613137534896
 20
7.079524460499602
  0
LWPOLYLINE
  5
13B
330
A
100
AcDbEntity
  8
5
  6
Continuous
 62
     7
100
AcDbPolyline
 90
        2
 70
   128
 43
0.0
 10
25.52471587782714
 20
7.042066437988174
 10
25.52471587782713
 20
7.340215847209022
  0
LWPOLYLINE
  5
13F
330
A
100
AcDbEntity
  8
5
  6
Continuous
 62
     7
100
AcDbPolyline
 90
        2
 70
   128
 43
0.0
 10
25.64651813226622
 20
7.037995762121804
 10
25.64651813226622
 20
7.348166386010531
  0
LWPOLYLINE
  5
143
330
A
100
AcDbEntity
  8
5
  6
Continuous
 62
     7
100
AcDbPolyline
 90
        2
 70
   128
 43
0.0
 10
25.52726005024361
 20
7.80169271723931
 10
25.64612970380449
 20
7.802052819442005
  0
LWPOLYLINE
  5
147
330
A
100
AcDbEntity
  8
5
  6
Continuous
 62
     7
100
AcDbPolyline
 90
        2
 70
   128
 43
0.0
 10
25.78560803827528
 20
8.477049645625511
 10
25.90447938198468
 20
8.477401451809642
  0
LWPOLYLINE
  5
14B
330
A
100
AcDbEntity
  8
5
  6
Continuous
 62
     7
100
AcDbPolyline
 90
        2
 70
   128
 43
0.0
 10
25.78560803827528
 20
8.410901162796978
 10
25.90447769183616
 20
8.411261264999673
  0
LWPOLYLINE
  5
14F
330
A
100
AcDbEntity
  8
5
  6
Continuous
 62
     7
100
AcDbPolyline
 90
        2
 70
   128
 43
0.0
 10
25.78560803827528
 20
8.344752679968442
 10
25.90614842459809
 20
8.345126261160395
  0
LWPOLYLINE
  5
153
330
A
100
AcDbEntity
  8
5
  6
Continuous
 62
     7
100
AcDbPolyline
 90
        2
 70
   128
 43
0.0
 10
25.78560803827528
 20
8.278604197139909
 10
25.90447936338063
 20
8.278980906681111
  0
LWPOLYLINE
  5
157
330
A
100
AcDbEntity
  8
5
  6
Continuous
 62
     7
100
AcDbPolyline
 90
        2
 70
   128
 43
0.0
 10
25.7830638658588
 20
7.918126767879607
 10
25.7830638658588
 20
8.527507315011849
  0
LWPOLYLINE
  5
15B
330
A
100
AcDbEntity
  8
5
  6
Continuous
 62
     7
100
AcDbPolyline
 90
        2
 70
   128
 43
0.0
 10
25.78560803827528
 20
8.151395576315804
 10
25.90448092403657
 20
8.151747387063721
  0
LWPOLYLINE
  5
15F
330
A
100
AcDbEntity
  8
5
  6
Continuous
 62
     7
100
AcDbPolyline
 90
        2
 70
   128
 43
0.0
 10
25.78560803827528
 20
8.085247093487271
 10
25.90447927027329
 20
8.08560720047166
  0
LWPOLYLINE
  5
163
330
A
100
AcDbEntity
  8
5
  6
Continuous
 62
     7
100
AcDbPolyline
 90
        2
 70
   128
 43
0.0
 10
25.78560803827528
 20
8.019098610658735
 10
25.90447753916911
 20
8.019467013408927
  0
LWPOLYLINE
  5
167
330
A
100
AcDbEntity
  8
5
  6
Continuous
 62
     7
100
AcDbPolyline
 90
        2
 70
   128
 43
0.0
 10
25.78560803827528
 20
7.952950127830202
 10
25.90448101458811
 20
7.953326842604171
  0
LWPOLYLINE
  5
16B
330
A
100
AcDbEntity
  8
5
  6
Continuous
 62
     7
100
AcDbPolyline
 90
        2
 70
   128
 43
0.0
 10
25.90486612029789
 20
7.902225690276592
 10
25.90486612029788
 20
8.527507315011849
  0
LWPOLYLINE
  5
16F
330
A
100
AcDbEntity
  8
0
  6
Continuous
 48
2.0
100
AcDbPolyline
 90
        2
 70
   128
 43
0.0
 10
25.78560803827529
 20
8.217544059144337
 10
25.9028125660902
 20
8.217544059144337
  0
LWPOLYLINE
  5
173
330
A
100
AcDbEntity
  8
5
  6
Continuous
 62
     7
100
AcDbPolyline
 90
        2
 70
   128
 43
0.0
 10
25.78411969741163
 20
7.872318943520852
 10
25.90299104112104
 20
7.872670749704983
  0
LWPOLYLINE
  5
177
330
A
100
AcDbEntity
  8
5
  6
Continuous
 62
     7
100
AcDbPolyline
 90
        2
 70
   128
 43
0.0
 10
25.78411969741163
 20
7.740021977863783
 10
25.90466008373444
 20
7.740395559055736
  0
LWPOLYLINE
  5
17B
330
A
100
AcDbEntity
  8
5
  6
Continuous
 62
     7
100
AcDbPolyline
 90
        2
 70
   128
 43
0.0
 10
25.78411969741163
 20
7.67387349503525
 10
25.90299102251698
 20
7.674250204576452
  0
LWPOLYLINE
  5
17F
330
A
100
AcDbEntity
  8
5
  6
Continuous
 62
     7
100
AcDbPolyline
 90
        2
 70
   128
 43
0.0
 10
25.78157552499515
 20
7.313396065774949
 10
25.78157552499515
 20
7.934941591285873
  0
LWPOLYLINE
  5
183
330
A
100
AcDbEntity
  8
5
  6
Continuous
 62
     7
100
AcDbPolyline
 90
        2
 70
   128
 43
0.0
 10
25.78411969741163
 20
7.546664874211145
 10
25.90299258317292
 20
7.547016684959064
  0
LWPOLYLINE
  5
187
330
A
100
AcDbEntity
  8
5
  6
Continuous
 62
     7
100
AcDbPolyline
 90
        2
 70
   128
 43
0.0
 10
25.78411969741163
 20
7.480516391382613
 10
25.90299092940964
 20
7.480876498367002
  0
LWPOLYLINE
  5
18B
330
A
100
AcDbEntity
  8
5
  6
Continuous
 62
     7
100
AcDbPolyline
 90
        2
 70
   128
 43
0.0
 10
25.78411969741163
 20
7.414367908554076
 10
25.90298919830547
 20
7.414736311304268
  0
LWPOLYLINE
  5
18F
330
A
100
AcDbEntity
  8
5
  6
Continuous
 62
     7
100
AcDbPolyline
 90
        2
 70
   128
 43
0.0
 10
25.78411969741163
 20
7.348219425725543
 10
25.90299267372446
 20
7.348596140499512
  0
LWPOLYLINE
  5
193
330
A
100
AcDbEntity
  8
5
  6
Continuous
 62
     7
100
AcDbPolyline
 90
        2
 70
   128
 43
0.0
 10
25.90352814002408
 20
7.287725366092643
 10
25.90352814002408
 20
7.933122508008093
  0
LWPOLYLINE
  5
197
330
A
100
AcDbEntity
  8
0
  6
Continuous
 48
2.0
100
AcDbPolyline
 90
        2
 70
   128
 43
0.0
 10
25.78411969741164
 20
7.612813357039678
 10
25.90132422522656
 20
7.612813357039678
  0
LWPOLYLINE
  5
19B
330
A
100
AcDbEntity
  8
5
  6
Continuous
 62
     7
100
AcDbPolyline
 90
        2
 70
   128
 43
0.0
 10
25.78411969741163
 20
7.282070942897011
 10
25.90299104112104
 20
7.282422749081142
  0
LWPOLYLINE
  5
19F
330
A
100
AcDbEntity
  8
5
  6
Continuous
 62
     7
100
AcDbPolyline
 90
        2
 70
   128
 43
0.0
 10
25.78411969741163
 20
7.215922460068477
 10
25.90298935097251
 20
7.216282562271173
  0
LWPOLYLINE
  5
1A3
330
A
100
AcDbEntity
  8
5
  6
Continuous
 62
     7
100
AcDbPolyline
 90
        2
 70
   128
 43
0.0
 10
25.78411969741163
 20
7.149773977239941
 10
25.90466008373444
 20
7.150147558431894
  0
LWPOLYLINE
  5
1A7
330
A
100
AcDbEntity
  8
5
  6
Continuous
 62
     7
100
AcDbPolyline
 90
        2
 70
   128
 43
0.0
 10
25.78157552499515
 20
7.046544181441183
 10
25.78157552499515
 20
7.344693590662031
  0
LWPOLYLINE
  5
1AB
330
A
100
AcDbEntity
  8
5
  6
Continuous
 62
     7
100
AcDbPolyline
 90
        2
 70
   128
 43
0.0
 10
25.90337777943423
 20
7.042473505574812
 10
25.90337777943423
 20
7.35264412946354
  0
LWPOLYLINE
  5
1AF
330
A
100
AcDbEntity
  8
5
  6
Continuous
 62
     7
100
AcDbPolyline
 90
        2
 70
   128
 43
0.0
 10
25.78411969741163
 20
7.806170460692319
 10
25.90298935097251
 20
7.806530562895014
  0
LWPOLYLINE
  5
1B4
330
A
100
AcDbEntity
  8
5
  6
Continuous
 62
     7
100
AcDbPolyline
 90
        2
 70
   128
 43
0.0
 10
25.52605744692505
 20
7.014780167506176
 10
25.64492710048593
 20
7.015140269708871
  0
LWPOLYLINE
  5
1B8
330
A
100
AcDbEntity
  8
5
  6
Continuous
 62
     7
100
AcDbPolyline
 90
        2
 70
   128
 43
0.0
 10
25.52605744692505
 20
6.948631684677639
 10
25.64659783324785
 20
6.949005265869592
  0
LWPOLYLINE
  5
1BC
330
A
100
AcDbEntity
  8
5
  6
Continuous
 62
     7
100
AcDbPolyline
 90
        2
 70
   128
 43
0.0
 10
25.52351327450857
 20
6.911954349732978
 10
25.52351327450857
 20
7.14355129809973
  0
LWPOLYLINE
  5
1C0
330
A
100
AcDbEntity
  8
5
  6
Continuous
 62
     7
100
AcDbPolyline
 90
        2
 70
   128
 43
0.0
 10
25.64673505791907
 20
6.911894207935245
 10
25.64673505791907
 20
7.149676322025911
  0
LWPOLYLINE
  5
1C4
330
A
100
AcDbEntity
  8
5
  6
Continuous
 62
     7
100
AcDbPolyline
 90
        2
 70
   128
 43
0.0
 10
25.78454536443962
 20
7.087034664134264
 10
25.90341670814903
 20
7.087386470318395
  0
LWPOLYLINE
  5
1C8
330
A
100
AcDbEntity
  8
5
  6
Continuous
 62
     7
100
AcDbPolyline
 90
        2
 70
   128
 43
0.0
 10
25.78454536443962
 20
7.02088618130573
 10
25.9034150180005
 20
7.021246283508426
  0
LWPOLYLINE
  5
1CC
330
A
100
AcDbEntity
  8
5
  6
Continuous
 62
     7
100
AcDbPolyline
 90
        2
 70
   128
 43
0.0
 10
25.78454536443962
 20
6.954737698477194
 10
25.90508575076243
 20
6.955111279669146
  0
LWPOLYLINE
  5
1D0
330
A
100
AcDbEntity
  8
5
  6
Continuous
 62
     7
100
AcDbPolyline
 90
        2
 70
   128
 43
0.0
 10
25.78200119202314
 20
6.911828187559201
 10
25.78200119202314
 20
7.149657311899284
  0
LWPOLYLINE
  5
1D4
330
A
100
AcDbEntity
  8
5
  6
Continuous
 62
     7
100
AcDbPolyline
 90
        2
 70
   128
 43
0.0
 10
25.90380344646222
 20
6.911768738601824
 10
25.90380344646222
 20
7.157607850700793
  0
TEXT
  5
1EF
330
A
100
AcDbEntity
  8
ADPDIM
100
AcDbText
 10
21.22804499723399
 20
5.985339942529563
 30
0.0
 40
0.125
  1
J U L I U S  B L U M  &  C O . ,  I N C .      ( 8 0 0 )  5 2 6 - 6 2 9 3        W W W . J U L I U S B L U M . C O M        P A R T  N o .  2 7 8
 41
1.25
  7
ARIAL_WIDE
 72
     1
 11
27.66275253475104
 21
6.110339942529563
 31
0.0
100
AcDbText
 73
     3
  0
DIMENSION
  5
402
330
A
100
AcDbEntity
  8
ADPDIM
  6
Continuous
 62
     3
100
AcDbDimension
  2
*D0
 10
24.53683741264519
 20
6.911258554878346
 30
0.0
 11
24.53683741264519
 21
7.719382934945101
 31
0.0
 70
    32
 71
     5
 42
1.616248760133503
 53
90.0
  3
STANDARD
100
AcDbAlignedDimension
 13
25.3053809835494
 23
8.527507315011849
 33
0.0
 14
25.3053809835494
 24
6.911258554878346
 34
0.0
 50
90.0
100
AcDbRotatedDimension
1001
ACAD
1000
DSTYLE
1002
{
1070
   343
1005
4CA
1070
   173
1070
     1
1070
   344
1005
4CA
1070
   276
1070
     2
1070
   277
1070
     5
1070
   289
1070
     3
1002
}
  0
DIMENSION
  5
41A
330
A
100
AcDbEntity
  8
ADPDIM
  6
Continuous
 62
     3
100
AcDbDimension
  2
*D1
 10
25.00521950718121
 20
6.969634109104685
 30
0.0
 11
25.00521950718121
 21
7.719634109104688
 31
0.0
 70
    32
 71
     5
 42
1.5
 53
90.0
  3
STANDARD
100
AcDbAlignedDimension
 13
25.3648452385762
 23
8.469634109104685
 33
0.0
 14
25.3648452385762
 24
6.969634109104685
 34
0.0
 50
90.0
100
AcDbRotatedDimension
1001
ACAD
1000
DSTYLE
1002
{
1070
   343
1005
4CA
1070
   173
1070
     1
1070
   344
1005
4CA
1070
   276
1070
     2
1070
   277
1070
     5
1070
   289
1070
     3
1002
}
  0
DIMENSION
  5
528
330
A
100
AcDbEntity
  8
ADPDIM
  6
Continuous
100
AcDbDimension
  2
*D4
 10
30.10811440722753
 20
7.080436411757061
 30
0.0
 11
30.10811440722753
 21
7.736686411757068
 31
0.0
 70
   160
 71
     5
 42
1.3125
 53
90.0
  3
STANDARD
100
AcDbAlignedDimension
 13
28.5929324054967
 23
8.392936411757062
 33
0.0
 14
28.5929324054967
 24
7.080436411757062
 34
0.0
 50
90.0
100
AcDbRotatedDimension
1001
ACAD
1000
DSTYLE
1002
{
1070
   276
1070
     2
1070
   277
1070
     5
1070
   343
1005
4CA
1070
   173
1070
     1
1070
   344
1005
4CA
1070
   289
1070
     3
1002
}
  0
DIMENSION
  5
536
330
A
100
AcDbEntity
  8
ADPDIM
  6
Continuous
100
AcDbDimension
  2
*D5
 10
30.72396260901341
 20
6.962259677148481
 30
0.0
 11
30.72396260901341
 21
7.6801143063782
 31
0.0
 70
   160
 71
     5
 42
1.5625
 53
90.0
  3
STANDARD
100
AcDbAlignedDimension
 13
28.58700480863246
 23
8.524759677148482
 33
0.0
 14
28.58700480863246
 24
6.962259677148482
 34
0.0
 50
90.0
100
AcDbRotatedDimension
1001
ACAD
1000
DSTYLE
1002
{
1070
   276
1070
     2
1070
   277
1070
     5
1070
   343
1005
4CA
1070
   173
1070
     1
1070
   344
1005
4CA
1070
   289
1070
     3
1002
}
  0
DIMENSION
  5
5F8
330
A
100
AcDbEntity
  8
ADPDIM
  6
Continuous
100
AcDbDimension
  2
*D6
 10
27.09494541005848
 20
6.811007637683929
 30
0.0
 11
27.09494541005848
 21
7.761007637683931
 31
0.0
 70
    32
 71
     5
 42
1.899999999999995
 53
90.0
  3
STANDARD
100
AcDbAlignedDimension
 13
26.0572041075717
 23
8.711007637683925
 33
0.0
 14
26.05720410757171
 24
6.811007637683929
 34
0.0
 50
90.0
100
AcDbRotatedDimension
1001
ACAD
1000
DSTYLE
1002
{
1070
   276
1070
     2
1070
   277
1070
     5
1070
   343
1005
4CA
1070
   173
1070
     1
1070
   344
1005
4CA
1070
   289
1070
     3
1002
}
  0
DIMENSION
  5
606
330
A
100
AcDbEntity
  8
ADPDIM
  6
Continuous
100
AcDbDimension
  2
*D7
 10
26.62039212542894
 20
9.371250663168725
 30
0.0
 11
27.19039212542894
 21
9.371250663168725
 31
0.0
 70
    32
 71
     5
 42
0.5631880178572324
  3
STANDARD
100
AcDbAlignedDimension
 13
26.05720410757171
 23
8.711007637683923
 33
0.0
 14
26.62039212542894
 24
7.736248304291234
 34
0.0
100
AcDbRotatedDimension
1001
ACAD
1000
DSTYLE
1002
{
1070
   276
1070
     2
1070
   277
1070
     5
1070
   343
1005
4CA
1070
   173
1070
     1
1070
   344
1005
4CA
1070
   289
1070
     3
1002
}
  0
ENDSEC
  0
SECTION
  2
OBJECTS
  0
DICTIONARY
  5
19
330
0
100
AcDbDictionary
281
     1
  3
ACAD_COLOR
350
3F5
  3
ACAD_GROUP
350
1A
  3
ACAD_LAYOUT
350
1E6
  3
ACAD_MATERIAL
350
3E0
  3
ACAD_MLINESTYLE
350
1B
  3
ACAD_PLOTSETTINGS
350
1E7
  3
ACAD_PLOTSTYLENAME
350
1E4
  3
ACAD_TABLESTYLE
350
3F6
  3
ACAD_VISUALSTYLE
350
3E4
  3
AcDbVariableDictionary
350
251
  3
ASE_INDEX_DICTIONARY
350
451
  3
DWGPROPS
350
69C
  0
DICTIONARY
  5
455
330
7
100
AcDbDictionary
280
     1
281
     1
  0
DICTIONARY
  5
245
330
A
100
AcDbDictionary
280
     1
281
     1
  3
ACAD_LAYOUTSELFREF
360
3D3
  0
DICTIONARY
  5
247
330
B
100
AcDbDictionary
280
     1
281
     1
  3
ACAD_LAYOUTSELFREF
360
3D4
  0
DICTIONARY
  5
3F5
102
{ACAD_REACTORS
330
19
102
}
330
19
100
AcDbDictionary
281
     1
  0
DICTIONARY
  5
1A
102
{ACAD_REACTORS
330
19
102
}
330
19
100
AcDbDictionary
281
     1
  0
DICTIONARY
  5
1E6
102
{ACAD_REACTORS
330
19
102
}
330
19
100
AcDbDictionary
281
     1
  3
Layout1
350
1E9
  3
Model
350
1E8
  0
DICTIONARY
  5
3E0
102
{ACAD_REACTORS
330
19
102
}
330
19
100
AcDbDictionary
281
     1
  3
ByBlock
350
3E2
  3
ByLayer
350
3E1
  3
Global
350
3E3
  0
DICTIONARY
  5
1B
102
{ACAD_REACTORS
330
19
102
}
330
19
100
AcDbDictionary
281
     1
  3
STANDARD
350
1C
  0
DICTIONARY
  5
1E7
102
{ACAD_REACTORS
330
19
102
}
330
19
100
AcDbDictionary
281
     1
  0
ACDBDICTIONARYWDFLT
  5
1E4
102
{ACAD_REACTORS
330
19
102
}
330
19
100
AcDbDictionary
281
     1
  3
Normal
350
1E5
100
AcDbDictionaryWithDefault
340
1E5
  0
DICTIONARY
  5
3F6
102
{ACAD_REACTORS
330
19
102
}
330
19
100
AcDbDictionary
281
     1
  3
Standard
350
3F7
  0
DICTIONARY
  5
3E4
102
{ACAD_REACTORS
330
19
102
}
330
19
100
AcDbDictionary
281
     1
  3
2dWireframe
350
3EA
  3
3D Hidden
350
3EC
  3
3dWireframe
350
3EB
  3
Basic
350
3E9
  3
Brighten
350
3F0
  3
ColorChange
350
3F4
  3
Conceptual
350
3ED
  3
Dim
350
3EF
  3
Facepattern
350
3F3
  3
Flat
350
3E5
  3
FlatWithEdges
350
3E6
  3
Gouraud
350
3E7
  3
GouraudWithEdges
350
3E8
  3
Linepattern
350
3F2
  3
Realistic
350
3EE
  3
Thicken
350
3F1
  0
DICTIONARY
  5
251
102
{ACAD_REACTORS
330
19
102
}
330
19
100
AcDbDictionary
281
     1
  3
CTABLESTYLE
350
46F
  3
DIMASSOC
350
252
  3
INDEXCTL
350
471
  3
SORTENTS
350
470
  0
DICTIONARY
  5
451
102
{ACAD_REACTORS
330
19
102
}
330
19
100
AcDbDictionary
281
     1
  3
ASEBlockHierarchyIndexRecord
350
453
1001
DCO15
1040
1567877816.357
  0
XRECORD
  5
69C
102
{ACAD_REACTORS
330
19
102
}
330
19
100
AcDbXrecord
280
     1
  1
DWGPROPS COOKIE
  2

  3

  4

  6

  7

  8
John
  9

300
=
301
=
302
=
303
=
304
=
305
=
306
=
307
=
308
=
309
=
 40
0.0293713657407408
 41
2444971.75
 42
2455209.546356493
  1

 90
        0
  0
XRECORD
  5
3D3
102
{ACAD_REACTORS
330
245
102
}
330
245
100
AcDbXrecord
280
     1
340
A
  0
XRECORD
  5
3D4
102
{ACAD_REACTORS
330
247
102
}
330
247
100
AcDbXrecord
280
     1
340
B
  0
LAYOUT
  5
1E9
102
{ACAD_XDICTIONARY
360
69F
102
}
102
{ACAD_REACTORS
330
1E6
102
}
330
1E6
100
AcDbPlotSettings
  1

  2
Fax
  4

  6

 40
0.0
 41
0.0
 42
0.0
 43
0.0
 44
0.0
 45
0.0
 46
0.0
 47
0.0
 48
0.0
 49
0.0
140
0.0
141
0.0
142
1.0
143
1.0
 70
   688
 72
     0
 73
     0
 74
     5
  7
Default R14 pen assignments.ctb
 75
    16
147
1.0
148
0.0
149
0.0
100
AcDbLayout
  1
Layout1
 70
     0
 71
     1
 10
0.0
 20
0.0
 11
12.0
 21
9.0
 12
0.0
 22
0.0
 32
0.0
 14
1.000000000000000E+20
 24
1.000000000000000E+20
 34
1.000000000000000E+20
 15
-1.000000000000000E+20
 25
-1.000000000000000E+20
 35
-1.000000000000000E+20
146
0.0
 13
0.0
 23
0.0
 33
0.0
 16
1.0
 26
0.0
 36
0.0
 17
0.0
 27
1.0
 37
0.0
 76
     0
330
B
  0
LAYOUT
  5
1E8
102
{ACAD_XDICTIONARY
360
69D
102
}
102
{ACAD_REACTORS
330
1E6
102
}
330
1E6
100
AcDbPlotSettings
  1

  2
Fax
  4

  6

 40
0.0
 41
0.0
 42
0.0
 43
0.0
 44
0.0
 45
0.0
 46
0.0
 47
0.0
 48
0.0
 49
0.0
140
0.0
141
0.0
142
1.0
143
1.0
 70
  1712
 72
     0
 73
     0
 74
     0
  7
Default R14 pen assignments.ctb
 75
     0
147
1.0
148
0.0
149
0.0
100
AcDbLayout
  1
Model
 70
     1
 71
     0
 10
0.0
 20
0.0
 11
12.0
 21
9.0
 12
0.0
 22
0.0
 32
0.0
 14
0.0
 24
0.0
 34
0.0
 15
0.0
 25
0.0
 35
0.0
146
0.0
 13
0.0
 23
0.0
 33
0.0
 16
1.0
 26
0.0
 36
0.0
 17
0.0
 27
1.0
 37
0.0
 76
     0
330
A
331
3B0
  0
MATERIAL
  5
3E2
102
{ACAD_XDICTIONARY
360
6A3
102
}
102
{ACAD_REACTORS
330
3E0
102
}
330
3E0
100
AcDbMaterial
  1
ByBlock
  0
MATERIAL
  5
3E1
102
{ACAD_XDICTIONARY
360
6A1
102
}
102
{ACAD_REACTORS
330
3E0
102
}
330
3E0
100
AcDbMaterial
  1
ByLayer
  0
MATERIAL
  5
3E3
102
{ACAD_XDICTIONARY
360
6A5
102
}
102
{ACAD_REACTORS
330
3E0
102
}
330
3E0
100
AcDbMaterial
  1
Global
  0
MLINESTYLE
  5
1C
102
{ACAD_REACTORS
330
1B
102
}
330
1B
100
AcDbMlineStyle
  2
STANDARD
 70
     0
  3

 62
     0
 51
90.00000000000019
 52
90.00000000000019
 71
     2
 49
0.5
 62
   256
  6
BYLAYER
 49
-0.5
 62
   256
  6
BYLAYER
  0
ACDBPLACEHOLDER
  5
1E5
102
{ACAD_REACTORS
330
1E4
102
}
330
1E4
  0
TABLESTYLE
  5
3F7
102
{ACAD_XDICTIONARY
360
6A7
102
}
102
{ACAD_REACTORS
330
3F6
102
}
330
3F6
100
AcDbTableStyle
  3
Standard
 70
     0
 71
     0
 40
0.06
 41
0.06
280
     0
281
     0
  7
STANDARD
140
0.18
170
     2
 62
     0
 63
     7
283
     0
274
    -2
284
     1
 64
     0
275
    -2
285
     1
 65
     0
276
    -2
286
     1
 66
     0
277
    -2
287
     1
 67
     0
278
    -2
288
     1
 68
     0
279
    -2
289
     1
 69
     0
  7
STANDARD
140
0.25
170
     5
 62
     0
 63
     7
283
     0
274
    -2
284
     1
 64
     0
275
    -2
285
     1
 65
     0
276
    -2
286
     1
 66
     0
277
    -2
287
     1
 67
     0
278
    -2
288
     1
 68
     0
279
    -2
289
     1
 69
     0
  7
STANDARD
140
0.18
170
     5
 62
     0
 63
     7
283
     0
274
    -2
284
     1
 64
     0
275
    -2
285
     1
 65
     0
276
    -2
286
     1
 66
     0
277
    -2
287
     1
 67
     0
278
    -2
288
     1
 68
     0
279
    -2
289
     1
 69
     0
  0
VISUALSTYLE
  5
3EA
102
{ACAD_REACTORS
330
3E4
102
}
330
3E4
100
AcDbVisualStyle
  2
2dWireframe
 70
     4
 71
     0
 72
     2
 73
     0
 90
        0
 40
-0.6
 41
-30.0
 62
     5
 63
     7
 74
     1
 91
        4
 64
     7
 65
   257
 75
     1
175
     1
 42
1.0
 92
        0
 66
   257
 43
1.0
 76
     1
 77
     6
 78
     2
 67
     7
 79
     5
170
     0
171
     0
290
     0
174
     0
 93
        1
 44
0.0
173
     0
291
     0
 45
0.0
1001
ACAD
1000
AcDbSavedByObjectVersion
1070
     0
  0
VISUALSTYLE
  5
3EC
102
{ACAD_REACTORS
330
3E4
102
}
330
3E4
100
AcDbVisualStyle
  2
3D Hidden
 70
     6
 71
     1
 72
     2
 73
     2
 90
        0
 40
-0.6
 41
-30.0
 62
     5
 63
     7
 74
     2
 91
        2
 64
     7
 65
   257
 75
     2
175
     1
 42
40.0
 92
        0
 66
   257
 43
1.0
 76
     1
 77
     6
 78
     2
 67
     7
 79
     3
170
     0
171
     0
290
     0
174
     0
 93
        1
 44
0.0
173
     0
291
     0
 45
0.0
1001
ACAD
1000
AcDbSavedByObjectVersion
1070
     0
  0
VISUALSTYLE
  5
3EB
102
{ACAD_REACTORS
330
3E4
102
}
330
3E4
100
AcDbVisualStyle
  2
3dWireframe
 70
     5
 71
     0
 72
     2
 73
     0
 90
        0
 40
-0.6
 41
-30.0
 62
     5
 63
     7
 74
     1
 91
        4
 64
     7
 65
   257
 75
     1
175
     1
 42
1.0
 92
        0
 66
   257
 43
1.0
 76
     1
 77
     6
 78
     2
 67
     7
 79
     5
170
     0
171
     0
290
     0
174
     0
 93
        1
 44
0.0
173
     0
291
     0
 45
0.0
1001
ACAD
1000
AcDbSavedByObjectVersion
1070
     0
  0
VISUALSTYLE
  5
3E9
102
{ACAD_REACTORS
330
3E4
102
}
330
3E4
100
AcDbVisualStyle
  2
Basic
 70
     7
 71
     1
 72
     0
 73
     1
 90
        0
 40
-0.6
 41
-30.0
 62
     5
 63
     7
 74
     0
 91
        4
 64
     7
 65
   257
 75
     1
175
     1
 42
1.0
 92
        8
 66
     7
 43
1.0
 76
     1
 77
     6
 78
     2
 67
     7
 79
     5
170
     0
171
     0
290
     0
174
     0
 93
        1
 44
0.0
173
     0
291
     1
 45
0.0
1001
ACAD
1000
AcDbSavedByObjectVersion
1070
     0
  0
VISUALSTYLE
  5
3F0
102
{ACAD_REACTORS
330
3E4
102
}
330
3E4
100
AcDbVisualStyle
  2
Brighten
 70
    12
 71
     2
 72
     2
 73
     0
 90
        0
 40
-0.6
 41
-30.0
 62
     5
 63
     7
 74
     1
 91
        4
 64
     7
 65
   257
 75
     1
175
     1
 42
1.0
 92
        8
 66
     7
 43
1.0
 76
     1
 77
     6
 78
     2
 67
     7
 79
     5
170
     0
171
     0
290
     0
174
     0
 93
        1
 44
50.0
173
     0
291
     1
 45
0.0
1001
ACAD
1000
AcDbSavedByObjectVersion
1070
     0
  0
VISUALSTYLE
  5
3F4
102
{ACAD_REACTORS
330
3E4
102
}
330
3E4
100
AcDbVisualStyle
  2
ColorChange
 70
    16
 71
     2
 72
     2
 73
     3
 90
        0
 40
-0.6
 41
-30.0
 62
     5
 63
     8
 74
     1
 91
        4
 64
     7
 65
   257
 75
     1
175
     1
 42
1.0
 92
        8
 66
     8
 43
1.0
 76
     1
 77
     6
 78
     2
 67
     7
 79
     5
170
     0
171
     0
290
     0
174
     0
 93
        1
 44
0.0
173
     0
291
     1
 45
0.0
1001
ACAD
1000
AcDbSavedByObjectVersion
1070
     0
  0
VISUALSTYLE
  5
3ED
102
{ACAD_REACTORS
330
3E4
102
}
330
3E4
100
AcDbVisualStyle
  2
Conceptual
 70
     9
 71
     3
 72
     2
 73
     0
 90
        0
 40
-0.6
 41
-30.0
 62
     5
 63
     7
 74
     2
 91
        2
 64
     7
 65
   257
 75
     1
175
     1
 42
40.0
 92
        8
 66
     7
 43
1.0
 76
     1
 77
     6
 78
     2
 67
     7
 79
     3
170
     0
171
     0
290
     0
174
     0
 93
        1
 44
0.0
173
     0
291
     0
 45
0.0
1001
ACAD
1000
AcDbSavedByObjectVersion
1070
     0
  0
VISUALSTYLE
  5
3EF
102
{ACAD_REACTORS
330
3E4
102
}
330
3E4
100
AcDbVisualStyle
  2
Dim
 70
    11
 71
     2
 72
     2
 73
     0
 90
        0
 40
-0.6
 41
-30.0
 62
     5
 63
     7
 74
     1
 91
        4
 64
     7
 65
   257
 75
     1
175
     1
 42
1.0
 92
        8
 66
     7
 43
1.0
 76
     1
 77
     6
 78
     2
 67
     7
 79
     5
170
     0
171
     0
290
     0
174
     0
 93
        1
 44
-50.0
173
     0
291
     1
 45
0.0
1001
ACAD
1000
AcDbSavedByObjectVersion
1070
     0
  0
VISUALSTYLE
  5
3F3
102
{ACAD_REACTORS
330
3E4
102
}
330
3E4
100
AcDbVisualStyle
  2
Facepattern
 70
    15
 71
     2
 72
     2
 73
     0
 90
        0
 40
-0.6
 41
-30.0
 62
     5
 63
     7
 74
     1
 91
        4
 64
     7
 65
   257
 75
     1
175
     1
 42
1.0
 92
        8
 66
     7
 43
1.0
 76
     1
 77
     6
 78
     2
 67
     7
 79
     5
170
     0
171
     0
290
     0
174
     0
 93
        1
 44
0.0
173
     0
291
     1
 45
0.0
1001
ACAD
1000
AcDbSavedByObjectVersion
1070
     0
  0
VISUALSTYLE
  5
3E5
102
{ACAD_REACTORS
330
3E4
102
}
330
3E4
100
AcDbVisualStyle
  2
Flat
 70
     0
 71
     2
 72
     1
 73
     1
 90
        2
 40
-0.6
 41
30.0
 62
     5
 63
     7
 74
     0
 91
        4
 64
     7
 65
   257
 75
     1
175
     1
 42
1.0
 92
        8
 66
     7
 43
1.0
 76
     1
 77
     6
 78
     2
 67
     7
 79
     5
170
     0
171
     0
290
     0
174
     0
 93
       13
 44
0.0
173
     0
291
     1
 45
0.0
1001
ACAD
1000
AcDbSavedByObjectVersion
1070
     0
  0
VISUALSTYLE
  5
3E6
102
{ACAD_REACTORS
330
3E4
102
}
330
3E4
100
AcDbVisualStyle
  2
FlatWithEdges
 70
     1
 71
     2
 72
     1
 73
     1
 90
        2
 40
-0.6
 41
30.0
 62
     5
 63
     7
 74
     1
 91
        4
 64
     7
 65
   257
 75
     1
175
     1
 42
1.0
 92
        0
 66
   257
 43
1.0
 76
     1
 77
     6
 78
     2
 67
     7
 79
     5
170
     0
171
     0
290
     0
174
     0
 93
       13
 44
0.0
173
     0
291
     1
 45
0.0
1001
ACAD
1000
AcDbSavedByObjectVersion
1070
     0
  0
VISUALSTYLE
  5
3E7
102
{ACAD_REACTORS
330
3E4
102
}
330
3E4
100
AcDbVisualStyle
  2
Gouraud
 70
     2
 71
     2
 72
     2
 73
     1
 90
        2
 40
-0.6
 41
30.0
 62
     5
 63
     7
 74
     0
 91
        4
 64
     7
 65
   257
 75
     1
175
     1
 42
1.0
 92
        0
 66
     7
 43
1.0
 76
     1
 77
     6
 78
     2
 67
     7
 79
     5
170
     0
171
     0
290
     0
174
     0
 93
       13
 44
0.0
173
     0
291
     1
 45
0.0
1001
ACAD
1000
AcDbSavedByObjectVersion
1070
     0
  0
VISUALSTYLE
  5
3E8
102
{ACAD_REACTORS
330
3E4
102
}
330
3E4
100
AcDbVisualStyle
  2
GouraudWithEdges
 70
     3
 71
     2
 72
     2
 73
     1
 90
        2
 40
-0.6
 41
30.0
 62
     5
 63
     7
 74
     1
 91
        4
 64
     7
 65
   257
 75
     1
175
     1
 42
1.0
 92
        0
 66
   257
 43
1.0
 76
     1
 77
     6
 78
     2
 67
     7
 79
     5
170
     0
171
     0
290
     0
174
     0
 93
       13
 44
0.0
173
     0
291
     1
 45
0.0
1001
ACAD
1000
AcDbSavedByObjectVersion
1070
     0
  0
VISUALSTYLE
  5
3F2
102
{ACAD_REACTORS
330
3E4
102
}
330
3E4
100
AcDbVisualStyle
  2
Linepattern
 70
    14
 71
     2
 72
     2
 73
     0
 90
        0
 40
-0.6
 41
-30.0
 62
     5
 63
     7
 74
     1
 91
        4
 64
     7
 65
   257
 75
     7
175
     7
 42
1.0
 92
        8
 66
     7
 43
1.0
 76
     1
 77
     6
 78
     2
 67
     7
 79
     5
170
     0
171
     0
290
     0
174
     0
 93
        1
 44
0.0
173
     0
291
     1
 45
0.0
1001
ACAD
1000
AcDbSavedByObjectVersion
1070
     0
  0
VISUALSTYLE
  5
3EE
102
{ACAD_REACTORS
330
3E4
102
}
330
3E4
100
AcDbVisualStyle
  2
Realistic
 70
     8
 71
     2
 72
     2
 73
     0
 90
        0
 40
-0.6
 41
-30.0
 62
     5
 63
     7
 74
     1
 91
        0
 64
     7
 65
   257
 75
     1
175
     1
 42
1.0
 92
        8
 66
     8
 43
1.0
 76
     1
 77
     6
 78
     2
 67
     7
 79
     5
170
     0
171
     0
290
     0
174
     0
 93
       13
 44
0.0
173
     0
291
     0
 45
0.0
1001
ACAD
1000
AcDbSavedByObjectVersion
1070
     0
  0
VISUALSTYLE
  5
3F1
102
{ACAD_REACTORS
330
3E4
102
}
330
3E4
100
AcDbVisualStyle
  2
Thicken
 70
    13
 71
     2
 72
     2
 73
     0
 90
        0
 40
-0.6
 41
-30.0
 62
     5
 63
     7
 74
     1
 91
        4
 64
     7
 65
   257
 75
     1
175
     1
 42
1.0
 92
       12
 66
     7
 43
1.0
 76
     1
 77
     6
 78
     2
 67
     7
 79
     5
170
     0
171
     0
290
     0
174
     0
 93
        1
 44
0.0
173
     0
291
     1
 45
0.0
1001
ACAD
1000
AcDbSavedByObjectVersion
1070
     0
  0
DICTIONARYVAR
  5
46F
102
{ACAD_REACTORS
330
251
102
}
330
251
100
DictionaryVariables
280
     0
  1
STANDARD
  0
DICTIONARYVAR
  5
252
102
{ACAD_REACTORS
330
251
102
}
330
251
100
DictionaryVariables
280
     0
  1
1
  0
DICTIONARYVAR
  5
471
102
{ACAD_REACTORS
330
251
102
}
330
251
100
DictionaryVariables
280
     0
  1
0
  0
DICTIONARYVAR
  5
470
102
{ACAD_REACTORS
330
251
102
}
330
251
100
DictionaryVariables
280
     0
  1
127
  0
XRECORD
  5
453
102
{ACAD_REACTORS
330
451
102
}
330
451
100
AcDbXrecord
280
     1
  0
DICTIONARY
  5
69F
330
1E9
100
AcDbDictionary
280
     1
281
     1
  3
ACAD_XREC_ROUNDTRIP
360
6A0
  0
DICTIONARY
  5
69D
330
1E8
100
AcDbDictionary
280
     1
281
     1
  3
ACAD_XREC_ROUNDTRIP
360
69E
  0
DICTIONARY
  5
6A3
330
3E2
100
AcDbDictionary
280
     1
281
     1
  3
ACAD_XREC_ROUNDTRIP
360
6A4
  0
DICTIONARY
  5
6A1
330
3E1
100
AcDbDictionary
280
     1
281
     1
  3
ACAD_XREC_ROUNDTRIP
360
6A2
  0
DICTIONARY
  5
6A5
330
3E3
100
AcDbDictionary
280
     1
281
     1
  3
ACAD_XREC_ROUNDTRIP
360
6A6
  0
DICTIONARY
  5
6A7
330
3F7
100
AcDbDictionary
280
     1
281
     1
  3
ACAD_XREC_ROUNDTRIP
360
6A8
  0
XRECORD
  5
6A0
102
{ACAD_REACTORS
330
69F
102
}
330
69F
100
AcDbXrecord
280
     1
102
SHADEPLOT
 70
     0
102
SHADEPLOTRESLEVEL
 70
     2
102
SHADEPLOTCUSTOMDPI
 70
   300
  0
XRECORD
  5
69E
102
{ACAD_REACTORS
330
69D
102
}
330
69D
100
AcDbXrecord
280
     1
102
SHADEPLOT
 70
     0
102
SHADEPLOTRESLEVEL
 70
     2
102
SHADEPLOTCUSTOMDPI
 70
   300
  0
XRECORD
  5
6A4
102
{ACAD_REACTORS
330
6A3
102
}
330
6A3
100
AcDbXrecord
280
     1
102
MATERIAL
148
0.0
149
0.0
149
0.0
 93
        0
 94
       63
282
     0
 72
     1
 77
     1
171
     1
175
     1
179
     1
273
     0
  0
XRECORD
  5
6A2
102
{ACAD_REACTORS
330
6A1
102
}
330
6A1
100
AcDbXrecord
280
     1
102
MATERIAL
148
0.0
149
0.0
149
0.0
 93
        0
 94
       63
282
     0
 72
     1
 77
     1
171
     1
175
     1
179
     1
273
     0
  0
XRECORD
  5
6A6
102
{ACAD_REACTORS
330
6A5
102
}
330
6A5
100
AcDbXrecord
280
     1
102
MATERIAL
148
0.0
149
0.0
149
0.0
 93
        0
 94
       63
282
     0
 72
     1
 77
     1
171
     1
175
     1
179
     1
273
     0
  0
XRECORD
  5
6A8
102
{ACAD_REACTORS
330
6A7
102
}
330
6A7
100
AcDbXrecord
280
     1
102
ACAD_ROUNDTRIP_PRE2007_TABLESTYLE
 90
      512
 91
        0
  1

 92
      512
 93
        0
  2

 94
      512
 95
        0
  3

  0
ENDSEC
  0
EOF
