  0
SECTION
  2
HEADER
  9
$ACADVER
  1
AC1014
  9
$ACADMAINTVER
 70
     9
  9
$DWGCODEPAGE
  3
ANSI_1252
  9
$INSBASE
 10
1.135538282712158
 20
0.0210608091094634
 30
0.0
  9
$EXTMIN
 10
-3.758758485705303
 20
-0.5549696970388752
 30
0.0
  9
$EXTMAX
 10
6.029835051129621
 20
3.460363247392091
 30
0.0
  9
$LIMMIN
 10
0.0
 20
0.0
  9
$LIMMAX
 10
36.0
 20
36.0
  9
$ORTHOMODE
 70
     1
  9
$REGENMODE
 70
     1
  9
$FILLMODE
 70
     1
  9
$QTEXTMODE
 70
     0
  9
$MIRRTEXT
 70
     1
  9
$DRAGMODE
 70
     0
  9
$LTSCALE
 40
1.0
  9
$OSMODE
 70
    37
  9
$ATTMODE
 70
     1
  9
$TEXTSIZE
 40
0.2
  9
$TRACEWID
 40
0.05
  9
$TEXTSTYLE
  7
STANDARD
  9
$CLAYER
  8
ADPDIM
  9
$CELTYPE
  6
BYLAYER
  9
$CECOLOR
 62
   256
  9
$CELTSCALE
 40
1.0
  9
$DELOBJ
 70
     1
  9
$DISPSILH
 70
     0
  9
$DIMSCALE
 40
1.0
  9
$DIMASZ
 40
0.125
  9
$DIMEXO
 40
0.0625
  9
$DIMDLI
 40
0.38
  9
$DIMRND
 40
0.0
  9
$DIMDLE
 40
0.0
  9
$DIMEXE
 40
0.18
  9
$DIMTP
 40
0.0
  9
$DIMTM
 40
0.0
  9
$DIMTXT
 40
0.125
  9
$DIMCEN
 40
0.1875
  9
$DIMTSZ
 40
0.125
  9
$DIMTOL
 70
     0
  9
$DIMLIM
 70
     0
  9
$DIMTIH
 70
     0
  9
$DIMTOH
 70
     0
  9
$DIMSE1
 70
     0
  9
$DIMSE2
 70
     0
  9
$DIMTAD
 70
     0
  9
$DIMZIN
 70
     3
  9
$DIMBLK
  1

  9
$DIMASO
 70
     1
  9
$DIMSHO
 70
     1
  9
$DIMPOST
  1

  9
$DIMAPOST
  1

  9
$DIMALT
 70
     0
  9
$DIMALTD
 70
     1
  9
$DIMALTF
 40
25.4
  9
$DIMLFAC
 40
1.0
  9
$DIMTOFL
 70
     0
  9
$DIMTVP
 40
0.0
  9
$DIMTIX
 70
     0
  9
$DIMSOXD
 70
     0
  9
$DIMSAH
 70
     0
  9
$DIMBLK1
  1

  9
$DIMBLK2
  1

  9
$DIMSTYLE
  2
STANDARD
  9
$DIMCLRD
 70
     0
  9
$DIMCLRE
 70
     0
  9
$DIMCLRT
 70
     0
  9
$DIMTFAC
 40
1.0
  9
$DIMGAP
 40
0.125
  9
$DIMJUST
 70
     0
  9
$DIMSD1
 70
     0
  9
$DIMSD2
 70
     0
  9
$DIMTOLJ
 70
     1
  9
$DIMTZIN
 70
     0
  9
$DIMALTZ
 70
     0
  9
$DIMALTTZ
 70
     0
  9
$DIMFIT
 70
     3
  9
$DIMUPT
 70
     0
  9
$DIMUNIT
 70
     2
  9
$DIMDEC
 70
     4
  9
$DIMTDEC
 70
     4
  9
$DIMALTU
 70
     2
  9
$DIMALTTD
 70
     2
  9
$DIMTXSTY
  7
STANDARD
  9
$DIMAUNIT
 70
     0
  9
$LUNITS
 70
     5
  9
$LUPREC
 70
     5
  9
$SKETCHINC
 40
0.1
  9
$FILLETRAD
 40
0.0
  9
$AUNITS
 70
     0
  9
$AUPREC
 70
     0
  9
$MENU
  1
acad
  9
$ELEVATION
 40
0.0
  9
$PELEVATION
 40
0.0
  9
$THICKNESS
 40
0.0
  9
$LIMCHECK
 70
     0
  9
$BLIPMODE
 70
     0
  9
$CHAMFERA
 40
0.0
  9
$CHAMFERB
 40
0.0
  9
$CHAMFERC
 40
0.0
  9
$CHAMFERD
 40
0.0
  9
$SKPOLY
 70
     0
  9
$TDCREATE
 40
2450414.663777581
  9
$TDUPDATE
 40
2452297.083578911
  9
$TDINDWG
 40
0.0141594213
  9
$TDUSRTIMER
 40
0.0141594213
  9
$USRTIMER
 70
     1
  9
$ANGBASE
 50
0.0
  9
$ANGDIR
 70
     0
  9
$PDMODE
 70
     0
  9
$PDSIZE
 40
0.0
  9
$PLINEWID
 40
0.0
  9
$COORDS
 70
     2
  9
$SPLFRAME
 70
     0
  9
$SPLINETYPE
 70
     6
  9
$SPLINESEGS
 70
     8
  9
$ATTDIA
 70
     0
  9
$ATTREQ
 70
     1
  9
$HANDLING
 70
 22529
  9
$HANDSEED
  5
295
  9
$SURFTAB1
 70
     6
  9
$SURFTAB2
 70
     6
  9
$SURFTYPE
 70
     6
  9
$SURFU
 70
     6
  9
$SURFV
 70
     6
  9
$UCSNAME
  2

  9
$UCSORG
 10
0.0
 20
0.0
 30
0.0
  9
$UCSXDIR
 10
1.0
 20
0.0
 30
0.0
  9
$UCSYDIR
 10
0.0
 20
1.0
 30
0.0
  9
$PUCSNAME
  2

  9
$PUCSORG
 10
0.0
 20
0.0
 30
0.0
  9
$PUCSXDIR
 10
1.0
 20
0.0
 30
0.0
  9
$PUCSYDIR
 10
0.0
 20
1.0
 30
0.0
  9
$USERI1
 70
     0
  9
$USERI2
 70
     0
  9
$USERI3
 70
     0
  9
$USERI4
 70
     0
  9
$USERI5
 70
     0
  9
$USERR1
 40
0.0
  9
$USERR2
 40
0.0
  9
$USERR3
 40
0.0
  9
$USERR4
 40
0.0
  9
$USERR5
 40
0.0
  9
$WORLDVIEW
 70
     1
  9
$SHADEDGE
 70
     3
  9
$SHADEDIF
 70
    70
  9
$TILEMODE
 70
     1
  9
$MAXACTVP
 70
    15
  9
$PINSBASE
 10
0.0781263709068299
 20
112.0181290174387
 30
0.0
  9
$PLIMCHECK
 70
     0
  9
$PEXTMIN
 10
1.000000000000000E+20
 20
1.000000000000000E+20
 30
1.000000000000000E+20
  9
$PEXTMAX
 10
-1.000000000000000E+20
 20
-1.000000000000000E+20
 30
-1.000000000000000E+20
  9
$PLIMMIN
 10
0.0
 20
0.0
  9
$PLIMMAX
 10
12.0
 20
9.0
  9
$UNITMODE
 70
     0
  9
$VISRETAIN
 70
     0
  9
$PLINEGEN
 70
     0
  9
$PSLTSCALE
 70
     1
  9
$TREEDEPTH
 70
  3020
  9
$PICKSTYLE
 70
     1
  9
$CMLSTYLE
  2
STANDARD
  9
$CMLJUST
 70
     0
  9
$CMLSCALE
 40
1.0
  9
$PROXYGRAPHICS
 70
     1
  9
$MEASUREMENT
 70
     0
  0
ENDSEC
  0
SECTION
  2
CLASSES
  0
CLASS
  1
ACDBDICTIONARYWDFLT
  2
AcDbDictionaryWithDefault
  3
AutoCAD 2000
 90
        0
280
     0
281
     0
  0
CLASS
  1
ACDBPLACEHOLDER
  2
AcDbPlaceHolder
  3
AutoCAD 2000
 90
        0
280
     0
281
     0
  0
CLASS
  1
LAYOUT
  2
AcDbLayout
  3
AutoCAD 2000
 90
        0
280
     0
281
     0
  0
CLASS
  1
DICTIONARYVAR
  2
AcDbDictionaryVar
  3
AutoCAD 2000
 90
        0
280
     0
281
     0
  0
CLASS
  1
LONG_TRANSACTION
  2
AcDbLongTransaction
  3
AutoCAD 2000
 90
        0
280
     0
281
     0
  0
CLASS
  1
LWPOLYLINE
  2
AcDbPolyline
  3
AutoCAD 2000
 90
        0
280
     0
281
     1
  0
CLASS
  1
HATCH
  2
AcDbHatch
  3
AutoCAD 2000
 90
        0
280
     0
281
     1
  0
CLASS
  1
XRECORD
  2
AcDbXrecord
  3
AutoCAD 2000
 90
        0
280
     0
281
     0
  0
CLASS
  1
LONG_TRANSACTION
  2
AcDbLongTransaction
  3
AutoCAD 2000
 90
        0
280
     0
281
     0
  0
CLASS
  1
LWPOLYLINE
  2
AcDbPolyline
  3
AutoCAD 2000
 90
        0
280
     0
281
     1
  0
CLASS
  1
HATCH
  2
AcDbHatch
  3
AutoCAD 2000
 90
        0
280
     0
281
     1
  0
CLASS
  1
XRECORD
  2
AcDbXrecord
  3
AutoCAD 2000
 90
        0
280
     0
281
     0
  0
CLASS
  1
LONG_TRANSACTION
  2
AcDbLongTransaction
  3
AutoCAD 2000
 90
        0
280
     0
281
     0
  0
CLASS
  1
LWPOLYLINE
  2
AcDbPolyline
  3
AutoCAD 2000
 90
        0
280
     0
281
     1
  0
CLASS
  1
HATCH
  2
AcDbHatch
  3
AutoCAD 2000
 90
        0
280
     0
281
     1
  0
CLASS
  1
XRECORD
  2
AcDbXrecord
  3
AutoCAD 2000
 90
        0
280
     0
281
     0
  0
CLASS
  1
LONG_TRANSACTION
  2
AcDbLongTransaction
  3
AutoCAD 2000
 90
        0
280
     0
281
     0
  0
CLASS
  1
LWPOLYLINE
  2
AcDbPolyline
  3
AutoCAD 2000
 90
        0
280
     0
281
     1
  0
CLASS
  1
HATCH
  2
AcDbHatch
  3
AutoCAD 2000
 90
        0
280
     0
281
     1
  0
CLASS
  1
XRECORD
  2
AcDbXrecord
  3
AutoCAD 2000
 90
        0
280
     0
281
     0
  0
CLASS
  1
LONG_TRANSACTION
  2
AcDbLongTransaction
  3
AutoCAD 2000
 90
        0
280
     0
281
     0
  0
CLASS
  1
LWPOLYLINE
  2
AcDbPolyline
  3
AutoCAD 2000
 90
        0
280
     0
281
     1
  0
CLASS
  1
HATCH
  2
AcDbHatch
  3
AutoCAD 2000
 90
        0
280
     0
281
     1
  0
CLASS
  1
XRECORD
  2
AcDbXrecord
  3
AutoCAD 2000
 90
        0
280
     0
281
     0
  0
CLASS
  1
LONG_TRANSACTION
  2
AcDbLongTransaction
  3
AutoCAD 2000
 90
        0
280
     0
281
     0
  0
CLASS
  1
LWPOLYLINE
  2
AcDbPolyline
  3
AutoCAD 2000
 90
        0
280
     0
281
     1
  0
CLASS
  1
HATCH
  2
AcDbHatch
  3
AutoCAD 2000
 90
        0
280
     0
281
     1
  0
CLASS
  1
XRECORD
  2
AcDbXrecord
  3
AutoCAD 2000
 90
        0
280
     0
281
     0
  0
CLASS
  1
LONG_TRANSACTION
  2
AcDbLongTransaction
  3
AutoCAD 2000
 90
        0
280
     0
281
     0
  0
CLASS
  1
LWPOLYLINE
  2
AcDbPolyline
  3
AutoCAD 2000
 90
        0
280
     0
281
     1
  0
CLASS
  1
HATCH
  2
AcDbHatch
  3
AutoCAD 2000
 90
        0
280
     0
281
     1
  0
CLASS
  1
XRECORD
  2
AcDbXrecord
  3
AutoCAD 2000
 90
        0
280
     0
281
     0
  0
ENDSEC
  0
SECTION
  2
TABLES
  0
TABLE
  2
VPORT
  5
13
330
0
100
AcDbSymbolTable
 70
     2
  0
VPORT
  5
272
330
13
100
AcDbSymbolTableRecord
100
AcDbViewportTableRecord
  2
*ACTIVE
 70
     0
 10
0.0
 20
0.0
 11
1.0
 21
1.0
 12
1.143842719676924
 22
1.452978768820228
 13
0.0
 23
0.0
 14
0.5740882589684922
 24
0.5740882589684922
 15
0.5
 25
0.5
 16
0.0
 26
0.0
 36
1.0
 17
0.0
 27
0.0
 37
0.0
 40
6.275426081325846
 41
1.570528967254408
 42
50.0
 43
0.0
 44
0.0
 50
0.0
 51
0.0
 71
     0
 72
   100
 73
     1
 74
     0
 75
     0
 76
     0
 77
     0
 78
     0
  0
ENDTAB
  0
TABLE
  2
LTYPE
  5
F
330
0
100
AcDbSymbolTable
 70
     1
  0
LTYPE
  5
10
330
F
100
AcDbSymbolTableRecord
100
AcDbLinetypeTableRecord
  2
BYBLOCK
 70
     0
  3

 72
    65
 73
     0
 40
0.0
  0
LTYPE
  5
6
330
F
100
AcDbSymbolTableRecord
100
AcDbLinetypeTableRecord
  2
BYLAYER
 70
     0
  3

 72
    65
 73
     0
 40
0.0
  0
LTYPE
  5
5
330
F
100
AcDbSymbolTableRecord
100
AcDbLinetypeTableRecord
  2
CONTINUOUS
 70
     0
  3
Solid line
 72
    65
 73
     0
 40
0.0
  0
ENDTAB
  0
TABLE
  2
LAYER
  5
B
330
0
100
AcDbSymbolTable
 70
     4
  0
LAYER
  5
C
330
B
100
AcDbSymbolTableRecord
100
AcDbLayerTableRecord
  2
0
 70
     0
 62
     7
  6
CONTINUOUS
  0
LAYER
  5
4
330
B
100
AcDbSymbolTableRecord
100
AcDbLayerTableRecord
  2
ADPDIM
 70
     0
 62
     3
  6
CONTINUOUS
  0
LAYER
  5
1F
330
B
100
AcDbSymbolTableRecord
100
AcDbLayerTableRecord
  2
ADP1DETAIL
 70
     0
 62
     7
  6
CONTINUOUS
  0
LAYER
  5
6D
330
B
100
AcDbSymbolTableRecord
100
AcDbLayerTableRecord
  2
DEFPOINTS
 70
     0
 62
     7
  6
CONTINUOUS
  0
ENDTAB
  0
TABLE
  2
STYLE
  5
D
330
0
100
AcDbSymbolTable
 70
     2
  0
STYLE
  5
E
330
D
100
AcDbSymbolTableRecord
100
AcDbTextStyleTableRecord
  2
STANDARD
 70
     0
 40
0.0
 41
1.0
 50
0.0
 71
     0
 42
0.2
  3
txt
  4

  0
STYLE
  5
A5
330
D
100
AcDbSymbolTableRecord
100
AcDbTextStyleTableRecord
  2
ARIAL_WIDE
 70
     0
 40
0.0
 41
1.25
 50
0.0
 71
     0
 42
0.2
  3
ARIAL.TTF
  4

1001
ACAD
1000
Arial
1071
       34
  0
ENDTAB
  0
TABLE
  2
VIEW
  5
11
330
0
100
AcDbSymbolTable
 70
     0
  0
ENDTAB
  0
TABLE
  2
UCS
  5
12
330
0
100
AcDbSymbolTable
 70
     0
  0
ENDTAB
  0
TABLE
  2
APPID
  5
15
330
0
100
AcDbSymbolTable
 70
     1
  0
APPID
  5
16
330
15
100
AcDbSymbolTableRecord
100
AcDbRegAppTableRecord
  2
ACAD
 70
     0
  0
ENDTAB
  0
TABLE
  2
DIMSTYLE
  5
17
330
0
100
AcDbSymbolTable
 70
     1
  0
DIMSTYLE
105
1D
330
17
100
AcDbSymbolTableRecord
100
AcDbDimStyleTableRecord
  2
STANDARD
 70
     0
  3

  4

  5

  6

  7

 40
1.0
 41
0.18
 42
0.0625
 43
0.38
 44
0.18
 45
0.0
 46
0.0
 47
0.0
 48
0.0
140
0.18
141
0.09
142
0.0
143
25.4
144
1.0
145
0.0
146
1.0
147
0.09
 71
     0
 72
     0
 73
     1
 74
     1
 75
     0
 76
     0
 77
     0
 78
     0
170
     0
171
     2
172
     0
173
     0
174
     0
175
     0
176
     0
177
     0
178
     0
270
     2
271
     4
272
     4
273
     2
274
     2
340
E
275
     0
280
     0
281
     0
282
     0
283
     1
284
     0
285
     0
286
     0
287
     3
288
     0
  0
ENDTAB
  0
TABLE
  2
BLOCK_RECORD
  5
1
330
0
100
AcDbSymbolTable
 70
     1
  0
BLOCK_RECORD
  5
2
102
{ACAD_XDICTIONARY
360
F8
102
}
330
1
100
AcDbSymbolTableRecord
100
AcDbBlockTableRecord
  2
*MODEL_SPACE
  0
BLOCK_RECORD
  5
8
102
{ACAD_XDICTIONARY
360
FA
102
}
330
1
100
AcDbSymbolTableRecord
100
AcDbBlockTableRecord
  2
*PAPER_SPACE
  0
BLOCK_RECORD
  5
64
330
1
100
AcDbSymbolTableRecord
100
AcDbBlockTableRecord
  2
*D0
  0
ENDTAB
  0
ENDSEC
  0
SECTION
  2
BLOCKS
  0
BLOCK
  5
3
330
2
100
AcDbEntity
  8
0
100
AcDbBlockBegin
  2
*MODEL_SPACE
 70
     0
 10
0.0
 20
0.0
 30
0.0
  3
*MODEL_SPACE
  1

  0
ENDBLK
  5
7
330
2
100
AcDbEntity
  8
0
100
AcDbBlockEnd
  0
BLOCK
  5
9
330
8
100
AcDbEntity
 67
     1
  8
0
100
AcDbBlockBegin
  2
*PAPER_SPACE
 70
     0
 10
0.0
 20
0.0
 30
0.0
  3
*PAPER_SPACE
  1

  0
ENDBLK
  5
A
330
8
100
AcDbEntity
 67
     1
  8
0
100
AcDbBlockEnd
  0
BLOCK
  5
70
330
64
100
AcDbEntity
  8
0
100
AcDbBlockBegin
  2
*D0
 70
     1
 10
0.0
 20
0.0
 30
0.0
  3
*D0
  1
*U
  0
LINE
  5
65
330
64
100
AcDbEntity
  8
0
  6
BYBLOCK
 62
     0
100
AcDbLine
 10
1.272973043901328
 20
0.0228632473920918
 30
0.0
 11
2.525907551000292
 21
0.0228632473920917
 31
0.0
  0
LINE
  5
66
330
64
100
AcDbEntity
  8
0
  6
BYBLOCK
 62
     0
100
AcDbLine
 10
1.272973043901328
 20
3.335363247392091
 30
0.0
 11
2.525907551000292
 21
3.335363247392091
 31
0.0
  0
LINE
  5
67
330
64
100
AcDbEntity
  8
0
  6
BYBLOCK
 62
     0
100
AcDbLine
 10
2.345907551000292
 20
0.0228632473920918
 30
0.0
 11
2.345907551000292
 21
1.220779914058758
 31
0.0
  0
LINE
  5
68
330
64
100
AcDbEntity
  8
0
  6
BYBLOCK
 62
     0
100
AcDbLine
 10
2.345907551000292
 20
3.335363247392091
 30
0.0
 11
2.345907551000292
 21
2.137446580725425
 31
0.0
  0
LINE
  5
69
330
64
100
AcDbEntity
  8
0
  6
BYBLOCK
 62
     0
100
AcDbLine
 10
2.470907551000292
 20
-0.1021367526079083
 30
0.0
 11
2.220907551000292
 21
0.1478632473920917
 31
0.0
  0
LINE
  5
6A
330
64
100
AcDbEntity
  8
0
  6
BYBLOCK
 62
     0
100
AcDbLine
 10
2.470907551000292
 20
3.210363247392091
 30
0.0
 11
2.220907551000292
 21
3.460363247392091
 31
0.0
  0
TEXT
  5
6B
330
64
100
AcDbEntity
  8
0
  6
BYBLOCK
 62
     0
100
AcDbText
 10
2.408407551000292
 20
1.345779914058758
 30
0.0
 40
0.125
  1
3 5/16
 50
90.0
 72
     1
 11
2.345907551000292
 21
1.679113247392091
 31
0.0
100
AcDbText
 73
     2
  0
POINT
  5
6C
330
64
100
AcDbEntity
  8
DEFPOINTS
  6
BYBLOCK
 62
     0
100
AcDbPoint
 10
1.210473043901328
 20
0.0228632473920918
 30
0.0
  0
POINT
  5
6E
330
64
100
AcDbEntity
  8
DEFPOINTS
  6
BYBLOCK
 62
     0
100
AcDbPoint
 10
1.210473043901328
 20
3.335363247392091
 30
0.0
  0
POINT
  5
6F
330
64
100
AcDbEntity
  8
DEFPOINTS
  6
BYBLOCK
 62
     0
100
AcDbPoint
 10
2.345907551000292
 20
3.335363247392091
 30
0.0
  0
ENDBLK
  5
71
330
64
100
AcDbEntity
  8
0
100
AcDbBlockEnd
  0
ENDSEC
  0
SECTION
  2
ENTITIES
  0
LINE
  5
1E
330
2
100
AcDbEntity
  8
ADP1DETAIL
100
AcDbLine
 10
0.4493904284552788
 20
1.833828248758214
 30
0.0
 11
0.3073377089905414
 21
1.679937802671414
 31
0.0
  0
LINE
  5
20
330
2
100
AcDbEntity
  8
ADP1DETAIL
100
AcDbLine
 10
0.4493904284552788
 20
1.526047356584614
 30
0.0
 11
0.3073377089905414
 21
1.679937802671414
 31
0.0
  0
LWPOLYLINE
  5
21
330
2
100
AcDbEntity
  8
ADP1DETAIL
100
AcDbPolyline
 90
       16
 70
     1
 43
0.0
 10
0.2649331409713755
 20
1.679937802671414
 42
0.0592108391140624
 10
0.3362768316612841
 20
1.079595312731102
 42
0.0727600335052074
 10
0.519927483251375
 20
0.622226868222143
 42
0.1066968199743871
 10
0.8308933011164763
 20
0.2814466963956162
 42
0.155874914553993
 10
1.135538282712158
 20
0.1841086541029346
 42
0.1558749145539929
 10
1.440183264307839
 20
0.2814466963956162
 42
0.106696819974387
 10
1.751149082172941
 20
0.6222268682221427
 42
0.0727600335052072
 10
1.934799733763032
 20
1.079595312731102
 42
0.0592108391140622
 10
2.006143424452941
 20
1.679937802671414
 42
0.059210839114062
 10
1.934799733763032
 20
2.280280292611726
 42
0.0727600335052069
 10
1.751149082172941
 20
2.737648737120685
 42
0.106696819974387
 10
1.44018326430784
 20
3.078428908947212
 42
0.1558749145539928
 10
1.135538282712158
 20
3.175766951239894
 42
0.1558749145539924
 10
0.830893301116477
 20
3.078428908947212
 42
0.1066968199743869
 10
0.5199274832513754
 20
2.737648737120685
 42
0.0727600335052073
 10
0.3362768316612841
 20
2.280280292611726
 42
0.0592108391140624
  0
LWPOLYLINE
  5
33
330
2
100
AcDbEntity
  8
ADP1DETAIL
100
AcDbPolyline
 90
       16
 70
     1
 43
0.0
 10
0.106641313002851
 20
1.679937802671414
 42
0.0629509836301794
 10
0.1904769170484832
 20
1.016696552969498
 42
0.0760699304009064
 10
0.4079982582884174
 20
0.5069346313694063
 42
0.1071121116501177
 10
0.7708857065174555
 20
0.1316291085044871
 42
0.1482745817750753
 10
1.135538282712158
 20
0.0210608091094634
 42
0.1482745817750753
 10
1.50019085890686
 20
0.1316291085044868
 42
0.1071121116501178
 10
1.863078307135898
 20
0.506934631369406
 42
0.0760699304009065
 10
2.080599648375833
 20
1.016696552969498
 42
0.0629509836301794
 10
2.164435252421466
 20
1.679937802671414
 42
0.0629509836301792
 10
2.080599648375833
 20
2.343179052373331
 42
0.0760699304009062
 10
1.863078307135899
 20
2.852940973973422
 42
0.1071121116501174
 10
1.500190858906861
 20
3.228246496838341
 42
0.1482745817750753
 10
1.135538282712158
 20
3.338814796233365
 42
0.1482745817750754
 10
0.7708857065174564
 20
3.228246496838341
 42
0.1071121116501178
 10
0.4079982582884176
 20
2.852940973973422
 42
0.0760699304009064
 10
0.1904769170484832
 20
2.34317905237333
 42
0.0629509836301794
  0
LWPOLYLINE
  5
45
330
2
100
AcDbEntity
  8
ADP1DETAIL
100
AcDbPolyline
 90
        7
 70
     0
 43
0.0
 10
0.4493904284552788
 20
1.833828248758214
 42
-0.2921747272429609
 10
0.3665263421008482
 20
1.946286651667797
 42
-0.0950579867158086
 10
0.4375527018332171
 20
2.473065486349532
 42
-0.3333333333333237
 10
0.632875191097231
 20
2.626955932436331
 10
0.6861449608965076
 20
2.893304781432711
 10
0.8459542702943366
 20
2.86962932818859
 42
-0.4944813440103915
 10
1.135978572534841
 20
3.135978177184972
 42
0.0880138454383881
  0
LWPOLYLINE
  5
4E
330
2
100
AcDbEntity
  8
ADP1DETAIL
100
AcDbPolyline
 90
        7
 70
     0
 43
0.0
 10
0.4493904284552788
 20
1.526047356584614
 42
0.2921747272429609
 10
0.3665263421008482
 20
1.41358895367503
 42
0.0950579867158086
 10
0.4375527018332171
 20
0.8868101189932961
 42
0.3333333333333237
 10
0.632875191097231
 20
0.7329196729064968
 10
0.6861449608965076
 20
0.4665708239101163
 10
0.8459542702943366
 20
0.4902462771542385
 42
0.4944813440103915
 10
1.135978572534841
 20
0.2238974281578559
 42
-0.0880138454383881
  0
LINE
  5
57
330
2
100
AcDbEntity
  8
ADP1DETAIL
100
AcDbLine
 10
1.322240173395519
 20
1.328191119280585
 30
0.0
 11
1.638201374327084
 21
0.7329196729064968
 31
0.0
  0
LWPOLYLINE
  5
58
330
2
100
AcDbEntity
  8
ADP1DETAIL
100
AcDbPolyline
 90
        7
 70
     0
 43
0.0
 10
1.821686136969037
 20
1.526047356584614
 42
-0.2921747272429609
 10
1.904550223323467
 20
1.41358895367503
 42
-0.0950579867158086
 10
1.833523863591099
 20
0.8868101189932961
 42
-0.3333333333333237
 10
1.638201374327084
 20
0.7329196729064968
 10
1.584931604527808
 20
0.4665708239101163
 10
1.425122295129979
 20
0.4902462771542385
 42
-0.4944813440103915
 10
1.135097992889474
 20
0.2238974281578559
 42
0.0880138454383881
  0
LINE
  5
61
330
2
100
AcDbEntity
  8
ADP1DETAIL
100
AcDbLine
 10
1.282016608711059
 20
1.284444689526737
 30
0.0
 11
1.584931604527808
 21
0.4665708239101163
 31
0.0
  0
LINE
  5
62
330
2
100
AcDbEntity
  8
ADP1DETAIL
100
AcDbLine
 10
1.239822189376909
 20
1.251510559844649
 30
0.0
 11
1.425122295129979
 21
0.4902462771542385
 31
0.0
  0
DIMENSION
  5
63
330
2
100
AcDbEntity
  8
ADPDIM
100
AcDbDimension
  2
*D0
 10
2.345907551000292
 20
3.335363247392091
 30
0.0
 11
2.345907551000292
 21
1.679113247392091
 31
0.0
100
AcDbAlignedDimension
 13
1.210473043901328
 23
0.0228632473920918
 33
0.0
 14
1.210473043901328
 24
3.335363247392091
 34
0.0
 50
90.0
100
AcDbRotatedDimension
  0
LINE
  5
72
330
2
100
AcDbEntity
  8
ADP1DETAIL
100
AcDbLine
 10
1.031254376047406
 20
1.251510559844649
 30
0.0
 11
0.8459542702943366
 21
0.4902462771542385
 31
0.0
  0
LINE
  5
73
330
2
100
AcDbEntity
  8
ADP1DETAIL
100
AcDbLine
 10
0.989059956713257
 20
1.284444689526737
 30
0.0
 11
0.6861449608965076
 21
0.4665708239101163
 31
0.0
  0
LINE
  5
74
330
2
100
AcDbEntity
  8
ADP1DETAIL
100
AcDbLine
 10
0.9488363920287968
 20
1.328191119280585
 30
0.0
 11
0.632875191097231
 21
0.7329196729064968
 31
0.0
  0
LINE
  5
75
330
2
100
AcDbEntity
  8
ADP1DETAIL
100
AcDbLine
 10
1.422876556687342
 20
1.744382535516556
 30
0.0
 11
1.821686136969037
 21
1.833828248758214
 31
0.0
  0
LINE
  5
76
330
2
100
AcDbEntity
  8
ADP1DETAIL
100
AcDbLine
 10
1.422876556687342
 20
1.615493069826271
 30
0.0
 11
1.821686136969037
 21
1.526047356584614
 31
0.0
  0
LWPOLYLINE
  5
77
330
2
100
AcDbEntity
  8
ADP1DETAIL
100
AcDbPolyline
 90
        7
 70
     0
 43
0.0
 10
1.821686136969037
 20
1.833828248758214
 42
0.2921747272429609
 10
1.904550223323467
 20
1.946286651667797
 42
0.0950579867158086
 10
1.833523863591099
 20
2.473065486349532
 42
0.3333333333333237
 10
1.638201374327084
 20
2.626955932436331
 10
1.584931604527808
 20
2.893304781432711
 10
1.425122295129979
 20
2.86962932818859
 42
0.4944813440103915
 10
1.135097992889474
 20
3.135978177184972
 42
-0.0880138454383881
  0
LINE
  5
80
330
2
100
AcDbEntity
  8
ADP1DETAIL
100
AcDbLine
 10
1.239822189376909
 20
2.108365045498179
 30
0.0
 11
1.425122295129979
 21
2.86962932818859
 31
0.0
  0
LINE
  5
81
330
2
100
AcDbEntity
  8
ADP1DETAIL
100
AcDbLine
 10
1.282016608711059
 20
2.075430915816091
 30
0.0
 11
1.584931604527808
 21
2.893304781432711
 31
0.0
  0
LINE
  5
82
330
2
100
AcDbEntity
  8
ADP1DETAIL
100
AcDbLine
 10
1.322240173395519
 20
2.031684486062243
 30
0.0
 11
1.638201374327084
 21
2.626955932436331
 31
0.0
  0
LINE
  5
83
330
2
100
AcDbEntity
  8
ADP1DETAIL
100
AcDbLine
 10
0.989059956713257
 20
2.075430915816091
 30
0.0
 11
0.6861449608965076
 21
2.893304781432711
 31
0.0
  0
LINE
  5
84
330
2
100
AcDbEntity
  8
ADP1DETAIL
100
AcDbLine
 10
1.031254376047406
 20
2.108365045498179
 30
0.0
 11
0.8459542702943366
 21
2.86962932818859
 31
0.0
  0
LINE
  5
85
330
2
100
AcDbEntity
  8
ADP1DETAIL
100
AcDbLine
 10
0.9488363920287968
 20
2.031684486062243
 30
0.0
 11
0.632875191097231
 21
2.626955932436331
 31
0.0
  0
LWPOLYLINE
  5
86
330
2
100
AcDbEntity
  8
ADP1DETAIL
100
AcDbPolyline
 90
       16
 70
     1
 43
0.0
 10
0.8453365541462478
 20
1.679937802671414
 42
0.0639878458336133
 10
0.8689438892726002
 20
1.49622575627717
 42
0.0769546296384256
 10
0.9303346725311453
 20
1.35467175520475
 42
0.1071582444818389
 10
1.032345779383248
 20
1.250791006939385
 42
0.1462742541209092
 10
1.135538282712158
 20
1.219942146964567
 42
0.1462742541209097
 10
1.238730786041067
 20
1.250791006939385
 42
0.1071582444818393
 10
1.340741892893171
 20
1.35467175520475
 42
0.0769546296384258
 10
1.402132676151715
 20
1.49622575627717
 42
0.0639878458336135
 10
1.425740011278068
 20
1.679937802671414
 42
0.0639878458336133
 10
1.402132676151715
 20
1.863649849065659
 42
0.0769546296384254
 10
1.340741892893171
 20
2.005203850138078
 42
0.1071582444818397
 10
1.238730786041067
 20
2.109084598403442
 42
0.1462742541209095
 10
1.135538282712158
 20
2.13993345837826
 42
0.1462742541209097
 10
1.032345779383248
 20
2.109084598403442
 42
0.1071582444818393
 10
0.9303346725311454
 20
2.005203850138078
 42
0.0769546296384252
 10
0.8689438892726002
 20
1.863649849065658
 42
0.0639878458336133
  0
LINE
  5
98
330
2
100
AcDbEntity
  8
ADP1DETAIL
100
AcDbLine
 10
0.8482000087369737
 20
1.615493069826271
 30
0.0
 11
0.4493904284552788
 21
1.526047356584614
 31
0.0
  0
LINE
  5
99
330
2
100
AcDbEntity
  8
ADP1DETAIL
100
AcDbLine
 10
0.8482000087369737
 20
1.744382535516556
 30
0.0
 11
0.4493904284552788
 21
1.833828248758214
 31
0.0
  0
LINE
  5
9A
330
2
100
AcDbEntity
  8
ADP1DETAIL
100
AcDbLine
 10
1.821686136969037
 20
1.833828248758214
 30
0.0
 11
1.963738856433774
 21
1.679937802671414
 31
0.0
  0
LINE
  5
9B
330
2
100
AcDbEntity
  8
ADP1DETAIL
100
AcDbLine
 10
1.821686136969037
 20
1.526047356584614
 30
0.0
 11
1.963738856433774
 21
1.679937802671414
 31
0.0
  0
TEXT
  5
A6
330
2
100
AcDbEntity
  8
ADPDIM
100
AcDbText
 10
-3.758758485705303
 20
-0.5272156042694345
 30
0.0
 40
0.09375
  1
J U L I U S  B L U M  &  C O . ,  I N C .      ( 8 0 0 )  5 2 6 - 6 2 9 3        W W W . J U L I U S B L U M . C O M        P A R T  N o .  2 6 5 3
 41
1.25
  7
ARIAL_WIDE
 72
     1
 11
1.135538282712159
 21
-0.4334656042694345
 31
0.0
100
AcDbText
 73
     3
  0
ENDSEC
  0
SECTION
  2
OBJECTS
  0
DICTIONARY
  5
1B
330
0
100
AcDbDictionary
  3
ACAD_GROUP
350
19
  3
ACAD_LAYOUT
350
9F
  3
ACAD_MLINESTYLE
350
1A
  3
ACAD_PLOTSETTINGS
350
A0
  3
ACAD_PLOTSTYLENAME
350
9D
  3
ACDBHEADERROUNDTRIPXREC
350
273
  3
ACDBVARIABLEDICTIONARY
350
100
  0
DICTIONARY
  5
F8
330
2
100
AcDbDictionary
280
     1
  3
ACAD_LAYOUTSELFREF
360
293
  0
DICTIONARY
  5
FA
330
8
100
AcDbDictionary
280
     1
  3
ACAD_LAYOUTSELFREF
360
294
  0
DICTIONARY
  5
19
102
{ACAD_REACTORS
330
1B
102
}
330
1B
100
AcDbDictionary
  0
DICTIONARY
  5
9F
102
{ACAD_REACTORS
330
1B
102
}
330
1B
100
AcDbDictionary
  0
DICTIONARY
  5
1A
102
{ACAD_REACTORS
330
1B
102
}
330
1B
100
AcDbDictionary
  3
STANDARD
350
1C
  0
DICTIONARY
  5
A0
102
{ACAD_REACTORS
330
1B
102
}
330
1B
100
AcDbDictionary
  0
ACDBDICTIONARYWDFLT
  5
9D
102
{ACAD_REACTORS
330
1B
102
}
330
1B
100
AcDbDictionary
281
     1
  3
Normal
350
9E
100
AcDbDictionaryWithDefault
340
9E
  0
DICTIONARY
  5
273
102
{ACAD_REACTORS
330
1B
102
}
330
1B
100
AcDbDictionary
  3
CEPSNTYPE
350
27D
  3
FINGERPRINTGUID
350
27E
  3
HYPERLINKBASE
350
276
  3
INSUNITS
350
27C
  3
LAYOUTDICT
350
278
  3
LWETCUNION
350
27B
  3
PLOTSETDICT
350
279
  3
PLOTSTYLNAMDICT
350
27A
  3
PSVPSCALE
350
280
  3
PUCSBASE
350
283
  3
PUCSORGBACK
350
289
  3
PUCSORGBOTTOM
350
285
  3
PUCSORGFRONT
350
288
  3
PUCSORGLEFT
350
286
  3
PUCSORGRIGHT
350
287
  3
PUCSORGTOP
350
284
  3
PUCSORTHOREF
350
281
  3
PUCSORTHOVIEW
350
282
  3
STYLESHEET
350
277
  3
TSTACKALIGN
350
274
  3
TSTACKSIZE
350
275
  3
UCSBASE
350
28C
  3
UCSORGBACK
350
292
  3
UCSORGBOTTOM
350
28E
  3
UCSORGFRONT
350
291
  3
UCSORGLEFT
350
28F
  3
UCSORGRIGHT
350
290
  3
UCSORGTOP
350
28D
  3
UCSORTHOREF
350
28A
  3
UCSORTHOVIEW
350
28B
  3
VERSIONGUID
350
27F
  0
DICTIONARY
  5
100
102
{ACAD_REACTORS
330
1B
102
}
330
1B
100
AcDbDictionary
  3
DIMASSOC
350
101
  0
XRECORD
  5
293
102
{ACAD_REACTORS
330
F8
102
}
330
F8
100
AcDbXrecord
340
2
  0
XRECORD
  5
294
102
{ACAD_REACTORS
330
FA
102
}
330
FA
100
AcDbXrecord
340
8
  0
MLINESTYLE
  5
1C
102
{ACAD_REACTORS
330
1A
102
}
330
1A
100
AcDbMlineStyle
  2
STANDARD
 70
     0
  3

 62
     0
 51
90.0
 52
90.0
 71
     2
 49
0.5
 62
   256
  6
BYLAYER
 49
-0.5
 62
   256
  6
BYLAYER
  0
ACDBPLACEHOLDER
  5
9E
102
{ACAD_REACTORS
330
9D
102
}
330
9D
100
AcDbPlaceHolder
280
     0
  0
XRECORD
  5
27D
102
{ACAD_REACTORS
330
273
102
}
330
273
100
AcDbXrecord
 90
        0
  0
XRECORD
  5
27E
102
{ACAD_REACTORS
330
273
102
}
330
273
100
AcDbXrecord
  1
{A239012D-2D6E-4714-83F9-368160C9090D}
  0
XRECORD
  5
276
102
{ACAD_REACTORS
330
273
102
}
330
273
100
AcDbXrecord
  1

  0
XRECORD
  5
27C
102
{ACAD_REACTORS
330
273
102
}
330
273
100
AcDbXrecord
 90
        0
  0
XRECORD
  5
278
102
{ACAD_REACTORS
330
273
102
}
330
273
100
AcDbXrecord
340
9F
  0
XRECORD
  5
27B
102
{ACAD_REACTORS
330
273
102
}
330
273
100
AcDbXrecord
 90
    14877
  0
XRECORD
  5
279
102
{ACAD_REACTORS
330
273
102
}
330
273
100
AcDbXrecord
340
A0
  0
XRECORD
  5
27A
102
{ACAD_REACTORS
330
273
102
}
330
273
100
AcDbXrecord
340
9D
  0
XRECORD
  5
280
102
{ACAD_REACTORS
330
273
102
}
330
273
100
AcDbXrecord
 40
0.0
  0
XRECORD
  5
283
102
{ACAD_REACTORS
330
273
102
}
330
273
100
AcDbXrecord
340
0
  0
XRECORD
  5
289
102
{ACAD_REACTORS
330
273
102
}
330
273
100
AcDbXrecord
 10
0.0
 20
0.0
 30
0.0
  0
XRECORD
  5
285
102
{ACAD_REACTORS
330
273
102
}
330
273
100
AcDbXrecord
 10
0.0
 20
0.0
 30
0.0
  0
XRECORD
  5
288
102
{ACAD_REACTORS
330
273
102
}
330
273
100
AcDbXrecord
 10
0.0
 20
0.0
 30
0.0
  0
XRECORD
  5
286
102
{ACAD_REACTORS
330
273
102
}
330
273
100
AcDbXrecord
 10
0.0
 20
0.0
 30
0.0
  0
XRECORD
  5
287
102
{ACAD_REACTORS
330
273
102
}
330
273
100
AcDbXrecord
 10
0.0
 20
0.0
 30
0.0
  0
XRECORD
  5
284
102
{ACAD_REACTORS
330
273
102
}
330
273
100
AcDbXrecord
 10
0.0
 20
0.0
 30
0.0
  0
XRECORD
  5
281
102
{ACAD_REACTORS
330
273
102
}
330
273
100
AcDbXrecord
340
0
  0
XRECORD
  5
282
102
{ACAD_REACTORS
330
273
102
}
330
273
100
AcDbXrecord
 70
     0
  0
XRECORD
  5
277
102
{ACAD_REACTORS
330
273
102
}
330
273
100
AcDbXrecord
  1

  0
XRECORD
  5
274
102
{ACAD_REACTORS
330
273
102
}
330
273
100
AcDbXrecord
 90
        1
  0
XRECORD
  5
275
102
{ACAD_REACTORS
330
273
102
}
330
273
100
AcDbXrecord
 90
       70
  0
XRECORD
  5
28C
102
{ACAD_REACTORS
330
273
102
}
330
273
100
AcDbXrecord
340
0
  0
XRECORD
  5
292
102
{ACAD_REACTORS
330
273
102
}
330
273
100
AcDbXrecord
 10
0.0
 20
0.0
 30
0.0
  0
XRECORD
  5
28E
102
{ACAD_REACTORS
330
273
102
}
330
273
100
AcDbXrecord
 10
0.0
 20
0.0
 30
0.0
  0
XRECORD
  5
291
102
{ACAD_REACTORS
330
273
102
}
330
273
100
AcDbXrecord
 10
0.0
 20
0.0
 30
0.0
  0
XRECORD
  5
28F
102
{ACAD_REACTORS
330
273
102
}
330
273
100
AcDbXrecord
 10
0.0
 20
0.0
 30
0.0
  0
XRECORD
  5
290
102
{ACAD_REACTORS
330
273
102
}
330
273
100
AcDbXrecord
 10
0.0
 20
0.0
 30
0.0
  0
XRECORD
  5
28D
102
{ACAD_REACTORS
330
273
102
}
330
273
100
AcDbXrecord
 10
0.0
 20
0.0
 30
0.0
  0
XRECORD
  5
28A
102
{ACAD_REACTORS
330
273
102
}
330
273
100
AcDbXrecord
340
0
  0
XRECORD
  5
28B
102
{ACAD_REACTORS
330
273
102
}
330
273
100
AcDbXrecord
 70
     0
  0
XRECORD
  5
27F
102
{ACAD_REACTORS
330
273
102
}
330
273
100
AcDbXrecord
  1
{B4D5B9C0-4802-4A5F-ABF8-799FE5759843}
  0
DICTIONARYVAR
  5
101
102
{ACAD_REACTORS
330
100
102
}
330
100
100
DictionaryVariables
280
     0
  1
1
  0
ENDSEC
  0
EOF
