  0
SECTION
  2
HEADER
  9
$ACADVER
  1
AC1015
  9
$ACADMAINTVER
 70
    20
  9
$DWGCODEPAGE
  3
ANSI_1252
  9
$INSBASE
 10
12.00639735156773
 20
1.739047123284144
 30
0.0
  9
$EXTMIN
 10
6.538246409443251
 20
-0.3858045739925257
 30
0.0
  9
$EXTMAX
 10
16.22659906974338
 20
4.370172364582655
 30
0.0
  9
$LIMMIN
 10
0.0
 20
0.0
  9
$LIMMAX
 10
36.0
 20
36.0
  9
$ORTHOMODE
 70
     0
  9
$REGENMODE
 70
     1
  9
$FILLMODE
 70
     1
  9
$QTEXTMODE
 70
     0
  9
$MIRRTEXT
 70
     1
  9
$LTSCALE
 40
1.0
  9
$ATTMODE
 70
     1
  9
$TEXTSIZE
 40
0.2
  9
$TRACEWID
 40
0.05
  9
$TEXTSTYLE
  7
STANDARD
  9
$CLAYER
  8
ADP1DETAIL
  9
$CELTYPE
  6
ByLayer
  9
$CECOLOR
 62
   256
  9
$CELTSCALE
 40
1.0
  9
$DISPSILH
 70
     0
  9
$DIMSCALE
 40
1.0
  9
$DIMASZ
 40
0.125
  9
$DIMEXO
 40
0.0625
  9
$DIMDLI
 40
0.38
  9
$DIMRND
 40
0.0
  9
$DIMDLE
 40
0.0
  9
$DIMEXE
 40
0.18
  9
$DIMTP
 40
0.0
  9
$DIMTM
 40
0.0
  9
$DIMTXT
 40
0.125
  9
$DIMCEN
 40
0.1875
  9
$DIMTSZ
 40
0.125
  9
$DIMTOL
 70
     0
  9
$DIMLIM
 70
     0
  9
$DIMTIH
 70
     0
  9
$DIMTOH
 70
     0
  9
$DIMSE1
 70
     0
  9
$DIMSE2
 70
     0
  9
$DIMTAD
 70
     0
  9
$DIMZIN
 70
     3
  9
$DIMBLK
  1

  9
$DIMASO
 70
     1
  9
$DIMSHO
 70
     1
  9
$DIMPOST
  1

  9
$DIMAPOST
  1

  9
$DIMALT
 70
     0
  9
$DIMALTD
 70
     1
  9
$DIMALTF
 40
25.4
  9
$DIMLFAC
 40
1.0
  9
$DIMTOFL
 70
     0
  9
$DIMTVP
 40
0.0
  9
$DIMTIX
 70
     0
  9
$DIMSOXD
 70
     0
  9
$DIMSAH
 70
     0
  9
$DIMBLK1
  1

  9
$DIMBLK2
  1

  9
$DIMSTYLE
  2
Standard
  9
$DIMCLRD
 70
     0
  9
$DIMCLRE
 70
     0
  9
$DIMCLRT
 70
     0
  9
$DIMTFAC
 40
1.0
  9
$DIMGAP
 40
0.125
  9
$DIMJUST
 70
     0
  9
$DIMSD1
 70
     0
  9
$DIMSD2
 70
     0
  9
$DIMTOLJ
 70
     1
  9
$DIMTZIN
 70
     3
  9
$DIMALTZ
 70
     3
  9
$DIMALTTZ
 70
     3
  9
$DIMUPT
 70
     0
  9
$DIMDEC
 70
     4
  9
$DIMTDEC
 70
     4
  9
$DIMALTU
 70
     5
  9
$DIMALTTD
 70
     1
  9
$DIMTXSTY
  7
STANDARD
  9
$DIMAUNIT
 70
     0
  9
$DIMADEC
 70
     0
  9
$DIMALTRND
 40
0.0
  9
$DIMAZIN
 70
     0
  9
$DIMDSEP
 70
    46
  9
$DIMATFIT
 70
     3
  9
$DIMFRAC
 70
     0
  9
$DIMLDRBLK
  1

  9
$DIMLUNIT
 70
     5
  9
$DIMLWD
 70
    -2
  9
$DIMLWE
 70
    -2
  9
$DIMTMOVE
 70
     2
  9
$LUNITS
 70
     5
  9
$LUPREC
 70
     4
  9
$SKETCHINC
 40
0.1
  9
$FILLETRAD
 40
0.0
  9
$AUNITS
 70
     0
  9
$AUPREC
 70
     0
  9
$MENU
  1
acad
  9
$ELEVATION
 40
0.0
  9
$PELEVATION
 40
0.0
  9
$THICKNESS
 40
0.0
  9
$LIMCHECK
 70
     0
  9
$CHAMFERA
 40
0.0
  9
$CHAMFERB
 40
0.0
  9
$CHAMFERC
 40
0.0
  9
$CHAMFERD
 40
0.0
  9
$SKPOLY
 70
     0
  9
$TDCREATE
 40
2450374.558826574
  9
$TDUCREATE
 40
2450374.725493241
  9
$TDUPDATE
 40
2453949.980995197
  9
$TDUUPDATE
 40
2453950.147661863
  9
$TDINDWG
 40
0.0190953241
  9
$TDUSRTIMER
 40
0.0190953241
  9
$USRTIMER
 70
     1
  9
$ANGBASE
 50
0.0
  9
$ANGDIR
 70
     0
  9
$PDMODE
 70
     0
  9
$PDSIZE
 40
0.0
  9
$PLINEWID
 40
0.0
  9
$SPLFRAME
 70
     0
  9
$SPLINETYPE
 70
     6
  9
$SPLINESEGS
 70
     8
  9
$HANDSEED
  5
2CF
  9
$SURFTAB1
 70
     6
  9
$SURFTAB2
 70
     6
  9
$SURFTYPE
 70
     6
  9
$SURFU
 70
     6
  9
$SURFV
 70
     6
  9
$UCSBASE
  2

  9
$UCSNAME
  2

  9
$UCSORG
 10
0.0
 20
0.0
 30
0.0
  9
$UCSXDIR
 10
1.0
 20
0.0
 30
0.0
  9
$UCSYDIR
 10
0.0
 20
1.0
 30
0.0
  9
$UCSORTHOREF
  2

  9
$UCSORTHOVIEW
 70
     0
  9
$UCSORGTOP
 10
0.0
 20
0.0
 30
0.0
  9
$UCSORGBOTTOM
 10
0.0
 20
0.0
 30
0.0
  9
$UCSORGLEFT
 10
0.0
 20
0.0
 30
0.0
  9
$UCSORGRIGHT
 10
0.0
 20
0.0
 30
0.0
  9
$UCSORGFRONT
 10
0.0
 20
0.0
 30
0.0
  9
$UCSORGBACK
 10
0.0
 20
0.0
 30
0.0
  9
$PUCSBASE
  2

  9
$PUCSNAME
  2

  9
$PUCSORG
 10
0.0
 20
0.0
 30
0.0
  9
$PUCSXDIR
 10
1.0
 20
0.0
 30
0.0
  9
$PUCSYDIR
 10
0.0
 20
1.0
 30
0.0
  9
$PUCSORTHOREF
  2

  9
$PUCSORTHOVIEW
 70
     0
  9
$PUCSORGTOP
 10
0.0
 20
0.0
 30
0.0
  9
$PUCSORGBOTTOM
 10
0.0
 20
0.0
 30
0.0
  9
$PUCSORGLEFT
 10
0.0
 20
0.0
 30
0.0
  9
$PUCSORGRIGHT
 10
0.0
 20
0.0
 30
0.0
  9
$PUCSORGFRONT
 10
0.0
 20
0.0
 30
0.0
  9
$PUCSORGBACK
 10
0.0
 20
0.0
 30
0.0
  9
$USERI1
 70
     0
  9
$USERI2
 70
     0
  9
$USERI3
 70
     0
  9
$USERI4
 70
     0
  9
$USERI5
 70
     0
  9
$USERR1
 40
0.0
  9
$USERR2
 40
0.0
  9
$USERR3
 40
0.0
  9
$USERR4
 40
0.0
  9
$USERR5
 40
0.0
  9
$WORLDVIEW
 70
     1
  9
$SHADEDGE
 70
     3
  9
$SHADEDIF
 70
    70
  9
$TILEMODE
 70
     1
  9
$MAXACTVP
 70
    15
  9
$PINSBASE
 10
0.0
 20
0.0
 30
0.0
  9
$PLIMCHECK
 70
     0
  9
$PEXTMIN
 10
1.000000000000000E+20
 20
1.000000000000000E+20
 30
1.000000000000000E+20
  9
$PEXTMAX
 10
-1.000000000000000E+20
 20
-1.000000000000000E+20
 30
-1.000000000000000E+20
  9
$PLIMMIN
 10
0.0
 20
0.0
  9
$PLIMMAX
 10
12.0
 20
9.0
  9
$UNITMODE
 70
     0
  9
$VISRETAIN
 70
     0
  9
$PLINEGEN
 70
     0
  9
$PSLTSCALE
 70
     1
  9
$TREEDEPTH
 70
  3020
  9
$CMLSTYLE
  2
Standard
  9
$CMLJUST
 70
     0
  9
$CMLSCALE
 40
1.0
  9
$PROXYGRAPHICS
 70
     1
  9
$MEASUREMENT
 70
     0
  9
$CELWEIGHT
370
    -1
  9
$ENDCAPS
280
     0
  9
$JOINSTYLE
280
     0
  9
$LWDISPLAY
290
     0
  9
$INSUNITS
 70
     0
  9
$HYPERLINKBASE
  1

  9
$STYLESHEET
  1

  9
$XEDIT
290
     1
  9
$CEPSNTYPE
380
     0
  9
$PSTYLEMODE
290
     1
  9
$FINGERPRINTGUID
  2
{A9C94F82-AE7F-406A-A6D6-FCA5DBFBF999}
  9
$VERSIONGUID
  2
{8AB8A3E1-6942-49D9-8DEC-6A59C5F6EAD7}
  9
$EXTNAMES
290
     1
  9
$PSVPSCALE
 40
0.0
  9
$OLESTARTUP
290
     0
  0
ENDSEC
  0
SECTION
  2
CLASSES
  0
CLASS
  1
ACDBDICTIONARYWDFLT
  2
AcDbDictionaryWithDefault
  3
ObjectDBX Classes
 90
        0
280
     0
281
     0
  0
CLASS
  1
ACDBPLACEHOLDER
  2
AcDbPlaceHolder
  3
ObjectDBX Classes
 90
        0
280
     0
281
     0
  0
CLASS
  1
LAYOUT
  2
AcDbLayout
  3
ObjectDBX Classes
 90
        0
280
     0
281
     0
  0
CLASS
  1
DICTIONARYVAR
  2
AcDbDictionaryVar
  3
ObjectDBX Classes
 90
        0
280
     0
281
     0
  0
CLASS
  1
MATERIAL
  2
AcDbMaterial
  3
ObjectDBX Classes
 90
     1024
280
     0
281
     0
  0
CLASS
  1
VISUALSTYLE
  2
AcDbVisualStyle
  3
ObjectDBX Classes
 90
     4095
280
     0
281
     0
  0
CLASS
  1
TABLESTYLE
  2
AcDbTableStyle
  3
ObjectDBX Classes
 90
     4095
280
     0
281
     0
  0
CLASS
  1
DIMASSOC
  2
AcDbDimAssoc
  3
"AcDbDimAssoc|Product Desc:     AcDim ARX App For Dimension|Company:          Autodesk, Inc.|WEB Address:      www.autodesk.com"
 90
        0
280
     0
281
     0
  0
ENDSEC
  0
SECTION
  2
TABLES
  0
TABLE
  2
VPORT
  5
8
330
0
100
AcDbSymbolTable
 70
     1
  0
VPORT
  5
1F1
330
8
100
AcDbSymbolTableRecord
100
AcDbViewportTableRecord
  2
*Active
 70
     0
 10
0.0
 20
0.0
 11
1.0
 21
1.0
 12
12.04070277641103
 22
1.388010261412317
 13
0.0
 23
0.0
 14
0.5740882589684922
 24
0.5740882589684922
 15
0.5
 25
0.5
 16
0.0
 26
0.0
 36
1.0
 17
0.0
 27
0.0
 37
0.0
 40
3.870484279875419
 41
2.023012552301255
 42
50.0
 43
0.0
 44
0.0
 50
0.0
 51
0.0
 71
     0
 72
   100
 73
     1
 74
     0
 75
     0
 76
     0
 77
     0
 78
     0
281
     0
 65
     1
110
0.0
120
0.0
130
0.0
111
1.0
121
0.0
131
0.0
112
0.0
122
1.0
132
0.0
 79
     0
146
0.0
  0
ENDTAB
  0
TABLE
  2
LTYPE
  5
5
330
0
100
AcDbSymbolTable
 70
     3
  0
LTYPE
  5
13
330
5
100
AcDbSymbolTableRecord
100
AcDbLinetypeTableRecord
  2
ByBlock
 70
     0
  3

 72
    65
 73
     0
 40
0.0
  0
LTYPE
  5
14
330
5
100
AcDbSymbolTableRecord
100
AcDbLinetypeTableRecord
  2
ByLayer
 70
     0
  3

 72
    65
 73
     0
 40
0.0
  0
LTYPE
  5
15
330
5
100
AcDbSymbolTableRecord
100
AcDbLinetypeTableRecord
  2
CONTINUOUS
 70
     0
  3
Solid line
 72
    65
 73
     0
 40
0.0
  0
LTYPE
  5
25
330
5
100
AcDbSymbolTableRecord
100
AcDbLinetypeTableRecord
  2
HIDDEN2
 70
     0
  3
_ _ _ _ _ _ _ _ _ _ _ _ _ _ _ _ _ _ _ _ _ _ _ _
 72
    65
 73
     2
 40
0.1875
 49
0.125
 74
     0
 49
-0.0625
 74
     0
  0
ENDTAB
  0
TABLE
  2
LAYER
  5
2
330
0
100
AcDbSymbolTable
 70
     5
  0
LAYER
  5
10
330
2
100
AcDbSymbolTableRecord
100
AcDbLayerTableRecord
  2
0
 70
     0
 62
     7
  6
CONTINUOUS
370
    -3
390
F
  0
LAYER
  5
27
330
2
100
AcDbSymbolTableRecord
100
AcDbLayerTableRecord
  2
ADP2DETAIL
 70
     0
 62
     5
  6
CONTINUOUS
370
    -3
390
F
  0
LAYER
  5
28
330
2
100
AcDbSymbolTableRecord
100
AcDbLayerTableRecord
  2
ADPDIM
 70
     0
 62
     3
  6
CONTINUOUS
370
    -3
390
F
  0
LAYER
  5
29
330
2
100
AcDbSymbolTableRecord
100
AcDbLayerTableRecord
  2
ADP1DETAIL
 70
     0
 62
     7
  6
CONTINUOUS
370
    -3
390
F
  0
LAYER
  5
2A
330
2
100
AcDbSymbolTableRecord
100
AcDbLayerTableRecord
  2
DEFPOINTS
 70
     0
 62
     7
  6
CONTINUOUS
290
     0
370
    -3
390
F
  0
ENDTAB
  0
TABLE
  2
STYLE
  5
3
330
0
100
AcDbSymbolTable
 70
     2
  0
STYLE
  5
11
330
3
100
AcDbSymbolTableRecord
100
AcDbTextStyleTableRecord
  2
STANDARD
 70
     0
 40
0.0
 41
1.0
 50
0.0
 71
     0
 42
0.2
  3
txt
  4

  0
STYLE
  5
8F
330
3
100
AcDbSymbolTableRecord
100
AcDbTextStyleTableRecord
  2
ARIAL_WIDE
 70
     0
 40
0.0
 41
1.25
 50
0.0
 71
     0
 42
0.2
  3
ARIAL.TTF
  4

1001
ACAD
1000
Arial
1071
       34
  0
ENDTAB
  0
TABLE
  2
VIEW
  5
6
330
0
100
AcDbSymbolTable
 70
     0
  0
ENDTAB
  0
TABLE
  2
UCS
  5
7
330
0
100
AcDbSymbolTable
 70
     0
  0
ENDTAB
  0
TABLE
  2
APPID
  5
9
330
0
100
AcDbSymbolTable
 70
     2
  0
APPID
  5
12
330
9
100
AcDbSymbolTableRecord
100
AcDbRegAppTableRecord
  2
ACAD
 70
     0
  0
APPID
  5
2A1
330
9
100
AcDbSymbolTableRecord
100
AcDbRegAppTableRecord
  2
DCO15
 70
     0
  0
ENDTAB
  0
TABLE
  2
DIMSTYLE
  5
A
330
0
100
AcDbSymbolTable
 70
     2
100
AcDbDimStyleTable
 71
     1
340
8D
  0
DIMSTYLE
105
8D
102
{ACAD_REACTORS
330
251
330
26B
102
}
330
A
100
AcDbSymbolTableRecord
100
AcDbDimStyleTableRecord
  2
Standard
 70
     0
340
11
  0
ENDTAB
  0
TABLE
  2
BLOCK_RECORD
  5
1
330
0
100
AcDbSymbolTable
 70
     7
  0
BLOCK_RECORD
  5
1E
102
{ACAD_XDICTIONARY
360
D0
102
}
330
1
100
AcDbSymbolTableRecord
100
AcDbBlockTableRecord
  2
*Model_Space
340
21
  0
BLOCK_RECORD
  5
1A
102
{ACAD_XDICTIONARY
360
D2
102
}
330
1
100
AcDbSymbolTableRecord
100
AcDbBlockTableRecord
  2
*Paper_Space
340
1D
  0
BLOCK_RECORD
  5
22
330
1
100
AcDbSymbolTableRecord
100
AcDbBlockTableRecord
  2
*D0
340
0
  0
BLOCK_RECORD
  5
23
330
1
100
AcDbSymbolTableRecord
100
AcDbBlockTableRecord
  2
*D1
340
0
  0
BLOCK_RECORD
  5
24
330
1
100
AcDbSymbolTableRecord
100
AcDbBlockTableRecord
  2
*D2
340
0
  0
BLOCK_RECORD
  5
244
330
1
100
AcDbSymbolTableRecord
100
AcDbBlockTableRecord
  2
*D3
340
0
  0
BLOCK_RECORD
  5
252
330
1
100
AcDbSymbolTableRecord
100
AcDbBlockTableRecord
  2
*D4
340
0
  0
BLOCK_RECORD
  5
26C
330
1
100
AcDbSymbolTableRecord
100
AcDbBlockTableRecord
  2
*D5
340
0
  0
ENDTAB
  0
ENDSEC
  0
SECTION
  2
BLOCKS
  0
BLOCK
  5
2D
330
1E
100
AcDbEntity
  8
0
100
AcDbBlockBegin
  2
*Model_Space
 70
     0
 10
0.0
 20
0.0
 30
0.0
  3
*Model_Space
  1

  0
ENDBLK
  5
2E
330
1E
100
AcDbEntity
  8
0
100
AcDbBlockEnd
  0
BLOCK
  5
2B
330
1A
100
AcDbEntity
 67
     1
  8
0
100
AcDbBlockBegin
  2
*Paper_Space
 70
     0
 10
0.0
 20
0.0
 30
0.0
  3
*Paper_Space
  1

  0
ENDBLK
  5
2C
330
1A
100
AcDbEntity
 67
     1
  8
0
100
AcDbBlockEnd
  0
BLOCK
  5
2F
330
22
100
AcDbEntity
  8
0
100
AcDbBlockBegin
  2
*D0
 70
     1
 10
0.0
 20
0.0
 30
0.0
  3
*D0
  1

  0
LINE
  5
30
330
22
100
AcDbEntity
  8
0
  6
ByBlock
 62
     0
100
AcDbLine
 10
10.75818686604587
 20
0.3079939149384709
 30
0.0
 11
10.75818686604587
 21
0.425493914938471
 31
0.0
  0
LINE
  5
31
330
22
100
AcDbEntity
  8
0
  6
ByBlock
 62
     0
100
AcDbLine
 10
12.00639735156773
 20
1.676547123284144
 30
0.0
 11
12.00639735156773
 21
0.065493914938471
 31
0.0
  0
LINE
  5
32
330
22
100
AcDbEntity
  8
0
  6
ByBlock
 62
     0
100
AcDbLine
 10
10.75818686604587
 20
0.2454939149384709
 30
0.0
 11
10.50818686604587
 21
0.2454939149384709
 31
0.0
  0
LINE
  5
33
330
22
100
AcDbEntity
  8
0
  6
ByBlock
 62
     0
100
AcDbLine
 10
12.00639735156773
 20
0.2454939149384709
 30
0.0
 11
12.25639735156773
 21
0.2454939149384709
 31
0.0
  0
LINE
  5
34
330
22
100
AcDbEntity
  8
0
  6
ByBlock
 62
     0
100
AcDbLine
 10
10.63318686604587
 20
0.1204939149384709
 30
0.0
 11
10.88318686604587
 21
0.3704939149384709
 31
0.0
  0
LINE
  5
35
330
22
100
AcDbEntity
  8
0
  6
ByBlock
 62
     0
100
AcDbLine
 10
11.88139735156773
 20
0.1204939149384709
 30
0.0
 11
12.13139735156773
 21
0.3704939149384709
 31
0.0
  0
TEXT
  5
36
330
22
100
AcDbEntity
  8
0
  6
ByBlock
 62
     0
100
AcDbText
 10
12.38139735156773
 20
0.182993914938471
 30
0.0
 40
0.125
  1
1 1/4
 72
     1
 11
12.63139735156773
 21
0.2454939149384709
 31
0.0
100
AcDbText
 73
     2
  0
POINT
  5
38
330
22
100
AcDbEntity
  8
DEFPOINTS
  6
ByBlock
 62
     0
100
AcDbPoint
 10
10.75818686604587
 20
0.2454939149384709
 30
0.0
  0
POINT
  5
39
330
22
100
AcDbEntity
  8
DEFPOINTS
  6
ByBlock
 62
     0
100
AcDbPoint
 10
12.00639735156773
 20
1.739047123284144
 30
0.0
  0
POINT
  5
3A
330
22
100
AcDbEntity
  8
DEFPOINTS
  6
ByBlock
 62
     0
100
AcDbPoint
 10
12.00639735156773
 20
0.2454939149384709
 30
0.0
  0
ENDBLK
  5
3B
330
22
100
AcDbEntity
  8
0
100
AcDbBlockEnd
  0
BLOCK
  5
3C
330
23
100
AcDbEntity
  8
0
100
AcDbBlockBegin
  2
*D1
 70
     1
 10
0.0
 20
0.0
 30
0.0
  3
*D1
  1

  0
LINE
  5
3D
330
23
100
AcDbEntity
  8
0
  6
ByBlock
 62
     0
100
AcDbLine
 10
11.1291008652451
 20
2.750377325498964
 30
0.0
 11
11.1291008652451
 21
3.031972912747928
 31
0.0
  0
LINE
  5
3E
330
23
100
AcDbEntity
  8
0
  6
ByBlock
 62
     0
100
AcDbLine
 10
11.6291008652451
 20
2.750377325498964
 30
0.0
 11
11.6291008652451
 21
3.031972912747928
 31
0.0
  0
LINE
  5
3F
330
23
100
AcDbEntity
  8
0
  6
ByBlock
 62
     0
100
AcDbLine
 10
11.1291008652451
 20
2.851972912747927
 30
0.0
 11
10.8791008652451
 21
2.851972912747927
 31
0.0
  0
LINE
  5
40
330
23
100
AcDbEntity
  8
0
  6
ByBlock
 62
     0
100
AcDbLine
 10
11.6291008652451
 20
2.851972912747927
 30
0.0
 11
11.8791008652451
 21
2.851972912747927
 31
0.0
  0
LINE
  5
41
330
23
100
AcDbEntity
  8
0
  6
ByBlock
 62
     0
100
AcDbLine
 10
11.0041008652451
 20
2.726972912747927
 30
0.0
 11
11.2541008652451
 21
2.976972912747927
 31
0.0
  0
LINE
  5
42
330
23
100
AcDbEntity
  8
0
  6
ByBlock
 62
     0
100
AcDbLine
 10
11.5041008652451
 20
2.726972912747927
 30
0.0
 11
11.7541008652451
 21
2.976972912747927
 31
0.0
  0
TEXT
  5
43
330
23
100
AcDbEntity
  8
0
  6
ByBlock
 62
     0
100
AcDbText
 10
12.0041008652451
 20
2.789472912747927
 30
0.0
 40
0.125
  1
1/2
 72
     1
 11
12.14993419857844
 21
2.851972912747927
 31
0.0
100
AcDbText
 73
     2
  0
POINT
  5
44
330
23
100
AcDbEntity
  8
DEFPOINTS
  6
ByBlock
 62
     0
100
AcDbPoint
 10
11.1291008652451
 20
2.687877325498964
 30
0.0
  0
POINT
  5
45
330
23
100
AcDbEntity
  8
DEFPOINTS
  6
ByBlock
 62
     0
100
AcDbPoint
 10
11.6291008652451
 20
2.687877325498964
 30
0.0
  0
POINT
  5
46
330
23
100
AcDbEntity
  8
DEFPOINTS
  6
ByBlock
 62
     0
100
AcDbPoint
 10
11.6291008652451
 20
2.851972912747927
 30
0.0
  0
ENDBLK
  5
47
330
23
100
AcDbEntity
  8
0
100
AcDbBlockEnd
  0
BLOCK
  5
48
330
24
100
AcDbEntity
  8
0
100
AcDbBlockBegin
  2
*D2
 70
     1
 10
0.0
 20
0.0
 30
0.0
  3
*D2
  1

  0
LINE
  5
49
330
24
100
AcDbEntity
  8
0
  6
ByBlock
 62
     0
100
AcDbLine
 10
12.06889735156773
 20
1.739047123284144
 30
0.0
 11
12.65474425124721
 21
1.739047123284144
 31
0.0
  0
LINE
  5
4A
330
24
100
AcDbEntity
  8
0
  6
ByBlock
 62
     0
100
AcDbLine
 10
11.8066913472086
 20
2.687877325498964
 30
0.0
 11
12.65474425124721
 21
2.687877325498964
 31
0.0
  0
LINE
  5
4B
330
24
100
AcDbEntity
  8
0
  6
ByBlock
 62
     0
100
AcDbLine
 10
12.47474425124721
 20
1.739047123284144
 30
0.0
 11
12.47474425124721
 21
1.489047123284144
 31
0.0
  0
LINE
  5
4C
330
24
100
AcDbEntity
  8
0
  6
ByBlock
 62
     0
100
AcDbLine
 10
12.47474425124721
 20
2.687877325498964
 30
0.0
 11
12.47474425124721
 21
2.937877325498964
 31
0.0
  0
LINE
  5
4D
330
24
100
AcDbEntity
  8
0
  6
ByBlock
 62
     0
100
AcDbLine
 10
12.59974425124721
 20
1.614047123284144
 30
0.0
 11
12.34974425124721
 21
1.864047123284144
 31
0.0
  0
LINE
  5
4E
330
24
100
AcDbEntity
  8
0
  6
ByBlock
 62
     0
100
AcDbLine
 10
12.59974425124721
 20
2.562877325498964
 30
0.0
 11
12.34974425124721
 21
2.812877325498964
 31
0.0
  0
TEXT
  5
4F
330
24
100
AcDbEntity
  8
0
  6
ByBlock
 62
     0
100
AcDbText
 10
12.53724425124721
 20
3.062877325498964
 30
0.0
 40
0.125
  1
15/16
 50
90.0
 72
     1
 11
12.47474425124721
 21
3.312877325498964
 31
0.0
100
AcDbText
 73
     2
  0
POINT
  5
50
330
24
100
AcDbEntity
  8
DEFPOINTS
  6
ByBlock
 62
     0
100
AcDbPoint
 10
12.00639735156773
 20
1.739047123284144
 30
0.0
  0
POINT
  5
51
330
24
100
AcDbEntity
  8
DEFPOINTS
  6
ByBlock
 62
     0
100
AcDbPoint
 10
11.7441913472086
 20
2.687877325498964
 30
0.0
  0
POINT
  5
52
330
24
100
AcDbEntity
  8
DEFPOINTS
  6
ByBlock
 62
     0
100
AcDbPoint
 10
12.47474425124721
 20
2.687877325498964
 30
0.0
  0
ENDBLK
  5
53
330
24
100
AcDbEntity
  8
0
100
AcDbBlockEnd
  0
BLOCK
  5
24F
330
244
100
AcDbEntity
  8
0
 62
     3
100
AcDbBlockBegin
  2
*D3
 70
     1
 10
0.0
 20
0.0
 30
0.0
  3
*D3
  1

  0
LINE
  5
245
330
244
100
AcDbEntity
  8
ADPDIM
 62
     0
370
    -2
100
AcDbLine
 10
10.9416008652451
 20
2.726972912747928
 30
0.0
 11
9.736484127859391
 21
2.726972912747928
 31
0.0
  0
LINE
  5
246
330
244
100
AcDbEntity
  8
ADPDIM
 62
     0
370
    -2
100
AcDbLine
 10
10.95122661605689
 20
0.6878773254989641
 30
0.0
 11
9.736484127859391
 21
0.6878773254989646
 31
0.0
  0
LINE
  5
247
330
244
100
AcDbEntity
  8
ADPDIM
 62
     0
370
    -2
100
AcDbLine
 10
9.916484127859391
 20
2.726972912747928
 30
0.0
 11
9.916484127859391
 21
1.978258452456779
 31
0.0
  0
LINE
  5
248
330
244
100
AcDbEntity
  8
ADPDIM
 62
     0
370
    -2
100
AcDbLine
 10
9.916484127859391
 20
0.6878773254989645
 30
0.0
 11
9.916484127859391
 21
1.436591785790113
 31
0.0
  0
LINE
  5
249
330
244
100
AcDbEntity
  8
ADPDIM
 62
     0
370
    -2
100
AcDbLine
 10
10.04148412785939
 20
0.5628773254989645
 30
0.0
 11
9.791484127859391
 21
0.8128773254989644
 31
0.0
  0
LINE
  5
24A
330
244
100
AcDbEntity
  8
ADPDIM
 62
     0
370
    -2
100
AcDbLine
 10
10.04148412785939
 20
2.601972912747928
 30
0.0
 11
9.791484127859391
 21
2.851972912747928
 31
0.0
  0
MTEXT
  5
24B
330
244
100
AcDbEntity
  8
ADPDIM
 62
     0
100
AcDbMText
 10
9.916484127859391
 20
1.707425119123447
 30
0.0
 40
0.125
 41
0.0
 71
     5
 72
     1
  1
\A1;2{\H1.000000x;\S1/16;}
 11
0.0000000000000001
 21
1.0
 31
0.0
 73
     1
 44
1.0
1001
ACAD
1000
MTEXTBEGIN
1070
    73
1070
     1
1070
    44
1040
1.0
1070
    74
1070
     0
1000
MTEXTEND
  0
POINT
  5
24C
330
244
100
AcDbEntity
  8
DEFPOINTS
 62
     0
100
AcDbPoint
 10
11.0041008652451
 20
2.726972912747927
 30
0.0
  0
POINT
  5
24D
330
244
100
AcDbEntity
  8
DEFPOINTS
 62
     0
100
AcDbPoint
 10
11.01372661605689
 20
0.6878773254989641
 30
0.0
  0
POINT
  5
24E
330
244
100
AcDbEntity
  8
DEFPOINTS
 62
     0
100
AcDbPoint
 10
9.916484127859391
 20
0.6878773254989645
 30
0.0
  0
ENDBLK
  5
250
330
244
100
AcDbEntity
  8
0
 62
     3
100
AcDbBlockEnd
  0
BLOCK
  5
25D
330
252
100
AcDbEntity
  8
0
 62
     3
100
AcDbBlockBegin
  2
*D4
 70
     1
 10
0.0
 20
0.0
 30
0.0
  3
*D4
  1

  0
LINE
  5
295
330
252
100
AcDbEntity
  8
ADPDIM
 62
     0
370
    -2
100
AcDbLine
 10
10.95122661605689
 20
2.687877325498964
 30
0.0
 11
10.10088119300015
 21
2.687877325498964
 31
0.0
  0
LINE
  5
296
330
252
100
AcDbEntity
  8
ADPDIM
 62
     0
370
    -2
100
AcDbLine
 10
10.69568686604587
 20
0.6878773254989643
 30
0.0
 11
10.10088119300015
 21
0.6878773254989645
 31
0.0
  0
LINE
  5
297
330
252
100
AcDbEntity
  8
ADPDIM
 62
     0
370
    -2
100
AcDbLine
 10
10.28088119300015
 20
2.687877325498964
 30
0.0
 11
10.28088119300015
 21
1.854543992165631
 31
0.0
  0
LINE
  5
298
330
252
100
AcDbEntity
  8
ADPDIM
 62
     0
370
    -2
100
AcDbLine
 10
10.28088119300015
 20
0.6878773254989643
 30
0.0
 11
10.28088119300015
 21
1.521210658832297
 31
0.0
  0
LINE
  5
299
330
252
100
AcDbEntity
  8
ADPDIM
 62
     0
370
    -2
100
AcDbLine
 10
10.40588119300015
 20
0.5628773254989643
 30
0.0
 11
10.15588119300015
 21
0.8128773254989644
 31
0.0
  0
LINE
  5
29A
330
252
100
AcDbEntity
  8
ADPDIM
 62
     0
370
    -2
100
AcDbLine
 10
10.40588119300015
 20
2.562877325498964
 30
0.0
 11
10.15588119300015
 21
2.812877325498964
 31
0.0
  0
MTEXT
  5
29B
330
252
100
AcDbEntity
  8
ADPDIM
 62
     0
100
AcDbMText
 10
10.28088119300015
 20
1.687877325498966
 30
0.0
 40
0.125
 41
0.0
 71
     5
 72
     1
  1
\A1;2
 11
0.0000000000000001
 21
1.0
 31
0.0
 73
     1
 44
1.0
1001
ACAD
1000
MTEXTBEGIN
1070
    73
1070
     1
1070
    44
1040
1.0
1070
    74
1070
     0
1000
MTEXTEND
  0
POINT
  5
29C
330
252
100
AcDbEntity
  8
DEFPOINTS
 62
     0
100
AcDbPoint
 10
11.01372661605689
 20
2.687877325498964
 30
0.0
  0
POINT
  5
29D
330
252
100
AcDbEntity
  8
DEFPOINTS
 62
     0
100
AcDbPoint
 10
10.75818686604587
 20
0.6878773254989642
 30
0.0
  0
POINT
  5
29E
330
252
100
AcDbEntity
  8
DEFPOINTS
 62
     0
100
AcDbPoint
 10
10.28088119300015
 20
0.6878773254989643
 30
0.0
  0
ENDBLK
  5
25E
330
252
100
AcDbEntity
  8
0
 62
     3
100
AcDbBlockEnd
  0
BLOCK
  5
277
330
26C
100
AcDbEntity
  8
0
 62
     3
100
AcDbBlockBegin
  2
*D5
 70
     1
 10
0.0
 20
0.0
 30
0.0
  3
*D5
  1

  0
LINE
  5
28B
330
26C
100
AcDbEntity
  8
ADPDIM
 62
     0
370
    -2
100
AcDbLine
 10
11.8066913472086
 20
2.687877325498964
 30
0.0
 11
12.52974425124721
 21
2.687877325498964
 31
0.0
  0
LINE
  5
28C
330
26C
100
AcDbEntity
  8
ADPDIM
 62
     0
370
    -2
100
AcDbLine
 10
12.06889735156773
 20
1.687877325498964
 30
0.0
 11
12.52974425124721
 21
1.687877325498963
 31
0.0
  0
LINE
  5
28D
330
26C
100
AcDbEntity
  8
ADPDIM
 62
     0
370
    -2
100
AcDbLine
 10
12.34974425124721
 20
2.687877325498964
 30
0.0
 11
12.34974425124721
 21
2.333710658832297
 31
0.0
  0
LINE
  5
28E
330
26C
100
AcDbEntity
  8
ADPDIM
 62
     0
370
    -2
100
AcDbLine
 10
12.34974425124721
 20
1.687877325498964
 30
0.0
 11
12.34974425124721
 21
2.04204399216563
 31
0.0
  0
LINE
  5
28F
330
26C
100
AcDbEntity
  8
ADPDIM
 62
     0
370
    -2
100
AcDbLine
 10
12.47474425124721
 20
1.562877325498964
 30
0.0
 11
12.22474425124721
 21
1.812877325498964
 31
0.0
  0
LINE
  5
290
330
26C
100
AcDbEntity
  8
ADPDIM
 62
     0
370
    -2
100
AcDbLine
 10
12.47474425124721
 20
2.562877325498964
 30
0.0
 11
12.22474425124721
 21
2.812877325498964
 31
0.0
  0
MTEXT
  5
291
330
26C
100
AcDbEntity
  8
ADPDIM
 62
     0
100
AcDbMText
 10
12.34974425124721
 20
2.187877325498965
 30
0.0
 40
0.125
 41
0.0
 71
     5
 72
     1
  1
\A1;1
 11
0.0000000000000001
 21
1.0
 31
0.0
 73
     1
 44
1.0
1001
ACAD
1000
MTEXTBEGIN
1070
    73
1070
     1
1070
    44
1040
1.0
1070
    74
1070
     0
1000
MTEXTEND
  0
POINT
  5
292
330
26C
100
AcDbEntity
  8
DEFPOINTS
 62
     0
100
AcDbPoint
 10
11.7441913472086
 20
2.687877325498964
 30
0.0
  0
POINT
  5
293
330
26C
100
AcDbEntity
  8
DEFPOINTS
 62
     0
100
AcDbPoint
 10
12.00639735156773
 20
1.687877325498964
 30
0.0
  0
POINT
  5
294
330
26C
100
AcDbEntity
  8
DEFPOINTS
 62
     0
100
AcDbPoint
 10
12.34974425124721
 20
1.687877325498964
 30
0.0
  0
ENDBLK
  5
278
330
26C
100
AcDbEntity
  8
0
 62
     3
100
AcDbBlockEnd
  0
ENDSEC
  0
SECTION
  2
ENTITIES
  0
DIMENSION
  5
55
330
1E
100
AcDbEntity
  8
ADPDIM
100
AcDbDimension
  2
*D0
 10
12.00639735156773
 20
0.2454939149384709
 30
0.0
 11
12.63139735156773
 21
0.2454939149384709
 31
0.0
 71
     5
 42
-1.0
100
AcDbAlignedDimension
 13
10.75818686604587
 23
0.2454939149384709
 33
0.0
 14
12.00639735156773
 24
1.739047123284144
 34
0.0
100
AcDbRotatedDimension
  0
LINE
  5
56
330
1E
100
AcDbEntity
  8
ADP2DETAIL
  6
HIDDEN2
100
AcDbLine
 10
10.88547150503191
 20
1.739047123284144
 30
0.0
 11
10.88547150503191
 21
0.7898510234148421
 31
0.0
  0
LINE
  5
57
330
1E
100
AcDbEntity
  8
ADP1DETAIL
100
AcDbLine
 10
10.75818686604587
 20
0.6878773254989642
 30
0.0
 11
12.00639735156773
 21
1.687877325498964
 31
0.0
  0
LINE
  5
58
330
1E
100
AcDbEntity
  8
ADP1DETAIL
100
AcDbLine
 10
10.75818686604587
 20
1.983476449381638
 30
0.0
 11
10.75818686604587
 21
0.6878773254989642
 31
0.0
  0
LWPOLYLINE
  5
59
330
1E
100
AcDbEntity
  8
ADP1DETAIL
100
AcDbPolyline
 90
        4
 70
     1
 43
0.0
 10
11.13242273959332
 20
3.495172364582654
 10
11.13242273959332
 20
3.995172364582655
 10
11.63242273959332
 20
3.995172364582655
 10
11.63242273959332
 20
3.495172364582654
  0
LWPOLYLINE
  5
5F
330
1E
100
AcDbEntity
  8
ADP1DETAIL
100
AcDbPolyline
 90
        4
 70
     1
 43
0.0
 10
11.00742273959332
 20
3.370172364582654
 10
11.00742273959332
 20
4.120172364582655
 10
11.75742273959332
 20
4.120172364582655
 10
11.75742273959332
 20
3.370172364582654
  0
LWPOLYLINE
  5
65
330
1E
100
AcDbEntity
  8
ADP1DETAIL
100
AcDbPolyline
 90
        4
 70
     1
 43
0.0
 10
10.75742273959332
 20
3.120172364582654
 10
10.75742273959332
 20
4.370172364582655
 10
12.00742273959332
 20
4.370172364582655
 10
12.00742273959332
 20
3.120172364582654
  0
LWPOLYLINE
  5
6B
330
1E
100
AcDbEntity
  8
ADP1DETAIL
100
AcDbPolyline
 90
        4
 70
     1
 43
0.0
 10
10.85117273959332
 20
3.213922364582654
 10
10.85117273959332
 20
4.276422364582655
 10
11.91367273959332
 20
4.276422364582655
 10
11.91367273959332
 20
3.213922364582654
  0
LINE
  5
71
330
1E
100
AcDbEntity
  8
ADP2DETAIL
  6
HIDDEN2
100
AcDbLine
 10
11.1291008652451
 20
1.739047123284144
 30
0.0
 11
10.88547150503191
 21
1.739047123284144
 31
0.0
  0
DIMENSION
  5
72
330
1E
100
AcDbEntity
  8
ADPDIM
100
AcDbDimension
  2
*D1
 10
11.6291008652451
 20
2.851972912747927
 30
0.0
 11
12.14993419857844
 21
2.851972912747927
 31
0.0
 71
     5
 42
-1.0
100
AcDbAlignedDimension
 13
11.1291008652451
 23
2.687877325498964
 33
0.0
 14
11.6291008652451
 24
2.687877325498964
 34
0.0
100
AcDbRotatedDimension
  0
LINE
  5
73
330
1E
100
AcDbEntity
  8
ADP1DETAIL
100
AcDbLine
 10
10.84707025735405
 20
2.487889695055559
 30
0.0
 11
11.91529187547684
 21
2.487889695055559
 31
0.0
  0
LINE
  5
74
330
1E
100
AcDbEntity
  8
ADP1DETAIL
100
AcDbLine
 10
12.00639735156773
 20
1.983476449381638
 30
0.0
 11
10.75374269648047
 21
1.983476449381638
 31
0.0
  0
LINE
  5
75
330
1E
100
AcDbEntity
  8
ADP1DETAIL
100
AcDbLine
 10
12.00639735156773
 20
1.983476449381638
 30
0.0
 11
10.75818686604587
 21
1.983476449381638
 31
0.0
  0
LINE
  5
76
330
1E
100
AcDbEntity
  8
ADP1DETAIL
100
AcDbLine
 10
11.91529187547684
 20
2.536775560275057
 30
0.0
 11
10.84262608778864
 21
2.536775560275057
 31
0.0
  0
LWPOLYLINE
  5
77
330
1E
100
AcDbEntity
  8
ADP1DETAIL
100
AcDbPolyline
 90
        3
 70
     0
 43
0.0
 10
10.84707025735405
 20
2.487889695055559
 42
-0.4736476781549209
 10
10.93373156387953
 20
2.134578214605545
 42
-0.0867611836985002
 10
10.75596478126317
 20
1.983476449381638
 42
3.674619629186882
  0
LINE
  5
7C
330
1E
100
AcDbEntity
  8
ADP1DETAIL
100
AcDbLine
 10
10.84262608778864
 20
2.536775560275057
 30
0.0
 11
11.01372661605689
 21
2.687877325498964
 31
0.0
  0
LINE
  5
7D
330
1E
100
AcDbEntity
  8
ADP1DETAIL
100
AcDbLine
 10
10.84707025735405
 20
2.536775560275057
 30
0.0
 11
10.84707025735405
 21
2.487889695055559
 31
0.0
  0
LINE
  5
7E
330
1E
100
AcDbEntity
  8
ADP2DETAIL
  6
HIDDEN2
100
AcDbLine
 10
11.6291008652451
 20
2.687877325498964
 30
0.0
 11
11.6291008652451
 21
1.739047123284144
 31
0.0
  0
LINE
  5
7F
330
1E
100
AcDbEntity
  8
ADP2DETAIL
  6
HIDDEN2
100
AcDbLine
 10
11.1291008652451
 20
2.687877325498964
 30
0.0
 11
11.1291008652451
 21
1.739047123284144
 31
0.0
  0
LINE
  5
80
330
1E
100
AcDbEntity
  8
ADP1DETAIL
100
AcDbLine
 10
11.91529187547684
 20
2.487889695055559
 30
0.0
 11
11.91529187547684
 21
2.536775560275057
 31
0.0
  0
LINE
  5
81
330
1E
100
AcDbEntity
  8
ADP1DETAIL
100
AcDbLine
 10
11.91529187547684
 20
2.536775560275057
 30
0.0
 11
11.91529187547684
 21
2.487889695055559
 31
0.0
  0
LINE
  5
82
330
1E
100
AcDbEntity
  8
ADP2DETAIL
  6
HIDDEN2
100
AcDbLine
 10
11.6291008652451
 20
1.739047123284144
 30
0.0
 11
11.8297580817089
 21
1.739047123284144
 31
0.0
  0
LINE
  5
83
330
1E
100
AcDbEntity
  8
ADP1DETAIL
100
AcDbLine
 10
12.00639735156773
 20
1.687877325498964
 30
0.0
 11
12.00639735156773
 21
1.983476449381638
 31
0.0
  0
LINE
  5
84
330
1E
100
AcDbEntity
  8
ADP2DETAIL
  6
HIDDEN2
100
AcDbLine
 10
11.8297580817089
 20
1.739047123284144
 30
0.0
 11
11.8297580817089
 21
1.518226057495546
 31
0.0
  0
LINE
  5
85
330
1E
100
AcDbEntity
  8
ADP1DETAIL
100
AcDbLine
 10
12.00639735156773
 20
1.739047123284144
 30
0.0
 11
12.00639735156773
 21
1.739047123284144
 31
0.0
  0
LWPOLYLINE
  5
86
330
1E
100
AcDbEntity
  8
ADP1DETAIL
100
AcDbPolyline
 90
        3
 70
     0
 43
0.0
 10
11.91529187547684
 20
2.487889695055559
 42
0.4736476781549209
 10
11.82863056895137
 20
2.134578214605545
 42
0.0867611836985002
 10
12.00639735156773
 20
1.983476449381638
 42
-3.674619629186882
  0
LINE
  5
8B
102
{ACAD_REACTORS
330
26A
102
}
330
1E
100
AcDbEntity
  8
ADP1DETAIL
100
AcDbLine
 10
11.01372661605689
 20
2.687877325498964
 30
0.0
 11
11.7441913472086
 21
2.687877325498964
 31
0.0
  0
LINE
  5
8C
102
{ACAD_REACTORS
330
284
102
}
330
1E
100
AcDbEntity
  8
ADP1DETAIL
100
AcDbLine
 10
11.7441913472086
 20
2.687877325498964
 30
0.0
 11
11.91529187547684
 21
2.536775560275057
 31
0.0
  0
TEXT
  5
146
330
1E
100
AcDbEntity
  8
ADPDIM
100
AcDbText
 10
6.538246409443251
 20
-0.358050481223085
 30
0.0
 40
0.09375
  1
J U L I U S  B L U M  &  C O . ,  I N C .      ( 8 0 0 )  5 2 6 - 6 2 9 3        W W W . J U L I U S B L U M . C O M        P A R T  N O .  2 6 2
 41
1.25
  7
ARIAL_WIDE
 72
     1
 11
11.38242273959332
 21
-0.264300481223085
 31
0.0
100
AcDbText
 73
     3
  0
DIMENSION
  5
251
102
{ACAD_XDICTIONARY
360
25F
102
}
102
{ACAD_REACTORS
330
26A
102
}
330
1E
100
AcDbEntity
  8
ADPDIM
 62
     3
100
AcDbDimension
  2
*D4
 10
10.28088119300015
 20
0.6878773254989643
 30
0.0
 11
10.28088119300015
 21
1.687877325498966
 31
0.0
 70
    32
 71
     5
 42
2.0
  3
Standard
100
AcDbAlignedDimension
 13
11.01372661605689
 23
2.687877325498964
 33
0.0
 14
10.75818686604587
 24
0.6878773254989642
 34
0.0
 50
90.0
100
AcDbRotatedDimension
1001
ACAD
1000
DSTYLE
1002
{
1070
    41
1040
0.125
1070
    73
1070
     0
1070
    74
1070
     0
1070
    78
1070
     3
1070
   140
1040
0.125
1070
   141
1040
0.1875
1070
   142
1040
0.125
1070
   147
1040
0.125
1070
   171
1070
     1
1070
   273
1070
     5
1070
   274
1070
     1
1070
   277
1070
     5
1070
   279
1070
     2
1070
   284
1070
     3
1070
   285
1070
     3
1070
   286
1070
     3
1002
}
  0
DIMENSION
  5
26B
102
{ACAD_XDICTIONARY
360
279
102
}
102
{ACAD_REACTORS
330
284
102
}
330
1E
100
AcDbEntity
  8
ADPDIM
 62
     3
100
AcDbDimension
  2
*D5
 10
12.34974425124721
 20
1.687877325498964
 30
0.0
 11
12.34974425124721
 21
2.187877325498965
 31
0.0
 70
    32
 71
     5
  3
Standard
100
AcDbAlignedDimension
 13
11.7441913472086
 23
2.687877325498964
 33
0.0
 14
12.00639735156773
 24
1.687877325498964
 34
0.0
 50
90.0
100
AcDbRotatedDimension
1001
ACAD
1000
DSTYLE
1002
{
1070
    41
1040
0.125
1070
    73
1070
     0
1070
    74
1070
     0
1070
    78
1070
     3
1070
   140
1040
0.125
1070
   141
1040
0.1875
1070
   142
1040
0.125
1070
   147
1040
0.125
1070
   171
1070
     1
1070
   273
1070
     5
1070
   274
1070
     1
1070
   277
1070
     5
1070
   279
1070
     2
1070
   284
1070
     3
1070
   285
1070
     3
1070
   286
1070
     3
1002
}
  0
ENDSEC
  0
SECTION
  2
OBJECTS
  0
DICTIONARY
  5
C
330
0
100
AcDbDictionary
281
     1
  3
ACAD_COLOR
350
23D
  3
ACAD_GROUP
350
D
  3
ACAD_LAYOUT
350
19
  3
ACAD_MATERIAL
350
228
  3
ACAD_MLINESTYLE
350
16
  3
ACAD_PLOTSETTINGS
350
18
  3
ACAD_PLOTSTYLENAME
350
E
  3
ACAD_TABLESTYLE
350
23E
  3
ACAD_VISUALSTYLE
350
22C
  3
AcDbVariableDictionary
350
105
  3
ASE_INDEX_DICTIONARY
350
2A0
  3
DWGPROPS
350
2C2
  0
DICTIONARY
  5
D0
330
1E
100
AcDbDictionary
280
     1
281
     1
  3
ACAD_LAYOUTSELFREF
360
224
  0
DICTIONARY
  5
D2
330
1A
100
AcDbDictionary
280
     1
281
     1
  3
ACAD_LAYOUTSELFREF
360
223
  0
DICTIONARY
  5
25F
330
251
100
AcDbDictionary
280
     1
281
     1
  3
ACAD_DIMASSOC
360
26A
  0
DICTIONARY
  5
279
330
26B
100
AcDbDictionary
280
     1
281
     1
  3
ACAD_DIMASSOC
360
284
  0
DICTIONARY
  5
23D
102
{ACAD_REACTORS
330
C
102
}
330
C
100
AcDbDictionary
281
     1
  0
DICTIONARY
  5
D
102
{ACAD_REACTORS
330
C
102
}
330
C
100
AcDbDictionary
281
     1
  0
DICTIONARY
  5
19
102
{ACAD_REACTORS
330
C
102
}
330
C
100
AcDbDictionary
281
     1
  3
Layout1
350
1D
  3
Model
350
21
  0
DICTIONARY
  5
228
102
{ACAD_REACTORS
330
C
102
}
330
C
100
AcDbDictionary
281
     1
  3
ByBlock
350
22A
  3
ByLayer
350
229
  3
Global
350
22B
  0
DICTIONARY
  5
16
102
{ACAD_REACTORS
330
C
102
}
330
C
100
AcDbDictionary
281
     1
  3
Standard
350
17
  0
DICTIONARY
  5
18
102
{ACAD_REACTORS
330
C
102
}
330
C
100
AcDbDictionary
281
     1
  0
ACDBDICTIONARYWDFLT
  5
E
102
{ACAD_REACTORS
330
C
102
}
330
C
100
AcDbDictionary
281
     1
  3
Normal
350
F
100
AcDbDictionaryWithDefault
340
F
  0
DICTIONARY
  5
23E
102
{ACAD_REACTORS
330
C
102
}
330
C
100
AcDbDictionary
281
     1
  3
Standard
350
23F
  0
DICTIONARY
  5
22C
102
{ACAD_REACTORS
330
C
102
}
330
C
100
AcDbDictionary
281
     1
  3
2dWireframe
350
232
  3
3D Hidden
350
234
  3
3dWireframe
350
233
  3
Basic
350
231
  3
Brighten
350
238
  3
ColorChange
350
23C
  3
Conceptual
350
235
  3
Dim
350
237
  3
Facepattern
350
23B
  3
Flat
350
22D
  3
FlatWithEdges
350
22E
  3
Gouraud
350
22F
  3
GouraudWithEdges
350
230
  3
Linepattern
350
23A
  3
Realistic
350
236
  3
Thicken
350
239
  0
DICTIONARY
  5
105
102
{ACAD_REACTORS
330
C
102
}
330
C
100
AcDbDictionary
281
     1
  3
CTABLESTYLE
350
2BF
  3
DIMASSOC
350
107
  3
HIDETEXT
350
106
  3
INDEXCTL
350
2C1
  3
SORTENTS
350
2C0
  0
DICTIONARY
  5
2A0
102
{ACAD_REACTORS
330
C
102
}
330
C
100
AcDbDictionary
281
     1
  3
ASEBlockHierarchyIndexRecord
350
2A2
1001
DCO15
1040
1567880853.985
  0
XRECORD
  5
2C2
102
{ACAD_REACTORS
330
C
102
}
330
C
100
AcDbXrecord
280
     1
  1
DWGPROPS COOKIE
  2

  3

  4

  6

  7

  8
Yu Hu
  9

300
=
301
=
302
=
303
=
304
=
305
=
306
=
307
=
308
=
309
=
 40
0.0190952083333333
 41
2450374.558826574
 42
2453949.980995197
  1

 90
        0
  0
XRECORD
  5
224
102
{ACAD_REACTORS
330
D0
102
}
330
D0
100
AcDbXrecord
280
     1
340
1E
  0
XRECORD
  5
223
102
{ACAD_REACTORS
330
D2
102
}
330
D2
100
AcDbXrecord
280
     1
340
1A
  0
DIMASSOC
  5
26A
102
{ACAD_REACTORS
330
25F
102
}
330
25F
100
AcDbDimAssoc
330
251
 90
        1
 70
     0
 71
     0
  1
AcDbOsnapPointRef
 72
    13
331
8B
 73
     2
 91
        0
 40
0.0
 10
0.0
 20
0.0
 30
2.000000000000000E+50
 75
     0
  0
DIMASSOC
  5
284
102
{ACAD_REACTORS
330
279
102
}
330
279
100
AcDbDimAssoc
330
26B
 90
        1
 70
     0
 71
     0
  1
AcDbOsnapPointRef
 72
    13
331
8C
 73
     2
 91
        0
 40
0.0
 10
0.0
 20
0.0
 30
2.000000000000000E+50
 75
     0
  0
LAYOUT
  5
1D
102
{ACAD_XDICTIONARY
360
2C3
102
}
102
{ACAD_REACTORS
330
19
102
}
330
19
100
AcDbPlotSettings
  1

  2
Fax
  4

  6

 40
0.0
 41
0.0
 42
0.0
 43
0.0
 44
0.0
 45
0.0
 46
0.0
 47
0.0
 48
0.0
 49
0.0
140
0.0
141
0.0
142
1.0
143
1.0
 70
   688
 72
     0
 73
     0
 74
     5
  7
Default R14 pen assignments.ctb
 75
    16
147
1.0
148
0.0
149
0.0
100
AcDbLayout
  1
Layout1
 70
     1
 71
     1
 10
0.0
 20
0.0
 11
12.0
 21
9.0
 12
0.0
 22
0.0
 32
0.0
 14
1.000000000000000E+20
 24
1.000000000000000E+20
 34
1.000000000000000E+20
 15
-1.000000000000000E+20
 25
-1.000000000000000E+20
 35
-1.000000000000000E+20
146
0.0
 13
0.0
 23
0.0
 33
0.0
 16
1.0
 26
0.0
 36
0.0
 17
0.0
 27
1.0
 37
0.0
 76
     0
330
1A
  0
LAYOUT
  5
21
102
{ACAD_XDICTIONARY
360
2C5
102
}
102
{ACAD_REACTORS
330
19
102
}
330
19
100
AcDbPlotSettings
  1

  2
Fax
  4

  6

 40
0.0
 41
0.0
 42
0.0
 43
0.0
 44
0.0
 45
0.0
 46
0.0
 47
0.0
 48
0.0
 49
0.0
140
0.0
141
0.0
142
1.0
143
1.0
 70
  1712
 72
     0
 73
     0
 74
     0
  7
Default R14 pen assignments.ctb
 75
     0
147
1.0
148
0.0
149
0.0
100
AcDbLayout
  1
Model
 70
     1
 71
     0
 10
0.0
 20
0.0
 11
12.0
 21
9.0
 12
0.0
 22
0.0
 32
0.0
 14
0.0
 24
0.0
 34
0.0
 15
0.0
 25
0.0
 35
0.0
146
0.0
 13
0.0
 23
0.0
 33
0.0
 16
1.0
 26
0.0
 36
0.0
 17
0.0
 27
1.0
 37
0.0
 76
     0
330
1E
331
1F1
  0
MATERIAL
  5
22A
102
{ACAD_XDICTIONARY
360
2C9
102
}
102
{ACAD_REACTORS
330
228
102
}
330
228
100
AcDbMaterial
  1
ByBlock
  0
MATERIAL
  5
229
102
{ACAD_XDICTIONARY
360
2C7
102
}
102
{ACAD_REACTORS
330
228
102
}
330
228
100
AcDbMaterial
  1
ByLayer
  0
MATERIAL
  5
22B
102
{ACAD_XDICTIONARY
360
2CB
102
}
102
{ACAD_REACTORS
330
228
102
}
330
228
100
AcDbMaterial
  1
Global
  0
MLINESTYLE
  5
17
102
{ACAD_REACTORS
330
16
102
}
330
16
100
AcDbMlineStyle
  2
STANDARD
 70
     0
  3

 62
   256
 51
90.0
 52
90.0
 71
     2
 49
0.5
 62
   256
  6
BYLAYER
 49
-0.5
 62
   256
  6
BYLAYER
  0
ACDBPLACEHOLDER
  5
F
102
{ACAD_REACTORS
330
E
102
}
330
E
  0
TABLESTYLE
  5
23F
102
{ACAD_XDICTIONARY
360
2CD
102
}
102
{ACAD_REACTORS
330
23E
102
}
330
23E
100
AcDbTableStyle
  3
Standard
 70
     0
 71
     0
 40
0.06
 41
0.06
280
     0
281
     0
  7
STANDARD
140
0.18
170
     2
 62
     0
 63
     7
283
     0
274
    -2
284
     1
 64
     0
275
    -2
285
     1
 65
     0
276
    -2
286
     1
 66
     0
277
    -2
287
     1
 67
     0
278
    -2
288
     1
 68
     0
279
    -2
289
     1
 69
     0
  7
STANDARD
140
0.25
170
     5
 62
     0
 63
     7
283
     0
274
    -2
284
     1
 64
     0
275
    -2
285
     1
 65
     0
276
    -2
286
     1
 66
     0
277
    -2
287
     1
 67
     0
278
    -2
288
     1
 68
     0
279
    -2
289
     1
 69
     0
  7
STANDARD
140
0.18
170
     5
 62
     0
 63
     7
283
     0
274
    -2
284
     1
 64
     0
275
    -2
285
     1
 65
     0
276
    -2
286
     1
 66
     0
277
    -2
287
     1
 67
     0
278
    -2
288
     1
 68
     0
279
    -2
289
     1
 69
     0
  0
VISUALSTYLE
  5
232
102
{ACAD_REACTORS
330
22C
102
}
330
22C
100
AcDbVisualStyle
  2
2dWireframe
 70
     4
 71
     0
 72
     2
 73
     0
 90
        0
 40
-0.6
 41
-30.0
 62
     5
 63
     7
 74
     1
 91
        4
 64
     7
 65
   257
 75
     1
175
     1
 42
1.0
 92
        0
 66
   257
 43
1.0
 76
     1
 77
     6
 78
     2
 67
     7
 79
     5
170
     0
171
     0
290
     0
174
     0
 93
        1
 44
0.0
173
     0
291
     0
 45
0.0
1001
ACAD
1000
AcDbSavedByObjectVersion
1070
     0
  0
VISUALSTYLE
  5
234
102
{ACAD_REACTORS
330
22C
102
}
330
22C
100
AcDbVisualStyle
  2
3D Hidden
 70
     6
 71
     1
 72
     2
 73
     2
 90
        0
 40
-0.6
 41
-30.0
 62
     5
 63
     7
 74
     2
 91
        2
 64
     7
 65
   257
 75
     2
175
     1
 42
40.0
 92
        0
 66
   257
 43
1.0
 76
     1
 77
     6
 78
     2
 67
     7
 79
     3
170
     0
171
     0
290
     0
174
     0
 93
        1
 44
0.0
173
     0
291
     0
 45
0.0
1001
ACAD
1000
AcDbSavedByObjectVersion
1070
     0
  0
VISUALSTYLE
  5
233
102
{ACAD_REACTORS
330
22C
102
}
330
22C
100
AcDbVisualStyle
  2
3dWireframe
 70
     5
 71
     0
 72
     2
 73
     0
 90
        0
 40
-0.6
 41
-30.0
 62
     5
 63
     7
 74
     1
 91
        4
 64
     7
 65
   257
 75
     1
175
     1
 42
1.0
 92
        0
 66
   257
 43
1.0
 76
     1
 77
     6
 78
     2
 67
     7
 79
     5
170
     0
171
     0
290
     0
174
     0
 93
        1
 44
0.0
173
     0
291
     0
 45
0.0
1001
ACAD
1000
AcDbSavedByObjectVersion
1070
     0
  0
VISUALSTYLE
  5
231
102
{ACAD_REACTORS
330
22C
102
}
330
22C
100
AcDbVisualStyle
  2
Basic
 70
     7
 71
     1
 72
     0
 73
     1
 90
        0
 40
-0.6
 41
-30.0
 62
     5
 63
     7
 74
     0
 91
        4
 64
     7
 65
   257
 75
     1
175
     1
 42
1.0
 92
        8
 66
     7
 43
1.0
 76
     1
 77
     6
 78
     2
 67
     7
 79
     5
170
     0
171
     0
290
     0
174
     0
 93
        1
 44
0.0
173
     0
291
     1
 45
0.0
1001
ACAD
1000
AcDbSavedByObjectVersion
1070
     0
  0
VISUALSTYLE
  5
238
102
{ACAD_REACTORS
330
22C
102
}
330
22C
100
AcDbVisualStyle
  2
Brighten
 70
    12
 71
     2
 72
     2
 73
     0
 90
        0
 40
-0.6
 41
-30.0
 62
     5
 63
     7
 74
     1
 91
        4
 64
     7
 65
   257
 75
     1
175
     1
 42
1.0
 92
        8
 66
     7
 43
1.0
 76
     1
 77
     6
 78
     2
 67
     7
 79
     5
170
     0
171
     0
290
     0
174
     0
 93
        1
 44
50.0
173
     0
291
     1
 45
0.0
1001
ACAD
1000
AcDbSavedByObjectVersion
1070
     0
  0
VISUALSTYLE
  5
23C
102
{ACAD_REACTORS
330
22C
102
}
330
22C
100
AcDbVisualStyle
  2
ColorChange
 70
    16
 71
     2
 72
     2
 73
     3
 90
        0
 40
-0.6
 41
-30.0
 62
     5
 63
     8
 74
     1
 91
        4
 64
     7
 65
   257
 75
     1
175
     1
 42
1.0
 92
        8
 66
     8
 43
1.0
 76
     1
 77
     6
 78
     2
 67
     7
 79
     5
170
     0
171
     0
290
     0
174
     0
 93
        1
 44
0.0
173
     0
291
     1
 45
0.0
1001
ACAD
1000
AcDbSavedByObjectVersion
1070
     0
  0
VISUALSTYLE
  5
235
102
{ACAD_REACTORS
330
22C
102
}
330
22C
100
AcDbVisualStyle
  2
Conceptual
 70
     9
 71
     3
 72
     2
 73
     0
 90
        0
 40
-0.6
 41
-30.0
 62
     5
 63
     7
 74
     2
 91
        2
 64
     7
 65
   257
 75
     1
175
     1
 42
40.0
 92
        8
 66
     7
 43
1.0
 76
     1
 77
     6
 78
     2
 67
     7
 79
     3
170
     0
171
     0
290
     0
174
     0
 93
        1
 44
0.0
173
     0
291
     0
 45
0.0
1001
ACAD
1000
AcDbSavedByObjectVersion
1070
     0
  0
VISUALSTYLE
  5
237
102
{ACAD_REACTORS
330
22C
102
}
330
22C
100
AcDbVisualStyle
  2
Dim
 70
    11
 71
     2
 72
     2
 73
     0
 90
        0
 40
-0.6
 41
-30.0
 62
     5
 63
     7
 74
     1
 91
        4
 64
     7
 65
   257
 75
     1
175
     1
 42
1.0
 92
        8
 66
     7
 43
1.0
 76
     1
 77
     6
 78
     2
 67
     7
 79
     5
170
     0
171
     0
290
     0
174
     0
 93
        1
 44
-50.0
173
     0
291
     1
 45
0.0
1001
ACAD
1000
AcDbSavedByObjectVersion
1070
     0
  0
VISUALSTYLE
  5
23B
102
{ACAD_REACTORS
330
22C
102
}
330
22C
100
AcDbVisualStyle
  2
Facepattern
 70
    15
 71
     2
 72
     2
 73
     0
 90
        0
 40
-0.6
 41
-30.0
 62
     5
 63
     7
 74
     1
 91
        4
 64
     7
 65
   257
 75
     1
175
     1
 42
1.0
 92
        8
 66
     7
 43
1.0
 76
     1
 77
     6
 78
     2
 67
     7
 79
     5
170
     0
171
     0
290
     0
174
     0
 93
        1
 44
0.0
173
     0
291
     1
 45
0.0
1001
ACAD
1000
AcDbSavedByObjectVersion
1070
     0
  0
VISUALSTYLE
  5
22D
102
{ACAD_REACTORS
330
22C
102
}
330
22C
100
AcDbVisualStyle
  2
Flat
 70
     0
 71
     2
 72
     1
 73
     1
 90
        2
 40
-0.6
 41
30.0
 62
     5
 63
     7
 74
     0
 91
        4
 64
     7
 65
   257
 75
     1
175
     1
 42
1.0
 92
        8
 66
     7
 43
1.0
 76
     1
 77
     6
 78
     2
 67
     7
 79
     5
170
     0
171
     0
290
     0
174
     0
 93
       13
 44
0.0
173
     0
291
     1
 45
0.0
1001
ACAD
1000
AcDbSavedByObjectVersion
1070
     0
  0
VISUALSTYLE
  5
22E
102
{ACAD_REACTORS
330
22C
102
}
330
22C
100
AcDbVisualStyle
  2
FlatWithEdges
 70
     1
 71
     2
 72
     1
 73
     1
 90
        2
 40
-0.6
 41
30.0
 62
     5
 63
     7
 74
     1
 91
        4
 64
     7
 65
   257
 75
     1
175
     1
 42
1.0
 92
        0
 66
   257
 43
1.0
 76
     1
 77
     6
 78
     2
 67
     7
 79
     5
170
     0
171
     0
290
     0
174
     0
 93
       13
 44
0.0
173
     0
291
     1
 45
0.0
1001
ACAD
1000
AcDbSavedByObjectVersion
1070
     0
  0
VISUALSTYLE
  5
22F
102
{ACAD_REACTORS
330
22C
102
}
330
22C
100
AcDbVisualStyle
  2
Gouraud
 70
     2
 71
     2
 72
     2
 73
     1
 90
        2
 40
-0.6
 41
30.0
 62
     5
 63
     7
 74
     0
 91
        4
 64
     7
 65
   257
 75
     1
175
     1
 42
1.0
 92
        0
 66
     7
 43
1.0
 76
     1
 77
     6
 78
     2
 67
     7
 79
     5
170
     0
171
     0
290
     0
174
     0
 93
       13
 44
0.0
173
     0
291
     1
 45
0.0
1001
ACAD
1000
AcDbSavedByObjectVersion
1070
     0
  0
VISUALSTYLE
  5
230
102
{ACAD_REACTORS
330
22C
102
}
330
22C
100
AcDbVisualStyle
  2
GouraudWithEdges
 70
     3
 71
     2
 72
     2
 73
     1
 90
        2
 40
-0.6
 41
30.0
 62
     5
 63
     7
 74
     1
 91
        4
 64
     7
 65
   257
 75
     1
175
     1
 42
1.0
 92
        0
 66
   257
 43
1.0
 76
     1
 77
     6
 78
     2
 67
     7
 79
     5
170
     0
171
     0
290
     0
174
     0
 93
       13
 44
0.0
173
     0
291
     1
 45
0.0
1001
ACAD
1000
AcDbSavedByObjectVersion
1070
     0
  0
VISUALSTYLE
  5
23A
102
{ACAD_REACTORS
330
22C
102
}
330
22C
100
AcDbVisualStyle
  2
Linepattern
 70
    14
 71
     2
 72
     2
 73
     0
 90
        0
 40
-0.6
 41
-30.0
 62
     5
 63
     7
 74
     1
 91
        4
 64
     7
 65
   257
 75
     7
175
     7
 42
1.0
 92
        8
 66
     7
 43
1.0
 76
     1
 77
     6
 78
     2
 67
     7
 79
     5
170
     0
171
     0
290
     0
174
     0
 93
        1
 44
0.0
173
     0
291
     1
 45
0.0
1001
ACAD
1000
AcDbSavedByObjectVersion
1070
     0
  0
VISUALSTYLE
  5
236
102
{ACAD_REACTORS
330
22C
102
}
330
22C
100
AcDbVisualStyle
  2
Realistic
 70
     8
 71
     2
 72
     2
 73
     0
 90
        0
 40
-0.6
 41
-30.0
 62
     5
 63
     7
 74
     1
 91
        0
 64
     7
 65
   257
 75
     1
175
     1
 42
1.0
 92
        8
 66
     8
 43
1.0
 76
     1
 77
     6
 78
     2
 67
     7
 79
     5
170
     0
171
     0
290
     0
174
     0
 93
       13
 44
0.0
173
     0
291
     0
 45
0.0
1001
ACAD
1000
AcDbSavedByObjectVersion
1070
     0
  0
VISUALSTYLE
  5
239
102
{ACAD_REACTORS
330
22C
102
}
330
22C
100
AcDbVisualStyle
  2
Thicken
 70
    13
 71
     2
 72
     2
 73
     0
 90
        0
 40
-0.6
 41
-30.0
 62
     5
 63
     7
 74
     1
 91
        4
 64
     7
 65
   257
 75
     1
175
     1
 42
1.0
 92
       12
 66
     7
 43
1.0
 76
     1
 77
     6
 78
     2
 67
     7
 79
     5
170
     0
171
     0
290
     0
174
     0
 93
        1
 44
0.0
173
     0
291
     1
 45
0.0
1001
ACAD
1000
AcDbSavedByObjectVersion
1070
     0
  0
DICTIONARYVAR
  5
2BF
102
{ACAD_REACTORS
330
105
102
}
330
105
100
DictionaryVariables
280
     0
  1
STANDARD
  0
DICTIONARYVAR
  5
107
102
{ACAD_REACTORS
330
105
102
}
330
105
100
DictionaryVariables
280
     0
  1
2
  0
DICTIONARYVAR
  5
106
102
{ACAD_REACTORS
330
105
102
}
330
105
100
DictionaryVariables
280
     0
  1
1
  0
DICTIONARYVAR
  5
2C1
102
{ACAD_REACTORS
330
105
102
}
330
105
100
DictionaryVariables
280
     0
  1
0
  0
DICTIONARYVAR
  5
2C0
102
{ACAD_REACTORS
330
105
102
}
330
105
100
DictionaryVariables
280
     0
  1
127
  0
XRECORD
  5
2A2
102
{ACAD_REACTORS
330
2A0
102
}
330
2A0
100
AcDbXrecord
280
     1
  0
DICTIONARY
  5
2C3
330
1D
100
AcDbDictionary
280
     1
281
     1
  3
ACAD_XREC_ROUNDTRIP
360
2C4
  0
DICTIONARY
  5
2C5
330
21
100
AcDbDictionary
280
     1
281
     1
  3
ACAD_XREC_ROUNDTRIP
360
2C6
  0
DICTIONARY
  5
2C9
330
22A
100
AcDbDictionary
280
     1
281
     1
  3
ACAD_XREC_ROUNDTRIP
360
2CA
  0
DICTIONARY
  5
2C7
330
229
100
AcDbDictionary
280
     1
281
     1
  3
ACAD_XREC_ROUNDTRIP
360
2C8
  0
DICTIONARY
  5
2CB
330
22B
100
AcDbDictionary
280
     1
281
     1
  3
ACAD_XREC_ROUNDTRIP
360
2CC
  0
DICTIONARY
  5
2CD
330
23F
100
AcDbDictionary
280
     1
281
     1
  3
ACAD_XREC_ROUNDTRIP
360
2CE
  0
XRECORD
  5
2C4
102
{ACAD_REACTORS
330
2C3
102
}
330
2C3
100
AcDbXrecord
280
     1
102
SHADEPLOT
 70
     0
102
SHADEPLOTRESLEVEL
 70
     2
102
SHADEPLOTCUSTOMDPI
 70
   300
  0
XRECORD
  5
2C6
102
{ACAD_REACTORS
330
2C5
102
}
330
2C5
100
AcDbXrecord
280
     1
102
SHADEPLOT
 70
     0
102
SHADEPLOTRESLEVEL
 70
     2
102
SHADEPLOTCUSTOMDPI
 70
   300
  0
XRECORD
  5
2CA
102
{ACAD_REACTORS
330
2C9
102
}
330
2C9
100
AcDbXrecord
280
     1
102
MATERIAL
148
0.0
149
0.0
149
0.0
 93
        0
 94
       63
282
     0
 72
     1
 77
     1
171
     1
175
     1
179
     1
273
     0
  0
XRECORD
  5
2C8
102
{ACAD_REACTORS
330
2C7
102
}
330
2C7
100
AcDbXrecord
280
     1
102
MATERIAL
148
0.0
149
0.0
149
0.0
 93
        0
 94
       63
282
     0
 72
     1
 77
     1
171
     1
175
     1
179
     1
273
     0
  0
XRECORD
  5
2CC
102
{ACAD_REACTORS
330
2CB
102
}
330
2CB
100
AcDbXrecord
280
     1
102
MATERIAL
148
0.0
149
0.0
149
0.0
 93
        0
 94
       63
282
     0
 72
     1
 77
     1
171
     1
175
     1
179
     1
273
     0
  0
XRECORD
  5
2CE
102
{ACAD_REACTORS
330
2CD
102
}
330
2CD
100
AcDbXrecord
280
     1
102
ACAD_ROUNDTRIP_PRE2007_TABLESTYLE
 90
      512
 91
        0
  1

 92
      512
 93
        0
  2

 94
      512
 95
        0
  3

  0
ENDSEC
  0
EOF
