  0
SECTION
  2
HEADER
  9
$ACADVER
  1
AC1014
  9
$ACADMAINTVER
 70
     9
  9
$DWGCODEPAGE
  3
ANSI_1252
  9
$INSBASE
 10
19.58921266981821
 20
15.53841685582809
 30
0.0
  9
$EXTMIN
 10
11.88031089628479
 20
14.17418010913443
 30
0.0
  9
$EXTMAX
 10
24.79811444335164
 20
20.04061031078251
 30
0.0
  9
$LIMMIN
 10
0.0
 20
0.0
  9
$LIMMAX
 10
36.0
 20
36.0
  9
$ORTHOMODE
 70
     1
  9
$REGENMODE
 70
     1
  9
$FILLMODE
 70
     1
  9
$QTEXTMODE
 70
     0
  9
$MIRRTEXT
 70
     1
  9
$DRAGMODE
 70
     0
  9
$LTSCALE
 40
1.0
  9
$OSMODE
 70
    37
  9
$ATTMODE
 70
     1
  9
$TEXTSIZE
 40
0.2
  9
$TRACEWID
 40
0.05
  9
$TEXTSTYLE
  7
STANDARD
  9
$CLAYER
  8
ADP1DETAIL
  9
$CELTYPE
  6
BYLAYER
  9
$CECOLOR
 62
   256
  9
$CELTSCALE
 40
1.0
  9
$DELOBJ
 70
     1
  9
$DISPSILH
 70
     0
  9
$DIMSCALE
 40
1.0
  9
$DIMASZ
 40
0.125
  9
$DIMEXO
 40
0.0625
  9
$DIMDLI
 40
0.38
  9
$DIMRND
 40
0.0
  9
$DIMDLE
 40
0.0
  9
$DIMEXE
 40
0.18
  9
$DIMTP
 40
0.0
  9
$DIMTM
 40
0.0
  9
$DIMTXT
 40
0.125
  9
$DIMCEN
 40
0.1875
  9
$DIMTSZ
 40
0.125
  9
$DIMTOL
 70
     0
  9
$DIMLIM
 70
     0
  9
$DIMTIH
 70
     0
  9
$DIMTOH
 70
     0
  9
$DIMSE1
 70
     0
  9
$DIMSE2
 70
     0
  9
$DIMTAD
 70
     0
  9
$DIMZIN
 70
     3
  9
$DIMBLK
  1

  9
$DIMASO
 70
     1
  9
$DIMSHO
 70
     1
  9
$DIMPOST
  1

  9
$DIMAPOST
  1

  9
$DIMALT
 70
     0
  9
$DIMALTD
 70
     1
  9
$DIMALTF
 40
25.4
  9
$DIMLFAC
 40
1.0
  9
$DIMTOFL
 70
     0
  9
$DIMTVP
 40
0.0
  9
$DIMTIX
 70
     0
  9
$DIMSOXD
 70
     0
  9
$DIMSAH
 70
     0
  9
$DIMBLK1
  1

  9
$DIMBLK2
  1

  9
$DIMSTYLE
  2
STANDARD
  9
$DIMCLRD
 70
     0
  9
$DIMCLRE
 70
     0
  9
$DIMCLRT
 70
     0
  9
$DIMTFAC
 40
1.0
  9
$DIMGAP
 40
0.125
  9
$DIMJUST
 70
     0
  9
$DIMSD1
 70
     0
  9
$DIMSD2
 70
     0
  9
$DIMTOLJ
 70
     1
  9
$DIMTZIN
 70
     0
  9
$DIMALTZ
 70
     0
  9
$DIMALTTZ
 70
     0
  9
$DIMFIT
 70
     3
  9
$DIMUPT
 70
     0
  9
$DIMUNIT
 70
     2
  9
$DIMDEC
 70
     4
  9
$DIMTDEC
 70
     4
  9
$DIMALTU
 70
     2
  9
$DIMALTTD
 70
     2
  9
$DIMTXSTY
  7
STANDARD
  9
$DIMAUNIT
 70
     0
  9
$LUNITS
 70
     5
  9
$LUPREC
 70
     4
  9
$SKETCHINC
 40
0.1
  9
$FILLETRAD
 40
0.0
  9
$AUNITS
 70
     0
  9
$AUPREC
 70
     0
  9
$MENU
  1
acad
  9
$ELEVATION
 40
0.0
  9
$PELEVATION
 40
0.0
  9
$THICKNESS
 40
0.0
  9
$LIMCHECK
 70
     0
  9
$BLIPMODE
 70
     0
  9
$CHAMFERA
 40
0.0
  9
$CHAMFERB
 40
0.0
  9
$CHAMFERC
 40
0.0
  9
$CHAMFERD
 40
0.0
  9
$SKPOLY
 70
     0
  9
$TDCREATE
 40
2450374.583848958
  9
$TDUPDATE
 40
2452297.065964618
  9
$TDINDWG
 40
0.0168153125
  9
$TDUSRTIMER
 40
0.0168153125
  9
$USRTIMER
 70
     1
  9
$ANGBASE
 50
0.0
  9
$ANGDIR
 70
     0
  9
$PDMODE
 70
     0
  9
$PDSIZE
 40
0.0
  9
$PLINEWID
 40
0.0
  9
$COORDS
 70
     2
  9
$SPLFRAME
 70
     0
  9
$SPLINETYPE
 70
     6
  9
$SPLINESEGS
 70
     8
  9
$ATTDIA
 70
     0
  9
$ATTREQ
 70
     1
  9
$HANDLING
 70
 22529
  9
$HANDSEED
  5
38F
  9
$SURFTAB1
 70
     6
  9
$SURFTAB2
 70
     6
  9
$SURFTYPE
 70
     6
  9
$SURFU
 70
     6
  9
$SURFV
 70
     6
  9
$UCSNAME
  2

  9
$UCSORG
 10
0.0
 20
0.0
 30
0.0
  9
$UCSXDIR
 10
1.0
 20
0.0
 30
0.0
  9
$UCSYDIR
 10
0.0
 20
1.0
 30
0.0
  9
$PUCSNAME
  2

  9
$PUCSORG
 10
0.0
 20
0.0
 30
0.0
  9
$PUCSXDIR
 10
1.0
 20
0.0
 30
0.0
  9
$PUCSYDIR
 10
0.0
 20
1.0
 30
0.0
  9
$USERI1
 70
     0
  9
$USERI2
 70
     0
  9
$USERI3
 70
     0
  9
$USERI4
 70
     0
  9
$USERI5
 70
     0
  9
$USERR1
 40
0.0
  9
$USERR2
 40
0.0
  9
$USERR3
 40
0.0
  9
$USERR4
 40
0.0
  9
$USERR5
 40
0.0
  9
$WORLDVIEW
 70
     1
  9
$SHADEDGE
 70
     3
  9
$SHADEDIF
 70
    70
  9
$TILEMODE
 70
     1
  9
$MAXACTVP
 70
    15
  9
$PINSBASE
 10
0.0
 20
0.0
 30
0.0
  9
$PLIMCHECK
 70
     0
  9
$PEXTMIN
 10
1.000000000000000E+20
 20
1.000000000000000E+20
 30
1.000000000000000E+20
  9
$PEXTMAX
 10
-1.000000000000000E+20
 20
-1.000000000000000E+20
 30
-1.000000000000000E+20
  9
$PLIMMIN
 10
0.0
 20
0.0
  9
$PLIMMAX
 10
12.0
 20
9.0
  9
$UNITMODE
 70
     0
  9
$VISRETAIN
 70
     0
  9
$PLINEGEN
 70
     0
  9
$PSLTSCALE
 70
     1
  9
$TREEDEPTH
 70
  3020
  9
$PICKSTYLE
 70
     1
  9
$CMLSTYLE
  2
STANDARD
  9
$CMLJUST
 70
     0
  9
$CMLSCALE
 40
1.0
  9
$PROXYGRAPHICS
 70
     1
  9
$MEASUREMENT
 70
     0
  0
ENDSEC
  0
SECTION
  2
CLASSES
  0
CLASS
  1
ACDBDICTIONARYWDFLT
  2
AcDbDictionaryWithDefault
  3
AutoCAD 2000
 90
        0
280
     0
281
     0
  0
CLASS
  1
ACDBPLACEHOLDER
  2
AcDbPlaceHolder
  3
AutoCAD 2000
 90
        0
280
     0
281
     0
  0
CLASS
  1
LAYOUT
  2
AcDbLayout
  3
AutoCAD 2000
 90
        0
280
     0
281
     0
  0
CLASS
  1
DICTIONARYVAR
  2
AcDbDictionaryVar
  3
AutoCAD 2000
 90
        0
280
     0
281
     0
  0
CLASS
  1
LONG_TRANSACTION
  2
AcDbLongTransaction
  3
AutoCAD 2000
 90
        0
280
     0
281
     0
  0
CLASS
  1
LWPOLYLINE
  2
AcDbPolyline
  3
AutoCAD 2000
 90
        0
280
     0
281
     1
  0
CLASS
  1
HATCH
  2
AcDbHatch
  3
AutoCAD 2000
 90
        0
280
     0
281
     1
  0
CLASS
  1
XRECORD
  2
AcDbXrecord
  3
AutoCAD 2000
 90
        0
280
     0
281
     0
  0
CLASS
  1
LONG_TRANSACTION
  2
AcDbLongTransaction
  3
AutoCAD 2000
 90
        0
280
     0
281
     0
  0
CLASS
  1
LWPOLYLINE
  2
AcDbPolyline
  3
AutoCAD 2000
 90
        0
280
     0
281
     1
  0
CLASS
  1
HATCH
  2
AcDbHatch
  3
AutoCAD 2000
 90
        0
280
     0
281
     1
  0
CLASS
  1
XRECORD
  2
AcDbXrecord
  3
AutoCAD 2000
 90
        0
280
     0
281
     0
  0
CLASS
  1
LONG_TRANSACTION
  2
AcDbLongTransaction
  3
AutoCAD 2000
 90
        0
280
     0
281
     0
  0
CLASS
  1
LWPOLYLINE
  2
AcDbPolyline
  3
AutoCAD 2000
 90
        0
280
     0
281
     1
  0
CLASS
  1
HATCH
  2
AcDbHatch
  3
AutoCAD 2000
 90
        0
280
     0
281
     1
  0
CLASS
  1
XRECORD
  2
AcDbXrecord
  3
AutoCAD 2000
 90
        0
280
     0
281
     0
  0
CLASS
  1
LONG_TRANSACTION
  2
AcDbLongTransaction
  3
AutoCAD 2000
 90
        0
280
     0
281
     0
  0
CLASS
  1
LWPOLYLINE
  2
AcDbPolyline
  3
AutoCAD 2000
 90
        0
280
     0
281
     1
  0
CLASS
  1
HATCH
  2
AcDbHatch
  3
AutoCAD 2000
 90
        0
280
     0
281
     1
  0
CLASS
  1
XRECORD
  2
AcDbXrecord
  3
AutoCAD 2000
 90
        0
280
     0
281
     0
  0
CLASS
  1
LONG_TRANSACTION
  2
AcDbLongTransaction
  3
AutoCAD 2000
 90
        0
280
     0
281
     0
  0
CLASS
  1
LWPOLYLINE
  2
AcDbPolyline
  3
AutoCAD 2000
 90
        0
280
     0
281
     1
  0
CLASS
  1
HATCH
  2
AcDbHatch
  3
AutoCAD 2000
 90
        0
280
     0
281
     1
  0
CLASS
  1
XRECORD
  2
AcDbXrecord
  3
AutoCAD 2000
 90
        0
280
     0
281
     0
  0
CLASS
  1
LONG_TRANSACTION
  2
AcDbLongTransaction
  3
AutoCAD 2000
 90
        0
280
     0
281
     0
  0
CLASS
  1
LWPOLYLINE
  2
AcDbPolyline
  3
AutoCAD 2000
 90
        0
280
     0
281
     1
  0
CLASS
  1
HATCH
  2
AcDbHatch
  3
AutoCAD 2000
 90
        0
280
     0
281
     1
  0
CLASS
  1
XRECORD
  2
AcDbXrecord
  3
AutoCAD 2000
 90
        0
280
     0
281
     0
  0
ENDSEC
  0
SECTION
  2
TABLES
  0
TABLE
  2
VPORT
  5
8
330
0
100
AcDbSymbolTable
 70
     2
  0
VPORT
  5
36C
330
8
100
AcDbSymbolTableRecord
100
AcDbViewportTableRecord
  2
*ACTIVE
 70
     0
 10
0.0
 20
0.0
 11
1.0
 21
1.0
 12
18.33920296507329
 22
17.10736092262361
 13
0.0
 23
0.0
 14
0.5740882589684922
 24
0.5740882589684922
 15
0.5
 25
0.5
 16
0.0
 26
0.0
 36
1.0
 17
0.0
 27
0.0
 37
0.0
 40
8.267767437139658
 41
1.570528967254408
 42
50.0
 43
0.0
 44
0.0
 50
0.0
 51
0.0
 71
     0
 72
   100
 73
     1
 74
     0
 75
     0
 76
     0
 77
     0
 78
     0
  0
ENDTAB
  0
TABLE
  2
LTYPE
  5
5
330
0
100
AcDbSymbolTable
 70
     2
  0
LTYPE
  5
12
330
5
100
AcDbSymbolTableRecord
100
AcDbLinetypeTableRecord
  2
BYBLOCK
 70
     0
  3

 72
    65
 73
     0
 40
0.0
  0
LTYPE
  5
13
330
5
100
AcDbSymbolTableRecord
100
AcDbLinetypeTableRecord
  2
BYLAYER
 70
     0
  3

 72
    65
 73
     0
 40
0.0
  0
LTYPE
  5
14
330
5
100
AcDbSymbolTableRecord
100
AcDbLinetypeTableRecord
  2
CONTINUOUS
 70
     0
  3
Solid line
 72
    65
 73
     0
 40
0.0
  0
LTYPE
  5
1C1
330
5
100
AcDbSymbolTableRecord
100
AcDbLinetypeTableRecord
  2
HIDDEN
 70
     0
  3
__ __ __ __ __ __ __ __ __ __ __ __ __ __ __ __
 72
    65
 73
     2
 40
0.375
 49
0.25
 74
     0
 49
-0.125
 74
     0
  0
ENDTAB
  0
TABLE
  2
LAYER
  5
2
330
0
100
AcDbSymbolTable
 70
     5
  0
LAYER
  5
F
330
2
100
AcDbSymbolTableRecord
100
AcDbLayerTableRecord
  2
0
 70
     0
 62
     7
  6
CONTINUOUS
  0
LAYER
  5
1C5
330
2
100
AcDbSymbolTableRecord
100
AcDbLayerTableRecord
  2
ADP1DETAIL
 70
     0
 62
     7
  6
CONTINUOUS
  0
LAYER
  5
1C7
330
2
100
AcDbSymbolTableRecord
100
AcDbLayerTableRecord
  2
DEFPOINTS
 70
     0
 62
     7
  6
CONTINUOUS
  0
LAYER
  5
1C8
330
2
100
AcDbSymbolTableRecord
100
AcDbLayerTableRecord
  2
ADPDIM
 70
     0
 62
     3
  6
CONTINUOUS
  0
LAYER
  5
1C9
330
2
100
AcDbSymbolTableRecord
100
AcDbLayerTableRecord
  2
ADP2DETAIL
 70
     0
 62
     5
  6
CONTINUOUS
  0
ENDTAB
  0
TABLE
  2
STYLE
  5
3
330
0
100
AcDbSymbolTable
 70
     2
  0
STYLE
  5
10
330
3
100
AcDbSymbolTableRecord
100
AcDbTextStyleTableRecord
  2
STANDARD
 70
     0
 40
0.0
 41
1.0
 50
0.0
 71
     0
 42
0.2
  3
txt
  4

  0
STYLE
  5
21F
330
3
100
AcDbSymbolTableRecord
100
AcDbTextStyleTableRecord
  2
ARIAL_WIDE
 70
     0
 40
0.0
 41
1.25
 50
0.0
 71
     0
 42
0.2
  3
ARIAL.TTF
  4

1001
ACAD
1000
Arial
1071
       34
  0
ENDTAB
  0
TABLE
  2
VIEW
  5
6
330
0
100
AcDbSymbolTable
 70
     0
  0
ENDTAB
  0
TABLE
  2
UCS
  5
7
330
0
100
AcDbSymbolTable
 70
     0
  0
ENDTAB
  0
TABLE
  2
APPID
  5
9
330
0
100
AcDbSymbolTable
 70
     1
  0
APPID
  5
11
330
9
100
AcDbSymbolTableRecord
100
AcDbRegAppTableRecord
  2
ACAD
 70
     0
  0
ENDTAB
  0
TABLE
  2
DIMSTYLE
  5
A
330
0
100
AcDbSymbolTable
 70
     1
  0
DIMSTYLE
105
213
330
A
100
AcDbSymbolTableRecord
100
AcDbDimStyleTableRecord
  2
STANDARD
 70
     0
  3

  4

  5

  6

  7

 40
1.0
 41
0.18
 42
0.0625
 43
0.38
 44
0.18
 45
0.0
 46
0.0
 47
0.0
 48
0.0
140
0.18
141
0.09
142
0.0
143
25.4
144
1.0
145
0.0
146
1.0
147
0.09
 71
     0
 72
     0
 73
     1
 74
     1
 75
     0
 76
     0
 77
     0
 78
     0
170
     0
171
     2
172
     0
173
     0
174
     0
175
     0
176
     0
177
     0
178
     0
270
     2
271
     4
272
     4
273
     2
274
     2
340
10
275
     0
280
     0
281
     0
282
     0
283
     1
284
     0
285
     0
286
     0
287
     3
288
     0
  0
ENDTAB
  0
TABLE
  2
BLOCK_RECORD
  5
1
330
0
100
AcDbSymbolTable
 70
     3
  0
BLOCK_RECORD
  5
18
102
{ACAD_XDICTIONARY
360
278
102
}
330
1
100
AcDbSymbolTableRecord
100
AcDbBlockTableRecord
  2
*MODEL_SPACE
  0
BLOCK_RECORD
  5
15
102
{ACAD_XDICTIONARY
360
276
102
}
330
1
100
AcDbSymbolTableRecord
100
AcDbBlockTableRecord
  2
*PAPER_SPACE
  0
BLOCK_RECORD
  5
1AA
330
1
100
AcDbSymbolTableRecord
100
AcDbBlockTableRecord
  2
*D0
  0
BLOCK_RECORD
  5
1AB
330
1
100
AcDbSymbolTableRecord
100
AcDbBlockTableRecord
  2
*D1
  0
BLOCK_RECORD
  5
1AC
330
1
100
AcDbSymbolTableRecord
100
AcDbBlockTableRecord
  2
*D2
  0
ENDTAB
  0
ENDSEC
  0
SECTION
  2
BLOCKS
  0
BLOCK
  5
1CC
330
18
100
AcDbEntity
  8
0
100
AcDbBlockBegin
  2
*MODEL_SPACE
 70
     0
 10
0.0
 20
0.0
 30
0.0
  3
*MODEL_SPACE
  1

  0
ENDBLK
  5
1CD
330
18
100
AcDbEntity
  8
0
100
AcDbBlockEnd
  0
BLOCK
  5
1CA
330
15
100
AcDbEntity
 67
     1
  8
0
100
AcDbBlockBegin
  2
*PAPER_SPACE
 70
     0
 10
0.0
 20
0.0
 30
0.0
  3
*PAPER_SPACE
  1

  0
ENDBLK
  5
1CB
330
15
100
AcDbEntity
 67
     1
  8
0
100
AcDbBlockEnd
  0
BLOCK
  5
1CF
330
1AA
100
AcDbEntity
  8
0
100
AcDbBlockBegin
  2
*D0
 70
     1
 10
0.0
 20
0.0
 30
0.0
  3
*D0
  1

  0
LINE
  5
1D0
330
1AA
100
AcDbEntity
  8
0
  6
BYBLOCK
 62
     0
100
AcDbLine
 10
17.87746914953513
 20
19.01814070542172
 30
0.0
 11
17.00647851149046
 21
19.4464381928331
 31
0.0
  0
LINE
  5
1D1
330
1AA
100
AcDbEntity
  8
0
  6
BYBLOCK
 62
     0
100
AcDbLine
 10
17.71013853351481
 20
18.96112785649921
 30
0.0
 11
18.04479976555544
 21
19.07515355434424
 31
0.0
  0
LINE
  5
1D2
330
1AA
100
AcDbEntity
  8
0
  6
BYBLOCK
 62
     0
100
AcDbLine
 10
18.15267754597971
 20
18.79061031078251
 30
0.0
 11
18.52767754597971
 21
18.79061031078251
 31
0.0
  0
LINE
  5
1D3
330
1AA
100
AcDbEntity
  8
0
  6
BYBLOCK
 62
     0
100
AcDbLine
 10
18.34017754597971
 20
18.60311031078251
 30
0.0
 11
18.34017754597971
 21
18.97811031078251
 31
0.0
  0
TEXT
  5
1D4
330
1AA
100
AcDbEntity
  8
0
  6
BYBLOCK
 62
     0
100
AcDbText
 10
16.71716502728271
 20
19.5190563882115
 30
0.0
 40
0.125
  1
%%c1
 50
333.8149915452858
 72
     1
 11
16.8195256240381
 21
19.5383696654146
 31
0.0
100
AcDbText
 73
     2
  0
POINT
  5
1D5
330
1AA
100
AcDbEntity
  8
DEFPOINTS
  6
BYBLOCK
 62
     0
100
AcDbPoint
 10
17.87746914953513
 20
19.01814070542172
 30
0.0
  0
POINT
  5
1D6
330
1AA
100
AcDbEntity
  8
DEFPOINTS
  6
BYBLOCK
 62
     0
100
AcDbPoint
 10
18.8028859424243
 20
18.56307991614329
 30
0.0
  0
ENDBLK
  5
1D7
330
1AA
100
AcDbEntity
  8
0
100
AcDbBlockEnd
  0
BLOCK
  5
1D8
330
1AB
100
AcDbEntity
  8
0
100
AcDbBlockBegin
  2
*D1
 70
     1
 10
0.0
 20
0.0
 30
0.0
  3
*D1
  1

  0
LINE
  5
1D9
330
1AB
100
AcDbEntity
  8
0
  6
BYBLOCK
 62
     0
100
AcDbLine
 10
17.08921266981821
 20
15.47591685582809
 30
0.0
 11
17.08921266981821
 21
15.15329417659749
 31
0.0
  0
LINE
  5
1DA
330
1AB
100
AcDbEntity
  8
0
  6
BYBLOCK
 62
     0
100
AcDbLine
 10
19.58921266981821
 20
15.47591685582809
 30
0.0
 11
19.58921266981821
 21
15.15329417659749
 31
0.0
  0
LINE
  5
1DB
330
1AB
100
AcDbEntity
  8
0
  6
BYBLOCK
 62
     0
100
AcDbLine
 10
17.08921266981821
 20
15.33329417659749
 30
0.0
 11
17.94337933648488
 21
15.33329417659749
 31
0.0
  0
LINE
  5
1DC
330
1AB
100
AcDbEntity
  8
0
  6
BYBLOCK
 62
     0
100
AcDbLine
 10
19.58921266981821
 20
15.33329417659749
 30
0.0
 11
18.73504600315154
 21
15.33329417659749
 31
0.0
  0
LINE
  5
1DD
330
1AB
100
AcDbEntity
  8
0
  6
BYBLOCK
 62
     0
100
AcDbLine
 10
16.96421266981821
 20
15.20829417659749
 30
0.0
 11
17.21421266981821
 21
15.45829417659749
 31
0.0
  0
LINE
  5
1DE
330
1AB
100
AcDbEntity
  8
0
  6
BYBLOCK
 62
     0
100
AcDbLine
 10
19.46421266981821
 20
15.20829417659749
 30
0.0
 11
19.71421266981821
 21
15.45829417659749
 31
0.0
  0
TEXT
  5
1DF
330
1AB
100
AcDbEntity
  8
0
  6
BYBLOCK
 62
     0
100
AcDbText
 10
18.06837933648488
 20
15.27079417659749
 30
0.0
 40
0.125
  1
2 1/2
 72
     1
 11
18.33921266981821
 21
15.33329417659749
 31
0.0
100
AcDbText
 73
     2
  0
POINT
  5
1E0
330
1AB
100
AcDbEntity
  8
DEFPOINTS
  6
BYBLOCK
 62
     0
100
AcDbPoint
 10
17.08921266981821
 20
15.53841685582809
 30
0.0
  0
POINT
  5
1E1
330
1AB
100
AcDbEntity
  8
DEFPOINTS
  6
BYBLOCK
 62
     0
100
AcDbPoint
 10
19.58921266981821
 20
15.53841685582809
 30
0.0
  0
POINT
  5
1E2
330
1AB
100
AcDbEntity
  8
DEFPOINTS
  6
BYBLOCK
 62
     0
100
AcDbPoint
 10
19.58921266981821
 20
15.33329417659749
 30
0.0
  0
ENDBLK
  5
1E3
330
1AB
100
AcDbEntity
  8
0
100
AcDbBlockEnd
  0
BLOCK
  5
1E4
330
1AC
100
AcDbEntity
  8
0
100
AcDbBlockBegin
  2
*D2
 70
     1
 10
0.0
 20
0.0
 30
0.0
  3
*D2
  1

  0
LINE
  5
1E5
330
1AC
100
AcDbEntity
  8
0
  6
BYBLOCK
 62
     0
100
AcDbLine
 10
19.65171266981821
 20
15.53841685582809
 30
0.0
 11
20.2614748547492
 21
15.53841685582809
 31
0.0
  0
LINE
  5
1E6
330
1AC
100
AcDbEntity
  8
0
  6
BYBLOCK
 62
     0
100
AcDbLine
 10
18.97813767030006
 20
17.16341685582809
 30
0.0
 11
20.2614748547492
 21
17.16341685582809
 31
0.0
  0
LINE
  5
1E7
330
1AC
100
AcDbEntity
  8
0
  6
BYBLOCK
 62
     0
100
AcDbLine
 10
20.0814748547492
 20
15.53841685582809
 30
0.0
 11
20.0814748547492
 21
15.95508352249476
 31
0.0
  0
LINE
  5
1E8
330
1AC
100
AcDbEntity
  8
0
  6
BYBLOCK
 62
     0
100
AcDbLine
 10
20.0814748547492
 20
17.16341685582809
 30
0.0
 11
20.0814748547492
 21
16.74675018916143
 31
0.0
  0
LINE
  5
1E9
330
1AC
100
AcDbEntity
  8
0
  6
BYBLOCK
 62
     0
100
AcDbLine
 10
20.2064748547492
 20
15.41341685582809
 30
0.0
 11
19.9564748547492
 21
15.66341685582809
 31
0.0
  0
LINE
  5
1EA
330
1AC
100
AcDbEntity
  8
0
  6
BYBLOCK
 62
     0
100
AcDbLine
 10
20.2064748547492
 20
17.03841685582809
 30
0.0
 11
19.9564748547492
 21
17.28841685582809
 31
0.0
  0
TEXT
  5
1EB
330
1AC
100
AcDbEntity
  8
0
  6
BYBLOCK
 62
     0
100
AcDbText
 10
20.1439748547492
 20
16.08008352249476
 30
0.0
 40
0.125
  1
1 5/8
 50
90.0
 72
     1
 11
20.0814748547492
 21
16.35091685582809
 31
0.0
100
AcDbText
 73
     2
  0
POINT
  5
1EC
330
1AC
100
AcDbEntity
  8
DEFPOINTS
  6
BYBLOCK
 62
     0
100
AcDbPoint
 10
19.58921266981821
 20
15.53841685582809
 30
0.0
  0
POINT
  5
1ED
330
1AC
100
AcDbEntity
  8
DEFPOINTS
  6
BYBLOCK
 62
     0
100
AcDbPoint
 10
18.91563767030006
 20
17.16341685582809
 30
0.0
  0
POINT
  5
1EE
330
1AC
100
AcDbEntity
  8
DEFPOINTS
  6
BYBLOCK
 62
     0
100
AcDbPoint
 10
20.0814748547492
 20
17.16341685582809
 30
0.0
  0
ENDBLK
  5
1EF
330
1AC
100
AcDbEntity
  8
0
100
AcDbBlockEnd
  0
ENDSEC
  0
SECTION
  2
ENTITIES
  0
DIMENSION
  5
1F0
330
18
100
AcDbEntity
  8
ADPDIM
100
AcDbDimension
  2
*D0
 10
18.8028859424243
 20
18.56307991614329
 30
0.0
 11
16.8195256240381
 21
19.5383696654146
 31
0.0
 70
     3
100
AcDbDiametricDimension
 15
17.87746914953513
 25
19.01814070542172
 35
0.0
 40
0.970599520546118
  0
LINE
  5
1F1
330
18
100
AcDbEntity
  8
ADP1DETAIL
100
AcDbLine
 10
19.58921266981821
 20
20.04061031078251
 30
0.0
 11
19.58921266981821
 21
17.54061031078251
 31
0.0
  0
LINE
  5
1F2
330
18
100
AcDbEntity
  8
ADP1DETAIL
100
AcDbLine
 10
17.08921266981821
 20
17.54061031078251
 30
0.0
 11
17.08921266981821
 21
20.04061031078251
 31
0.0
  0
CIRCLE
  5
1F3
330
18
100
AcDbEntity
  8
ADP1DETAIL
100
AcDbCircle
 10
18.34017754597971
 20
18.79061031078251
 30
0.0
 40
0.875
  0
CIRCLE
  5
1F4
330
18
100
AcDbEntity
  8
ADP1DETAIL
100
AcDbCircle
 10
18.34017754597971
 20
18.79061031078251
 30
0.0
 40
0.578125
  0
CIRCLE
  5
1F5
330
18
100
AcDbEntity
  8
ADP1DETAIL
100
AcDbCircle
 10
18.34017754597971
 20
18.79061031078251
 30
0.0
 40
0.515625
  0
DIMENSION
  5
1F6
330
18
100
AcDbEntity
  8
ADPDIM
100
AcDbDimension
  2
*D1
 10
19.58921266981821
 20
15.33329417659749
 30
0.0
 11
18.33921266981821
 21
15.33329417659749
 31
0.0
100
AcDbAlignedDimension
 13
17.08921266981821
 23
15.53841685582809
 33
0.0
 14
19.58921266981821
 24
15.53841685582809
 34
0.0
100
AcDbRotatedDimension
  0
LWPOLYLINE
  5
1F7
330
18
100
AcDbEntity
  8
ADP1DETAIL
100
AcDbPolyline
 90
        3
 70
     0
 43
0.0
 10
17.46844298577241
 20
16.85091685582809
 42
-0.4846043659235472
 10
17.71421266981821
 20
16.53841685582809
 42
-0.3101575905034816
 10
17.08921266981821
 20
15.91341685582809
 42
-0.7291353507912959
  0
LINE
  5
1FC
330
18
100
AcDbEntity
  8
ADP1DETAIL
100
AcDbLine
 10
19.58921266981821
 20
15.53841685582809
 30
0.0
 11
17.08921266981821
 21
15.53841685582809
 31
0.0
  0
LINE
  5
1FD
330
18
100
AcDbEntity
  8
ADP1DETAIL
100
AcDbLine
 10
17.08921266981821
 20
15.91341685582809
 30
0.0
 11
19.58921266981821
 21
15.91341685582809
 31
0.0
  0
LINE
  5
1FE
330
18
100
AcDbEntity
  8
ADP1DETAIL
100
AcDbLine
 10
19.58921266981821
 20
17.54061031078251
 30
0.0
 11
17.08921266981821
 21
17.54061031078251
 31
0.0
  0
LINE
  5
1FF
330
18
100
AcDbEntity
  8
ADP1DETAIL
100
AcDbLine
 10
17.08921266981821
 20
15.53841685582809
 30
0.0
 11
17.08921266981821
 21
15.91341685582809
 31
0.0
  0
LINE
  5
200
330
18
100
AcDbEntity
  8
ADP1DETAIL
100
AcDbLine
 10
17.46844298577241
 20
16.85091685582809
 30
0.0
 11
19.20998235386401
 21
16.85091685582809
 31
0.0
  0
LINE
  5
201
330
18
100
AcDbEntity
  8
ADP1DETAIL
100
AcDbLine
 10
17.76278766933636
 20
17.10091685582809
 30
0.0
 11
18.91563767030006
 21
17.10091685582809
 31
0.0
  0
LINE
  5
202
330
18
100
AcDbEntity
  8
ADP1DETAIL
100
AcDbLine
 10
17.76278766933636
 20
17.16341685582809
 30
0.0
 11
18.91563767030006
 21
17.16341685582809
 31
0.0
  0
LINE
  5
203
330
18
100
AcDbEntity
  8
ADP2DETAIL
  6
HIDDEN
100
AcDbLine
 10
17.83325060383526
 20
17.16710500615974
 30
0.0
 11
17.83325060383526
 21
15.53841685582809
 31
0.0
  0
ARC
  5
204
330
18
100
AcDbEntity
  8
ADP1DETAIL
100
AcDbCircle
 10
17.74494424510972
 20
16.88266189959176
 30
0.0
 40
0.2189831356745376
100
AcDbArc
 50
85.32618067369547
 51
142.3294150192228
  0
ARC
  5
205
330
18
100
AcDbEntity
  8
ADP1DETAIL
100
AcDbCircle
 10
17.70441126238837
 20
16.81881080949329
 30
0.0
 40
0.2381424485058485
100
AcDbArc
 50
123.8934981564774
 51
172.2518658598774
  0
LINE
  5
206
330
18
100
AcDbEntity
  8
ADP1DETAIL
100
AcDbLine
 10
17.76278766933636
 20
17.16341685582809
 30
0.0
 11
17.76278766933636
 21
17.10091685582809
 31
0.0
  0
DIMENSION
  5
207
330
18
100
AcDbEntity
  8
ADPDIM
100
AcDbDimension
  2
*D2
 10
20.0814748547492
 20
17.16341685582809
 30
0.0
 11
20.0814748547492
 21
16.35091685582809
 31
0.0
100
AcDbAlignedDimension
 13
19.58921266981821
 23
15.53841685582809
 33
0.0
 14
18.91563767030006
 24
17.16341685582809
 34
0.0
 50
90.0
100
AcDbRotatedDimension
  0
LWPOLYLINE
  5
208
330
18
100
AcDbEntity
  8
ADP1DETAIL
100
AcDbPolyline
 90
        3
 70
     0
 43
0.0
 10
19.20998235386401
 20
16.85091685582809
 42
0.4846043659235472
 10
18.96421266981821
 20
16.53841685582809
 42
0.3101575905034816
 10
19.58921266981821
 20
15.91341685582809
 42
0.7291353507912959
  0
LINE
  5
20D
330
18
100
AcDbEntity
  8
ADP2DETAIL
  6
HIDDEN
100
AcDbLine
 10
18.85528074221662
 20
17.16710500615974
 30
0.0
 11
18.85528074221662
 21
15.53841685582809
 31
0.0
  0
ARC
  5
20E
330
18
100
AcDbEntity
  8
ADP1DETAIL
100
AcDbCircle
 10
18.97401407724805
 20
16.81881080949329
 30
0.0
 40
0.2381424485058485
100
AcDbArc
 50
7.748134140122576
 51
56.1065018435225
  0
ARC
  5
20F
330
18
100
AcDbEntity
  8
ADP1DETAIL
100
AcDbCircle
 10
18.9334810945267
 20
16.88266189959176
 30
0.0
 40
0.2189831356745376
100
AcDbArc
 50
37.67058498077716
 51
94.67381932630454
  0
LINE
  5
210
330
18
100
AcDbEntity
  8
ADP1DETAIL
100
AcDbLine
 10
18.91563767030006
 20
17.16341685582809
 30
0.0
 11
18.91563767030006
 21
17.10091685582809
 31
0.0
  0
LINE
  5
211
330
18
100
AcDbEntity
  8
ADP1DETAIL
100
AcDbLine
 10
19.58921266981821
 20
15.91341685582809
 30
0.0
 11
19.58921266981821
 21
15.53841685582809
 31
0.0
  0
LINE
  5
212
330
18
100
AcDbEntity
  8
ADP1DETAIL
100
AcDbLine
 10
17.08921266981821
 20
20.04061031078251
 30
0.0
 11
19.58921266981821
 21
20.04061031078251
 31
0.0
  0
TEXT
  5
2B3
330
18
100
AcDbEntity
  8
ADPDIM
100
AcDbText
 10
11.88031089628479
 20
14.21118556616035
 30
0.0
 40
0.125
  1
J U L I U S  B L U M  &  C O . ,  I N C .      ( 8 0 0 )  5 2 6 - 6 2 9 3        W W W . J U L I U S B L U M . C O M        P A R T  N O .  2 4 9
 41
1.25
  7
ARIAL_WIDE
 72
     1
 11
18.33921266981821
 21
14.33618556616035
 31
0.0
100
AcDbText
 73
     3
  0
ENDSEC
  0
SECTION
  2
OBJECTS
  0
DICTIONARY
  5
C
330
0
100
AcDbDictionary
  3
ACAD_GROUP
350
D
  3
ACAD_LAYOUT
350
219
  3
ACAD_MLINESTYLE
350
E
  3
ACAD_PLOTSETTINGS
350
21A
  3
ACAD_PLOTSTYLENAME
350
217
  3
ACDBHEADERROUNDTRIPXREC
350
36D
  3
ACDBVARIABLEDICTIONARY
350
27E
  0
DICTIONARY
  5
278
330
18
100
AcDbDictionary
280
     1
  3
ACAD_LAYOUTSELFREF
360
38E
  0
DICTIONARY
  5
276
330
15
100
AcDbDictionary
280
     1
  3
ACAD_LAYOUTSELFREF
360
38D
  0
DICTIONARY
  5
D
102
{ACAD_REACTORS
330
C
102
}
330
C
100
AcDbDictionary
  0
DICTIONARY
  5
219
102
{ACAD_REACTORS
330
C
102
}
330
C
100
AcDbDictionary
  0
DICTIONARY
  5
E
102
{ACAD_REACTORS
330
C
102
}
330
C
100
AcDbDictionary
  3
STANDARD
350
1B
  0
DICTIONARY
  5
21A
102
{ACAD_REACTORS
330
C
102
}
330
C
100
AcDbDictionary
  0
ACDBDICTIONARYWDFLT
  5
217
102
{ACAD_REACTORS
330
C
102
}
330
C
100
AcDbDictionary
281
     1
  3
Normal
350
218
100
AcDbDictionaryWithDefault
340
218
  0
DICTIONARY
  5
36D
102
{ACAD_REACTORS
330
C
102
}
330
C
100
AcDbDictionary
  3
CEPSNTYPE
350
377
  3
FINGERPRINTGUID
350
378
  3
HYPERLINKBASE
350
370
  3
INSUNITS
350
376
  3
LAYOUTDICT
350
372
  3
LWETCUNION
350
375
  3
PLOTSETDICT
350
373
  3
PLOTSTYLNAMDICT
350
374
  3
PSVPSCALE
350
37A
  3
PUCSBASE
350
37D
  3
PUCSORGBACK
350
383
  3
PUCSORGBOTTOM
350
37F
  3
PUCSORGFRONT
350
382
  3
PUCSORGLEFT
350
380
  3
PUCSORGRIGHT
350
381
  3
PUCSORGTOP
350
37E
  3
PUCSORTHOREF
350
37B
  3
PUCSORTHOVIEW
350
37C
  3
STYLESHEET
350
371
  3
TSTACKALIGN
350
36E
  3
TSTACKSIZE
350
36F
  3
UCSBASE
350
386
  3
UCSORGBACK
350
38C
  3
UCSORGBOTTOM
350
388
  3
UCSORGFRONT
350
38B
  3
UCSORGLEFT
350
389
  3
UCSORGRIGHT
350
38A
  3
UCSORGTOP
350
387
  3
UCSORTHOREF
350
384
  3
UCSORTHOVIEW
350
385
  3
VERSIONGUID
350
379
  0
DICTIONARY
  5
27E
102
{ACAD_REACTORS
330
C
102
}
330
C
100
AcDbDictionary
  3
DIMASSOC
350
27F
  0
XRECORD
  5
38E
102
{ACAD_REACTORS
330
278
102
}
330
278
100
AcDbXrecord
340
18
  0
XRECORD
  5
38D
102
{ACAD_REACTORS
330
276
102
}
330
276
100
AcDbXrecord
340
15
  0
MLINESTYLE
  5
1B
102
{ACAD_REACTORS
330
E
102
}
330
E
100
AcDbMlineStyle
  2
STANDARD
 70
     0
  3

 62
     0
 51
90.0
 52
90.0
 71
     2
 49
0.5
 62
   256
  6
BYLAYER
 49
-0.5
 62
   256
  6
BYLAYER
  0
ACDBPLACEHOLDER
  5
218
102
{ACAD_REACTORS
330
217
102
}
330
217
100
AcDbPlaceHolder
280
     0
  0
XRECORD
  5
377
102
{ACAD_REACTORS
330
36D
102
}
330
36D
100
AcDbXrecord
 90
        0
  0
XRECORD
  5
378
102
{ACAD_REACTORS
330
36D
102
}
330
36D
100
AcDbXrecord
  1
{00CCCE59-E11C-496D-BEF6-CE87B5615EA4}
  0
XRECORD
  5
370
102
{ACAD_REACTORS
330
36D
102
}
330
36D
100
AcDbXrecord
  1

  0
XRECORD
  5
376
102
{ACAD_REACTORS
330
36D
102
}
330
36D
100
AcDbXrecord
 90
        0
  0
XRECORD
  5
372
102
{ACAD_REACTORS
330
36D
102
}
330
36D
100
AcDbXrecord
340
219
  0
XRECORD
  5
375
102
{ACAD_REACTORS
330
36D
102
}
330
36D
100
AcDbXrecord
 90
    14877
  0
XRECORD
  5
373
102
{ACAD_REACTORS
330
36D
102
}
330
36D
100
AcDbXrecord
340
21A
  0
XRECORD
  5
374
102
{ACAD_REACTORS
330
36D
102
}
330
36D
100
AcDbXrecord
340
217
  0
XRECORD
  5
37A
102
{ACAD_REACTORS
330
36D
102
}
330
36D
100
AcDbXrecord
 40
0.0
  0
XRECORD
  5
37D
102
{ACAD_REACTORS
330
36D
102
}
330
36D
100
AcDbXrecord
340
0
  0
XRECORD
  5
383
102
{ACAD_REACTORS
330
36D
102
}
330
36D
100
AcDbXrecord
 10
0.0
 20
0.0
 30
0.0
  0
XRECORD
  5
37F
102
{ACAD_REACTORS
330
36D
102
}
330
36D
100
AcDbXrecord
 10
0.0
 20
0.0
 30
0.0
  0
XRECORD
  5
382
102
{ACAD_REACTORS
330
36D
102
}
330
36D
100
AcDbXrecord
 10
0.0
 20
0.0
 30
0.0
  0
XRECORD
  5
380
102
{ACAD_REACTORS
330
36D
102
}
330
36D
100
AcDbXrecord
 10
0.0
 20
0.0
 30
0.0
  0
XRECORD
  5
381
102
{ACAD_REACTORS
330
36D
102
}
330
36D
100
AcDbXrecord
 10
0.0
 20
0.0
 30
0.0
  0
XRECORD
  5
37E
102
{ACAD_REACTORS
330
36D
102
}
330
36D
100
AcDbXrecord
 10
0.0
 20
0.0
 30
0.0
  0
XRECORD
  5
37B
102
{ACAD_REACTORS
330
36D
102
}
330
36D
100
AcDbXrecord
340
0
  0
XRECORD
  5
37C
102
{ACAD_REACTORS
330
36D
102
}
330
36D
100
AcDbXrecord
 70
     0
  0
XRECORD
  5
371
102
{ACAD_REACTORS
330
36D
102
}
330
36D
100
AcDbXrecord
  1

  0
XRECORD
  5
36E
102
{ACAD_REACTORS
330
36D
102
}
330
36D
100
AcDbXrecord
 90
        1
  0
XRECORD
  5
36F
102
{ACAD_REACTORS
330
36D
102
}
330
36D
100
AcDbXrecord
 90
       70
  0
XRECORD
  5
386
102
{ACAD_REACTORS
330
36D
102
}
330
36D
100
AcDbXrecord
340
0
  0
XRECORD
  5
38C
102
{ACAD_REACTORS
330
36D
102
}
330
36D
100
AcDbXrecord
 10
0.0
 20
0.0
 30
0.0
  0
XRECORD
  5
388
102
{ACAD_REACTORS
330
36D
102
}
330
36D
100
AcDbXrecord
 10
0.0
 20
0.0
 30
0.0
  0
XRECORD
  5
38B
102
{ACAD_REACTORS
330
36D
102
}
330
36D
100
AcDbXrecord
 10
0.0
 20
0.0
 30
0.0
  0
XRECORD
  5
389
102
{ACAD_REACTORS
330
36D
102
}
330
36D
100
AcDbXrecord
 10
0.0
 20
0.0
 30
0.0
  0
XRECORD
  5
38A
102
{ACAD_REACTORS
330
36D
102
}
330
36D
100
AcDbXrecord
 10
0.0
 20
0.0
 30
0.0
  0
XRECORD
  5
387
102
{ACAD_REACTORS
330
36D
102
}
330
36D
100
AcDbXrecord
 10
0.0
 20
0.0
 30
0.0
  0
XRECORD
  5
384
102
{ACAD_REACTORS
330
36D
102
}
330
36D
100
AcDbXrecord
340
0
  0
XRECORD
  5
385
102
{ACAD_REACTORS
330
36D
102
}
330
36D
100
AcDbXrecord
 70
     0
  0
XRECORD
  5
379
102
{ACAD_REACTORS
330
36D
102
}
330
36D
100
AcDbXrecord
  1
{1CD5FF2A-05E7-4FDB-8FBC-136258D13C12}
  0
DICTIONARYVAR
  5
27F
102
{ACAD_REACTORS
330
27E
102
}
330
27E
100
DictionaryVariables
280
     0
  1
1
  0
ENDSEC
  0
EOF
