  0
SECTION
  2
HEADER
  9
$ACADVER
  1
AC1014
  9
$ACADMAINTVER
 70
     9
  9
$DWGCODEPAGE
  3
ANSI_1252
  9
$INSBASE
 10
21.5150219701385
 20
2.238707879342662
 30
0.0
  9
$EXTMIN
 10
2.006422200419116
 20
0.2306302828159827
 30
0.0
  9
$EXTMAX
 10
40.75983284161966
 20
24.7532860425025
 30
0.0
  9
$LIMMIN
 10
0.0
 20
0.0
  9
$LIMMAX
 10
36.0
 20
36.0
  9
$ORTHOMODE
 70
     1
  9
$REGENMODE
 70
     1
  9
$FILLMODE
 70
     1
  9
$QTEXTMODE
 70
     0
  9
$MIRRTEXT
 70
     1
  9
$DRAGMODE
 70
     0
  9
$LTSCALE
 40
1.0
  9
$OSMODE
 70
    37
  9
$ATTMODE
 70
     1
  9
$TEXTSIZE
 40
0.2
  9
$TRACEWID
 40
0.05
  9
$TEXTSTYLE
  7
STANDARD
  9
$CLAYER
  8
ADPDIM
  9
$CELTYPE
  6
BYLAYER
  9
$CECOLOR
 62
   256
  9
$CELTSCALE
 40
1.0
  9
$DELOBJ
 70
     1
  9
$DISPSILH
 70
     0
  9
$DIMSCALE
 40
1.0
  9
$DIMASZ
 40
0.125
  9
$DIMEXO
 40
0.0625
  9
$DIMDLI
 40
0.38
  9
$DIMRND
 40
0.0
  9
$DIMDLE
 40
0.0
  9
$DIMEXE
 40
0.18
  9
$DIMTP
 40
0.0
  9
$DIMTM
 40
0.0
  9
$DIMTXT
 40
0.125
  9
$DIMCEN
 40
0.1875
  9
$DIMTSZ
 40
0.125
  9
$DIMTOL
 70
     0
  9
$DIMLIM
 70
     0
  9
$DIMTIH
 70
     0
  9
$DIMTOH
 70
     0
  9
$DIMSE1
 70
     0
  9
$DIMSE2
 70
     0
  9
$DIMTAD
 70
     0
  9
$DIMZIN
 70
     3
  9
$DIMBLK
  1

  9
$DIMASO
 70
     1
  9
$DIMSHO
 70
     1
  9
$DIMPOST
  1

  9
$DIMAPOST
  1

  9
$DIMALT
 70
     0
  9
$DIMALTD
 70
     1
  9
$DIMALTF
 40
25.4
  9
$DIMLFAC
 40
1.0
  9
$DIMTOFL
 70
     0
  9
$DIMTVP
 40
0.0
  9
$DIMTIX
 70
     0
  9
$DIMSOXD
 70
     0
  9
$DIMSAH
 70
     0
  9
$DIMBLK1
  1

  9
$DIMBLK2
  1

  9
$DIMSTYLE
  2
STANDARD
  9
$DIMCLRD
 70
     0
  9
$DIMCLRE
 70
     0
  9
$DIMCLRT
 70
     0
  9
$DIMTFAC
 40
1.0
  9
$DIMGAP
 40
0.125
  9
$DIMJUST
 70
     0
  9
$DIMSD1
 70
     0
  9
$DIMSD2
 70
     0
  9
$DIMTOLJ
 70
     1
  9
$DIMTZIN
 70
     3
  9
$DIMALTZ
 70
     3
  9
$DIMALTTZ
 70
     3
  9
$DIMFIT
 70
     5
  9
$DIMUPT
 70
     0
  9
$DIMUNIT
 70
     5
  9
$DIMDEC
 70
     4
  9
$DIMTDEC
 70
     4
  9
$DIMALTU
 70
     5
  9
$DIMALTTD
 70
     1
  9
$DIMTXSTY
  7
STANDARD
  9
$DIMAUNIT
 70
     0
  9
$LUNITS
 70
     5
  9
$LUPREC
 70
     4
  9
$SKETCHINC
 40
0.1
  9
$FILLETRAD
 40
0.0
  9
$AUNITS
 70
     0
  9
$AUPREC
 70
     0
  9
$MENU
  1
acad
  9
$ELEVATION
 40
0.0
  9
$PELEVATION
 40
0.0
  9
$THICKNESS
 40
0.0
  9
$LIMCHECK
 70
     0
  9
$BLIPMODE
 70
     0
  9
$CHAMFERA
 40
0.0
  9
$CHAMFERB
 40
0.0
  9
$CHAMFERC
 40
0.0
  9
$CHAMFERD
 40
0.0
  9
$SKPOLY
 70
     0
  9
$TDCREATE
 40
2450240.471803819
  9
$TDUPDATE
 40
2452297.065583044
  9
$TDINDWG
 40
0.0229301273
  9
$TDUSRTIMER
 40
0.0229301273
  9
$USRTIMER
 70
     1
  9
$ANGBASE
 50
0.0
  9
$ANGDIR
 70
     0
  9
$PDMODE
 70
     0
  9
$PDSIZE
 40
0.0
  9
$PLINEWID
 40
0.0
  9
$COORDS
 70
     2
  9
$SPLFRAME
 70
     0
  9
$SPLINETYPE
 70
     6
  9
$SPLINESEGS
 70
     8
  9
$ATTDIA
 70
     0
  9
$ATTREQ
 70
     1
  9
$HANDLING
 70
 22529
  9
$HANDSEED
  5
344
  9
$SURFTAB1
 70
     6
  9
$SURFTAB2
 70
     6
  9
$SURFTYPE
 70
     6
  9
$SURFU
 70
     6
  9
$SURFV
 70
     6
  9
$UCSNAME
  2

  9
$UCSORG
 10
0.0
 20
0.0
 30
0.0
  9
$UCSXDIR
 10
1.0
 20
0.0
 30
0.0
  9
$UCSYDIR
 10
0.0
 20
1.0
 30
0.0
  9
$PUCSNAME
  2

  9
$PUCSORG
 10
0.0
 20
0.0
 30
0.0
  9
$PUCSXDIR
 10
1.0
 20
0.0
 30
0.0
  9
$PUCSYDIR
 10
0.0
 20
1.0
 30
0.0
  9
$USERI1
 70
     0
  9
$USERI2
 70
     0
  9
$USERI3
 70
     0
  9
$USERI4
 70
     0
  9
$USERI5
 70
     0
  9
$USERR1
 40
0.0
  9
$USERR2
 40
0.0
  9
$USERR3
 40
0.0
  9
$USERR4
 40
0.0
  9
$USERR5
 40
0.0
  9
$WORLDVIEW
 70
     1
  9
$SHADEDGE
 70
     3
  9
$SHADEDIF
 70
    70
  9
$TILEMODE
 70
     1
  9
$MAXACTVP
 70
    15
  9
$PINSBASE
 10
0.0004882952198386
 20
0.7501380653138911
 30
0.0
  9
$PLIMCHECK
 70
     0
  9
$PEXTMIN
 10
1.000000000000000E+20
 20
1.000000000000000E+20
 30
1.000000000000000E+20
  9
$PEXTMAX
 10
-1.000000000000000E+20
 20
-1.000000000000000E+20
 30
-1.000000000000000E+20
  9
$PLIMMIN
 10
0.0
 20
0.0
  9
$PLIMMAX
 10
12.0
 20
9.0
  9
$UNITMODE
 70
     0
  9
$VISRETAIN
 70
     0
  9
$PLINEGEN
 70
     0
  9
$PSLTSCALE
 70
     1
  9
$TREEDEPTH
 70
  3020
  9
$PICKSTYLE
 70
     1
  9
$CMLSTYLE
  2
STANDARD
  9
$CMLJUST
 70
     0
  9
$CMLSCALE
 40
1.0
  9
$PROXYGRAPHICS
 70
     1
  9
$MEASUREMENT
 70
     0
  0
ENDSEC
  0
SECTION
  2
CLASSES
  0
CLASS
  1
ACDBDICTIONARYWDFLT
  2
AcDbDictionaryWithDefault
  3
AutoCAD 2000
 90
        0
280
     0
281
     0
  0
CLASS
  1
ACDBPLACEHOLDER
  2
AcDbPlaceHolder
  3
AutoCAD 2000
 90
        0
280
     0
281
     0
  0
CLASS
  1
LAYOUT
  2
AcDbLayout
  3
AutoCAD 2000
 90
        0
280
     0
281
     0
  0
CLASS
  1
DICTIONARYVAR
  2
AcDbDictionaryVar
  3
AutoCAD 2000
 90
        0
280
     0
281
     0
  0
CLASS
  1
LONG_TRANSACTION
  2
AcDbLongTransaction
  3
AutoCAD 2000
 90
        0
280
     0
281
     0
  0
CLASS
  1
LWPOLYLINE
  2
AcDbPolyline
  3
AutoCAD 2000
 90
        0
280
     0
281
     1
  0
CLASS
  1
HATCH
  2
AcDbHatch
  3
AutoCAD 2000
 90
        0
280
     0
281
     1
  0
CLASS
  1
XRECORD
  2
AcDbXrecord
  3
AutoCAD 2000
 90
        0
280
     0
281
     0
  0
CLASS
  1
LONG_TRANSACTION
  2
AcDbLongTransaction
  3
AutoCAD 2000
 90
        0
280
     0
281
     0
  0
CLASS
  1
LWPOLYLINE
  2
AcDbPolyline
  3
AutoCAD 2000
 90
        0
280
     0
281
     1
  0
CLASS
  1
HATCH
  2
AcDbHatch
  3
AutoCAD 2000
 90
        0
280
     0
281
     1
  0
CLASS
  1
XRECORD
  2
AcDbXrecord
  3
AutoCAD 2000
 90
        0
280
     0
281
     0
  0
CLASS
  1
LONG_TRANSACTION
  2
AcDbLongTransaction
  3
AutoCAD 2000
 90
        0
280
     0
281
     0
  0
CLASS
  1
LWPOLYLINE
  2
AcDbPolyline
  3
AutoCAD 2000
 90
        0
280
     0
281
     1
  0
CLASS
  1
HATCH
  2
AcDbHatch
  3
AutoCAD 2000
 90
        0
280
     0
281
     1
  0
CLASS
  1
XRECORD
  2
AcDbXrecord
  3
AutoCAD 2000
 90
        0
280
     0
281
     0
  0
CLASS
  1
LONG_TRANSACTION
  2
AcDbLongTransaction
  3
AutoCAD 2000
 90
        0
280
     0
281
     0
  0
CLASS
  1
LWPOLYLINE
  2
AcDbPolyline
  3
AutoCAD 2000
 90
        0
280
     0
281
     1
  0
CLASS
  1
HATCH
  2
AcDbHatch
  3
AutoCAD 2000
 90
        0
280
     0
281
     1
  0
CLASS
  1
XRECORD
  2
AcDbXrecord
  3
AutoCAD 2000
 90
        0
280
     0
281
     0
  0
CLASS
  1
LONG_TRANSACTION
  2
AcDbLongTransaction
  3
AutoCAD 2000
 90
        0
280
     0
281
     0
  0
CLASS
  1
LWPOLYLINE
  2
AcDbPolyline
  3
AutoCAD 2000
 90
        0
280
     0
281
     1
  0
CLASS
  1
HATCH
  2
AcDbHatch
  3
AutoCAD 2000
 90
        0
280
     0
281
     1
  0
CLASS
  1
XRECORD
  2
AcDbXrecord
  3
AutoCAD 2000
 90
        0
280
     0
281
     0
  0
CLASS
  1
LONG_TRANSACTION
  2
AcDbLongTransaction
  3
AutoCAD 2000
 90
        0
280
     0
281
     0
  0
CLASS
  1
LWPOLYLINE
  2
AcDbPolyline
  3
AutoCAD 2000
 90
        0
280
     0
281
     1
  0
CLASS
  1
HATCH
  2
AcDbHatch
  3
AutoCAD 2000
 90
        0
280
     0
281
     1
  0
CLASS
  1
XRECORD
  2
AcDbXrecord
  3
AutoCAD 2000
 90
        0
280
     0
281
     0
  0
ENDSEC
  0
SECTION
  2
TABLES
  0
TABLE
  2
VPORT
  5
8
330
0
100
AcDbSymbolTable
 70
     2
  0
VPORT
  5
320
330
8
100
AcDbSymbolTableRecord
100
AcDbViewportTableRecord
  2
*ACTIVE
 70
     0
 10
0.0
 20
0.0
 11
1.0
 21
1.0
 12
21.38321774813336
 22
12.49208755944489
 13
0.0
 23
0.0
 14
0.5740882589684922
 24
0.5740882589684922
 15
0.5
 25
0.5
 16
0.0
 26
0.0
 36
1.0
 17
0.0
 27
0.0
 37
0.0
 40
24.79645050213862
 41
1.570528967254408
 42
50.0
 43
0.0
 44
0.0
 50
0.0
 51
0.0
 71
     0
 72
   100
 73
     1
 74
     0
 75
     0
 76
     0
 77
     0
 78
     0
  0
ENDTAB
  0
TABLE
  2
LTYPE
  5
5
330
0
100
AcDbSymbolTable
 70
     3
  0
LTYPE
  5
13
330
5
100
AcDbSymbolTableRecord
100
AcDbLinetypeTableRecord
  2
BYBLOCK
 70
     0
  3

 72
    65
 73
     0
 40
0.0
  0
LTYPE
  5
14
330
5
100
AcDbSymbolTableRecord
100
AcDbLinetypeTableRecord
  2
BYLAYER
 70
     0
  3

 72
    65
 73
     0
 40
0.0
  0
LTYPE
  5
15
330
5
100
AcDbSymbolTableRecord
100
AcDbLinetypeTableRecord
  2
CONTINUOUS
 70
     0
  3
Solid line
 72
    65
 73
     0
 40
0.0
  0
LTYPE
  5
27
330
5
100
AcDbSymbolTableRecord
100
AcDbLinetypeTableRecord
  2
CENTER2
 70
     0
  3
___ _ ___ _ ___ _ ___ _ ___ _ ___ _ ___ _ ___ _
 72
    65
 73
     4
 40
1.125
 49
0.75
 74
     0
 49
-0.125
 74
     0
 49
0.125
 74
     0
 49
-0.125
 74
     0
  0
LTYPE
  5
28
330
5
100
AcDbSymbolTableRecord
100
AcDbLinetypeTableRecord
  2
HIDDEN2
 70
     0
  3
_ _ _ _ _ _ _ _ _ _ _ _ _ _ _ _ _ _ _ _ _ _ _ _
 72
    65
 73
     2
 40
0.1875
 49
0.125
 74
     0
 49
-0.0625
 74
     0
  0
ENDTAB
  0
TABLE
  2
LAYER
  5
2
330
0
100
AcDbSymbolTable
 70
     6
  0
LAYER
  5
10
330
2
100
AcDbSymbolTableRecord
100
AcDbLayerTableRecord
  2
0
 70
     0
 62
     7
  6
CONTINUOUS
  0
LAYER
  5
2A
330
2
100
AcDbSymbolTableRecord
100
AcDbLayerTableRecord
  2
ADP2DETAIL
 70
     0
 62
     5
  6
CONTINUOUS
  0
LAYER
  5
2B
330
2
100
AcDbSymbolTableRecord
100
AcDbLayerTableRecord
  2
ADPDIM
 70
     0
 62
     3
  6
CONTINUOUS
  0
LAYER
  5
2C
330
2
100
AcDbSymbolTableRecord
100
AcDbLayerTableRecord
  2
ADP1DETAIL
 70
     0
 62
     7
  6
CONTINUOUS
  0
LAYER
  5
2D
330
2
100
AcDbSymbolTableRecord
100
AcDbLayerTableRecord
  2
ADP3DETAIL
 70
     0
 62
     1
  6
CONTINUOUS
  0
LAYER
  5
2E
330
2
100
AcDbSymbolTableRecord
100
AcDbLayerTableRecord
  2
DEFPOINTS
 70
     0
 62
     7
  6
CONTINUOUS
  0
ENDTAB
  0
TABLE
  2
STYLE
  5
3
330
0
100
AcDbSymbolTable
 70
     2
  0
STYLE
  5
11
330
3
100
AcDbSymbolTableRecord
100
AcDbTextStyleTableRecord
  2
STANDARD
 70
     0
 40
0.0
 41
1.0
 50
0.0
 71
     0
 42
0.2
  3
txt
  4

  0
STYLE
  5
184
330
3
100
AcDbSymbolTableRecord
100
AcDbTextStyleTableRecord
  2
ARIAL_WIDE
 70
     0
 40
0.0
 41
1.25
 50
0.0
 71
     0
 42
0.2
  3
ARIAL.TTF
  4

1001
ACAD
1000
Arial
1071
       34
  0
ENDTAB
  0
TABLE
  2
VIEW
  5
6
330
0
100
AcDbSymbolTable
 70
     0
  0
ENDTAB
  0
TABLE
  2
UCS
  5
7
330
0
100
AcDbSymbolTable
 70
     0
  0
ENDTAB
  0
TABLE
  2
APPID
  5
9
330
0
100
AcDbSymbolTable
 70
     1
  0
APPID
  5
12
330
9
100
AcDbSymbolTableRecord
100
AcDbRegAppTableRecord
  2
ACAD
 70
     0
  0
ENDTAB
  0
TABLE
  2
DIMSTYLE
  5
A
330
0
100
AcDbSymbolTable
 70
     1
  0
DIMSTYLE
105
182
330
A
100
AcDbSymbolTableRecord
100
AcDbDimStyleTableRecord
  2
STANDARD
 70
     0
  3

  4

  5

  6

  7

 40
1.0
 41
0.18
 42
0.0625
 43
0.38
 44
0.18
 45
0.0
 46
0.0
 47
0.0
 48
0.0
140
0.18
141
0.09
142
0.0
143
25.4
144
1.0
145
0.0
146
1.0
147
0.09
 71
     0
 72
     0
 73
     1
 74
     1
 75
     0
 76
     0
 77
     0
 78
     0
170
     0
171
     2
172
     0
173
     0
174
     0
175
     0
176
     0
177
     0
178
     0
270
     2
271
     4
272
     4
273
     2
274
     2
340
11
275
     0
280
     0
281
     0
282
     0
283
     1
284
     0
285
     0
286
     0
287
     3
288
     0
  0
ENDTAB
  0
TABLE
  2
BLOCK_RECORD
  5
1
330
0
100
AcDbSymbolTable
 70
     5
  0
BLOCK_RECORD
  5
1E
102
{ACAD_XDICTIONARY
360
1C5
102
}
330
1
100
AcDbSymbolTableRecord
100
AcDbBlockTableRecord
  2
*MODEL_SPACE
  0
BLOCK_RECORD
  5
1A
102
{ACAD_XDICTIONARY
360
1C7
102
}
330
1
100
AcDbSymbolTableRecord
100
AcDbBlockTableRecord
  2
*PAPER_SPACE
  0
BLOCK_RECORD
  5
22
330
1
100
AcDbSymbolTableRecord
100
AcDbBlockTableRecord
  2
*D0
  0
BLOCK_RECORD
  5
23
330
1
100
AcDbSymbolTableRecord
100
AcDbBlockTableRecord
  2
*D1
  0
BLOCK_RECORD
  5
24
330
1
100
AcDbSymbolTableRecord
100
AcDbBlockTableRecord
  2
*D2
  0
BLOCK_RECORD
  5
25
330
1
100
AcDbSymbolTableRecord
100
AcDbBlockTableRecord
  2
*D3
  0
BLOCK_RECORD
  5
26
330
1
100
AcDbSymbolTableRecord
100
AcDbBlockTableRecord
  2
*D4
  0
ENDTAB
  0
ENDSEC
  0
SECTION
  2
BLOCKS
  0
BLOCK
  5
31
330
1E
100
AcDbEntity
  8
0
100
AcDbBlockBegin
  2
*MODEL_SPACE
 70
     0
 10
0.0
 20
0.0
 30
0.0
  3
*MODEL_SPACE
  1

  0
ENDBLK
  5
32
330
1E
100
AcDbEntity
  8
0
100
AcDbBlockEnd
  0
BLOCK
  5
2F
330
1A
100
AcDbEntity
 67
     1
  8
0
100
AcDbBlockBegin
  2
*PAPER_SPACE
 70
     0
 10
0.0
 20
0.0
 30
0.0
  3
*PAPER_SPACE
  1

  0
ENDBLK
  5
30
330
1A
100
AcDbEntity
 67
     1
  8
0
100
AcDbBlockEnd
  0
BLOCK
  5
33
330
22
100
AcDbEntity
  8
0
100
AcDbBlockBegin
  2
*D0
 70
     1
 10
0.0
 20
0.0
 30
0.0
  3
*D0
  1

  0
LINE
  5
34
330
22
100
AcDbEntity
  8
0
  6
BYBLOCK
 62
     0
100
AcDbLine
 10
9.286069690898957
 20
2.238707879342661
 30
0.0
 11
8.842851865398984
 21
2.238707879342661
 31
0.0
  0
LINE
  5
35
330
22
100
AcDbEntity
  8
0
  6
BYBLOCK
 62
     0
100
AcDbLine
 10
9.286069690898957
 20
24.23870787934266
 30
0.0
 11
8.842851865398985
 21
24.23870787934266
 31
0.0
  0
LINE
  5
36
330
22
100
AcDbEntity
  8
0
  6
BYBLOCK
 62
     0
100
AcDbLine
 10
9.022851865398983
 20
2.238707879342661
 30
0.0
 11
9.022851865398983
 21
13.00954121267599
 31
0.0
  0
LINE
  5
37
330
22
100
AcDbEntity
  8
0
  6
BYBLOCK
 62
     0
100
AcDbLine
 10
9.022851865398985
 20
24.23870787934266
 30
0.0
 11
9.022851865398983
 21
13.46787454600932
 31
0.0
  0
LINE
  5
38
330
22
100
AcDbEntity
  8
0
  6
BYBLOCK
 62
     0
100
AcDbLine
 10
9.147851865398983
 20
2.113707879342661
 30
0.0
 11
8.897851865398983
 21
2.363707879342661
 31
0.0
  0
LINE
  5
39
330
22
100
AcDbEntity
  8
0
  6
BYBLOCK
 62
     0
100
AcDbLine
 10
9.147851865398985
 20
24.11370787934266
 30
0.0
 11
8.897851865398985
 21
24.36370787934266
 31
0.0
  0
TEXT
  5
3A
330
22
100
AcDbEntity
  8
0
  6
BYBLOCK
 62
     0
100
AcDbText
 10
9.085351865398983
 20
13.13454121267599
 30
0.0
 40
0.125
  1
22
 50
90.0
 72
     1
 11
9.022851865398983
 21
13.23870787934266
 31
0.0
100
AcDbText
 73
     2
  0
POINT
  5
3C
330
22
100
AcDbEntity
  8
DEFPOINTS
  6
BYBLOCK
 62
     0
100
AcDbPoint
 10
9.348569690898957
 20
2.238707879342661
 30
0.0
  0
POINT
  5
3D
330
22
100
AcDbEntity
  8
DEFPOINTS
  6
BYBLOCK
 62
     0
100
AcDbPoint
 10
9.348569690898957
 20
24.23870787934266
 30
0.0
  0
POINT
  5
3E
330
22
100
AcDbEntity
  8
DEFPOINTS
  6
BYBLOCK
 62
     0
100
AcDbPoint
 10
9.022851865398985
 20
24.23870787934266
 30
0.0
  0
ENDBLK
  5
3F
330
22
100
AcDbEntity
  8
0
100
AcDbBlockEnd
  0
BLOCK
  5
40
330
23
100
AcDbEntity
  8
0
100
AcDbBlockBegin
  2
*D1
 70
     1
 10
0.0
 20
0.0
 30
0.0
  3
*D1
  1

  0
LINE
  5
41
330
23
100
AcDbEntity
  8
0
  6
BYBLOCK
 62
     0
100
AcDbLine
 10
7.184867290861626
 20
2.23870787934266
 30
0.0
 11
6.634428979007098
 21
2.23870787934266
 31
0.0
  0
LINE
  5
42
330
23
100
AcDbEntity
  8
0
  6
BYBLOCK
 62
     0
100
AcDbLine
 10
7.184867290861626
 20
3.974034084719426
 30
0.0
 11
6.634428979007098
 21
3.974034084719426
 31
0.0
  0
LINE
  5
43
330
23
100
AcDbEntity
  8
0
  6
BYBLOCK
 62
     0
100
AcDbLine
 10
6.814428979007097
 20
2.23870787934266
 30
0.0
 11
6.814428979007097
 21
2.71053764869771
 31
0.0
  0
LINE
  5
44
330
23
100
AcDbEntity
  8
0
  6
BYBLOCK
 62
     0
100
AcDbLine
 10
6.814428979007097
 20
3.974034084719426
 30
0.0
 11
6.814428979007097
 21
3.502204315364377
 31
0.0
  0
LINE
  5
45
330
23
100
AcDbEntity
  8
0
  6
BYBLOCK
 62
     0
100
AcDbLine
 10
6.939428979007097
 20
2.11370787934266
 30
0.0
 11
6.689428979007097
 21
2.36370787934266
 31
0.0
  0
LINE
  5
46
330
23
100
AcDbEntity
  8
0
  6
BYBLOCK
 62
     0
100
AcDbLine
 10
6.939428979007097
 20
3.849034084719426
 30
0.0
 11
6.689428979007097
 21
4.099034084719427
 31
0.0
  0
TEXT
  5
47
330
23
100
AcDbEntity
  8
0
  6
BYBLOCK
 62
     0
100
AcDbText
 10
6.876928979007097
 20
2.83553764869771
 30
0.0
 40
0.125
  1
1 3/4
 50
90.0
 72
     1
 11
6.814428979007097
 21
3.106370982031043
 31
0.0
100
AcDbText
 73
     2
  0
POINT
  5
48
330
23
100
AcDbEntity
  8
DEFPOINTS
  6
BYBLOCK
 62
     0
100
AcDbPoint
 10
7.247367290861626
 20
2.23870787934266
 30
0.0
  0
POINT
  5
49
330
23
100
AcDbEntity
  8
DEFPOINTS
  6
BYBLOCK
 62
     0
100
AcDbPoint
 10
7.247367290861626
 20
3.974034084719426
 30
0.0
  0
POINT
  5
4A
330
23
100
AcDbEntity
  8
DEFPOINTS
  6
BYBLOCK
 62
     0
100
AcDbPoint
 10
6.814428979007097
 20
3.974034084719426
 30
0.0
  0
ENDBLK
  5
4B
330
23
100
AcDbEntity
  8
0
100
AcDbBlockEnd
  0
BLOCK
  5
4C
330
24
100
AcDbEntity
  8
0
100
AcDbBlockBegin
  2
*D2
 70
     1
 10
0.0
 20
0.0
 30
0.0
  3
*D2
  1

  0
LINE
  5
4D
330
24
100
AcDbEntity
  8
0
  6
BYBLOCK
 62
     0
100
AcDbLine
 10
7.122367290861626
 20
3.974034084719426
 30
0.0
 11
6.634428979007097
 21
3.974034084719426
 31
0.0
  0
LINE
  5
4E
330
24
100
AcDbEntity
  8
0
  6
BYBLOCK
 62
     0
100
AcDbLine
 10
6.973109298563301
 20
8.975070610008589
 30
0.0
 11
6.634428979007098
 21
8.975070610008589
 31
0.0
  0
LINE
  5
4F
330
24
100
AcDbEntity
  8
0
  6
BYBLOCK
 62
     0
100
AcDbLine
 10
6.814428979007097
 20
3.974034084719426
 30
0.0
 11
6.814428979007097
 21
6.307885680697341
 31
0.0
  0
LINE
  5
50
330
24
100
AcDbEntity
  8
0
  6
BYBLOCK
 62
     0
100
AcDbLine
 10
6.814428979007097
 20
8.975070610008589
 30
0.0
 11
6.814428979007097
 21
6.641219014030675
 31
0.0
  0
LINE
  5
51
330
24
100
AcDbEntity
  8
0
  6
BYBLOCK
 62
     0
100
AcDbLine
 10
6.939428979007097
 20
3.849034084719426
 30
0.0
 11
6.689428979007097
 21
4.099034084719427
 31
0.0
  0
LINE
  5
52
330
24
100
AcDbEntity
  8
0
  6
BYBLOCK
 62
     0
100
AcDbLine
 10
6.939428979007097
 20
8.850070610008589
 30
0.0
 11
6.689428979007097
 21
9.100070610008589
 31
0.0
  0
TEXT
  5
53
330
24
100
AcDbEntity
  8
0
  6
BYBLOCK
 62
     0
100
AcDbText
 10
6.876928979007097
 20
6.432885680697341
 30
0.0
 40
0.125
  1
5
 50
90.0
 72
     1
 11
6.814428979007097
 21
6.474552347364008
 31
0.0
100
AcDbText
 73
     2
  0
POINT
  5
54
330
24
100
AcDbEntity
  8
DEFPOINTS
  6
BYBLOCK
 62
     0
100
AcDbPoint
 10
7.184867290861626
 20
3.974034084719426
 30
0.0
  0
POINT
  5
55
330
24
100
AcDbEntity
  8
DEFPOINTS
  6
BYBLOCK
 62
     0
100
AcDbPoint
 10
7.035609298563301
 20
8.975070610008589
 30
0.0
  0
POINT
  5
56
330
24
100
AcDbEntity
  8
DEFPOINTS
  6
BYBLOCK
 62
     0
100
AcDbPoint
 10
6.814428979007097
 20
8.975070610008589
 30
0.0
  0
ENDBLK
  5
57
330
24
100
AcDbEntity
  8
0
100
AcDbBlockEnd
  0
BLOCK
  5
58
330
25
100
AcDbEntity
  8
0
100
AcDbBlockBegin
  2
*D3
 70
     1
 10
0.0
 20
0.0
 30
0.0
  3
*D3
  1

  0
LINE
  5
59
330
25
100
AcDbEntity
  8
0
  6
BYBLOCK
 62
     0
100
AcDbLine
 10
7.247367290861626
 20
24.30120787934266
 30
0.0
 11
7.247367290861626
 21
24.7493917878668
 31
0.0
  0
LINE
  5
5A
330
25
100
AcDbEntity
  8
0
  6
BYBLOCK
 62
     0
100
AcDbLine
 10
8.122367290861626
 20
24.30120787934266
 30
0.0
 11
8.122367290861626
 21
24.7493917878668
 31
0.0
  0
LINE
  5
5B
330
25
100
AcDbEntity
  8
0
  6
BYBLOCK
 62
     0
100
AcDbLine
 10
7.247367290861626
 20
24.5693917878668
 30
0.0
 11
6.997367290861626
 21
24.5693917878668
 31
0.0
  0
LINE
  5
5C
330
25
100
AcDbEntity
  8
0
  6
BYBLOCK
 62
     0
100
AcDbLine
 10
8.122367290861626
 20
24.5693917878668
 30
0.0
 11
8.372367290861626
 21
24.5693917878668
 31
0.0
  0
LINE
  5
5D
330
25
100
AcDbEntity
  8
0
  6
BYBLOCK
 62
     0
100
AcDbLine
 10
7.122367290861626
 20
24.4443917878668
 30
0.0
 11
7.372367290861626
 21
24.6943917878668
 31
0.0
  0
LINE
  5
5E
330
25
100
AcDbEntity
  8
0
  6
BYBLOCK
 62
     0
100
AcDbLine
 10
7.997367290861626
 20
24.4443917878668
 30
0.0
 11
8.247367290861626
 21
24.6943917878668
 31
0.0
  0
TEXT
  5
5F
330
25
100
AcDbEntity
  8
0
  6
BYBLOCK
 62
     0
100
AcDbText
 10
8.497367290861626
 20
24.5068917878668
 30
0.0
 40
0.125
  1
7/8
 72
     1
 11
8.664033957528292
 21
24.5693917878668
 31
0.0
100
AcDbText
 73
     2
  0
POINT
  5
60
330
25
100
AcDbEntity
  8
DEFPOINTS
  6
BYBLOCK
 62
     0
100
AcDbPoint
 10
7.247367290861626
 20
24.23870787934266
 30
0.0
  0
POINT
  5
61
330
25
100
AcDbEntity
  8
DEFPOINTS
  6
BYBLOCK
 62
     0
100
AcDbPoint
 10
8.122367290861626
 20
24.23870787934266
 30
0.0
  0
POINT
  5
62
330
25
100
AcDbEntity
  8
DEFPOINTS
  6
BYBLOCK
 62
     0
100
AcDbPoint
 10
8.122367290861626
 20
24.5693917878668
 30
0.0
  0
ENDBLK
  5
63
330
25
100
AcDbEntity
  8
0
100
AcDbBlockEnd
  0
BLOCK
  5
64
330
26
100
AcDbEntity
  8
0
100
AcDbBlockBegin
  2
*D4
 70
     1
 10
0.0
 20
0.0
 30
0.0
  3
*D4
  1

  0
LINE
  5
65
330
26
100
AcDbEntity
  8
0
  6
BYBLOCK
 62
     0
100
AcDbLine
 10
9.348569690898957
 20
24.30120787934266
 30
0.0
 11
9.348569690898957
 21
24.7532860425025
 31
0.0
  0
LINE
  5
66
330
26
100
AcDbEntity
  8
0
  6
BYBLOCK
 62
     0
100
AcDbLine
 10
10.72356969089895
 20
24.30120787934266
 30
0.0
 11
10.72356969089895
 21
24.7532860425025
 31
0.0
  0
LINE
  5
67
330
26
100
AcDbEntity
  8
0
  6
BYBLOCK
 62
     0
100
AcDbLine
 10
9.348569690898957
 20
24.5732860425025
 30
0.0
 11
9.640236357565623
 21
24.5732860425025
 31
0.0
  0
LINE
  5
68
330
26
100
AcDbEntity
  8
0
  6
BYBLOCK
 62
     0
100
AcDbLine
 10
10.72356969089895
 20
24.5732860425025
 30
0.0
 11
10.43190302423229
 21
24.5732860425025
 31
0.0
  0
LINE
  5
69
330
26
100
AcDbEntity
  8
0
  6
BYBLOCK
 62
     0
100
AcDbLine
 10
9.223569690898957
 20
24.4482860425025
 30
0.0
 11
9.473569690898957
 21
24.6982860425025
 31
0.0
  0
LINE
  5
6A
330
26
100
AcDbEntity
  8
0
  6
BYBLOCK
 62
     0
100
AcDbLine
 10
10.59856969089895
 20
24.4482860425025
 30
0.0
 11
10.84856969089895
 21
24.6982860425025
 31
0.0
  0
TEXT
  5
6B
330
26
100
AcDbEntity
  8
0
  6
BYBLOCK
 62
     0
100
AcDbText
 10
9.765236357565623
 20
24.5107860425025
 30
0.0
 40
0.125
  1
1 3/8
 72
     1
 11
10.03606969089895
 21
24.5732860425025
 31
0.0
100
AcDbText
 73
     2
  0
POINT
  5
6C
330
26
100
AcDbEntity
  8
DEFPOINTS
  6
BYBLOCK
 62
     0
100
AcDbPoint
 10
9.348569690898957
 20
24.23870787934266
 30
0.0
  0
POINT
  5
6D
330
26
100
AcDbEntity
  8
DEFPOINTS
  6
BYBLOCK
 62
     0
100
AcDbPoint
 10
10.72356969089895
 20
24.23870787934266
 30
0.0
  0
POINT
  5
6E
330
26
100
AcDbEntity
  8
DEFPOINTS
  6
BYBLOCK
 62
     0
100
AcDbPoint
 10
10.72356969089895
 20
24.5732860425025
 30
0.0
  0
ENDBLK
  5
6F
330
26
100
AcDbEntity
  8
0
100
AcDbBlockEnd
  0
ENDSEC
  0
SECTION
  2
ENTITIES
  0
LINE
  5
70
330
1E
100
AcDbEntity
  8
ADP1DETAIL
100
AcDbLine
 10
19.41381957010118
 20
2.23870787934266
 30
0.0
 11
19.41381957010118
 21
24.23870787934266
 31
0.0
  0
LINE
  5
71
330
1E
100
AcDbEntity
  8
ADP1DETAIL
100
AcDbLine
 10
20.28881957010117
 20
24.23870787934266
 30
0.0
 11
20.28881957010117
 21
2.238707879342662
 31
0.0
  0
LINE
  5
72
330
1E
100
AcDbEntity
  8
ADP1DETAIL
100
AcDbLine
 10
22.8900219701385
 20
24.23870787934266
 30
0.0
 11
22.8900219701385
 21
2.238707879342662
 31
0.0
  0
LINE
  5
73
330
1E
100
AcDbEntity
  8
ADP1DETAIL
100
AcDbLine
 10
21.5150219701385
 20
24.23870787934266
 30
0.0
 11
21.5150219701385
 21
2.238707879342662
 31
0.0
  0
DIMENSION
  5
74
330
1E
100
AcDbEntity
  8
ADPDIM
100
AcDbDimension
  2
*D0
 10
21.18930414463853
 20
24.23870787934266
 30
0.0
 11
21.18930414463853
 21
13.23870787934266
 31
0.0
 12
12.16645227923955
 22
0.0
 32
0.0
100
AcDbAlignedDimension
 13
21.5150219701385
 23
2.238707879342662
 33
0.0
 14
21.5150219701385
 24
24.23870787934266
 34
0.0
 50
90.0
100
AcDbRotatedDimension
  0
LINE
  5
75
330
1E
100
AcDbEntity
  8
ADP3DETAIL
  6
CENTER2
100
AcDbLine
 10
19.85131957010118
 20
9.808210548044311
 30
0.0
 11
19.85131957010118
 21
2.213706508347344
 31
0.0
  0
DIMENSION
  5
76
330
1E
100
AcDbEntity
  8
ADPDIM
100
AcDbDimension
  2
*D2
 10
18.98088125824665
 20
8.975070610008589
 30
0.0
 11
18.98088125824664
 21
6.474552347364008
 31
0.0
 12
12.16645227923955
 22
0.0
 32
0.0
100
AcDbAlignedDimension
 13
19.35131957010117
 23
3.974034084719427
 33
0.0
 14
19.20206157780285
 24
8.975070610008589
 34
0.0
 50
90.0
100
AcDbRotatedDimension
  0
LINE
  5
77
330
1E
100
AcDbEntity
  8
ADP2DETAIL
  6
HIDDEN2
100
AcDbLine
 10
19.53881957010118
 20
8.238707879342662
 30
0.0
 11
19.53881957010118
 21
8.988707879342662
 31
0.0
  0
LINE
  5
78
330
1E
100
AcDbEntity
  8
ADP2DETAIL
  6
HIDDEN2
100
AcDbLine
 10
20.16381957010117
 20
8.238707879342662
 30
0.0
 11
20.16381957010117
 21
8.988707879342662
 31
0.0
  0
LINE
  5
79
330
1E
100
AcDbEntity
  8
ADP1DETAIL
100
AcDbLine
 10
19.63256957010117
 20
8.461877517734627
 30
0.0
 11
19.63256957010117
 21
8.988707879342662
 31
0.0
  0
LINE
  5
7A
330
1E
100
AcDbEntity
  8
ADP1DETAIL
100
AcDbLine
 10
20.07006957010117
 20
8.461877517734626
 30
0.0
 11
20.07006957010117
 21
8.988707879342662
 31
0.0
  0
LINE
  5
7B
330
1E
100
AcDbEntity
  8
ADP2DETAIL
  6
HIDDEN2
100
AcDbLine
 10
22.25071474436482
 20
7.93177817261558
 30
0.0
 11
22.2025219701385
 21
9.311838661766659
 31
0.0
  0
ARC
  5
7C
330
1E
100
AcDbEntity
  8
ADP1DETAIL
100
AcDbCircle
 10
19.85131957010118
 20
8.238707879342662
 30
0.0
 40
0.3125
100
AcDbArc
 50
134.4270040008054
 51
45.57299599919413
  0
ARC
  5
7D
330
1E
100
AcDbEntity
  8
ADP1DETAIL
100
AcDbCircle
 10
19.85131957010118
 20
3.988707879342662
 30
0.0
 40
0.21875
100
AcDbArc
 50
0.0
 51
180.0
  0
ARC
  5
7E
330
1E
100
AcDbEntity
  8
ADP1DETAIL
100
AcDbCircle
 10
19.85131957010118
 20
3.238707879342662
 30
0.0
 40
0.3125
100
AcDbArc
 50
134.4270040008055
 51
45.57299599919413
  0
ARC
  5
7F
330
1E
100
AcDbEntity
  8
ADP2DETAIL
  6
HIDDEN2
100
AcDbCircle
 10
19.85131957010118
 20
3.988707879342662
 30
0.0
 40
0.3125
100
AcDbArc
 50
0.0
 51
180.0
  0
LINE
  5
80
330
1E
100
AcDbEntity
  8
ADP1DETAIL
100
AcDbLine
 10
20.28881957010117
 20
2.238707879342662
 30
0.0
 11
19.41381957010118
 21
2.23870787934266
 31
0.0
  0
LINE
  5
81
330
1E
100
AcDbEntity
  8
ADP3DETAIL
  6
CENTER2
100
AcDbLine
 10
19.22282079362686
 20
3.975070610008589
 30
0.0
 11
20.4998827618404
 21
3.975070610008589
 31
0.0
  0
LINE
  5
82
330
1E
100
AcDbEntity
  8
ADP3DETAIL
  6
CENTER2
100
AcDbLine
 10
19.22282079362686
 20
3.225070610008589
 30
0.0
 11
20.44762613842867
 21
3.225070610008589
 31
0.0
  0
LINE
  5
83
330
1E
100
AcDbEntity
  8
ADP3DETAIL
  6
CENTER2
100
AcDbLine
 10
19.22282079362686
 20
8.225070610008589
 30
0.0
 11
20.57218248893502
 21
8.225070610008589
 31
0.0
  0
LINE
  5
84
330
1E
100
AcDbEntity
  8
ADP1DETAIL
100
AcDbLine
 10
19.27424339949562
 20
1.371790699345478
 30
0.0
 11
20.42839574070673
 21
1.371790699345478
 31
0.0
  0
LINE
  5
85
330
1E
100
AcDbEntity
  8
ADP1DETAIL
100
AcDbLine
 10
20.39739574070674
 20
1.246790699345478
 30
0.0
 11
19.30524339949561
 21
1.246790699345478
 31
0.0
  0
LINE
  5
86
330
1E
100
AcDbEntity
  8
ADP1DETAIL
100
AcDbLine
 10
20.33464574070673
 20
1.860756965266894
 30
0.0
 11
19.36799339949562
 21
1.860756965266894
 31
0.0
  0
LINE
  5
87
330
1E
100
AcDbEntity
  8
ADP2DETAIL
  6
HIDDEN2
100
AcDbLine
 10
19.94386855137311
 20
2.905461148445835
 30
0.0
 11
19.94506957010117
 21
2.246790699345478
 31
0.0
  0
LINE
  5
88
330
1E
100
AcDbEntity
  8
ADP2DETAIL
  6
HIDDEN2
100
AcDbLine
 10
19.75756957010117
 20
2.246790699345478
 30
0.0
 11
19.75636855137311
 21
2.93352949987746
 31
0.0
  0
DIMENSION
  5
89
330
1E
100
AcDbEntity
  8
ADPDIM
100
AcDbDimension
  2
*D1
 10
18.98088125824665
 20
3.974034084719427
 30
0.0
 11
18.98088125824665
 21
3.106370982031043
 31
0.0
 12
12.16645227923955
 22
0.0
 32
0.0
100
AcDbAlignedDimension
 13
19.41381957010118
 23
2.23870787934266
 33
0.0
 14
19.41381957010118
 24
3.974034084719427
 34
0.0
 50
90.0
100
AcDbRotatedDimension
  0
ARC
  5
8A
330
1E
100
AcDbEntity
  8
ADP1DETAIL
100
AcDbCircle
 10
19.85131437993234
 20
1.395937475632269
 30
0.0
 40
0.2069436221804713
100
AcDbArc
 50
225.3921709449893
 51
311.8812243426002
  0
ARC
  5
8B
330
1E
100
AcDbEntity
  8
ADP1DETAIL
100
AcDbCircle
 10
19.30524339949561
 20
1.277790699345478
 30
0.0
 40
0.031
100
AcDbArc
 50
180.0
 51
270.0
  0
LINE
  5
8C
330
1E
100
AcDbEntity
  8
ADP1DETAIL
100
AcDbLine
 10
19.27424339949562
 20
1.277790699345478
 30
0.0
 11
19.27424339949562
 21
1.371790699345478
 31
0.0
  0
LINE
  5
8D
330
1E
100
AcDbEntity
  8
ADP1DETAIL
100
AcDbLine
 10
19.36799339949562
 20
1.371790699345478
 30
0.0
 11
19.36799339949562
 21
1.860756965266894
 31
0.0
  0
LINE
  5
8E
330
1E
100
AcDbEntity
  8
ADP1DETAIL
100
AcDbLine
 10
19.94506957010117
 20
1.871790699345478
 30
0.0
 11
19.94506957010117
 21
2.246790699345478
 31
0.0
  0
LINE
  5
8F
330
1E
100
AcDbEntity
  8
ADP1DETAIL
100
AcDbLine
 10
19.75756957010117
 20
2.246790699345478
 30
0.0
 11
19.75756957010117
 21
1.871790699345478
 31
0.0
  0
LINE
  5
90
330
1E
100
AcDbEntity
  8
ADP1DETAIL
100
AcDbLine
 10
19.75756957010117
 20
1.934290699345478
 30
0.0
 11
19.94506957010117
 21
1.934290699345478
 31
0.0
  0
LINE
  5
91
330
1E
100
AcDbEntity
  8
ADP1DETAIL
100
AcDbLine
 10
19.75756957010117
 20
2.059290699345478
 30
0.0
 11
19.94506957010117
 21
2.059290699345478
 31
0.0
  0
LINE
  5
92
330
1E
100
AcDbEntity
  8
ADP1DETAIL
100
AcDbLine
 10
19.75756957010117
 20
1.996790699345478
 30
0.0
 11
19.94506957010117
 21
1.996790699345478
 31
0.0
  0
LINE
  5
93
330
1E
100
AcDbEntity
  8
ADP1DETAIL
100
AcDbLine
 10
19.75756957010117
 20
1.871790699345478
 30
0.0
 11
19.94506957010117
 21
1.871790699345478
 31
0.0
  0
LINE
  5
94
330
1E
100
AcDbEntity
  8
ADP2DETAIL
  6
HIDDEN2
100
AcDbLine
 10
19.75756957010117
 20
1.496790699345478
 30
0.0
 11
19.94506957010117
 21
1.496790699345478
 31
0.0
  0
LINE
  5
95
330
1E
100
AcDbEntity
  8
ADP2DETAIL
  6
HIDDEN2
100
AcDbLine
 10
19.75756957010117
 20
1.434290699345478
 30
0.0
 11
19.94506957010117
 21
1.434290699345478
 31
0.0
  0
LINE
  5
96
330
1E
100
AcDbEntity
  8
ADP2DETAIL
  6
HIDDEN2
100
AcDbLine
 10
19.75756957010117
 20
1.371790699345478
 30
0.0
 11
19.94506957010117
 21
1.371790699345478
 31
0.0
  0
LINE
  5
97
330
1E
100
AcDbEntity
  8
ADP2DETAIL
  6
HIDDEN2
100
AcDbLine
 10
19.75756957010117
 20
1.309290699345478
 30
0.0
 11
19.94506957010117
 21
1.309290699345478
 31
0.0
  0
LINE
  5
98
330
1E
100
AcDbEntity
  8
ADP2DETAIL
  6
HIDDEN2
100
AcDbLine
 10
19.75756957010117
 20
1.246790699345478
 30
0.0
 11
19.94506957010117
 21
1.246790699345478
 31
0.0
  0
LINE
  5
99
330
1E
100
AcDbEntity
  8
ADP1DETAIL
100
AcDbLine
 10
19.79396723407051
 20
2.090540699345478
 30
0.0
 11
19.90195943719353
 21
2.090540699345478
 31
0.0
  0
LINE
  5
9A
330
1E
100
AcDbEntity
  8
ADP1DETAIL
100
AcDbLine
 10
19.79396723407051
 20
2.028040699345478
 30
0.0
 11
19.90195943719353
 21
2.028040699345478
 31
0.0
  0
LINE
  5
9B
330
1E
100
AcDbEntity
  8
ADP1DETAIL
100
AcDbLine
 10
19.79396723407051
 20
1.965540699345478
 30
0.0
 11
19.90195943719353
 21
1.965540699345478
 31
0.0
  0
LINE
  5
9C
330
1E
100
AcDbEntity
  8
ADP1DETAIL
100
AcDbLine
 10
19.79396723407051
 20
1.903040699345478
 30
0.0
 11
19.90195943719353
 21
1.903040699345478
 31
0.0
  0
LINE
  5
9D
330
1E
100
AcDbEntity
  8
ADP1DETAIL
100
AcDbLine
 10
19.79396723407051
 20
1.840540699345478
 30
0.0
 11
19.90195943719353
 21
1.840540699345478
 31
0.0
  0
LINE
  5
9E
330
1E
100
AcDbEntity
  8
ADP2DETAIL
  6
HIDDEN2
100
AcDbLine
 10
19.79396723407051
 20
1.340540699345478
 30
0.0
 11
19.90195943719353
 21
1.340540699345478
 31
0.0
  0
LINE
  5
9F
330
1E
100
AcDbEntity
  8
ADP2DETAIL
  6
HIDDEN2
100
AcDbLine
 10
19.79396723407051
 20
1.403040699345478
 30
0.0
 11
19.90195943719353
 21
1.403040699345478
 31
0.0
  0
LINE
  5
A0
330
1E
100
AcDbEntity
  8
ADP2DETAIL
  6
HIDDEN2
100
AcDbLine
 10
19.79396723407051
 20
1.465540699345478
 30
0.0
 11
19.90195943719353
 21
1.465540699345478
 31
0.0
  0
LINE
  5
A1
330
1E
100
AcDbEntity
  8
ADP2DETAIL
  6
HIDDEN2
100
AcDbLine
 10
19.79396723407051
 20
1.278040699345478
 30
0.0
 11
19.90195943719353
 21
1.278040699345478
 31
0.0
  0
LINE
  5
A2
330
1E
100
AcDbEntity
  8
ADP2DETAIL
  6
HIDDEN2
100
AcDbLine
 10
19.94506957010117
 20
1.871790699345478
 30
0.0
 11
19.94506957010117
 21
1.246790699345478
 31
0.0
  0
LINE
  5
A3
330
1E
100
AcDbEntity
  8
ADP2DETAIL
  6
HIDDEN2
100
AcDbLine
 10
19.75756957010117
 20
1.246790699345478
 30
0.0
 11
19.75756957010117
 21
1.871790699345478
 31
0.0
  0
LINE
  5
A4
330
1E
100
AcDbEntity
  8
ADP2DETAIL
  6
HIDDEN2
100
AcDbLine
 10
19.79396723407051
 20
1.528040699345478
 30
0.0
 11
19.90195943719353
 21
1.528040699345478
 31
0.0
  0
LINE
  5
A5
330
1E
100
AcDbEntity
  8
ADP2DETAIL
  6
HIDDEN2
100
AcDbLine
 10
19.79396723407051
 20
1.590540699345478
 30
0.0
 11
19.90195943719353
 21
1.590540699345478
 31
0.0
  0
LINE
  5
A6
330
1E
100
AcDbEntity
  8
ADP2DETAIL
  6
HIDDEN2
100
AcDbLine
 10
19.79396723407051
 20
1.653040699345478
 30
0.0
 11
19.90195943719353
 21
1.653040699345478
 31
0.0
  0
LINE
  5
A7
330
1E
100
AcDbEntity
  8
ADP2DETAIL
  6
HIDDEN2
100
AcDbLine
 10
19.79396723407051
 20
1.715540699345478
 30
0.0
 11
19.90195943719353
 21
1.715540699345478
 31
0.0
  0
LINE
  5
A8
330
1E
100
AcDbEntity
  8
ADP2DETAIL
  6
HIDDEN2
100
AcDbLine
 10
19.79396723407051
 20
1.778040699345478
 30
0.0
 11
19.90195943719353
 21
1.778040699345478
 31
0.0
  0
LINE
  5
A9
330
1E
100
AcDbEntity
  8
ADP2DETAIL
  6
HIDDEN2
100
AcDbLine
 10
19.75756957010117
 20
1.559290699345478
 30
0.0
 11
19.94506957010117
 21
1.559290699345478
 31
0.0
  0
LINE
  5
AA
330
1E
100
AcDbEntity
  8
ADP2DETAIL
  6
HIDDEN2
100
AcDbLine
 10
19.75756957010117
 20
1.621790699345478
 30
0.0
 11
19.94506957010117
 21
1.621790699345478
 31
0.0
  0
LINE
  5
AB
330
1E
100
AcDbEntity
  8
ADP2DETAIL
  6
HIDDEN2
100
AcDbLine
 10
19.75756957010117
 20
1.684290699345478
 30
0.0
 11
19.94506957010117
 21
1.684290699345478
 31
0.0
  0
LINE
  5
AC
330
1E
100
AcDbEntity
  8
ADP2DETAIL
  6
HIDDEN2
100
AcDbLine
 10
19.75756957010117
 20
1.746790699345478
 30
0.0
 11
19.94506957010117
 21
1.746790699345478
 31
0.0
  0
LINE
  5
AD
330
1E
100
AcDbEntity
  8
ADP2DETAIL
  6
HIDDEN2
100
AcDbLine
 10
19.75756957010117
 20
1.809290699345478
 30
0.0
 11
19.94506957010117
 21
1.809290699345478
 31
0.0
  0
LINE
  5
AE
330
1E
100
AcDbEntity
  8
ADP1DETAIL
100
AcDbLine
 10
19.75756957010117
 20
2.246790699345478
 30
0.0
 11
19.94506957010117
 21
2.246790699345478
 31
0.0
  0
LINE
  5
AF
330
1E
100
AcDbEntity
  8
ADP1DETAIL
100
AcDbLine
 10
19.75756957010117
 20
2.184290699345478
 30
0.0
 11
19.94506957010117
 21
2.184290699345478
 31
0.0
  0
LINE
  5
B0
330
1E
100
AcDbEntity
  8
ADP1DETAIL
100
AcDbLine
 10
19.75756957010117
 20
2.121790699345478
 30
0.0
 11
19.94506957010117
 21
2.121790699345478
 31
0.0
  0
LINE
  5
B1
330
1E
100
AcDbEntity
  8
ADP1DETAIL
100
AcDbLine
 10
19.79396723407051
 20
2.215540699345478
 30
0.0
 11
19.90195943719353
 21
2.215540699345478
 31
0.0
  0
LINE
  5
B2
330
1E
100
AcDbEntity
  8
ADP1DETAIL
100
AcDbLine
 10
19.79396723407051
 20
2.153040699345478
 30
0.0
 11
19.90195943719353
 21
2.153040699345478
 31
0.0
  0
LINE
  5
B3
330
1E
100
AcDbEntity
  8
ADP2DETAIL
  6
HIDDEN2
100
AcDbLine
 10
19.79396723407051
 20
2.278040699345478
 30
0.0
 11
19.90195943719353
 21
2.278040699345478
 31
0.0
  0
LINE
  5
B4
330
1E
100
AcDbEntity
  8
ADP1DETAIL
  6
HIDDEN2
100
AcDbLine
 10
19.94386855137311
 20
3.405461148445835
 30
0.0
 11
19.94386855137311
 21
2.905461148445835
 31
0.0
  0
LINE
  5
B5
330
1E
100
AcDbEntity
  8
ADP1DETAIL
  6
HIDDEN2
100
AcDbLine
 10
19.75636855137311
 20
2.905461148445835
 30
0.0
 11
19.75636855137311
 21
3.405461148445835
 31
0.0
  0
LINE
  5
B6
330
1E
100
AcDbEntity
  8
ADP1DETAIL
100
AcDbLine
 10
19.75636855137311
 20
2.93352949987746
 30
0.0
 11
19.75636855137311
 21
3.405461148445835
 31
0.0
  0
LINE
  5
B7
330
1E
100
AcDbEntity
  8
ADP1DETAIL
100
AcDbLine
 10
19.94386855137311
 20
3.405461148445835
 30
0.0
 11
19.94386855137311
 21
2.93352949987746
 31
0.0
  0
LINE
  5
B8
330
1E
100
AcDbEntity
  8
ADP2DETAIL
  6
HIDDEN2
100
AcDbLine
 10
19.53881957010118
 20
3.238707879342662
 30
0.0
 11
19.53881957010118
 21
3.988707879342662
 31
0.0
  0
LINE
  5
B9
330
1E
100
AcDbEntity
  8
ADP2DETAIL
  6
HIDDEN2
100
AcDbLine
 10
19.75636855137311
 20
2.905461148445835
 30
0.0
 11
19.94386855137311
 21
2.905461148445835
 31
0.0
  0
LINE
  5
BA
330
1E
100
AcDbEntity
  8
ADP2DETAIL
  6
HIDDEN2
100
AcDbLine
 10
19.75636855137311
 20
2.842961148445835
 30
0.0
 11
19.94386855137311
 21
2.842961148445835
 31
0.0
  0
LINE
  5
BB
330
1E
100
AcDbEntity
  8
ADP2DETAIL
  6
HIDDEN2
100
AcDbLine
 10
19.75756957010117
 20
2.684290699345478
 30
0.0
 11
19.94506957010117
 21
2.684290699345478
 31
0.0
  0
LINE
  5
BC
330
1E
100
AcDbEntity
  8
ADP2DETAIL
  6
HIDDEN2
100
AcDbLine
 10
19.75756957010117
 20
2.309290699345478
 30
0.0
 11
19.94506957010117
 21
2.309290699345478
 31
0.0
  0
LINE
  5
BD
330
1E
100
AcDbEntity
  8
ADP2DETAIL
  6
HIDDEN2
100
AcDbLine
 10
19.75756957010117
 20
2.371790699345478
 30
0.0
 11
19.94506957010117
 21
2.371790699345478
 31
0.0
  0
LINE
  5
BE
330
1E
100
AcDbEntity
  8
ADP2DETAIL
  6
HIDDEN2
100
AcDbLine
 10
19.75756957010117
 20
2.434290699345478
 30
0.0
 11
19.94506957010117
 21
2.434290699345478
 31
0.0
  0
LINE
  5
BF
330
1E
100
AcDbEntity
  8
ADP2DETAIL
  6
HIDDEN2
100
AcDbLine
 10
19.75756957010117
 20
2.496790699345478
 30
0.0
 11
19.94506957010117
 21
2.496790699345478
 31
0.0
  0
LINE
  5
C0
330
1E
100
AcDbEntity
  8
ADP2DETAIL
  6
HIDDEN2
100
AcDbLine
 10
19.75756957010117
 20
2.559290699345478
 30
0.0
 11
19.94506957010117
 21
2.559290699345478
 31
0.0
  0
LINE
  5
C1
330
1E
100
AcDbEntity
  8
ADP2DETAIL
  6
HIDDEN2
100
AcDbLine
 10
19.75756957010117
 20
2.621790699345478
 30
0.0
 11
19.94506957010117
 21
2.621790699345478
 31
0.0
  0
LINE
  5
C2
330
1E
100
AcDbEntity
  8
ADP2DETAIL
  6
HIDDEN2
100
AcDbLine
 10
19.75756957010117
 20
2.746790699345478
 30
0.0
 11
19.94506957010117
 21
2.746790699345478
 31
0.0
  0
LINE
  5
C3
330
1E
100
AcDbEntity
  8
ADP1DETAIL
  6
HIDDEN2
100
AcDbLine
 10
19.79276621534245
 20
2.936711148445835
 30
0.0
 11
19.90075841846547
 21
2.936711148445835
 31
0.0
  0
LINE
  5
C4
330
1E
100
AcDbEntity
  8
ADP2DETAIL
  6
HIDDEN2
100
AcDbLine
 10
19.79276621534245
 20
2.811711148445835
 30
0.0
 11
19.90075841846547
 21
2.811711148445835
 31
0.0
  0
LINE
  5
C5
330
1E
100
AcDbEntity
  8
ADP2DETAIL
  6
HIDDEN2
100
AcDbLine
 10
19.79276621534245
 20
2.874211148445835
 30
0.0
 11
19.90075841846547
 21
2.874211148445835
 31
0.0
  0
LINE
  5
C6
330
1E
100
AcDbEntity
  8
ADP2DETAIL
  6
HIDDEN2
100
AcDbLine
 10
19.79396723407051
 20
2.403040699345478
 30
0.0
 11
19.90195943719353
 21
2.403040699345478
 31
0.0
  0
LINE
  5
C7
330
1E
100
AcDbEntity
  8
ADP2DETAIL
  6
HIDDEN2
100
AcDbLine
 10
19.79396723407051
 20
2.465540699345478
 30
0.0
 11
19.90195943719353
 21
2.465540699345478
 31
0.0
  0
LINE
  5
C8
330
1E
100
AcDbEntity
  8
ADP2DETAIL
  6
HIDDEN2
100
AcDbLine
 10
19.79396723407051
 20
2.528040699345478
 30
0.0
 11
19.90195943719353
 21
2.528040699345478
 31
0.0
  0
LINE
  5
C9
330
1E
100
AcDbEntity
  8
ADP2DETAIL
  6
HIDDEN2
100
AcDbLine
 10
19.79396723407051
 20
2.590540699345478
 30
0.0
 11
19.90195943719353
 21
2.590540699345478
 31
0.0
  0
LINE
  5
CA
330
1E
100
AcDbEntity
  8
ADP2DETAIL
  6
HIDDEN2
100
AcDbLine
 10
19.79396723407051
 20
2.653040699345478
 30
0.0
 11
19.90195943719353
 21
2.653040699345478
 31
0.0
  0
LINE
  5
CB
330
1E
100
AcDbEntity
  8
ADP2DETAIL
  6
HIDDEN2
100
AcDbLine
 10
19.79396723407051
 20
2.340540699345478
 30
0.0
 11
19.90195943719353
 21
2.340540699345478
 31
0.0
  0
LINE
  5
CC
330
1E
100
AcDbEntity
  8
ADP2DETAIL
  6
HIDDEN2
100
AcDbLine
 10
19.79396723407051
 20
2.715540699345478
 30
0.0
 11
19.90195943719353
 21
2.715540699345478
 31
0.0
  0
LINE
  5
CD
330
1E
100
AcDbEntity
  8
ADP1DETAIL
100
AcDbLine
 10
19.79276621534245
 20
2.999211148445835
 30
0.0
 11
19.90075841846547
 21
2.999211148445835
 31
0.0
  0
LINE
  5
CE
330
1E
100
AcDbEntity
  8
ADP1DETAIL
100
AcDbLine
 10
19.79276621534245
 20
3.124211148445835
 30
0.0
 11
19.90075841846547
 21
3.124211148445835
 31
0.0
  0
LINE
  5
CF
330
1E
100
AcDbEntity
  8
ADP1DETAIL
100
AcDbLine
 10
19.79276621534245
 20
3.061711148445835
 30
0.0
 11
19.90075841846547
 21
3.061711148445835
 31
0.0
  0
LINE
  5
D0
330
1E
100
AcDbEntity
  8
ADP1DETAIL
100
AcDbLine
 10
19.75636855137311
 20
3.092961148445835
 30
0.0
 11
19.94386855137311
 21
3.092961148445835
 31
0.0
  0
LINE
  5
D1
330
1E
100
AcDbEntity
  8
ADP1DETAIL
100
AcDbLine
 10
19.75636855137311
 20
3.030461148445835
 30
0.0
 11
19.94386855137311
 21
3.030461148445835
 31
0.0
  0
LINE
  5
D2
330
1E
100
AcDbEntity
  8
ADP1DETAIL
100
AcDbLine
 10
19.75636855137311
 20
2.967961148445835
 30
0.0
 11
19.94386855137311
 21
2.967961148445835
 31
0.0
  0
LINE
  5
D3
330
1E
100
AcDbEntity
  8
ADP1DETAIL
100
AcDbLine
 10
19.79276621534245
 20
3.374211148445835
 30
0.0
 11
19.90075841846547
 21
3.374211148445835
 31
0.0
  0
LINE
  5
D4
330
1E
100
AcDbEntity
  8
ADP1DETAIL
100
AcDbLine
 10
19.79276621534245
 20
3.311711148445835
 30
0.0
 11
19.90075841846547
 21
3.311711148445835
 31
0.0
  0
LINE
  5
D5
330
1E
100
AcDbEntity
  8
ADP1DETAIL
100
AcDbLine
 10
19.79276621534245
 20
3.249211148445835
 30
0.0
 11
19.90075841846547
 21
3.249211148445835
 31
0.0
  0
LINE
  5
D6
330
1E
100
AcDbEntity
  8
ADP1DETAIL
100
AcDbLine
 10
19.79276621534245
 20
3.186711148445835
 30
0.0
 11
19.90075841846547
 21
3.186711148445835
 31
0.0
  0
LINE
  5
D7
330
1E
100
AcDbEntity
  8
ADP1DETAIL
100
AcDbLine
 10
19.75636855137311
 20
3.280461148445835
 30
0.0
 11
19.94386855137311
 21
3.280461148445835
 31
0.0
  0
LINE
  5
D8
330
1E
100
AcDbEntity
  8
ADP1DETAIL
100
AcDbLine
 10
19.75636855137311
 20
3.217961148445835
 30
0.0
 11
19.94386855137311
 21
3.217961148445835
 31
0.0
  0
LINE
  5
D9
330
1E
100
AcDbEntity
  8
ADP1DETAIL
100
AcDbLine
 10
19.75636855137311
 20
3.155461148445835
 30
0.0
 11
19.94386855137311
 21
3.155461148445835
 31
0.0
  0
LINE
  5
DA
330
1E
100
AcDbEntity
  8
ADP1DETAIL
100
AcDbLine
 10
19.75636855137311
 20
3.342961148445835
 30
0.0
 11
19.94386855137311
 21
3.342961148445835
 31
0.0
  0
LINE
  5
DB
330
1E
100
AcDbEntity
  8
ADP1DETAIL
100
AcDbLine
 10
19.63256957010117
 20
3.461877517734626
 30
0.0
 11
19.63256957010117
 21
3.988707879342662
 31
0.0
  0
LINE
  5
DC
330
1E
100
AcDbEntity
  8
ADP1DETAIL
100
AcDbLine
 10
19.75636855137311
 20
3.405461148445835
 30
0.0
 11
19.94386855137311
 21
3.405461148445835
 31
0.0
  0
LINE
  5
DD
330
1E
100
AcDbEntity
  8
ADP1DETAIL
100
AcDbLine
 10
21.45252197013851
 20
1.363707879342662
 30
0.0
 11
22.95252197013851
 21
1.363707879342662
 31
0.0
  0
LINE
  5
DE
330
1E
100
AcDbEntity
  8
ADP1DETAIL
100
AcDbLine
 10
22.9215219701385
 20
1.238707879342662
 30
0.0
 11
21.48352197013851
 21
1.238707879342662
 31
0.0
  0
LINE
  5
DF
330
1E
100
AcDbEntity
  8
ADP1DETAIL
100
AcDbLine
 10
20.33464574070673
 20
1.860756965266894
 30
0.0
 11
20.33464574070673
 21
1.371790699345478
 31
0.0
  0
LINE
  5
E0
330
1E
100
AcDbEntity
  8
ADP1DETAIL
100
AcDbLine
 10
20.42839574070673
 20
1.371790699345478
 30
0.0
 11
20.42839574070673
 21
1.277790699345478
 31
0.0
  0
ARC
  5
E1
330
1E
100
AcDbEntity
  8
ADP1DETAIL
100
AcDbCircle
 10
20.39739574070674
 20
1.277790699345478
 30
0.0
 40
0.031
100
AcDbArc
 50
270.0
 51
0.0
  0
ARC
  5
E2
330
1E
100
AcDbEntity
  8
ADP1DETAIL
100
AcDbCircle
 10
21.48352197013851
 20
1.269707879342661
 30
0.0
 40
0.031
100
AcDbArc
 50
180.0
 51
270.0
  0
LINE
  5
E3
330
1E
100
AcDbEntity
  8
ADP1DETAIL
100
AcDbLine
 10
21.45252197013851
 20
1.269707879342661
 30
0.0
 11
21.45252197013851
 21
1.363707879342662
 31
0.0
  0
LINE
  5
E4
330
1E
100
AcDbEntity
  8
ADP2DETAIL
  6
HIDDEN2
100
AcDbLine
 10
20.16381957010117
 20
3.238707879342662
 30
0.0
 11
20.16381957010117
 21
3.988707879342662
 31
0.0
  0
LINE
  5
E5
330
1E
100
AcDbEntity
  8
ADP1DETAIL
100
AcDbLine
 10
20.07006957010117
 20
3.461877517734624
 30
0.0
 11
20.07006957010117
 21
3.988707879342662
 31
0.0
  0
LINE
  5
E6
330
1E
100
AcDbEntity
  8
ADP2DETAIL
  6
HIDDEN2
100
AcDbLine
 10
22.1087719701385
 20
2.238707879342662
 30
0.0
 11
22.1087719701385
 21
2.738707879342662
 31
0.0
  0
LINE
  5
E7
330
1E
100
AcDbEntity
  8
ADP1DETAIL
100
AcDbLine
 10
22.36361666718211
 20
2.925388101113348
 30
0.0
 11
22.36361666718211
 21
2.238707879342662
 31
0.0
  0
LINE
  5
E8
330
1E
100
AcDbEntity
  8
ADP2DETAIL
  6
HIDDEN2
100
AcDbLine
 10
22.2962719701385
 20
2.738707879342662
 30
0.0
 11
22.2962719701385
 21
2.238707879342662
 31
0.0
  0
LINE
  5
E9
330
1E
100
AcDbEntity
  8
ADP2DETAIL
  6
HIDDEN2
100
AcDbLine
 10
22.36361666718211
 20
2.897319749681724
 30
0.0
 11
22.36361666718211
 21
2.272319749681724
 31
0.0
  0
LINE
  5
EA
330
1E
100
AcDbEntity
  8
ADP1DETAIL
100
AcDbLine
 10
22.55111666718211
 20
2.238707879342662
 30
0.0
 11
22.55111666718211
 21
2.925388101113348
 31
0.0
  0
LINE
  5
EB
330
1E
100
AcDbEntity
  8
ADP2DETAIL
  6
HIDDEN2
100
AcDbLine
 10
22.55111666718211
 20
2.238707879342662
 30
0.0
 11
22.55111666718212
 21
2.897319749681724
 31
0.0
  0
LINE
  5
EC
330
1E
100
AcDbEntity
  8
ADP1DETAIL
100
AcDbLine
 10
22.1087719701385
 20
1.926207879342662
 30
0.0
 11
22.2962719701385
 21
1.926207879342662
 31
0.0
  0
LINE
  5
ED
330
1E
100
AcDbEntity
  8
ADP1DETAIL
100
AcDbLine
 10
22.1087719701385
 20
2.051207879342662
 30
0.0
 11
22.2962719701385
 21
2.051207879342662
 31
0.0
  0
LINE
  5
EE
330
1E
100
AcDbEntity
  8
ADP1DETAIL
100
AcDbLine
 10
22.1087719701385
 20
1.988707879342662
 30
0.0
 11
22.2962719701385
 21
1.988707879342662
 31
0.0
  0
LINE
  5
EF
330
1E
100
AcDbEntity
  8
ADP1DETAIL
100
AcDbLine
 10
22.14516963410785
 20
2.082457879342662
 30
0.0
 11
22.25316183723086
 21
2.082457879342662
 31
0.0
  0
LINE
  5
F0
330
1E
100
AcDbEntity
  8
ADP1DETAIL
100
AcDbLine
 10
22.14516963410785
 20
2.019957879342662
 30
0.0
 11
22.25316183723086
 21
2.019957879342662
 31
0.0
  0
LINE
  5
F1
330
1E
100
AcDbEntity
  8
ADP1DETAIL
100
AcDbLine
 10
22.14516963410785
 20
1.957457879342662
 30
0.0
 11
22.25316183723086
 21
1.957457879342662
 31
0.0
  0
LINE
  5
F2
330
1E
100
AcDbEntity
  8
ADP1DETAIL
100
AcDbLine
 10
22.14516963410785
 20
1.894957879342662
 30
0.0
 11
22.25316183723086
 21
1.894957879342662
 31
0.0
  0
LINE
  5
F3
330
1E
100
AcDbEntity
  8
ADP1DETAIL
100
AcDbLine
 10
22.14516963410785
 20
1.832457879342662
 30
0.0
 11
22.25316183723086
 21
1.832457879342662
 31
0.0
  0
LINE
  5
F4
330
1E
100
AcDbEntity
  8
ADP1DETAIL
100
AcDbLine
 10
22.14516963410785
 20
1.769957879342662
 30
0.0
 11
22.25316183723086
 21
1.769957879342662
 31
0.0
  0
LINE
  5
F5
330
1E
100
AcDbEntity
  8
ADP1DETAIL
100
AcDbLine
 10
22.14516963410785
 20
1.707457879342662
 30
0.0
 11
22.25316183723086
 21
1.707457879342662
 31
0.0
  0
LINE
  5
F6
330
1E
100
AcDbEntity
  8
ADP1DETAIL
100
AcDbLine
 10
22.14516963410785
 20
1.644957879342662
 30
0.0
 11
22.25316183723086
 21
1.644957879342662
 31
0.0
  0
LINE
  5
F7
330
1E
100
AcDbEntity
  8
ADP1DETAIL
100
AcDbLine
 10
22.14516963410785
 20
1.582457879342662
 30
0.0
 11
22.25316183723086
 21
1.582457879342662
 31
0.0
  0
LINE
  5
F8
330
1E
100
AcDbEntity
  8
ADP1DETAIL
100
AcDbLine
 10
22.14516963410785
 20
1.519957879342662
 30
0.0
 11
22.25316183723086
 21
1.519957879342662
 31
0.0
  0
LINE
  5
F9
330
1E
100
AcDbEntity
  8
ADP1DETAIL
100
AcDbLine
 10
22.1087719701385
 20
1.863707879342662
 30
0.0
 11
22.2962719701385
 21
1.863707879342662
 31
0.0
  0
LINE
  5
FA
330
1E
100
AcDbEntity
  8
ADP1DETAIL
100
AcDbLine
 10
22.1087719701385
 20
1.801207879342662
 30
0.0
 11
22.2962719701385
 21
1.801207879342662
 31
0.0
  0
LINE
  5
FB
330
1E
100
AcDbEntity
  8
ADP1DETAIL
100
AcDbLine
 10
22.1087719701385
 20
1.738707879342662
 30
0.0
 11
22.2962719701385
 21
1.738707879342662
 31
0.0
  0
LINE
  5
FC
330
1E
100
AcDbEntity
  8
ADP1DETAIL
100
AcDbLine
 10
22.1087719701385
 20
1.676207879342662
 30
0.0
 11
22.2962719701385
 21
1.676207879342662
 31
0.0
  0
LINE
  5
FD
330
1E
100
AcDbEntity
  8
ADP1DETAIL
100
AcDbLine
 10
22.1087719701385
 20
1.613707879342662
 30
0.0
 11
22.2962719701385
 21
1.613707879342662
 31
0.0
  0
LINE
  5
FE
330
1E
100
AcDbEntity
  8
ADP1DETAIL
100
AcDbLine
 10
22.1087719701385
 20
1.551207879342662
 30
0.0
 11
22.2962719701385
 21
1.551207879342662
 31
0.0
  0
LINE
  5
FF
330
1E
100
AcDbEntity
  8
ADP2DETAIL
  6
HIDDEN2
100
AcDbLine
 10
22.1087719701385
 20
1.488707879342662
 30
0.0
 11
22.2962719701385
 21
1.488707879342662
 31
0.0
  0
LINE
  5
100
330
1E
100
AcDbEntity
  8
ADP2DETAIL
  6
HIDDEN2
100
AcDbLine
 10
22.1087719701385
 20
1.426207879342662
 30
0.0
 11
22.2962719701385
 21
1.426207879342662
 31
0.0
  0
LINE
  5
101
330
1E
100
AcDbEntity
  8
ADP2DETAIL
  6
HIDDEN2
100
AcDbLine
 10
22.1087719701385
 20
1.363707879342662
 30
0.0
 11
22.2962719701385
 21
1.363707879342662
 31
0.0
  0
LINE
  5
102
330
1E
100
AcDbEntity
  8
ADP2DETAIL
  6
HIDDEN2
100
AcDbLine
 10
22.1087719701385
 20
1.301207879342662
 30
0.0
 11
22.2962719701385
 21
1.301207879342662
 31
0.0
  0
LINE
  5
103
330
1E
100
AcDbEntity
  8
ADP2DETAIL
  6
HIDDEN2
100
AcDbLine
 10
22.1087719701385
 20
1.238707879342662
 30
0.0
 11
22.2962719701385
 21
1.238707879342662
 31
0.0
  0
LINE
  5
104
330
1E
100
AcDbEntity
  8
ADP2DETAIL
  6
HIDDEN2
100
AcDbLine
 10
22.14516963410785
 20
1.332457879342662
 30
0.0
 11
22.25316183723086
 21
1.332457879342662
 31
0.0
  0
LINE
  5
105
330
1E
100
AcDbEntity
  8
ADP2DETAIL
  6
HIDDEN2
100
AcDbLine
 10
22.14516963410785
 20
1.394957879342662
 30
0.0
 11
22.25316183723086
 21
1.394957879342662
 31
0.0
  0
LINE
  5
106
330
1E
100
AcDbEntity
  8
ADP2DETAIL
  6
HIDDEN2
100
AcDbLine
 10
22.14516963410785
 20
1.457457879342662
 30
0.0
 11
22.25316183723086
 21
1.457457879342662
 31
0.0
  0
LINE
  5
107
330
1E
100
AcDbEntity
  8
ADP2DETAIL
  6
HIDDEN2
100
AcDbLine
 10
22.14516963410785
 20
1.269957879342662
 30
0.0
 11
22.25316183723086
 21
1.269957879342662
 31
0.0
  0
LINE
  5
108
330
1E
100
AcDbEntity
  8
ADP1DETAIL
100
AcDbLine
 10
22.1087719701385
 20
2.238707879342662
 30
0.0
 11
22.2962719701385
 21
2.238707879342662
 31
0.0
  0
LINE
  5
109
330
1E
100
AcDbEntity
  8
ADP1DETAIL
100
AcDbLine
 10
22.1087719701385
 20
2.176207879342662
 30
0.0
 11
22.2962719701385
 21
2.176207879342662
 31
0.0
  0
LINE
  5
10A
330
1E
100
AcDbEntity
  8
ADP1DETAIL
100
AcDbLine
 10
22.1087719701385
 20
2.113707879342662
 30
0.0
 11
22.2962719701385
 21
2.113707879342662
 31
0.0
  0
LINE
  5
10B
330
1E
100
AcDbEntity
  8
ADP1DETAIL
100
AcDbLine
 10
22.14516963410785
 20
2.207457879342662
 30
0.0
 11
22.25316183723086
 21
2.207457879342662
 31
0.0
  0
LINE
  5
10C
330
1E
100
AcDbEntity
  8
ADP1DETAIL
100
AcDbLine
 10
22.14516963410785
 20
2.144957879342662
 30
0.0
 11
22.25316183723086
 21
2.144957879342662
 31
0.0
  0
LINE
  5
10D
330
1E
100
AcDbEntity
  8
ADP2DETAIL
  6
HIDDEN2
100
AcDbLine
 10
22.14516963410785
 20
2.269957879342662
 30
0.0
 11
22.25316183723086
 21
2.269957879342662
 31
0.0
  0
LINE
  5
10E
330
1E
100
AcDbEntity
  8
ADP2DETAIL
  6
HIDDEN2
100
AcDbLine
 10
22.1087719701385
 20
2.301207879342662
 30
0.0
 11
22.2962719701385
 21
2.301207879342662
 31
0.0
  0
ARC
  5
10F
330
1E
100
AcDbEntity
  8
ADP1DETAIL
100
AcDbCircle
 10
22.20744554582589
 20
1.387796076868157
 30
0.0
 40
0.2069436221804713
100
AcDbArc
 50
225.3921709449893
 51
311.8812243426002
  0
LINE
  5
110
330
1E
100
AcDbEntity
  8
ADP1DETAIL
100
AcDbLine
 10
22.8900219701385
 20
2.238707879342662
 30
0.0
 11
21.5150219701385
 21
2.238707879342662
 31
0.0
  0
LINE
  5
111
330
1E
100
AcDbEntity
  8
ADP1DETAIL
100
AcDbLine
 10
22.7337719701385
 20
1.363707879342662
 30
0.0
 11
21.6712719701385
 21
1.363707879342662
 31
0.0
  0
LINE
  5
112
330
1E
100
AcDbEntity
  8
ADP1DETAIL
100
AcDbLine
 10
22.6712719701385
 20
1.488707879342662
 30
0.0
 11
21.7337719701385
 21
1.488707879342662
 31
0.0
  0
LINE
  5
113
330
1E
100
AcDbEntity
  8
ADP1DETAIL
100
AcDbLine
 10
21.54627197013851
 20
1.863707879342662
 30
0.0
 11
21.6712719701385
 21
1.863707879342662
 31
0.0
  0
LINE
  5
114
330
1E
100
AcDbEntity
  8
ADP1DETAIL
100
AcDbLine
 10
21.6712719701385
 20
1.551207879342662
 30
0.0
 11
21.6712719701385
 21
1.863707879342662
 31
0.0
  0
LINE
  5
115
330
1E
100
AcDbEntity
  8
ADP1DETAIL
100
AcDbLine
 10
21.54627197013851
 20
1.488707879342662
 30
0.0
 11
21.54627197013851
 21
1.863707879342662
 31
0.0
  0
ARC
  5
116
330
1E
100
AcDbEntity
  8
ADP1DETAIL
100
AcDbCircle
 10
21.6712719701385
 20
1.488707879342662
 30
0.0
 40
0.125
100
AcDbArc
 50
180.0
 51
270.0
  0
ARC
  5
117
330
1E
100
AcDbEntity
  8
ADP1DETAIL
100
AcDbCircle
 10
21.7337719701385
 20
1.551207879342662
 30
0.0
 40
0.0625
100
AcDbArc
 50
180.0
 51
270.0
  0
LINE
  5
118
330
1E
100
AcDbEntity
  8
ADP1DETAIL
100
AcDbLine
 10
22.1087719701385
 20
2.238707879342662
 30
0.0
 11
22.1087719701385
 21
1.488707879342662
 31
0.0
  0
LINE
  5
119
330
1E
100
AcDbEntity
  8
ADP2DETAIL
  6
HIDDEN2
100
AcDbLine
 10
22.1087719701385
 20
1.238707879342662
 30
0.0
 11
22.1087719701385
 21
1.488707879342662
 31
0.0
  0
LINE
  5
11A
330
1E
100
AcDbEntity
  8
ADP1DETAIL
100
AcDbLine
 10
22.60647546785235
 20
1.772319749681722
 30
0.0
 11
22.31810501788665
 21
1.772319749681722
 31
0.0
  0
ARC
  5
11B
330
1E
100
AcDbEntity
  8
ADP1DETAIL
100
AcDbCircle
 10
22.4622902428695
 20
1.920765981219691
 30
0.0
 40
0.2069436221804713
100
AcDbArc
 50
225.8342248743097
 51
314.1657751256902
  0
LINE
  5
11C
330
1E
100
AcDbEntity
  8
ADP1DETAIL
100
AcDbLine
 10
22.55111666718211
 20
2.238707879342662
 30
0.0
 11
22.55111666718212
 21
1.772319749681722
 31
0.0
  0
LINE
  5
11D
330
1E
100
AcDbEntity
  8
ADP1DETAIL
100
AcDbLine
 10
22.55111666718211
 20
2.238707879342662
 30
0.0
 11
22.55111666718212
 21
1.897319749681724
 31
0.0
  0
LINE
  5
11E
330
1E
100
AcDbEntity
  8
ADP1DETAIL
100
AcDbLine
 10
22.36361666718211
 20
1.772319749681722
 30
0.0
 11
22.36361666718211
 21
2.238707879342662
 31
0.0
  0
LINE
  5
11F
330
1E
100
AcDbEntity
  8
ADP1DETAIL
100
AcDbLine
 10
22.2962719701385
 20
1.488707879342662
 30
0.0
 11
22.2962719701385
 21
2.238707879342662
 31
0.0
  0
LINE
  5
120
330
1E
100
AcDbEntity
  8
ADP1DETAIL
100
AcDbLine
 10
22.36361666718211
 20
1.897319749681724
 30
0.0
 11
22.36361666718211
 21
2.238707879342662
 31
0.0
  0
LINE
  5
121
330
1E
100
AcDbEntity
  8
ADP1DETAIL
100
AcDbLine
 10
22.40001433115145
 20
1.991069749681724
 30
0.0
 11
22.50800653427447
 21
1.991069749681724
 31
0.0
  0
LINE
  5
122
330
1E
100
AcDbEntity
  8
ADP1DETAIL
100
AcDbLine
 10
22.40001433115145
 20
2.053569749681724
 30
0.0
 11
22.50800653427447
 21
2.053569749681724
 31
0.0
  0
LINE
  5
123
330
1E
100
AcDbEntity
  8
ADP1DETAIL
100
AcDbLine
 10
22.40001433115145
 20
1.928569749681724
 30
0.0
 11
22.50800653427447
 21
1.928569749681724
 31
0.0
  0
LINE
  5
124
330
1E
100
AcDbEntity
  8
ADP1DETAIL
100
AcDbLine
 10
22.40493790683884
 20
1.803569749681722
 30
0.0
 11
22.51293010996186
 21
1.803569749681722
 31
0.0
  0
LINE
  5
125
330
1E
100
AcDbEntity
  8
ADP1DETAIL
100
AcDbLine
 10
22.40493790683884
 20
1.928569749681722
 30
0.0
 11
22.51293010996186
 21
1.928569749681722
 31
0.0
  0
LINE
  5
126
330
1E
100
AcDbEntity
  8
ADP1DETAIL
100
AcDbLine
 10
22.40493790683884
 20
1.866069749681722
 30
0.0
 11
22.51293010996186
 21
1.866069749681722
 31
0.0
  0
LINE
  5
127
330
1E
100
AcDbEntity
  8
ADP2DETAIL
  6
HIDDEN2
100
AcDbLine
 10
22.2962719701385
 20
1.488707879342662
 30
0.0
 11
22.2962719701385
 21
1.238707879342662
 31
0.0
  0
LINE
  5
128
330
1E
100
AcDbEntity
  8
ADP1DETAIL
100
AcDbLine
 10
22.40001433115145
 20
2.116069749681724
 30
0.0
 11
22.50800653427447
 21
2.116069749681724
 31
0.0
  0
LINE
  5
129
330
1E
100
AcDbEntity
  8
ADP1DETAIL
100
AcDbLine
 10
22.40001433115145
 20
2.178569749681724
 30
0.0
 11
22.50800653427447
 21
2.178569749681724
 31
0.0
  0
LINE
  5
12A
330
1E
100
AcDbEntity
  8
ADP1DETAIL
100
AcDbLine
 10
22.40001433115145
 20
2.241069749681724
 30
0.0
 11
22.50800653427447
 21
2.241069749681724
 31
0.0
  0
LINE
  5
12B
330
1E
100
AcDbEntity
  8
ADP1DETAIL
100
AcDbLine
 10
22.36361666718211
 20
2.209819749681724
 30
0.0
 11
22.55111666718212
 21
2.209819749681724
 31
0.0
  0
LINE
  5
12C
330
1E
100
AcDbEntity
  8
ADP1DETAIL
100
AcDbLine
 10
22.36361666718211
 20
2.147319749681724
 30
0.0
 11
22.55111666718212
 21
2.147319749681724
 31
0.0
  0
LINE
  5
12D
330
1E
100
AcDbEntity
  8
ADP1DETAIL
100
AcDbLine
 10
22.36361666718211
 20
2.084819749681724
 30
0.0
 11
22.55111666718212
 21
2.084819749681724
 31
0.0
  0
LINE
  5
12E
330
1E
100
AcDbEntity
  8
ADP1DETAIL
100
AcDbLine
 10
22.36361666718211
 20
2.022319749681724
 30
0.0
 11
22.55111666718212
 21
2.022319749681724
 31
0.0
  0
LINE
  5
12F
330
1E
100
AcDbEntity
  8
ADP1DETAIL
100
AcDbLine
 10
22.36361666718211
 20
1.959819749681724
 30
0.0
 11
22.55111666718212
 21
1.959819749681724
 31
0.0
  0
LINE
  5
130
330
1E
100
AcDbEntity
  8
ADP1DETAIL
100
AcDbLine
 10
22.36361666718211
 20
1.897319749681724
 30
0.0
 11
22.55111666718212
 21
1.897319749681724
 31
0.0
  0
LINE
  5
131
330
1E
100
AcDbEntity
  8
ADP1DETAIL
100
AcDbLine
 10
22.3685402428695
 20
1.772319749681722
 30
0.0
 11
22.5560402428695
 21
1.772319749681722
 31
0.0
  0
LINE
  5
132
330
1E
100
AcDbEntity
  8
ADP1DETAIL
100
AcDbLine
 10
22.3685402428695
 20
1.834819749681722
 30
0.0
 11
22.5560402428695
 21
1.834819749681722
 31
0.0
  0
LINE
  5
133
330
1E
100
AcDbEntity
  8
ADP1DETAIL
100
AcDbLine
 10
22.3685402428695
 20
1.897319749681722
 30
0.0
 11
22.5560402428695
 21
1.897319749681722
 31
0.0
  0
LINE
  5
134
330
1E
100
AcDbEntity
  8
ADP2DETAIL
  6
HIDDEN2
100
AcDbLine
 10
22.36361666718211
 20
2.272319749681724
 30
0.0
 11
22.55111666718212
 21
2.272319749681724
 31
0.0
  0
LINE
  5
135
330
1E
100
AcDbEntity
  8
ADP1DETAIL
100
AcDbLine
 10
22.95252197013851
 20
1.363707879342662
 30
0.0
 11
22.95252197013851
 21
1.269707879342661
 31
0.0
  0
ARC
  5
136
330
1E
100
AcDbEntity
  8
ADP1DETAIL
100
AcDbCircle
 10
22.9215219701385
 20
1.269707879342661
 30
0.0
 40
0.031
100
AcDbArc
 50
270.0
 51
0.0
  0
LINE
  5
137
330
1E
100
AcDbEntity
  8
ADP1DETAIL
100
AcDbLine
 10
22.7337719701385
 20
1.863707879342662
 30
0.0
 11
22.85877197013851
 21
1.863707879342662
 31
0.0
  0
LINE
  5
138
330
1E
100
AcDbEntity
  8
ADP1DETAIL
100
AcDbLine
 10
22.7337719701385
 20
1.863707879342662
 30
0.0
 11
22.7337719701385
 21
1.551207879342662
 31
0.0
  0
LINE
  5
139
330
1E
100
AcDbEntity
  8
ADP1DETAIL
100
AcDbLine
 10
22.85877197013851
 20
1.863707879342662
 30
0.0
 11
22.85877197013851
 21
1.488707879342662
 31
0.0
  0
ARC
  5
13A
330
1E
100
AcDbEntity
  8
ADP1DETAIL
100
AcDbCircle
 10
22.6712719701385
 20
1.551207879342662
 30
0.0
 40
0.0625
100
AcDbArc
 50
270.0
 51
0.0
  0
ARC
  5
13B
330
1E
100
AcDbEntity
  8
ADP1DETAIL
100
AcDbCircle
 10
22.7337719701385
 20
1.488707879342662
 30
0.0
 40
0.125
100
AcDbArc
 50
270.0
 51
0.0
  0
LINE
  5
13C
330
1E
100
AcDbEntity
  8
ADP2DETAIL
  6
HIDDEN2
100
AcDbLine
 10
22.5150219701385
 20
4.305448590264429
 30
0.0
 11
22.2025219701385
 21
4.305448590264427
 31
0.0
  0
LINE
  5
13D
330
1E
100
AcDbEntity
  8
ADP2DETAIL
  6
HIDDEN2
100
AcDbLine
 10
22.14516963410785
 20
2.394957879342662
 30
0.0
 11
22.25316183723086
 21
2.394957879342662
 31
0.0
  0
LINE
  5
13E
330
1E
100
AcDbEntity
  8
ADP2DETAIL
  6
HIDDEN2
100
AcDbLine
 10
22.14516963410785
 20
2.457457879342662
 30
0.0
 11
22.25316183723086
 21
2.457457879342662
 31
0.0
  0
LINE
  5
13F
330
1E
100
AcDbEntity
  8
ADP2DETAIL
  6
HIDDEN2
100
AcDbLine
 10
22.14516963410785
 20
2.519957879342662
 30
0.0
 11
22.25316183723086
 21
2.519957879342662
 31
0.0
  0
LINE
  5
140
330
1E
100
AcDbEntity
  8
ADP2DETAIL
  6
HIDDEN2
100
AcDbLine
 10
22.14516963410785
 20
2.582457879342662
 30
0.0
 11
22.25316183723086
 21
2.582457879342662
 31
0.0
  0
LINE
  5
141
330
1E
100
AcDbEntity
  8
ADP2DETAIL
  6
HIDDEN2
100
AcDbLine
 10
22.14516963410785
 20
2.644957879342662
 30
0.0
 11
22.25316183723086
 21
2.644957879342662
 31
0.0
  0
LINE
  5
142
330
1E
100
AcDbEntity
  8
ADP2DETAIL
  6
HIDDEN2
100
AcDbLine
 10
22.14516963410785
 20
2.332457879342662
 30
0.0
 11
22.25316183723086
 21
2.332457879342662
 31
0.0
  0
LINE
  5
143
330
1E
100
AcDbEntity
  8
ADP2DETAIL
  6
HIDDEN2
100
AcDbLine
 10
22.1087719701385
 20
2.676207879342662
 30
0.0
 11
22.2962719701385
 21
2.676207879342662
 31
0.0
  0
LINE
  5
144
330
1E
100
AcDbEntity
  8
ADP2DETAIL
  6
HIDDEN2
100
AcDbLine
 10
22.14516963410785
 20
2.707457879342662
 30
0.0
 11
22.25316183723086
 21
2.707457879342662
 31
0.0
  0
LINE
  5
145
330
1E
100
AcDbEntity
  8
ADP2DETAIL
  6
HIDDEN2
100
AcDbLine
 10
22.1087719701385
 20
2.363707879342662
 30
0.0
 11
22.2962719701385
 21
2.363707879342662
 31
0.0
  0
LINE
  5
146
330
1E
100
AcDbEntity
  8
ADP2DETAIL
  6
HIDDEN2
100
AcDbLine
 10
22.1087719701385
 20
2.426207879342662
 30
0.0
 11
22.2962719701385
 21
2.426207879342662
 31
0.0
  0
LINE
  5
147
330
1E
100
AcDbEntity
  8
ADP2DETAIL
  6
HIDDEN2
100
AcDbLine
 10
22.1087719701385
 20
2.488707879342662
 30
0.0
 11
22.2962719701385
 21
2.488707879342662
 31
0.0
  0
LINE
  5
148
330
1E
100
AcDbEntity
  8
ADP2DETAIL
  6
HIDDEN2
100
AcDbLine
 10
22.1087719701385
 20
2.551207879342662
 30
0.0
 11
22.2962719701385
 21
2.551207879342662
 31
0.0
  0
LINE
  5
149
330
1E
100
AcDbEntity
  8
ADP2DETAIL
  6
HIDDEN2
100
AcDbLine
 10
22.1087719701385
 20
2.613707879342662
 30
0.0
 11
22.2962719701385
 21
2.613707879342662
 31
0.0
  0
LINE
  5
14A
330
1E
100
AcDbEntity
  8
ADP2DETAIL
  6
HIDDEN2
100
AcDbLine
 10
22.1087719701385
 20
2.738707879342662
 30
0.0
 11
22.2962719701385
 21
2.738707879342662
 31
0.0
  0
LINE
  5
14B
330
1E
100
AcDbEntity
  8
ADP2DETAIL
  6
HIDDEN2
100
AcDbLine
 10
22.25071474436482
 20
2.925388101113348
 30
0.0
 11
22.2025219701385
 21
4.305448590264427
 31
0.0
  0
LINE
  5
14C
330
1E
100
AcDbEntity
  8
ADP2DETAIL
  6
HIDDEN2
100
AcDbLine
 10
22.55111666718212
 20
3.397319749681724
 30
0.0
 11
22.55111666718212
 21
2.897319749681724
 31
0.0
  0
LINE
  5
14D
330
1E
100
AcDbEntity
  8
ADP2DETAIL
  6
HIDDEN2
100
AcDbLine
 10
22.55111666718212
 20
3.397319749681724
 30
0.0
 11
22.55111666718211
 21
2.925388101113348
 31
0.0
  0
LINE
  5
14E
330
1E
100
AcDbEntity
  8
ADP2DETAIL
  6
HIDDEN2
100
AcDbLine
 10
22.36361666718211
 20
2.897319749681724
 30
0.0
 11
22.36361666718211
 21
3.397319749681724
 31
0.0
  0
LINE
  5
14F
330
1E
100
AcDbEntity
  8
ADP2DETAIL
  6
HIDDEN2
100
AcDbLine
 10
22.36361666718211
 20
2.925388101113348
 30
0.0
 11
22.36361666718211
 21
3.397319749681724
 31
0.0
  0
LINE
  5
150
330
1E
100
AcDbEntity
  8
ADP2DETAIL
  6
HIDDEN2
100
AcDbLine
 10
22.8900219701385
 20
2.925388101113348
 30
0.0
 11
22.25071474436482
 21
2.925388101113348
 31
0.0
  0
LINE
  5
151
330
1E
100
AcDbEntity
  8
ADP2DETAIL
  6
HIDDEN2
100
AcDbLine
 10
22.40001433115145
 20
2.741069749681724
 30
0.0
 11
22.50800653427447
 21
2.741069749681724
 31
0.0
  0
LINE
  5
152
330
1E
100
AcDbEntity
  8
ADP2DETAIL
  6
HIDDEN2
100
AcDbLine
 10
22.40001433115145
 20
2.678569749681724
 30
0.0
 11
22.50800653427447
 21
2.678569749681724
 31
0.0
  0
LINE
  5
153
330
1E
100
AcDbEntity
  8
ADP2DETAIL
  6
HIDDEN2
100
AcDbLine
 10
22.40001433115145
 20
2.616069749681724
 30
0.0
 11
22.50800653427447
 21
2.616069749681724
 31
0.0
  0
LINE
  5
154
330
1E
100
AcDbEntity
  8
ADP2DETAIL
  6
HIDDEN2
100
AcDbLine
 10
22.40001433115145
 20
2.553569749681724
 30
0.0
 11
22.50800653427447
 21
2.553569749681724
 31
0.0
  0
LINE
  5
155
330
1E
100
AcDbEntity
  8
ADP2DETAIL
  6
HIDDEN2
100
AcDbLine
 10
22.40001433115145
 20
2.491069749681724
 30
0.0
 11
22.50800653427447
 21
2.491069749681724
 31
0.0
  0
LINE
  5
156
330
1E
100
AcDbEntity
  8
ADP2DETAIL
  6
HIDDEN2
100
AcDbLine
 10
22.40001433115145
 20
2.428569749681724
 30
0.0
 11
22.50800653427447
 21
2.428569749681724
 31
0.0
  0
LINE
  5
157
330
1E
100
AcDbEntity
  8
ADP2DETAIL
  6
HIDDEN2
100
AcDbLine
 10
22.40001433115145
 20
2.366069749681724
 30
0.0
 11
22.50800653427447
 21
2.366069749681724
 31
0.0
  0
LINE
  5
158
330
1E
100
AcDbEntity
  8
ADP2DETAIL
  6
HIDDEN2
100
AcDbLine
 10
22.40001433115145
 20
2.303569749681724
 30
0.0
 11
22.50800653427447
 21
2.303569749681724
 31
0.0
  0
LINE
  5
159
330
1E
100
AcDbEntity
  8
ADP2DETAIL
  6
HIDDEN2
100
AcDbLine
 10
22.40001433115145
 20
2.803569749681724
 30
0.0
 11
22.50800653427447
 21
2.803569749681724
 31
0.0
  0
LINE
  5
15A
330
1E
100
AcDbEntity
  8
ADP2DETAIL
  6
HIDDEN2
100
AcDbLine
 10
22.40001433115145
 20
2.991069749681724
 30
0.0
 11
22.50800653427447
 21
2.991069749681724
 31
0.0
  0
LINE
  5
15B
330
1E
100
AcDbEntity
  8
ADP2DETAIL
  6
HIDDEN2
100
AcDbLine
 10
22.40001433115145
 20
2.928569749681724
 30
0.0
 11
22.50800653427447
 21
2.928569749681724
 31
0.0
  0
LINE
  5
15C
330
1E
100
AcDbEntity
  8
ADP2DETAIL
  6
HIDDEN2
100
AcDbLine
 10
22.40001433115145
 20
2.866069749681724
 30
0.0
 11
22.50800653427447
 21
2.866069749681724
 31
0.0
  0
LINE
  5
15D
330
1E
100
AcDbEntity
  8
ADP2DETAIL
  6
HIDDEN2
100
AcDbLine
 10
22.40001433115145
 20
3.116069749681724
 30
0.0
 11
22.50800653427447
 21
3.116069749681724
 31
0.0
  0
LINE
  5
15E
330
1E
100
AcDbEntity
  8
ADP2DETAIL
  6
HIDDEN2
100
AcDbLine
 10
22.40001433115145
 20
3.053569749681724
 30
0.0
 11
22.50800653427447
 21
3.053569749681724
 31
0.0
  0
LINE
  5
15F
330
1E
100
AcDbEntity
  8
ADP2DETAIL
  6
HIDDEN2
100
AcDbLine
 10
22.40001433115145
 20
3.366069749681724
 30
0.0
 11
22.50800653427447
 21
3.366069749681724
 31
0.0
  0
LINE
  5
160
330
1E
100
AcDbEntity
  8
ADP2DETAIL
  6
HIDDEN2
100
AcDbLine
 10
22.40001433115145
 20
3.303569749681724
 30
0.0
 11
22.50800653427447
 21
3.303569749681724
 31
0.0
  0
LINE
  5
161
330
1E
100
AcDbEntity
  8
ADP2DETAIL
  6
HIDDEN2
100
AcDbLine
 10
22.40001433115145
 20
3.241069749681724
 30
0.0
 11
22.50800653427447
 21
3.241069749681724
 31
0.0
  0
LINE
  5
162
330
1E
100
AcDbEntity
  8
ADP2DETAIL
  6
HIDDEN2
100
AcDbLine
 10
22.40001433115145
 20
3.178569749681724
 30
0.0
 11
22.50800653427447
 21
3.178569749681724
 31
0.0
  0
LINE
  5
163
330
1E
100
AcDbEntity
  8
ADP2DETAIL
  6
HIDDEN2
100
AcDbLine
 10
22.36361666718211
 20
2.772319749681724
 30
0.0
 11
22.55111666718212
 21
2.772319749681724
 31
0.0
  0
LINE
  5
164
330
1E
100
AcDbEntity
  8
ADP2DETAIL
  6
HIDDEN2
100
AcDbLine
 10
22.36361666718211
 20
2.584819749681724
 30
0.0
 11
22.55111666718212
 21
2.584819749681724
 31
0.0
  0
LINE
  5
165
330
1E
100
AcDbEntity
  8
ADP2DETAIL
  6
HIDDEN2
100
AcDbLine
 10
22.36361666718211
 20
2.709819749681724
 30
0.0
 11
22.55111666718212
 21
2.709819749681724
 31
0.0
  0
LINE
  5
166
330
1E
100
AcDbEntity
  8
ADP2DETAIL
  6
HIDDEN2
100
AcDbLine
 10
22.36361666718211
 20
2.647319749681724
 30
0.0
 11
22.55111666718212
 21
2.647319749681724
 31
0.0
  0
LINE
  5
167
330
1E
100
AcDbEntity
  8
ADP2DETAIL
  6
HIDDEN2
100
AcDbLine
 10
22.36361666718211
 20
2.522319749681724
 30
0.0
 11
22.55111666718212
 21
2.522319749681724
 31
0.0
  0
LINE
  5
168
330
1E
100
AcDbEntity
  8
ADP2DETAIL
  6
HIDDEN2
100
AcDbLine
 10
22.36361666718211
 20
2.459819749681724
 30
0.0
 11
22.55111666718212
 21
2.459819749681724
 31
0.0
  0
LINE
  5
169
330
1E
100
AcDbEntity
  8
ADP2DETAIL
  6
HIDDEN2
100
AcDbLine
 10
22.36361666718211
 20
2.397319749681724
 30
0.0
 11
22.55111666718212
 21
2.397319749681724
 31
0.0
  0
LINE
  5
16A
330
1E
100
AcDbEntity
  8
ADP2DETAIL
  6
HIDDEN2
100
AcDbLine
 10
22.36361666718211
 20
2.334819749681724
 30
0.0
 11
22.55111666718212
 21
2.334819749681724
 31
0.0
  0
LINE
  5
16B
330
1E
100
AcDbEntity
  8
ADP2DETAIL
  6
HIDDEN2
100
AcDbLine
 10
22.36361666718211
 20
3.084819749681724
 30
0.0
 11
22.55111666718212
 21
3.084819749681724
 31
0.0
  0
LINE
  5
16C
330
1E
100
AcDbEntity
  8
ADP2DETAIL
  6
HIDDEN2
100
AcDbLine
 10
22.36361666718211
 20
3.022319749681724
 30
0.0
 11
22.55111666718212
 21
3.022319749681724
 31
0.0
  0
LINE
  5
16D
330
1E
100
AcDbEntity
  8
ADP2DETAIL
  6
HIDDEN2
100
AcDbLine
 10
22.36361666718211
 20
2.959819749681724
 30
0.0
 11
22.55111666718212
 21
2.959819749681724
 31
0.0
  0
LINE
  5
16E
330
1E
100
AcDbEntity
  8
ADP2DETAIL
  6
HIDDEN2
100
AcDbLine
 10
22.36361666718211
 20
2.897319749681724
 30
0.0
 11
22.55111666718212
 21
2.897319749681724
 31
0.0
  0
LINE
  5
16F
330
1E
100
AcDbEntity
  8
ADP2DETAIL
  6
HIDDEN2
100
AcDbLine
 10
22.36361666718211
 20
2.834819749681724
 30
0.0
 11
22.55111666718212
 21
2.834819749681724
 31
0.0
  0
LINE
  5
170
330
1E
100
AcDbEntity
  8
ADP2DETAIL
  6
HIDDEN2
100
AcDbLine
 10
22.36361666718211
 20
3.272319749681724
 30
0.0
 11
22.55111666718212
 21
3.272319749681724
 31
0.0
  0
LINE
  5
171
330
1E
100
AcDbEntity
  8
ADP2DETAIL
  6
HIDDEN2
100
AcDbLine
 10
22.36361666718211
 20
3.209819749681724
 30
0.0
 11
22.55111666718212
 21
3.209819749681724
 31
0.0
  0
LINE
  5
172
330
1E
100
AcDbEntity
  8
ADP2DETAIL
  6
HIDDEN2
100
AcDbLine
 10
22.36361666718211
 20
3.147319749681724
 30
0.0
 11
22.55111666718212
 21
3.147319749681724
 31
0.0
  0
LINE
  5
173
330
1E
100
AcDbEntity
  8
ADP2DETAIL
  6
HIDDEN2
100
AcDbLine
 10
22.36361666718211
 20
3.334819749681724
 30
0.0
 11
22.55111666718212
 21
3.334819749681724
 31
0.0
  0
LINE
  5
174
330
1E
100
AcDbEntity
  8
ADP2DETAIL
  6
HIDDEN2
100
AcDbLine
 10
22.8900219701385
 20
4.202678213244011
 30
0.0
 11
22.5150219701385
 21
4.202678213244011
 31
0.0
  0
LINE
  5
175
330
1E
100
AcDbEntity
  8
ADP2DETAIL
  6
HIDDEN2
100
AcDbLine
 10
22.5150219701385
 20
4.202678213244011
 30
0.0
 11
22.5150219701385
 21
4.305448590264429
 31
0.0
  0
LINE
  5
176
330
1E
100
AcDbEntity
  8
ADP2DETAIL
  6
HIDDEN2
100
AcDbLine
 10
22.36361666718211
 20
3.397319749681724
 30
0.0
 11
22.55111666718212
 21
3.397319749681724
 31
0.0
  0
LINE
  5
177
330
1E
100
AcDbEntity
  8
ADP2DETAIL
  6
HIDDEN2
100
AcDbLine
 10
22.8900219701385
 20
7.93177817261558
 30
0.0
 11
22.25071474436482
 21
7.93177817261558
 31
0.0
  0
DIMENSION
  5
178
330
1E
100
AcDbEntity
  8
ADPDIM
100
AcDbDimension
  2
*D4
 10
22.8900219701385
 20
24.5732860425025
 30
0.0
 11
22.2025219701385
 21
24.5732860425025
 31
0.0
 12
12.16645227923955
 22
0.0
 32
0.0
100
AcDbAlignedDimension
 13
21.5150219701385
 23
24.23870787934266
 33
0.0
 14
22.8900219701385
 24
24.23870787934266
 34
0.0
100
AcDbRotatedDimension
  0
ARC
  5
179
330
1E
100
AcDbEntity
  8
ADP1DETAIL
100
AcDbCircle
 10
19.85131957010118
 20
8.988707879342662
 30
0.0
 40
0.21875
100
AcDbArc
 50
0.0
 51
180.0
  0
ARC
  5
17A
330
1E
100
AcDbEntity
  8
ADP2DETAIL
  6
HIDDEN2
100
AcDbCircle
 10
19.85131957010118
 20
8.988707879342662
 30
0.0
 40
0.3125
100
AcDbArc
 50
0.0
 51
180.0
  0
LINE
  5
17B
330
1E
100
AcDbEntity
  8
ADP3DETAIL
  6
CENTER2
100
AcDbLine
 10
19.20206157780285
 20
8.975070610008589
 30
0.0
 11
20.60342777211245
 21
8.975070610008589
 31
0.0
  0
LINE
  5
17C
330
1E
100
AcDbEntity
  8
ADP2DETAIL
  6
HIDDEN2
100
AcDbLine
 10
22.5150219701385
 20
9.31183866176666
 30
0.0
 11
22.2025219701385
 21
9.311838661766659
 31
0.0
  0
LINE
  5
17D
330
1E
100
AcDbEntity
  8
ADP2DETAIL
  6
HIDDEN2
100
AcDbLine
 10
22.8900219701385
 20
9.209068284746242
 30
0.0
 11
22.5150219701385
 21
9.209068284746242
 31
0.0
  0
LINE
  5
17E
330
1E
100
AcDbEntity
  8
ADP2DETAIL
  6
HIDDEN2
100
AcDbLine
 10
22.5150219701385
 20
9.209068284746242
 30
0.0
 11
22.5150219701385
 21
9.31183866176666
 31
0.0
  0
LINE
  5
17F
330
1E
100
AcDbEntity
  8
ADP1DETAIL
100
AcDbLine
 10
19.41381957010118
 20
24.23870787934266
 30
0.0
 11
20.28881957010117
 21
24.23870787934266
 31
0.0
  0
DIMENSION
  5
180
330
1E
100
AcDbEntity
  8
ADPDIM
100
AcDbDimension
  2
*D3
 10
20.28881957010117
 20
24.5693917878668
 30
0.0
 11
20.83048623676784
 21
24.5693917878668
 31
0.0
 12
12.16645227923955
 22
0.0
 32
0.0
100
AcDbAlignedDimension
 13
19.41381957010118
 23
24.23870787934266
 33
0.0
 14
20.28881957010117
 24
24.23870787934266
 34
0.0
100
AcDbRotatedDimension
  0
LINE
  5
181
330
1E
100
AcDbEntity
  8
ADP1DETAIL
100
AcDbLine
 10
21.5150219701385
 20
24.23870787934266
 30
0.0
 11
22.8900219701385
 21
24.23870787934266
 31
0.0
  0
TEXT
  5
23B
330
1E
100
AcDbEntity
  8
ADPDIM
100
AcDbText
 10
2.006422200419116
 20
0.3416466538937453
 30
0.0
 40
0.375
  1
J U L I U S  B L U M  &  C O . ,  I N C .      ( 8 0 0 )  5 2 6 - 6 2 9 3        W W W . J U L I U S B L U M . C O M        P A R T  N O .  2 3 3
 41
1.25
  7
ARIAL_WIDE
 72
     1
 11
21.38312752101938
 21
0.7166466538937453
 31
0.0
100
AcDbText
 73
     3
  0
ENDSEC
  0
SECTION
  2
OBJECTS
  0
DICTIONARY
  5
C
330
0
100
AcDbDictionary
  3
ACAD_GROUP
350
D
  3
ACAD_LAYOUT
350
19
  3
ACAD_MLINESTYLE
350
16
  3
ACAD_PLOTSETTINGS
350
18
  3
ACAD_PLOTSTYLENAME
350
E
  3
ACDBHEADERROUNDTRIPXREC
350
321
  3
ACDBVARIABLEDICTIONARY
350
1FA
  0
DICTIONARY
  5
1C5
330
1E
100
AcDbDictionary
280
     1
  3
ACAD_LAYOUTSELFREF
360
343
  0
DICTIONARY
  5
1C7
330
1A
100
AcDbDictionary
280
     1
  3
ACAD_LAYOUTSELFREF
360
342
  0
DICTIONARY
  5
D
102
{ACAD_REACTORS
330
C
102
}
330
C
100
AcDbDictionary
  0
DICTIONARY
  5
19
102
{ACAD_REACTORS
330
C
102
}
330
C
100
AcDbDictionary
  0
DICTIONARY
  5
16
102
{ACAD_REACTORS
330
C
102
}
330
C
100
AcDbDictionary
  3
STANDARD
350
17
  0
DICTIONARY
  5
18
102
{ACAD_REACTORS
330
C
102
}
330
C
100
AcDbDictionary
  0
ACDBDICTIONARYWDFLT
  5
E
102
{ACAD_REACTORS
330
C
102
}
330
C
100
AcDbDictionary
281
     1
  3
Normal
350
F
100
AcDbDictionaryWithDefault
340
F
  0
DICTIONARY
  5
321
102
{ACAD_REACTORS
330
C
102
}
330
C
100
AcDbDictionary
  3
CEPSNTYPE
350
32B
  3
DIMSTYLEDATA
350
32F
  3
FINGERPRINTGUID
350
32C
  3
HYPERLINKBASE
350
324
  3
INSUNITS
350
32A
  3
LAYOUTDICT
350
326
  3
LWETCUNION
350
329
  3
PLOTSETDICT
350
327
  3
PLOTSTYLNAMDICT
350
328
  3
PSVPSCALE
350
32E
  3
PUCSBASE
350
332
  3
PUCSORGBACK
350
338
  3
PUCSORGBOTTOM
350
334
  3
PUCSORGFRONT
350
337
  3
PUCSORGLEFT
350
335
  3
PUCSORGRIGHT
350
336
  3
PUCSORGTOP
350
333
  3
PUCSORTHOREF
350
330
  3
PUCSORTHOVIEW
350
331
  3
STYLESHEET
350
325
  3
TSTACKALIGN
350
322
  3
TSTACKSIZE
350
323
  3
UCSBASE
350
33B
  3
UCSORGBACK
350
341
  3
UCSORGBOTTOM
350
33D
  3
UCSORGFRONT
350
340
  3
UCSORGLEFT
350
33E
  3
UCSORGRIGHT
350
33F
  3
UCSORGTOP
350
33C
  3
UCSORTHOREF
350
339
  3
UCSORTHOVIEW
350
33A
  3
VERSIONGUID
350
32D
  0
DICTIONARY
  5
1FA
102
{ACAD_REACTORS
330
C
102
}
330
C
100
AcDbDictionary
  3
DIMASSOC
350
1FC
  3
HIDETEXT
350
1FB
  0
XRECORD
  5
343
102
{ACAD_REACTORS
330
1C5
102
}
330
1C5
100
AcDbXrecord
340
1E
  0
XRECORD
  5
342
102
{ACAD_REACTORS
330
1C7
102
}
330
1C7
100
AcDbXrecord
340
1A
  0
MLINESTYLE
  5
17
102
{ACAD_REACTORS
330
16
102
}
330
16
100
AcDbMlineStyle
  2
STANDARD
 70
     0
  3

 62
   256
 51
90.0
 52
90.0
 71
     2
 49
0.5
 62
   256
  6
BYLAYER
 49
-0.5
 62
   256
  6
BYLAYER
  0
ACDBPLACEHOLDER
  5
F
102
{ACAD_REACTORS
330
E
102
}
330
E
100
AcDbPlaceHolder
280
     0
  0
XRECORD
  5
32B
102
{ACAD_REACTORS
330
321
102
}
330
321
100
AcDbXrecord
 90
        0
  0
XRECORD
  5
32F
102
{ACAD_REACTORS
330
321
102
}
330
321
100
AcDbXrecord
1000
DSTYLE
1002
{
1070
   277
 70
     5
1070
   279
 70
     2
1002
}
  0
XRECORD
  5
32C
102
{ACAD_REACTORS
330
321
102
}
330
321
100
AcDbXrecord
  1
{57860B65-ACD9-43BD-A3AE-1D657C5DA2CC}
  0
XRECORD
  5
324
102
{ACAD_REACTORS
330
321
102
}
330
321
100
AcDbXrecord
  1

  0
XRECORD
  5
32A
102
{ACAD_REACTORS
330
321
102
}
330
321
100
AcDbXrecord
 90
        0
  0
XRECORD
  5
326
102
{ACAD_REACTORS
330
321
102
}
330
321
100
AcDbXrecord
340
19
  0
XRECORD
  5
329
102
{ACAD_REACTORS
330
321
102
}
330
321
100
AcDbXrecord
 90
    14877
  0
XRECORD
  5
327
102
{ACAD_REACTORS
330
321
102
}
330
321
100
AcDbXrecord
340
18
  0
XRECORD
  5
328
102
{ACAD_REACTORS
330
321
102
}
330
321
100
AcDbXrecord
340
E
  0
XRECORD
  5
32E
102
{ACAD_REACTORS
330
321
102
}
330
321
100
AcDbXrecord
 40
0.0
  0
XRECORD
  5
332
102
{ACAD_REACTORS
330
321
102
}
330
321
100
AcDbXrecord
340
0
  0
XRECORD
  5
338
102
{ACAD_REACTORS
330
321
102
}
330
321
100
AcDbXrecord
 10
0.0
 20
0.0
 30
0.0
  0
XRECORD
  5
334
102
{ACAD_REACTORS
330
321
102
}
330
321
100
AcDbXrecord
 10
0.0
 20
0.0
 30
0.0
  0
XRECORD
  5
337
102
{ACAD_REACTORS
330
321
102
}
330
321
100
AcDbXrecord
 10
0.0
 20
0.0
 30
0.0
  0
XRECORD
  5
335
102
{ACAD_REACTORS
330
321
102
}
330
321
100
AcDbXrecord
 10
0.0
 20
0.0
 30
0.0
  0
XRECORD
  5
336
102
{ACAD_REACTORS
330
321
102
}
330
321
100
AcDbXrecord
 10
0.0
 20
0.0
 30
0.0
  0
XRECORD
  5
333
102
{ACAD_REACTORS
330
321
102
}
330
321
100
AcDbXrecord
 10
0.0
 20
0.0
 30
0.0
  0
XRECORD
  5
330
102
{ACAD_REACTORS
330
321
102
}
330
321
100
AcDbXrecord
340
0
  0
XRECORD
  5
331
102
{ACAD_REACTORS
330
321
102
}
330
321
100
AcDbXrecord
 70
     0
  0
XRECORD
  5
325
102
{ACAD_REACTORS
330
321
102
}
330
321
100
AcDbXrecord
  1

  0
XRECORD
  5
322
102
{ACAD_REACTORS
330
321
102
}
330
321
100
AcDbXrecord
 90
        1
  0
XRECORD
  5
323
102
{ACAD_REACTORS
330
321
102
}
330
321
100
AcDbXrecord
 90
       70
  0
XRECORD
  5
33B
102
{ACAD_REACTORS
330
321
102
}
330
321
100
AcDbXrecord
340
0
  0
XRECORD
  5
341
102
{ACAD_REACTORS
330
321
102
}
330
321
100
AcDbXrecord
 10
0.0
 20
0.0
 30
0.0
  0
XRECORD
  5
33D
102
{ACAD_REACTORS
330
321
102
}
330
321
100
AcDbXrecord
 10
0.0
 20
0.0
 30
0.0
  0
XRECORD
  5
340
102
{ACAD_REACTORS
330
321
102
}
330
321
100
AcDbXrecord
 10
0.0
 20
0.0
 30
0.0
  0
XRECORD
  5
33E
102
{ACAD_REACTORS
330
321
102
}
330
321
100
AcDbXrecord
 10
0.0
 20
0.0
 30
0.0
  0
XRECORD
  5
33F
102
{ACAD_REACTORS
330
321
102
}
330
321
100
AcDbXrecord
 10
0.0
 20
0.0
 30
0.0
  0
XRECORD
  5
33C
102
{ACAD_REACTORS
330
321
102
}
330
321
100
AcDbXrecord
 10
0.0
 20
0.0
 30
0.0
  0
XRECORD
  5
339
102
{ACAD_REACTORS
330
321
102
}
330
321
100
AcDbXrecord
340
0
  0
XRECORD
  5
33A
102
{ACAD_REACTORS
330
321
102
}
330
321
100
AcDbXrecord
 70
     0
  0
XRECORD
  5
32D
102
{ACAD_REACTORS
330
321
102
}
330
321
100
AcDbXrecord
  1
{86C87765-4A76-4C57-84B9-7E1E6AE83706}
  0
DICTIONARYVAR
  5
1FC
102
{ACAD_REACTORS
330
1FA
102
}
330
1FA
100
DictionaryVariables
280
     0
  1
2
  0
DICTIONARYVAR
  5
1FB
102
{ACAD_REACTORS
330
1FA
102
}
330
1FA
100
DictionaryVariables
280
     0
  1
1
  0
ENDSEC
  0
EOF
