  0
SECTION
  2
HEADER
  9
$ACADVER
  1
AC1015
  9
$ACADMAINTVER
 70
    20
  9
$DWGCODEPAGE
  3
ANSI_1252
  9
$INSBASE
 10
110.2813383021854
 20
0.0042540620384047
 30
0.0
  9
$EXTMIN
 10
102.3816960424588
 20
-0.9035926417462045
 30
0.0
  9
$EXTMAX
 10
115.2994995895257
 20
7.082594131792884
 30
0.0
  9
$LIMMIN
 10
0.0
 20
0.0
  9
$LIMMAX
 10
36.0
 20
36.0
  9
$ORTHOMODE
 70
     0
  9
$REGENMODE
 70
     1
  9
$FILLMODE
 70
     1
  9
$QTEXTMODE
 70
     0
  9
$MIRRTEXT
 70
     1
  9
$LTSCALE
 40
1.0
  9
$ATTMODE
 70
     1
  9
$TEXTSIZE
 40
0.2
  9
$TRACEWID
 40
0.05
  9
$TEXTSTYLE
  7
STANDARD
  9
$CLAYER
  8
ADP1DETAIL
  9
$CELTYPE
  6
ByLayer
  9
$CECOLOR
 62
   256
  9
$CELTSCALE
 40
1.0
  9
$DISPSILH
 70
     0
  9
$DIMSCALE
 40
1.0
  9
$DIMASZ
 40
0.125
  9
$DIMEXO
 40
0.0625
  9
$DIMDLI
 40
0.38
  9
$DIMRND
 40
0.0
  9
$DIMDLE
 40
0.0
  9
$DIMEXE
 40
0.18
  9
$DIMTP
 40
0.0
  9
$DIMTM
 40
0.0
  9
$DIMTXT
 40
0.125
  9
$DIMCEN
 40
0.1875
  9
$DIMTSZ
 40
0.125
  9
$DIMTOL
 70
     0
  9
$DIMLIM
 70
     0
  9
$DIMTIH
 70
     0
  9
$DIMTOH
 70
     0
  9
$DIMSE1
 70
     0
  9
$DIMSE2
 70
     0
  9
$DIMTAD
 70
     0
  9
$DIMZIN
 70
     3
  9
$DIMBLK
  1

  9
$DIMASO
 70
     1
  9
$DIMSHO
 70
     1
  9
$DIMPOST
  1

  9
$DIMAPOST
  1

  9
$DIMALT
 70
     0
  9
$DIMALTD
 70
     1
  9
$DIMALTF
 40
25.4
  9
$DIMLFAC
 40
1.0
  9
$DIMTOFL
 70
     0
  9
$DIMTVP
 40
0.0
  9
$DIMTIX
 70
     0
  9
$DIMSOXD
 70
     0
  9
$DIMSAH
 70
     0
  9
$DIMBLK1
  1

  9
$DIMBLK2
  1

  9
$DIMSTYLE
  2
Standard
  9
$DIMCLRD
 70
     0
  9
$DIMCLRE
 70
     0
  9
$DIMCLRT
 70
     0
  9
$DIMTFAC
 40
1.0
  9
$DIMGAP
 40
0.125
  9
$DIMJUST
 70
     0
  9
$DIMSD1
 70
     0
  9
$DIMSD2
 70
     0
  9
$DIMTOLJ
 70
     1
  9
$DIMTZIN
 70
     3
  9
$DIMALTZ
 70
     3
  9
$DIMALTTZ
 70
     3
  9
$DIMUPT
 70
     0
  9
$DIMDEC
 70
     4
  9
$DIMTDEC
 70
     4
  9
$DIMALTU
 70
     5
  9
$DIMALTTD
 70
     1
  9
$DIMTXSTY
  7
STANDARD
  9
$DIMAUNIT
 70
     0
  9
$DIMADEC
 70
     0
  9
$DIMALTRND
 40
0.0
  9
$DIMAZIN
 70
     0
  9
$DIMDSEP
 70
    46
  9
$DIMATFIT
 70
     3
  9
$DIMFRAC
 70
     0
  9
$DIMLDRBLK
  1

  9
$DIMLUNIT
 70
     5
  9
$DIMLWD
 70
    -2
  9
$DIMLWE
 70
    -2
  9
$DIMTMOVE
 70
     2
  9
$LUNITS
 70
     5
  9
$LUPREC
 70
     4
  9
$SKETCHINC
 40
0.1
  9
$FILLETRAD
 40
0.125
  9
$AUNITS
 70
     0
  9
$AUPREC
 70
     0
  9
$MENU
  1
acad
  9
$ELEVATION
 40
0.0
  9
$PELEVATION
 40
0.0
  9
$THICKNESS
 40
0.0
  9
$LIMCHECK
 70
     0
  9
$CHAMFERA
 40
0.0
  9
$CHAMFERB
 40
0.0
  9
$CHAMFERC
 40
0.0
  9
$CHAMFERD
 40
0.0
  9
$SKPOLY
 70
     0
  9
$TDCREATE
 40
2450367.474897952
  9
$TDUCREATE
 40
2450367.641564618
  9
$TDUPDATE
 40
2453947.956692465
  9
$TDUUPDATE
 40
2453948.123359132
  9
$TDINDWG
 40
0.0260057407
  9
$TDUSRTIMER
 40
0.0260057407
  9
$USRTIMER
 70
     1
  9
$ANGBASE
 50
0.0
  9
$ANGDIR
 70
     0
  9
$PDMODE
 70
     0
  9
$PDSIZE
 40
0.0
  9
$PLINEWID
 40
0.0
  9
$SPLFRAME
 70
     0
  9
$SPLINETYPE
 70
     6
  9
$SPLINESEGS
 70
     8
  9
$HANDSEED
  5
361
  9
$SURFTAB1
 70
     6
  9
$SURFTAB2
 70
     6
  9
$SURFTYPE
 70
     6
  9
$SURFU
 70
     6
  9
$SURFV
 70
     6
  9
$UCSBASE
  2

  9
$UCSNAME
  2

  9
$UCSORG
 10
0.0
 20
0.0
 30
0.0
  9
$UCSXDIR
 10
1.0
 20
0.0
 30
0.0
  9
$UCSYDIR
 10
0.0
 20
1.0
 30
0.0
  9
$UCSORTHOREF
  2

  9
$UCSORTHOVIEW
 70
     0
  9
$UCSORGTOP
 10
0.0
 20
0.0
 30
0.0
  9
$UCSORGBOTTOM
 10
0.0
 20
0.0
 30
0.0
  9
$UCSORGLEFT
 10
0.0
 20
0.0
 30
0.0
  9
$UCSORGRIGHT
 10
0.0
 20
0.0
 30
0.0
  9
$UCSORGFRONT
 10
0.0
 20
0.0
 30
0.0
  9
$UCSORGBACK
 10
0.0
 20
0.0
 30
0.0
  9
$PUCSBASE
  2

  9
$PUCSNAME
  2

  9
$PUCSORG
 10
0.0
 20
0.0
 30
0.0
  9
$PUCSXDIR
 10
1.0
 20
0.0
 30
0.0
  9
$PUCSYDIR
 10
0.0
 20
1.0
 30
0.0
  9
$PUCSORTHOREF
  2

  9
$PUCSORTHOVIEW
 70
     0
  9
$PUCSORGTOP
 10
0.0
 20
0.0
 30
0.0
  9
$PUCSORGBOTTOM
 10
0.0
 20
0.0
 30
0.0
  9
$PUCSORGLEFT
 10
0.0
 20
0.0
 30
0.0
  9
$PUCSORGRIGHT
 10
0.0
 20
0.0
 30
0.0
  9
$PUCSORGFRONT
 10
0.0
 20
0.0
 30
0.0
  9
$PUCSORGBACK
 10
0.0
 20
0.0
 30
0.0
  9
$USERI1
 70
     0
  9
$USERI2
 70
     0
  9
$USERI3
 70
     0
  9
$USERI4
 70
     0
  9
$USERI5
 70
     0
  9
$USERR1
 40
0.0
  9
$USERR2
 40
0.0
  9
$USERR3
 40
0.0
  9
$USERR4
 40
0.0
  9
$USERR5
 40
0.0
  9
$WORLDVIEW
 70
     1
  9
$SHADEDGE
 70
     3
  9
$SHADEDIF
 70
    70
  9
$TILEMODE
 70
     1
  9
$MAXACTVP
 70
    15
  9
$PINSBASE
 10
0.109376907348633
 20
0.0
 30
0.0
  9
$PLIMCHECK
 70
     0
  9
$PEXTMIN
 10
1.000000000000000E+20
 20
1.000000000000000E+20
 30
1.000000000000000E+20
  9
$PEXTMAX
 10
-1.000000000000000E+20
 20
-1.000000000000000E+20
 30
-1.000000000000000E+20
  9
$PLIMMIN
 10
0.0
 20
0.0
  9
$PLIMMAX
 10
12.0
 20
9.0
  9
$UNITMODE
 70
     0
  9
$VISRETAIN
 70
     0
  9
$PLINEGEN
 70
     0
  9
$PSLTSCALE
 70
     1
  9
$TREEDEPTH
 70
  3020
  9
$CMLSTYLE
  2
Standard
  9
$CMLJUST
 70
     0
  9
$CMLSCALE
 40
1.0
  9
$PROXYGRAPHICS
 70
     1
  9
$MEASUREMENT
 70
     0
  9
$CELWEIGHT
370
    -1
  9
$ENDCAPS
280
     0
  9
$JOINSTYLE
280
     0
  9
$LWDISPLAY
290
     0
  9
$INSUNITS
 70
     0
  9
$HYPERLINKBASE
  1

  9
$STYLESHEET
  1

  9
$XEDIT
290
     1
  9
$CEPSNTYPE
380
     0
  9
$PSTYLEMODE
290
     1
  9
$FINGERPRINTGUID
  2
{5F0E8410-1993-442C-ADB3-4AD0C3DA9280}
  9
$VERSIONGUID
  2
{EA0995DE-F4E7-483F-9205-038F9E8BE524}
  9
$EXTNAMES
290
     1
  9
$PSVPSCALE
 40
0.0
  9
$OLESTARTUP
290
     0
  0
ENDSEC
  0
SECTION
  2
CLASSES
  0
CLASS
  1
ACDBDICTIONARYWDFLT
  2
AcDbDictionaryWithDefault
  3
ObjectDBX Classes
 90
        0
280
     0
281
     0
  0
CLASS
  1
ACDBPLACEHOLDER
  2
AcDbPlaceHolder
  3
ObjectDBX Classes
 90
        0
280
     0
281
     0
  0
CLASS
  1
LAYOUT
  2
AcDbLayout
  3
ObjectDBX Classes
 90
        0
280
     0
281
     0
  0
CLASS
  1
DICTIONARYVAR
  2
AcDbDictionaryVar
  3
ObjectDBX Classes
 90
        0
280
     0
281
     0
  0
CLASS
  1
MATERIAL
  2
AcDbMaterial
  3
ObjectDBX Classes
 90
     1024
280
     0
281
     0
  0
CLASS
  1
VISUALSTYLE
  2
AcDbVisualStyle
  3
ObjectDBX Classes
 90
     4095
280
     0
281
     0
  0
CLASS
  1
TABLESTYLE
  2
AcDbTableStyle
  3
ObjectDBX Classes
 90
     4095
280
     0
281
     0
  0
CLASS
  1
DIMASSOC
  2
AcDbDimAssoc
  3
"AcDbDimAssoc|Product Desc:     AcDim ARX App For Dimension|Company:          Autodesk, Inc.|WEB Address:      www.autodesk.com"
 90
        0
280
     0
281
     0
  0
ENDSEC
  0
SECTION
  2
TABLES
  0
TABLE
  2
VPORT
  5
8
330
0
100
AcDbSymbolTable
 70
     1
  0
VPORT
  5
2A6
330
8
100
AcDbSymbolTableRecord
100
AcDbViewportTableRecord
  2
*Active
 70
     0
 10
0.0
 20
0.0
 11
1.0
 21
1.0
 12
108.1152734994967
 22
5.468570211504637
 13
0.0
 23
0.0
 14
0.5740882589684922
 24
0.5740882589684922
 15
0.5
 25
0.5
 16
0.0
 26
0.0
 36
1.0
 17
0.0
 27
0.0
 37
0.0
 40
11.80026855429388
 41
2.023012552301255
 42
50.0
 43
0.0
 44
0.0
 50
0.0
 51
0.0
 71
     0
 72
   100
 73
     1
 74
     0
 75
     0
 76
     0
 77
     0
 78
     0
281
     0
 65
     1
110
0.0
120
0.0
130
0.0
111
1.0
121
0.0
131
0.0
112
0.0
122
1.0
132
0.0
 79
     0
146
0.0
  0
ENDTAB
  0
TABLE
  2
LTYPE
  5
5
330
0
100
AcDbSymbolTable
 70
     2
  0
LTYPE
  5
13
330
5
100
AcDbSymbolTableRecord
100
AcDbLinetypeTableRecord
  2
ByBlock
 70
     0
  3

 72
    65
 73
     0
 40
0.0
  0
LTYPE
  5
14
330
5
100
AcDbSymbolTableRecord
100
AcDbLinetypeTableRecord
  2
ByLayer
 70
     0
  3

 72
    65
 73
     0
 40
0.0
  0
LTYPE
  5
15
330
5
100
AcDbSymbolTableRecord
100
AcDbLinetypeTableRecord
  2
CONTINUOUS
 70
     0
  3
Solid line
 72
    65
 73
     0
 40
0.0
  0
LTYPE
  5
26
330
5
100
AcDbSymbolTableRecord
100
AcDbLinetypeTableRecord
  2
HIDDEN2
 70
     0
  3
_ _ _ _ _ _ _ _ _ _ _ _ _ _ _ _ _ _ _ _ _ _ _ _
 72
    65
 73
     2
 40
0.1875
 49
0.125
 74
     0
 49
-0.0625
 74
     0
  0
ENDTAB
  0
TABLE
  2
LAYER
  5
2
330
0
100
AcDbSymbolTable
 70
     5
  0
LAYER
  5
10
330
2
100
AcDbSymbolTableRecord
100
AcDbLayerTableRecord
  2
0
 70
     0
 62
     7
  6
CONTINUOUS
370
    -3
390
F
  0
LAYER
  5
28
330
2
100
AcDbSymbolTableRecord
100
AcDbLayerTableRecord
  2
ADP2DETAIL
 70
     0
 62
     5
  6
CONTINUOUS
370
    -3
390
F
  0
LAYER
  5
29
330
2
100
AcDbSymbolTableRecord
100
AcDbLayerTableRecord
  2
ADPDIM
 70
     0
 62
     3
  6
CONTINUOUS
370
    -3
390
F
  0
LAYER
  5
2A
330
2
100
AcDbSymbolTableRecord
100
AcDbLayerTableRecord
  2
ADP1DETAIL
 70
     0
 62
     7
  6
CONTINUOUS
370
    -3
390
F
  0
LAYER
  5
2B
330
2
100
AcDbSymbolTableRecord
100
AcDbLayerTableRecord
  2
DEFPOINTS
 70
     0
 62
     7
  6
CONTINUOUS
290
     0
370
    -3
390
F
  0
ENDTAB
  0
TABLE
  2
STYLE
  5
3
330
0
100
AcDbSymbolTable
 70
     2
  0
STYLE
  5
11
330
3
100
AcDbSymbolTableRecord
100
AcDbTextStyleTableRecord
  2
STANDARD
 70
     0
 40
0.0
 41
1.0
 50
0.0
 71
     0
 42
0.2
  3
txt
  4

  0
STYLE
  5
10A
330
3
100
AcDbSymbolTableRecord
100
AcDbTextStyleTableRecord
  2
ARIAL_WIDE
 70
     0
 40
0.0
 41
1.25
 50
0.0
 71
     0
 42
0.2
  3
ARIAL.TTF
  4

1001
ACAD
1000
Arial
1071
       34
  0
ENDTAB
  0
TABLE
  2
VIEW
  5
6
330
0
100
AcDbSymbolTable
 70
     0
  0
ENDTAB
  0
TABLE
  2
UCS
  5
7
330
0
100
AcDbSymbolTable
 70
     0
  0
ENDTAB
  0
TABLE
  2
APPID
  5
9
330
0
100
AcDbSymbolTable
 70
     2
  0
APPID
  5
12
330
9
100
AcDbSymbolTableRecord
100
AcDbRegAppTableRecord
  2
ACAD
 70
     0
  0
APPID
  5
305
330
9
100
AcDbSymbolTableRecord
100
AcDbRegAppTableRecord
  2
DCO15
 70
     0
  0
ENDTAB
  0
TABLE
  2
DIMSTYLE
  5
A
330
0
100
AcDbSymbolTable
 70
     1
100
AcDbDimStyleTable
 71
     0
  0
DIMSTYLE
105
108
102
{ACAD_REACTORS
330
322
102
}
330
A
100
AcDbSymbolTableRecord
100
AcDbDimStyleTableRecord
  2
Standard
 70
     0
340
11
  0
ENDTAB
  0
TABLE
  2
BLOCK_RECORD
  5
1
330
0
100
AcDbSymbolTable
 70
     7
  0
BLOCK_RECORD
  5
1E
102
{ACAD_XDICTIONARY
360
14B
102
}
330
1
100
AcDbSymbolTableRecord
100
AcDbBlockTableRecord
  2
*Model_Space
340
21
  0
BLOCK_RECORD
  5
1A
102
{ACAD_XDICTIONARY
360
14D
102
}
330
1
100
AcDbSymbolTableRecord
100
AcDbBlockTableRecord
  2
*Paper_Space
340
1D
  0
BLOCK_RECORD
  5
22
330
1
100
AcDbSymbolTableRecord
100
AcDbBlockTableRecord
  2
*D0
340
0
  0
BLOCK_RECORD
  5
23
330
1
100
AcDbSymbolTableRecord
100
AcDbBlockTableRecord
  2
*D1
340
0
  0
BLOCK_RECORD
  5
24
330
1
100
AcDbSymbolTableRecord
100
AcDbBlockTableRecord
  2
*D2
340
0
  0
BLOCK_RECORD
  5
25
330
1
100
AcDbSymbolTableRecord
100
AcDbBlockTableRecord
  2
*D3
340
0
  0
BLOCK_RECORD
  5
2F8
330
1
100
AcDbSymbolTableRecord
100
AcDbBlockTableRecord
  2
*D4
340
0
  0
BLOCK_RECORD
  5
325
330
1
100
AcDbSymbolTableRecord
100
AcDbBlockTableRecord
  2
*D6
340
0
  0
ENDTAB
  0
ENDSEC
  0
SECTION
  2
BLOCKS
  0
BLOCK
  5
2E
330
1E
100
AcDbEntity
  8
0
100
AcDbBlockBegin
  2
*Model_Space
 70
     0
 10
0.0
 20
0.0
 30
0.0
  3
*Model_Space
  1

  0
ENDBLK
  5
2F
330
1E
100
AcDbEntity
  8
0
100
AcDbBlockEnd
  0
BLOCK
  5
2C
330
1A
100
AcDbEntity
 67
     1
  8
0
100
AcDbBlockBegin
  2
*Paper_Space
 70
     0
 10
0.0
 20
0.0
 30
0.0
  3
*Paper_Space
  1

  0
ENDBLK
  5
2D
330
1A
100
AcDbEntity
 67
     1
  8
0
100
AcDbBlockEnd
  0
BLOCK
  5
30
330
22
100
AcDbEntity
  8
0
100
AcDbBlockBegin
  2
*D0
 70
     1
 10
0.0
 20
0.0
 30
0.0
  3
*D0
  1
*U
  0
LINE
  5
31
330
22
100
AcDbEntity
  8
0
  6
ByBlock
 62
     0
100
AcDbLine
 10
108.7796294846871
 20
6.566754062038405
 30
0.0
 11
108.7796294846871
 21
6.872864572920885
 31
0.0
  0
LINE
  5
32
330
22
100
AcDbEntity
  8
0
  6
ByBlock
 62
     0
100
AcDbLine
 10
110.2813383021854
 20
6.566754062038405
 30
0.0
 11
110.2813383021854
 21
6.872864572920885
 31
0.0
  0
LINE
  5
33
330
22
100
AcDbEntity
  8
0
  6
ByBlock
 62
     0
100
AcDbLine
 10
108.7796294846871
 20
6.692864572920885
 30
0.0
 11
109.1554838934363
 21
6.692864572920885
 31
0.0
  0
LINE
  5
34
330
22
100
AcDbEntity
  8
0
  6
ByBlock
 62
     0
100
AcDbLine
 10
110.2813383021854
 20
6.692864572920885
 30
0.0
 11
109.9054838934363
 21
6.692864572920885
 31
0.0
  0
LINE
  5
35
330
22
100
AcDbEntity
  8
0
  6
ByBlock
 62
     0
100
AcDbLine
 10
108.6546294846871
 20
6.567864572920885
 30
0.0
 11
108.9046294846871
 21
6.817864572920885
 31
0.0
  0
LINE
  5
36
330
22
100
AcDbEntity
  8
0
  6
ByBlock
 62
     0
100
AcDbLine
 10
110.1563383021854
 20
6.567864572920885
 30
0.0
 11
110.4063383021854
 21
6.817864572920885
 31
0.0
  0
TEXT
  5
37
330
22
100
AcDbEntity
  8
0
  6
ByBlock
 62
     0
100
AcDbText
 10
109.2804838934363
 20
6.630364572920885
 30
0.0
 40
0.125
  1
1 1/2
 72
     1
 11
109.5304838934363
 21
6.692864572920885
 31
0.0
100
AcDbText
 73
     2
  0
POINT
  5
39
330
22
100
AcDbEntity
  8
DEFPOINTS
  6
ByBlock
 62
     0
100
AcDbPoint
 10
108.7796294846871
 20
6.504254062038405
 30
0.0
  0
POINT
  5
3A
330
22
100
AcDbEntity
  8
DEFPOINTS
  6
ByBlock
 62
     0
100
AcDbPoint
 10
110.2813383021854
 20
6.504254062038405
 30
0.0
  0
POINT
  5
3B
330
22
100
AcDbEntity
  8
DEFPOINTS
  6
ByBlock
 62
     0
100
AcDbPoint
 10
110.2813383021854
 20
6.692864572920885
 30
0.0
  0
ENDBLK
  5
3C
330
22
100
AcDbEntity
  8
0
100
AcDbBlockEnd
  0
BLOCK
  5
3D
330
23
100
AcDbEntity
  8
0
100
AcDbBlockBegin
  2
*D1
 70
     1
 10
0.0
 20
0.0
 30
0.0
  3
*D1
  1
*U
  0
LINE
  5
3E
330
23
100
AcDbEntity
  8
0
  6
ByBlock
 62
     0
100
AcDbLine
 10
110.3438383021854
 20
6.504254062038405
 30
0.0
 11
111.405987616981
 21
6.504254062038405
 31
0.0
  0
LINE
  5
3F
330
23
100
AcDbEntity
  8
0
  6
ByBlock
 62
     0
100
AcDbLine
 10
110.3438383021854
 20
0.0042540620384047
 30
0.0
 11
111.405987616981
 21
0.0042540620384047
 31
0.0
  0
LINE
  5
40
330
23
100
AcDbEntity
  8
0
  6
ByBlock
 62
     0
100
AcDbLine
 10
111.225987616981
 20
6.504254062038405
 30
0.0
 11
111.225987616981
 21
3.650087395371738
 31
0.0
  0
LINE
  5
41
330
23
100
AcDbEntity
  8
0
  6
ByBlock
 62
     0
100
AcDbLine
 10
111.225987616981
 20
0.0042540620384047
 30
0.0
 11
111.225987616981
 21
2.858420728705071
 31
0.0
  0
LINE
  5
42
330
23
100
AcDbEntity
  8
0
  6
ByBlock
 62
     0
100
AcDbLine
 10
111.350987616981
 20
6.379254062038405
 30
0.0
 11
111.100987616981
 21
6.629254062038405
 31
0.0
  0
LINE
  5
43
330
23
100
AcDbEntity
  8
0
  6
ByBlock
 62
     0
100
AcDbLine
 10
111.350987616981
 20
-0.1207459379615953
 30
0.0
 11
111.100987616981
 21
0.1292540620384047
 31
0.0
  0
TEXT
  5
44
330
23
100
AcDbEntity
  8
0
  6
ByBlock
 62
     0
100
AcDbText
 10
111.288487616981
 20
2.983420728705071
 30
0.0
 40
0.125
  1
6 1/2
 50
90.0
 72
     1
 11
111.225987616981
 21
3.254254062038405
 31
0.0
100
AcDbText
 73
     2
  0
POINT
  5
45
330
23
100
AcDbEntity
  8
DEFPOINTS
  6
ByBlock
 62
     0
100
AcDbPoint
 10
110.2813383021854
 20
6.504254062038405
 30
0.0
  0
POINT
  5
46
330
23
100
AcDbEntity
  8
DEFPOINTS
  6
ByBlock
 62
     0
100
AcDbPoint
 10
110.2813383021854
 20
0.0042540620384047
 30
0.0
  0
POINT
  5
47
330
23
100
AcDbEntity
  8
DEFPOINTS
  6
ByBlock
 62
     0
100
AcDbPoint
 10
111.225987616981
 20
0.0042540620384047
 30
0.0
  0
ENDBLK
  5
48
330
23
100
AcDbEntity
  8
0
100
AcDbBlockEnd
  0
BLOCK
  5
49
330
24
100
AcDbEntity
  8
0
100
AcDbBlockBegin
  2
*D2
 70
     1
 10
0.0
 20
0.0
 30
0.0
  3
*D2
  1
*U
  0
LINE
  5
4A
330
24
100
AcDbEntity
  8
0
  6
ByBlock
 62
     0
100
AcDbLine
 10
110.8414459576878
 20
5.760064041532595
 30
0.0
 11
111.1388624044484
 21
5.760064041532595
 31
0.0
  0
LINE
  5
4B
330
24
100
AcDbEntity
  8
0
  6
ByBlock
 62
     0
100
AcDbLine
 10
110.8414459576878
 20
0.7617728590308866
 30
0.0
 11
111.1388624044484
 21
0.7617728590308866
 31
0.0
  0
LINE
  5
4C
330
24
100
AcDbEntity
  8
0
  6
ByBlock
 62
     0
100
AcDbLine
 10
110.9588624044484
 20
5.760064041532595
 30
0.0
 11
110.9588624044484
 21
3.427585116948407
 31
0.0
  0
LINE
  5
4D
330
24
100
AcDbEntity
  8
0
  6
ByBlock
 62
     0
100
AcDbLine
 10
110.9588624044484
 20
0.7617728590308866
 30
0.0
 11
110.9588624044484
 21
3.094251783615074
 31
0.0
  0
LINE
  5
4E
330
24
100
AcDbEntity
  8
0
  6
ByBlock
 62
     0
100
AcDbLine
 10
111.0838624044484
 20
5.635064041532595
 30
0.0
 11
110.8338624044484
 21
5.885064041532595
 31
0.0
  0
LINE
  5
4F
330
24
100
AcDbEntity
  8
0
  6
ByBlock
 62
     0
100
AcDbLine
 10
111.0838624044484
 20
0.6367728590308866
 30
0.0
 11
110.8338624044484
 21
0.8867728590308864
 31
0.0
  0
TEXT
  5
50
330
24
100
AcDbEntity
  8
0
  6
ByBlock
 62
     0
100
AcDbText
 10
111.0213624044484
 20
3.219251783615074
 30
0.0
 40
0.125
  1
5
 50
90.0
 72
     1
 11
110.9588624044484
 21
3.260918450281741
 31
0.0
100
AcDbText
 73
     2
  0
POINT
  5
51
330
24
100
AcDbEntity
  8
DEFPOINTS
  6
ByBlock
 62
     0
100
AcDbPoint
 10
110.7789459576878
 20
5.760064041532595
 30
0.0
  0
POINT
  5
52
330
24
100
AcDbEntity
  8
DEFPOINTS
  6
ByBlock
 62
     0
100
AcDbPoint
 10
110.7789459576878
 20
0.7617728590308866
 30
0.0
  0
POINT
  5
53
330
24
100
AcDbEntity
  8
DEFPOINTS
  6
ByBlock
 62
     0
100
AcDbPoint
 10
110.9588624044484
 20
0.7617728590308866
 30
0.0
  0
ENDBLK
  5
54
330
24
100
AcDbEntity
  8
0
100
AcDbBlockEnd
  0
BLOCK
  5
55
330
25
100
AcDbEntity
  8
0
100
AcDbBlockBegin
  2
*D3
 70
     1
 10
0.0
 20
0.0
 30
0.0
  3
*D3
  1
*U
  0
LINE
  5
56
330
25
100
AcDbEntity
  8
0
  6
ByBlock
 62
     0
100
AcDbLine
 10
106.5344768826876
 20
6.569733947872161
 30
0.0
 11
106.5344768826876
 21
6.875844458754642
 31
0.0
  0
LINE
  5
57
330
25
100
AcDbEntity
  8
0
  6
ByBlock
 62
     0
100
AcDbLine
 10
107.5344768826876
 20
6.569733947872161
 30
0.0
 11
107.5344768826876
 21
6.875844458754642
 31
0.0
  0
LINE
  5
58
330
25
100
AcDbEntity
  8
0
  6
ByBlock
 62
     0
100
AcDbLine
 10
106.5344768826876
 20
6.695844458754642
 30
0.0
 11
106.8886435493543
 21
6.695844458754642
 31
0.0
  0
LINE
  5
59
330
25
100
AcDbEntity
  8
0
  6
ByBlock
 62
     0
100
AcDbLine
 10
107.5344768826876
 20
6.695844458754642
 30
0.0
 11
107.1803102160209
 21
6.695844458754642
 31
0.0
  0
LINE
  5
5A
330
25
100
AcDbEntity
  8
0
  6
ByBlock
 62
     0
100
AcDbLine
 10
106.4094768826876
 20
6.570844458754642
 30
0.0
 11
106.6594768826876
 21
6.820844458754642
 31
0.0
  0
LINE
  5
5B
330
25
100
AcDbEntity
  8
0
  6
ByBlock
 62
     0
100
AcDbLine
 10
107.4094768826876
 20
6.570844458754642
 30
0.0
 11
107.6594768826876
 21
6.820844458754642
 31
0.0
  0
TEXT
  5
5C
330
25
100
AcDbEntity
  8
0
  6
ByBlock
 62
     0
100
AcDbText
 10
107.0136435493543
 20
6.633344458754642
 30
0.0
 40
0.125
  1
1
 72
     1
 11
107.0344768826876
 21
6.695844458754642
 31
0.0
100
AcDbText
 73
     2
  0
POINT
  5
5D
330
25
100
AcDbEntity
  8
DEFPOINTS
  6
ByBlock
 62
     0
100
AcDbPoint
 10
106.5344768826876
 20
6.507233947872161
 30
0.0
  0
POINT
  5
5E
330
25
100
AcDbEntity
  8
DEFPOINTS
  6
ByBlock
 62
     0
100
AcDbPoint
 10
107.5344768826876
 20
6.507233947872161
 30
0.0
  0
POINT
  5
5F
330
25
100
AcDbEntity
  8
DEFPOINTS
  6
ByBlock
 62
     0
100
AcDbPoint
 10
107.5344768826876
 20
6.695844458754642
 30
0.0
  0
ENDBLK
  5
60
330
25
100
AcDbEntity
  8
0
100
AcDbBlockEnd
  0
BLOCK
  5
2F9
330
2F8
100
AcDbEntity
  8
0
 62
     3
100
AcDbBlockBegin
  2
*D4
 70
     1
 10
0.0
 20
0.0
 30
0.0
  3
*D4
  1

  0
LINE
  5
2FA
330
2F8
100
AcDbEntity
  8
ADPDIM
 62
     0
370
    -2
100
AcDbLine
 10
107.5344768826876
 20
6.569733947872161
 30
0.0
 11
107.5344768826876
 21
7.095474008338353
 31
0.0
  0
LINE
  5
2FB
330
2F8
100
AcDbEntity
  8
ADPDIM
 62
     0
370
    -2
100
AcDbLine
 10
106.7844768826876
 20
6.569733947872161
 30
0.0
 11
106.7844768826876
 21
7.095474008338353
 31
0.0
  0
LINE
  5
2FC
330
2F8
100
AcDbEntity
  8
ADPDIM
 62
     0
370
    -2
100
AcDbLine
 10
107.5344768826876
 20
6.915474008338353
 30
0.0
 11
107.3261435493543
 21
6.915474008338353
 31
0.0
  0
LINE
  5
2FD
330
2F8
100
AcDbEntity
  8
ADPDIM
 62
     0
370
    -2
100
AcDbLine
 10
106.7844768826876
 20
6.915474008338353
 30
0.0
 11
106.9928102160209
 21
6.915474008338353
 31
0.0
  0
LINE
  5
2FE
330
2F8
100
AcDbEntity
  8
ADPDIM
 62
     0
370
    -2
100
AcDbLine
 10
106.6594768826876
 20
6.790474008338353
 30
0.0
 11
106.9094768826876
 21
7.040474008338353
 31
0.0
  0
LINE
  5
2FF
330
2F8
100
AcDbEntity
  8
ADPDIM
 62
     0
370
    -2
100
AcDbLine
 10
107.4094768826876
 20
6.790474008338353
 30
0.0
 11
107.6594768826876
 21
7.040474008338353
 31
0.0
  0
MTEXT
  5
300
330
2F8
100
AcDbEntity
  8
ADPDIM
 62
     0
100
AcDbMText
 10
107.1594768826876
 20
6.915474008338353
 30
0.0
 40
0.125
 41
0.0
 71
     5
 72
     1
  1
\A1;{\H1.000000x;\S3/4;}
 73
     1
 44
1.0
1001
ACAD
1000
MTEXTBEGIN
1070
    73
1070
     1
1070
    44
1040
1.0
1070
    74
1070
     0
1000
MTEXTEND
  0
POINT
  5
301
330
2F8
100
AcDbEntity
  8
DEFPOINTS
 62
     0
100
AcDbPoint
 10
107.5344768826876
 20
6.507233947872161
 30
0.0
  0
POINT
  5
302
330
2F8
100
AcDbEntity
  8
DEFPOINTS
 62
     0
100
AcDbPoint
 10
106.7844768826876
 20
6.507233947872161
 30
0.0
  0
POINT
  5
303
330
2F8
100
AcDbEntity
  8
DEFPOINTS
 62
     0
100
AcDbPoint
 10
106.7844768826876
 20
6.915474008338353
 30
0.0
  0
ENDBLK
  5
304
330
2F8
100
AcDbEntity
  8
0
 62
     3
100
AcDbBlockEnd
  0
BLOCK
  5
330
330
325
100
AcDbEntity
  8
0
100
AcDbBlockBegin
  2
*D6
 70
     1
 10
0.0
 20
0.0
 30
0.0
  3
*D6
  1

  0
LINE
  5
326
330
325
100
AcDbEntity
  8
ADPDIM
 62
     0
370
    -2
100
AcDbLine
 10
107.5922936250942
 20
6.556854071326692
 30
0.0
 11
107.5922936250942
 21
7.082594131792884
 31
0.0
  0
LINE
  5
327
330
325
100
AcDbEntity
  8
ADPDIM
 62
     0
370
    -2
100
AcDbLine
 10
106.8422936250942
 20
6.556854071326692
 30
0.0
 11
106.8422936250942
 21
7.082594131792884
 31
0.0
  0
LINE
  5
328
330
325
100
AcDbEntity
  8
ADPDIM
 62
     0
370
    -2
100
AcDbLine
 10
107.5922936250942
 20
6.902594131792884
 30
0.0
 11
107.3839602917609
 21
6.902594131792884
 31
0.0
  0
LINE
  5
329
330
325
100
AcDbEntity
  8
ADPDIM
 62
     0
370
    -2
100
AcDbLine
 10
106.8422936250942
 20
6.902594131792884
 30
0.0
 11
107.0506269584275
 21
6.902594131792884
 31
0.0
  0
LINE
  5
32A
330
325
100
AcDbEntity
  8
ADPDIM
 62
     0
370
    -2
100
AcDbLine
 10
106.7172936250942
 20
6.777594131792884
 30
0.0
 11
106.9672936250942
 21
7.027594131792884
 31
0.0
  0
LINE
  5
32B
330
325
100
AcDbEntity
  8
ADPDIM
 62
     0
370
    -2
100
AcDbLine
 10
107.4672936250942
 20
6.777594131792884
 30
0.0
 11
107.7172936250942
 21
7.027594131792884
 31
0.0
  0
MTEXT
  5
32C
330
325
100
AcDbEntity
  8
ADPDIM
 62
     0
100
AcDbMText
 10
107.2172936250942
 20
6.902594131792884
 30
0.0
 40
0.125
 41
0.0
 71
     5
 72
     1
  1
\A1;{\H1.000000x;\S3/4;}
 73
     1
 44
1.0
1001
ACAD
1000
MTEXTBEGIN
1070
    73
1070
     1
1070
    44
1040
1.0
1070
    74
1070
     0
1000
MTEXTEND
  0
POINT
  5
32D
330
325
100
AcDbEntity
  8
DEFPOINTS
 62
     0
100
AcDbPoint
 10
107.5922936250942
 20
6.494354071326692
 30
0.0
  0
POINT
  5
32E
330
325
100
AcDbEntity
  8
DEFPOINTS
 62
     0
100
AcDbPoint
 10
106.8422936250942
 20
6.494354071326692
 30
0.0
  0
POINT
  5
32F
330
325
100
AcDbEntity
  8
DEFPOINTS
 62
     0
100
AcDbPoint
 10
106.8422936250942
 20
6.902594131792884
 30
0.0
  0
ENDBLK
  5
331
330
325
100
AcDbEntity
  8
0
100
AcDbBlockEnd
  0
ENDSEC
  0
SECTION
  2
ENTITIES
  0
DIMENSION
  5
63
330
1E
100
AcDbEntity
  8
ADPDIM
100
AcDbDimension
  2
*D2
 10
110.9588624044484
 20
0.7617728590308866
 30
0.0
 11
110.9588624044484
 21
3.260918450281741
 31
0.0
 71
     5
 42
-1.0
100
AcDbAlignedDimension
 13
110.7789459576878
 23
5.760064041532595
 33
0.0
 14
110.7789459576878
 24
0.7617728590308866
 34
0.0
 50
90.0
100
AcDbRotatedDimension
  0
DIMENSION
  5
64
330
1E
100
AcDbEntity
  8
ADPDIM
100
AcDbDimension
  2
*D1
 10
111.225987616981
 20
0.0042540620384047
 30
0.0
 11
111.225987616981
 21
3.254254062038405
 31
0.0
 71
     5
 42
-1.0
100
AcDbAlignedDimension
 13
110.2813383021854
 23
6.504254062038405
 33
0.0
 14
110.2813383021854
 24
0.0042540620384047
 34
0.0
 50
90.0
100
AcDbRotatedDimension
  0
LINE
  5
65
330
1E
100
AcDbEntity
  8
ADP1DETAIL
100
AcDbLine
 10
108.7796294846871
 20
6.504254062038405
 30
0.0
 11
108.7796294846871
 21
0.0042540620384047
 31
0.0
  0
LINE
  5
66
330
1E
100
AcDbEntity
  8
ADP1DETAIL
100
AcDbLine
 10
110.2813383021854
 20
0.0042540620384047
 30
0.0
 11
110.2813383021854
 21
6.504254062038405
 31
0.0
  0
LINE
  5
6B
330
1E
100
AcDbEntity
  8
ADP2DETAIL
  6
HIDDEN2
100
AcDbLine
 10
108.9040313985627
 20
0.4752041645674554
 30
0.0
 11
108.9040313985627
 21
1.035012777007645
 31
0.0
  0
LINE
  5
6C
330
1E
100
AcDbEntity
  8
ADP1DETAIL
100
AcDbLine
 10
110.6945303732722
 20
0.7551084707875502
 30
0.0
 11
110.6900874477767
 21
0.8084235767342358
 31
0.0
  0
LINE
  5
6D
330
1E
100
AcDbEntity
  8
ADP1DETAIL
100
AcDbLine
 10
110.7789459576878
 20
0.6040490039386102
 30
0.0
 11
110.7789459576878
 21
0.9194967141231629
 31
0.0
  0
LINE
  5
6E
330
1E
100
AcDbEntity
  8
ADP1DETAIL
100
AcDbLine
 10
110.71674500075
 20
0.9150537886276062
 30
0.0
 11
110.71674500075
 21
0.5996060784430526
 31
0.0
  0
LINE
  5
6F
330
1E
100
AcDbEntity
  8
ADP2DETAIL
  6
HIDDEN2
100
AcDbLine
 10
110.5923430868744
 20
0.9150537886276062
 30
0.0
 11
110.5923430868744
 21
0.5996060784430526
 31
0.0
  0
LINE
  5
70
330
1E
100
AcDbEntity
  8
ADP2DETAIL
  6
HIDDEN2
100
AcDbLine
 10
110.6589869693078
 20
0.9417113416009481
 30
0.0
 11
110.6589869693078
 21
0.5685055999741531
 31
0.0
  0
LINE
  5
71
330
1E
100
AcDbEntity
  8
ADP1DETAIL
100
AcDbLine
 10
110.3435392591232
 20
0.9150537886276062
 30
0.0
 11
110.3435392591232
 21
0.5996060784430526
 31
0.0
  0
LINE
  5
72
330
1E
100
AcDbEntity
  8
ADP2DETAIL
  6
HIDDEN2
100
AcDbLine
 10
110.4679411729988
 20
0.9150537886276062
 30
0.0
 11
110.4679411729988
 21
0.5996060784430526
 31
0.0
  0
LINE
  5
73
330
1E
100
AcDbEntity
  8
ADP2DETAIL
  6
HIDDEN2
100
AcDbLine
 10
110.5345850554322
 20
0.9417113416009481
 30
0.0
 11
110.5345850554322
 21
0.5685055999741531
 31
0.0
  0
LINE
  5
74
330
1E
100
AcDbEntity
  8
ADP2DETAIL
  6
HIDDEN2
100
AcDbLine
 10
110.4101831415566
 20
0.9417113416009481
 30
0.0
 11
110.4101831415566
 21
0.5685055999741531
 31
0.0
  0
LINE
  5
75
330
1E
100
AcDbEntity
  8
ADP1DETAIL
100
AcDbLine
 10
110.3879685140788
 20
1.128314212414344
 30
0.0
 11
110.3879685140788
 21
0.3774598036651993
 31
0.0
  0
LINE
  5
76
330
1E
100
AcDbEntity
  8
ADP1DETAIL
100
AcDbLine
 10
110.6945303732722
 20
1.021684000520975
 30
0.0
 11
110.6945303732722
 21
0.4885329410541264
 31
0.0
  0
LINE
  5
77
330
1E
100
AcDbEntity
  8
ADP1DETAIL
100
AcDbLine
 10
108.1620628408047
 20
0.7862089492564497
 30
0.0
 11
108.1620628408047
 21
0.7240079923186516
 31
0.0
  0
LINE
  5
78
330
1E
100
AcDbEntity
  8
ADP1DETAIL
100
AcDbLine
 10
108.379766190087
 20
0.9417113416009481
 30
0.0
 11
108.379766190087
 21
0.5685055999741531
 31
0.0
  0
LINE
  5
79
330
1E
100
AcDbEntity
  8
ADP1DETAIL
100
AcDbLine
 10
108.3531086371137
 20
1.035012777007645
 30
0.0
 11
108.3531086371137
 21
0.4752041645674554
 31
0.0
  0
LINE
  5
7A
330
1E
100
AcDbEntity
  8
ADP2DETAIL
  6
HIDDEN2
100
AcDbLine
 10
108.7796294846871
 20
0.5685055999741531
 30
0.0
 11
110.285781227681
 21
0.5685055999741531
 31
0.0
  0
LINE
  5
7B
330
1E
100
AcDbEntity
  8
ADP1DETAIL
100
AcDbLine
 10
108.7796294846871
 20
0.0042540620384047
 30
0.0
 11
110.2813383021854
 21
0.0042540620384047
 31
0.0
  0
LINE
  5
7C
330
1E
100
AcDbEntity
  8
ADP1DETAIL
100
AcDbLine
 10
108.379766190087
 20
0.5685055999741531
 30
0.0
 11
108.7796294846871
 21
0.5685055999741531
 31
0.0
  0
LINE
  5
7D
330
1E
100
AcDbEntity
  8
ADP1DETAIL
100
AcDbLine
 10
108.1620628408047
 20
0.7240079923186516
 30
0.0
 11
108.028775075938
 21
0.7240079923186516
 31
0.0
  0
LINE
  5
7E
330
1E
100
AcDbEntity
  8
ADP1DETAIL
100
AcDbLine
 10
108.1265194368402
 20
0.4752041645674554
 30
0.0
 11
108.3575515626092
 21
0.4752041645674554
 31
0.0
  0
LINE
  5
7F
330
1E
100
AcDbEntity
  8
ADP1DETAIL
100
AcDbLine
 10
108.3575515626092
 20
0.4752041645674554
 30
0.0
 11
108.379766190087
 21
0.5685055999741531
 31
0.0
  0
LINE
  5
80
330
1E
100
AcDbEntity
  8
ADP1DETAIL
100
AcDbLine
 10
108.1220765113447
 20
0.7240079923186516
 30
0.0
 11
108.1220765113447
 21
0.4796470900630112
 31
0.0
  0
ARC
  5
81
330
1E
100
AcDbEntity
  8
ADP1DETAIL
  6
Continuous
100
AcDbCircle
 10
108.3621202312792
 20
0.7071164925572733
 30
0.0
 40
0.3337728499349353
100
AcDbArc
 50
177.0991491941187
 51
224.0129412450478
  0
LINE
  5
82
330
1E
100
AcDbEntity
  8
ADP2DETAIL
  6
HIDDEN2
100
AcDbLine
 10
108.7929582611738
 20
0.4752041645674554
 30
0.0
 11
108.9040313985627
 21
0.4752041645674554
 31
0.0
  0
LINE
  5
83
330
1E
100
AcDbEntity
  8
ADP1DETAIL
100
AcDbLine
 10
110.2813383021854
 20
0.0042540620384047
 30
0.0
 11
110.2813383021854
 21
0.0042540620384047
 31
0.0
  0
LINE
  5
84
330
1E
100
AcDbEntity
  8
ADP1DETAIL
100
AcDbLine
 10
110.3879685140788
 20
0.3774598036651993
 30
0.0
 11
110.63677234183
 21
0.3774598036651993
 31
0.0
  0
LINE
  5
85
330
1E
100
AcDbEntity
  8
ADP1DETAIL
100
AcDbLine
 10
110.3879685140788
 20
0.5996060784430526
 30
0.0
 11
110.6323294163344
 21
0.5996060784430526
 31
0.0
  0
LINE
  5
86
330
1E
100
AcDbEntity
  8
ADP2DETAIL
  6
HIDDEN2
100
AcDbLine
 10
110.3879685140788
 20
0.5685055999741531
 30
0.0
 11
110.6945303732722
 21
0.5685055999741531
 31
0.0
  0
LINE
  5
87
330
1E
100
AcDbEntity
  8
ADP1DETAIL
100
AcDbLine
 10
110.2813383021854
 20
0.5685055999741531
 30
0.0
 11
110.3879685140788
 21
0.5685055999741531
 31
0.0
  0
LINE
  5
88
330
1E
100
AcDbEntity
  8
ADP1DETAIL
100
AcDbLine
 10
110.6812015967856
 20
0.4041173566385412
 30
0.0
 11
110.6900874477767
 21
0.4396607606029983
 31
0.0
  0
LINE
  5
89
330
1E
100
AcDbEntity
  8
ADP1DETAIL
100
AcDbLine
 10
110.63677234183
 20
0.3774598036651993
 30
0.0
 11
110.63677234183
 21
0.3774598036651993
 31
0.0
  0
LINE
  5
8A
330
1E
100
AcDbEntity
  8
ADP1DETAIL
100
AcDbLine
 10
110.63677234183
 20
0.3774598036651993
 30
0.0
 11
110.6634298948033
 21
0.3863456546563144
 31
0.0
  0
LINE
  5
8B
330
1E
100
AcDbEntity
  8
ADP1DETAIL
100
AcDbLine
 10
110.6634298948033
 20
0.3863456546563144
 30
0.0
 11
110.6812015967856
 21
0.4041173566385412
 31
0.0
  0
LINE
  5
8C
330
1E
100
AcDbEntity
  8
ADP1DETAIL
100
AcDbLine
 10
110.6900874477767
 20
0.4396607606029983
 30
0.0
 11
110.6945303732722
 21
0.4885329410541264
 31
0.0
  0
LINE
  5
8D
330
1E
100
AcDbEntity
  8
ADP1DETAIL
100
AcDbLine
 10
110.6945303732722
 20
0.7551084707875502
 30
0.0
 11
110.6945303732722
 21
0.7551084707875502
 31
0.0
  0
LINE
  5
8E
330
1E
100
AcDbEntity
  8
ADP1DETAIL
100
AcDbLine
 10
110.7522884047145
 20
0.5685055999741531
 30
0.0
 11
110.7789459576878
 21
0.6040490039386102
 31
0.0
  0
LINE
  5
8F
330
1E
100
AcDbEntity
  8
ADP1DETAIL
100
AcDbLine
 10
110.7522884047145
 20
0.5685055999741531
 30
0.0
 11
110.7522884047145
 21
0.5685055999741531
 31
0.0
  0
LINE
  5
90
330
1E
100
AcDbEntity
  8
ADP1DETAIL
100
AcDbLine
 10
110.7522884047145
 20
0.5685055999741531
 30
0.0
 11
110.7522884047145
 21
0.5685055999741531
 31
0.0
  0
LINE
  5
91
330
1E
100
AcDbEntity
  8
ADP1DETAIL
100
AcDbLine
 10
110.6945303732722
 20
0.4885329410541264
 30
0.0
 11
110.6900874477767
 21
0.5374051215052536
 31
0.0
  0
LINE
  5
92
330
1E
100
AcDbEntity
  8
ADP1DETAIL
100
AcDbLine
 10
110.6900874477767
 20
0.5374051215052536
 30
0.0
 11
110.6812015967856
 21
0.5685055999741531
 31
0.0
  0
LINE
  5
93
330
1E
100
AcDbEntity
  8
ADP1DETAIL
100
AcDbLine
 10
110.6812015967856
 20
0.5685055999741531
 30
0.0
 11
110.6634298948033
 21
0.5907202274519383
 31
0.0
  0
LINE
  5
94
330
1E
100
AcDbEntity
  8
ADP1DETAIL
100
AcDbLine
 10
110.6634298948033
 20
0.5907202274519383
 30
0.0
 11
110.6412152673255
 21
0.5996060784430526
 31
0.0
  0
LINE
  5
95
330
1E
100
AcDbEntity
  8
ADP1DETAIL
100
AcDbLine
 10
110.6412152673255
 20
0.5996060784430526
 30
0.0
 11
110.6634298948033
 21
0.6173777804252812
 31
0.0
  0
LINE
  5
96
330
1E
100
AcDbEntity
  8
ADP1DETAIL
100
AcDbLine
 10
110.6634298948033
 20
0.6173777804252812
 30
0.0
 11
110.6812015967856
 21
0.6529211843897383
 31
0.0
  0
LINE
  5
97
330
1E
100
AcDbEntity
  8
ADP1DETAIL
100
AcDbLine
 10
110.6812015967856
 20
0.6529211843897383
 30
0.0
 11
110.6900874477767
 21
0.6973504393453088
 31
0.0
  0
LINE
  5
98
330
1E
100
AcDbEntity
  8
ADP1DETAIL
100
AcDbLine
 10
110.6900874477767
 20
0.6973504393453088
 30
0.0
 11
110.6945303732722
 21
0.7551084707875502
 31
0.0
  0
LINE
  5
99
330
1E
100
AcDbEntity
  8
ADP1DETAIL
100
AcDbLine
 10
110.6945303732722
 20
0.5685055999741531
 30
0.0
 11
110.7522884047145
 21
0.5685055999741531
 31
0.0
  0
LINE
  5
9A
330
1E
100
AcDbEntity
  8
ADP2DETAIL
  6
HIDDEN2
100
AcDbLine
 10
108.7796294846871
 20
0.9417113416009481
 30
0.0
 11
110.285781227681
 21
0.9417113416009481
 31
0.0
  0
LINE
  5
9B
330
1E
100
AcDbEntity
  8
ADP1DETAIL
100
AcDbLine
 10
108.7796294846871
 20
0.9417113416009481
 30
0.0
 11
108.379766190087
 21
0.9417113416009481
 31
0.0
  0
LINE
  5
9C
330
1E
100
AcDbEntity
  8
ADP1DETAIL
100
AcDbLine
 10
108.3575515626092
 20
1.035012777007645
 30
0.0
 11
108.1265194368402
 21
1.035012777007645
 31
0.0
  0
LINE
  5
9D
330
1E
100
AcDbEntity
  8
ADP1DETAIL
100
AcDbLine
 10
108.028775075938
 20
0.7862089492564497
 30
0.0
 11
108.1620628408047
 21
0.7862089492564497
 31
0.0
  0
LINE
  5
9E
330
1E
100
AcDbEntity
  8
ADP1DETAIL
100
AcDbLine
 10
108.1220765113447
 20
1.035012777007645
 30
0.0
 11
108.1220765113447
 21
0.7862089492564497
 31
0.0
  0
LINE
  5
9F
330
1E
100
AcDbEntity
  8
ADP1DETAIL
100
AcDbLine
 10
108.379766190087
 20
0.9417113416009481
 30
0.0
 11
108.3575515626092
 21
1.035012777007645
 31
0.0
  0
ARC
  5
A0
330
1E
100
AcDbEntity
  8
ADP1DETAIL
  6
Continuous
100
AcDbCircle
 10
108.3621202312792
 20
0.803100449017827
 30
0.0
 40
0.3337728499349353
100
AcDbArc
 50
135.9870587549522
 51
182.9008508058812
  0
LINE
  5
A1
330
1E
100
AcDbEntity
  8
ADP2DETAIL
  6
HIDDEN2
100
AcDbLine
 10
108.9040313985627
 20
1.035012777007645
 30
0.0
 11
108.7929582611738
 21
1.035012777007645
 31
0.0
  0
LINE
  5
A2
330
1E
100
AcDbEntity
  8
ADP1DETAIL
100
AcDbLine
 10
110.63677234183
 20
1.128314212414344
 30
0.0
 11
110.3879685140788
 21
1.128314212414344
 31
0.0
  0
LINE
  5
A3
330
1E
100
AcDbEntity
  8
ADP1DETAIL
100
AcDbLine
 10
110.3879685140788
 20
0.9106108631320486
 30
0.0
 11
110.6323294163344
 21
0.9106108631320486
 31
0.0
  0
LINE
  5
A4
330
1E
100
AcDbEntity
  8
ADP2DETAIL
  6
HIDDEN2
100
AcDbLine
 10
110.3879685140788
 20
0.9417113416009481
 30
0.0
 11
110.6945303732722
 21
0.9417113416009481
 31
0.0
  0
LINE
  5
A5
330
1E
100
AcDbEntity
  8
ADP1DETAIL
100
AcDbLine
 10
110.285781227681
 20
0.9417113416009481
 30
0.0
 11
110.2813383021854
 21
0.9417113416009481
 31
0.0
  0
LINE
  5
A6
330
1E
100
AcDbEntity
  8
ADP1DETAIL
100
AcDbLine
 10
110.285781227681
 20
0.9417113416009481
 30
0.0
 11
110.2813383021854
 21
0.9417113416009481
 31
0.0
  0
LINE
  5
A7
330
1E
100
AcDbEntity
  8
ADP1DETAIL
100
AcDbLine
 10
110.3879685140788
 20
0.9417113416009481
 30
0.0
 11
110.285781227681
 21
0.9417113416009481
 31
0.0
  0
LINE
  5
A8
330
1E
100
AcDbEntity
  8
ADP1DETAIL
100
AcDbLine
 10
110.6900874477767
 20
0.9683688945742909
 30
0.0
 11
110.6945303732722
 21
1.021684000520975
 31
0.0
  0
LINE
  5
A9
330
1E
100
AcDbEntity
  8
ADP1DETAIL
100
AcDbLine
 10
110.6945303732722
 20
1.021684000520975
 30
0.0
 11
110.6900874477767
 21
1.070556180972102
 31
0.0
  0
LINE
  5
AA
330
1E
100
AcDbEntity
  8
ADP1DETAIL
100
AcDbLine
 10
110.6900874477767
 20
1.070556180972102
 30
0.0
 11
110.6812015967856
 21
1.101656659441002
 31
0.0
  0
LINE
  5
AB
330
1E
100
AcDbEntity
  8
ADP1DETAIL
100
AcDbLine
 10
110.6812015967856
 20
1.101656659441002
 30
0.0
 11
110.6634298948033
 21
1.11942836142323
 31
0.0
  0
LINE
  5
AC
330
1E
100
AcDbEntity
  8
ADP1DETAIL
100
AcDbLine
 10
110.6634298948033
 20
1.11942836142323
 30
0.0
 11
110.63677234183
 21
1.123871286918787
 31
0.0
  0
LINE
  5
AD
330
1E
100
AcDbEntity
  8
ADP1DETAIL
100
AcDbLine
 10
110.63677234183
 20
1.123871286918787
 30
0.0
 11
110.63677234183
 21
1.128314212414344
 31
0.0
  0
LINE
  5
AE
330
1E
100
AcDbEntity
  8
ADP1DETAIL
100
AcDbLine
 10
110.7789459576878
 20
0.9194967141231629
 30
0.0
 11
110.7522884047145
 21
0.9417113416009481
 31
0.0
  0
LINE
  5
AF
330
1E
100
AcDbEntity
  8
ADP1DETAIL
100
AcDbLine
 10
110.6900874477767
 20
0.8084235767342358
 30
0.0
 11
110.6812015967856
 21
0.8528528316898063
 31
0.0
  0
LINE
  5
B0
330
1E
100
AcDbEntity
  8
ADP1DETAIL
100
AcDbLine
 10
110.6812015967856
 20
0.8528528316898063
 30
0.0
 11
110.6634298948033
 21
0.8883962356542633
 31
0.0
  0
LINE
  5
B1
330
1E
100
AcDbEntity
  8
ADP1DETAIL
100
AcDbLine
 10
110.6634298948033
 20
0.8883962356542633
 30
0.0
 11
110.63677234183
 21
0.906167937636491
 31
0.0
  0
LINE
  5
B2
330
1E
100
AcDbEntity
  8
ADP1DETAIL
100
AcDbLine
 10
110.63677234183
 20
0.906167937636491
 30
0.0
 11
110.63677234183
 21
0.9106108631320486
 31
0.0
  0
LINE
  5
B3
330
1E
100
AcDbEntity
  8
ADP1DETAIL
100
AcDbLine
 10
110.63677234183
 20
0.9106108631320486
 30
0.0
 11
110.6634298948033
 21
0.9194967141231629
 31
0.0
  0
LINE
  5
B4
330
1E
100
AcDbEntity
  8
ADP1DETAIL
100
AcDbLine
 10
110.6634298948033
 20
0.9194967141231629
 30
0.0
 11
110.6812015967856
 21
0.9372684161053914
 31
0.0
  0
LINE
  5
B5
330
1E
100
AcDbEntity
  8
ADP1DETAIL
100
AcDbLine
 10
110.7522884047145
 20
0.9417113416009481
 30
0.0
 11
110.6945303732722
 21
0.9417113416009481
 31
0.0
  0
LINE
  5
B6
330
1E
100
AcDbEntity
  8
ADP1DETAIL
100
AcDbLine
 10
110.6812015967856
 20
0.9372684161053914
 30
0.0
 11
110.6900874477767
 21
0.9683688945742909
 31
0.0
  0
DIMENSION
  5
BC
330
1E
100
AcDbEntity
  8
ADPDIM
100
AcDbDimension
  2
*D0
 10
110.2813383021854
 20
6.692864572920885
 30
0.0
 11
109.5304838934363
 21
6.692864572920885
 31
0.0
 71
     5
 42
-1.0
100
AcDbAlignedDimension
 13
108.7796294846871
 23
6.504254062038405
 33
0.0
 14
110.2813383021854
 24
6.504254062038405
 34
0.0
100
AcDbRotatedDimension
  0
LINE
  5
BD
330
1E
100
AcDbEntity
  8
ADP2DETAIL
  6
HIDDEN2
100
AcDbLine
 10
108.7796294846871
 20
5.940002524102657
 30
0.0
 11
110.285781227681
 21
5.940002524102657
 31
0.0
  0
LINE
  5
BE
330
1E
100
AcDbEntity
  8
ADP2DETAIL
  6
HIDDEN2
100
AcDbLine
 10
108.7796294846871
 20
5.566796782475861
 30
0.0
 11
110.285781227681
 21
5.566796782475861
 31
0.0
  0
LINE
  5
BF
330
1E
100
AcDbEntity
  8
ADP1DETAIL
100
AcDbLine
 10
110.2813383021854
 20
6.504254062038405
 30
0.0
 11
108.7796294846871
 21
6.504254062038405
 31
0.0
  0
ARC
  5
C0
330
1E
100
AcDbEntity
  8
ADP1DETAIL
  6
Continuous
100
AcDbCircle
 10
108.3621202312792
 20
5.801391631519535
 30
0.0
 40
0.3337728499349353
100
AcDbArc
 50
135.9870587549522
 51
182.9008508058812
  0
LINE
  5
C1
330
1E
100
AcDbEntity
  8
ADP2DETAIL
  6
HIDDEN2
100
AcDbLine
 10
108.9040313985627
 20
5.473495347069164
 30
0.0
 11
108.9040313985627
 21
6.033303959509354
 31
0.0
  0
LINE
  5
C2
330
1E
100
AcDbEntity
  8
ADP1DETAIL
100
AcDbLine
 10
108.3531086371137
 20
6.033303959509354
 30
0.0
 11
108.3531086371137
 21
5.473495347069164
 31
0.0
  0
LINE
  5
C3
330
1E
100
AcDbEntity
  8
ADP1DETAIL
100
AcDbLine
 10
108.379766190087
 20
5.940002524102657
 30
0.0
 11
108.3575515626092
 21
6.033303959509354
 31
0.0
  0
LINE
  5
C4
330
1E
100
AcDbEntity
  8
ADP1DETAIL
100
AcDbLine
 10
108.1220765113447
 20
6.033303959509354
 30
0.0
 11
108.1220765113447
 21
5.784500131758158
 31
0.0
  0
LINE
  5
C5
330
1E
100
AcDbEntity
  8
ADP1DETAIL
100
AcDbLine
 10
108.7796294846871
 20
5.940002524102657
 30
0.0
 11
108.379766190087
 21
5.940002524102657
 31
0.0
  0
LINE
  5
C6
330
1E
100
AcDbEntity
  8
ADP1DETAIL
100
AcDbLine
 10
108.379766190087
 20
5.566796782475861
 30
0.0
 11
108.7796294846871
 21
5.566796782475861
 31
0.0
  0
ARC
  5
C7
330
1E
100
AcDbEntity
  8
ADP1DETAIL
  6
Continuous
100
AcDbCircle
 10
108.3621202312792
 20
5.705407675058982
 30
0.0
 40
0.3337728499349353
100
AcDbArc
 50
177.0991491941187
 51
224.0129412450478
  0
LINE
  5
C8
330
1E
100
AcDbEntity
  8
ADP1DETAIL
100
AcDbLine
 10
108.1220765113447
 20
5.72229917482036
 30
0.0
 11
108.1220765113447
 21
5.47793827256472
 31
0.0
  0
LINE
  5
C9
330
1E
100
AcDbEntity
  8
ADP1DETAIL
100
AcDbLine
 10
108.379766190087
 20
5.940002524102657
 30
0.0
 11
108.379766190087
 21
5.566796782475861
 31
0.0
  0
LINE
  5
CA
330
1E
100
AcDbEntity
  8
ADP1DETAIL
100
AcDbLine
 10
108.3575515626092
 20
5.473495347069164
 30
0.0
 11
108.379766190087
 21
5.566796782475861
 31
0.0
  0
LINE
  5
CB
330
1E
100
AcDbEntity
  8
ADP1DETAIL
100
AcDbLine
 10
108.1620628408047
 20
5.784500131758158
 30
0.0
 11
108.1620628408047
 21
5.72229917482036
 31
0.0
  0
LINE
  5
CC
330
1E
100
AcDbEntity
  8
ADP1DETAIL
100
AcDbLine
 10
108.1265194368402
 20
5.473495347069164
 30
0.0
 11
108.3575515626092
 21
5.473495347069164
 31
0.0
  0
LINE
  5
CD
330
1E
100
AcDbEntity
  8
ADP1DETAIL
100
AcDbLine
 10
108.1620628408047
 20
5.72229917482036
 30
0.0
 11
108.028775075938
 21
5.72229917482036
 31
0.0
  0
LINE
  5
CE
330
1E
100
AcDbEntity
  8
ADP1DETAIL
100
AcDbLine
 10
108.028775075938
 20
5.784500131758158
 30
0.0
 11
108.1620628408047
 21
5.784500131758158
 31
0.0
  0
LINE
  5
CF
330
1E
100
AcDbEntity
  8
ADP2DETAIL
  6
HIDDEN2
100
AcDbLine
 10
108.7929582611738
 20
5.473495347069164
 30
0.0
 11
108.9040313985627
 21
5.473495347069164
 31
0.0
  0
LINE
  5
D0
330
1E
100
AcDbEntity
  8
ADP1DETAIL
100
AcDbLine
 10
108.3575515626092
 20
6.033303959509354
 30
0.0
 11
108.1265194368402
 21
6.033303959509354
 31
0.0
  0
LINE
  5
D1
330
1E
100
AcDbEntity
  8
ADP2DETAIL
  6
HIDDEN2
100
AcDbLine
 10
108.9040313985627
 20
6.033303959509354
 30
0.0
 11
108.7929582611738
 21
6.033303959509354
 31
0.0
  0
LINE
  5
D2
330
1E
100
AcDbEntity
  8
ADP1DETAIL
100
AcDbLine
 10
110.6945303732722
 20
6.019975183022684
 30
0.0
 11
110.6945303732722
 21
5.486824123555835
 31
0.0
  0
LINE
  5
D3
330
1E
100
AcDbEntity
  8
ADP1DETAIL
100
AcDbLine
 10
110.6812015967856
 20
5.9355595986071
 30
0.0
 11
110.6900874477767
 21
5.966660077075999
 31
0.0
  0
LINE
  5
D4
330
1E
100
AcDbEntity
  8
ADP1DETAIL
100
AcDbLine
 10
110.3879685140788
 20
6.126605394916053
 30
0.0
 11
110.3879685140788
 21
5.375750986166908
 31
0.0
  0
LINE
  5
D5
330
1E
100
AcDbEntity
  8
ADP2DETAIL
  6
HIDDEN2
100
AcDbLine
 10
110.3879685140788
 20
5.940002524102657
 30
0.0
 11
110.6945303732722
 21
5.940002524102657
 31
0.0
  0
LINE
  5
D6
330
1E
100
AcDbEntity
  8
ADP2DETAIL
  6
HIDDEN2
100
AcDbLine
 10
110.3879685140788
 20
5.566796782475861
 30
0.0
 11
110.6945303732722
 21
5.566796782475861
 31
0.0
  0
LINE
  5
D7
330
1E
100
AcDbEntity
  8
ADP1DETAIL
100
AcDbLine
 10
110.3879685140788
 20
5.597897260944761
 30
0.0
 11
110.6323294163344
 21
5.597897260944761
 31
0.0
  0
LINE
  5
D8
330
1E
100
AcDbEntity
  8
ADP1DETAIL
100
AcDbLine
 10
110.3879685140788
 20
5.908902045633757
 30
0.0
 11
110.6323294163344
 21
5.908902045633757
 31
0.0
  0
LINE
  5
D9
330
1E
100
AcDbEntity
  8
ADP1DETAIL
100
AcDbLine
 10
110.3879685140788
 20
5.375750986166908
 30
0.0
 11
110.63677234183
 21
5.375750986166908
 31
0.0
  0
LINE
  5
DA
330
1E
100
AcDbEntity
  8
ADP2DETAIL
  6
HIDDEN2
100
AcDbLine
 10
110.4101831415566
 20
5.940002524102657
 30
0.0
 11
110.4101831415566
 21
5.566796782475861
 31
0.0
  0
LINE
  5
DB
330
1E
100
AcDbEntity
  8
ADP2DETAIL
  6
HIDDEN2
100
AcDbLine
 10
110.5345850554322
 20
5.940002524102657
 30
0.0
 11
110.5345850554322
 21
5.566796782475861
 31
0.0
  0
LINE
  5
DC
330
1E
100
AcDbEntity
  8
ADP2DETAIL
  6
HIDDEN2
100
AcDbLine
 10
110.4679411729988
 20
5.913344971129315
 30
0.0
 11
110.4679411729988
 21
5.597897260944761
 31
0.0
  0
LINE
  5
DD
330
1E
100
AcDbEntity
  8
ADP1DETAIL
100
AcDbLine
 10
110.2813383021854
 20
5.566796782475861
 30
0.0
 11
110.3879685140788
 21
5.566796782475861
 31
0.0
  0
LINE
  5
DE
330
1E
100
AcDbEntity
  8
ADP1DETAIL
100
AcDbLine
 10
110.3879685140788
 20
5.940002524102657
 30
0.0
 11
110.285781227681
 21
5.940002524102657
 31
0.0
  0
LINE
  5
DF
330
1E
100
AcDbEntity
  8
ADP1DETAIL
100
AcDbLine
 10
110.285781227681
 20
5.940002524102657
 30
0.0
 11
110.2813383021854
 21
5.940002524102657
 31
0.0
  0
LINE
  5
E0
330
1E
100
AcDbEntity
  8
ADP1DETAIL
100
AcDbLine
 10
110.285781227681
 20
5.940002524102657
 30
0.0
 11
110.2813383021854
 21
5.940002524102657
 31
0.0
  0
LINE
  5
E1
330
1E
100
AcDbEntity
  8
ADP1DETAIL
100
AcDbLine
 10
110.3435392591232
 20
5.913344971129315
 30
0.0
 11
110.3435392591232
 21
5.597897260944761
 31
0.0
  0
LINE
  5
E2
330
1E
100
AcDbEntity
  8
ADP2DETAIL
  6
HIDDEN2
100
AcDbLine
 10
110.6589869693078
 20
5.940002524102657
 30
0.0
 11
110.6589869693078
 21
5.566796782475861
 31
0.0
  0
LINE
  5
E3
330
1E
100
AcDbEntity
  8
ADP2DETAIL
  6
HIDDEN2
100
AcDbLine
 10
110.5923430868744
 20
5.913344971129315
 30
0.0
 11
110.5923430868744
 21
5.597897260944761
 31
0.0
  0
LINE
  5
E4
330
1E
100
AcDbEntity
  8
ADP1DETAIL
100
AcDbLine
 10
110.6945303732722
 20
5.566796782475861
 30
0.0
 11
110.7522884047145
 21
5.566796782475861
 31
0.0
  0
LINE
  5
E5
330
1E
100
AcDbEntity
  8
ADP1DETAIL
100
AcDbLine
 10
110.7522884047145
 20
5.940002524102657
 30
0.0
 11
110.6945303732722
 21
5.940002524102657
 31
0.0
  0
LINE
  5
E6
330
1E
100
AcDbEntity
  8
ADP1DETAIL
100
AcDbLine
 10
110.6900874477767
 20
5.695641621847017
 30
0.0
 11
110.6945303732722
 21
5.753399653289259
 31
0.0
  0
LINE
  5
E7
330
1E
100
AcDbEntity
  8
ADP1DETAIL
100
AcDbLine
 10
110.71674500075
 20
5.913344971129315
 30
0.0
 11
110.71674500075
 21
5.597897260944761
 31
0.0
  0
LINE
  5
E8
330
1E
100
AcDbEntity
  8
ADP1DETAIL
100
AcDbLine
 10
110.7789459576878
 20
5.602340186440319
 30
0.0
 11
110.7789459576878
 21
5.917787896624871
 31
0.0
  0
LINE
  5
E9
330
1E
100
AcDbEntity
  8
ADP1DETAIL
100
AcDbLine
 10
110.6812015967856
 20
5.651212366891447
 30
0.0
 11
110.6900874477767
 21
5.695641621847017
 31
0.0
  0
LINE
  5
EA
330
1E
100
AcDbEntity
  8
ADP1DETAIL
100
AcDbLine
 10
110.6634298948033
 20
5.61566896292699
 30
0.0
 11
110.6812015967856
 21
5.651212366891447
 31
0.0
  0
LINE
  5
EB
330
1E
100
AcDbEntity
  8
ADP1DETAIL
100
AcDbLine
 10
110.6412152673255
 20
5.597897260944761
 30
0.0
 11
110.6634298948033
 21
5.61566896292699
 31
0.0
  0
LINE
  5
EC
330
1E
100
AcDbEntity
  8
ADP1DETAIL
100
AcDbLine
 10
110.6634298948033
 20
5.589011409953647
 30
0.0
 11
110.6412152673255
 21
5.597897260944761
 31
0.0
  0
LINE
  5
ED
330
1E
100
AcDbEntity
  8
ADP1DETAIL
100
AcDbLine
 10
110.6812015967856
 20
5.566796782475861
 30
0.0
 11
110.6634298948033
 21
5.589011409953647
 31
0.0
  0
LINE
  5
EE
330
1E
100
AcDbEntity
  8
ADP1DETAIL
100
AcDbLine
 10
110.6900874477767
 20
5.535696304006962
 30
0.0
 11
110.6812015967856
 21
5.566796782475861
 31
0.0
  0
LINE
  5
EF
330
1E
100
AcDbEntity
  8
ADP1DETAIL
100
AcDbLine
 10
110.6945303732722
 20
5.486824123555835
 30
0.0
 11
110.6900874477767
 21
5.535696304006962
 31
0.0
  0
LINE
  5
F0
330
1E
100
AcDbEntity
  8
ADP1DETAIL
100
AcDbLine
 10
110.7522884047145
 20
5.566796782475861
 30
0.0
 11
110.7522884047145
 21
5.566796782475861
 31
0.0
  0
LINE
  5
F1
330
1E
100
AcDbEntity
  8
ADP1DETAIL
100
AcDbLine
 10
110.7522884047145
 20
5.566796782475861
 30
0.0
 11
110.7522884047145
 21
5.566796782475861
 31
0.0
  0
LINE
  5
F2
330
1E
100
AcDbEntity
  8
ADP1DETAIL
100
AcDbLine
 10
110.7522884047145
 20
5.566796782475861
 30
0.0
 11
110.7789459576878
 21
5.602340186440319
 31
0.0
  0
LINE
  5
F3
330
1E
100
AcDbEntity
  8
ADP1DETAIL
100
AcDbLine
 10
110.6945303732722
 20
5.753399653289259
 30
0.0
 11
110.6945303732722
 21
5.753399653289259
 31
0.0
  0
LINE
  5
F4
330
1E
100
AcDbEntity
  8
ADP1DETAIL
100
AcDbLine
 10
110.6634298948033
 20
5.917787896624871
 30
0.0
 11
110.6812015967856
 21
5.9355595986071
 31
0.0
  0
LINE
  5
F5
330
1E
100
AcDbEntity
  8
ADP1DETAIL
100
AcDbLine
 10
110.63677234183
 20
5.908902045633757
 30
0.0
 11
110.6634298948033
 21
5.917787896624871
 31
0.0
  0
LINE
  5
F6
330
1E
100
AcDbEntity
  8
ADP1DETAIL
100
AcDbLine
 10
110.63677234183
 20
5.904459120138199
 30
0.0
 11
110.63677234183
 21
5.908902045633757
 31
0.0
  0
LINE
  5
F7
330
1E
100
AcDbEntity
  8
ADP1DETAIL
100
AcDbLine
 10
110.6634298948033
 20
5.886687418155972
 30
0.0
 11
110.63677234183
 21
5.904459120138199
 31
0.0
  0
LINE
  5
F8
330
1E
100
AcDbEntity
  8
ADP1DETAIL
100
AcDbLine
 10
110.6812015967856
 20
5.851144014191515
 30
0.0
 11
110.6634298948033
 21
5.886687418155972
 31
0.0
  0
LINE
  5
F9
330
1E
100
AcDbEntity
  8
ADP1DETAIL
100
AcDbLine
 10
110.6900874477767
 20
5.806714759235944
 30
0.0
 11
110.6812015967856
 21
5.851144014191515
 31
0.0
  0
LINE
  5
FA
330
1E
100
AcDbEntity
  8
ADP1DETAIL
100
AcDbLine
 10
110.6945303732722
 20
5.753399653289259
 30
0.0
 11
110.6900874477767
 21
5.806714759235944
 31
0.0
  0
LINE
  5
FB
330
1E
100
AcDbEntity
  8
ADP1DETAIL
100
AcDbLine
 10
110.7789459576878
 20
5.917787896624871
 30
0.0
 11
110.7522884047145
 21
5.940002524102657
 31
0.0
  0
LINE
  5
FC
330
1E
100
AcDbEntity
  8
ADP1DETAIL
100
AcDbLine
 10
110.6900874477767
 20
5.437951943104707
 30
0.0
 11
110.6945303732722
 21
5.486824123555835
 31
0.0
  0
LINE
  5
FD
330
1E
100
AcDbEntity
  8
ADP1DETAIL
100
AcDbLine
 10
110.6634298948033
 20
5.384636837158023
 30
0.0
 11
110.6812015967856
 21
5.40240853914025
 31
0.0
  0
LINE
  5
FE
330
1E
100
AcDbEntity
  8
ADP1DETAIL
100
AcDbLine
 10
110.63677234183
 20
5.375750986166908
 30
0.0
 11
110.6634298948033
 21
5.384636837158023
 31
0.0
  0
LINE
  5
FF
330
1E
100
AcDbEntity
  8
ADP1DETAIL
100
AcDbLine
 10
110.63677234183
 20
5.375750986166908
 30
0.0
 11
110.63677234183
 21
5.375750986166908
 31
0.0
  0
LINE
  5
100
330
1E
100
AcDbEntity
  8
ADP1DETAIL
100
AcDbLine
 10
110.6812015967856
 20
5.40240853914025
 30
0.0
 11
110.6900874477767
 21
5.437951943104707
 31
0.0
  0
LINE
  5
101
330
1E
100
AcDbEntity
  8
ADP1DETAIL
100
AcDbLine
 10
110.63677234183
 20
6.126605394916053
 30
0.0
 11
110.3879685140788
 21
6.126605394916053
 31
0.0
  0
LINE
  5
102
330
1E
100
AcDbEntity
  8
ADP1DETAIL
100
AcDbLine
 10
110.63677234183
 20
6.122162469420496
 30
0.0
 11
110.63677234183
 21
6.126605394916053
 31
0.0
  0
LINE
  5
103
330
1E
100
AcDbEntity
  8
ADP1DETAIL
100
AcDbLine
 10
110.6634298948033
 20
6.117719543924938
 30
0.0
 11
110.63677234183
 21
6.122162469420496
 31
0.0
  0
LINE
  5
104
330
1E
100
AcDbEntity
  8
ADP1DETAIL
100
AcDbLine
 10
110.6812015967856
 20
6.099947841942711
 30
0.0
 11
110.6634298948033
 21
6.117719543924938
 31
0.0
  0
LINE
  5
105
330
1E
100
AcDbEntity
  8
ADP1DETAIL
100
AcDbLine
 10
110.6900874477767
 20
6.068847363473811
 30
0.0
 11
110.6812015967856
 21
6.099947841942711
 31
0.0
  0
LINE
  5
106
330
1E
100
AcDbEntity
  8
ADP1DETAIL
100
AcDbLine
 10
110.6945303732722
 20
6.019975183022684
 30
0.0
 11
110.6900874477767
 21
6.068847363473811
 31
0.0
  0
LINE
  5
107
330
1E
100
AcDbEntity
  8
ADP1DETAIL
100
AcDbLine
 10
110.6900874477767
 20
5.966660077075999
 30
0.0
 11
110.6945303732722
 21
6.019975183022684
 31
0.0
  0
TEXT
  5
1C1
330
1E
100
AcDbEntity
  8
ADPDIM
100
AcDbText
 10
102.3816960424588
 20
-0.8665871847202836
 30
0.0
 40
0.125
  1
J U L I U S  B L U M  &  C O . ,  I N C .      ( 8 0 0 )  5 2 6 - 6 2 9 3        W W W . J U L I U S B L U M . C O M        P A R T  N O .  2 2 9
 41
1.25
  7
ARIAL_WIDE
 72
     1
 11
108.8405978159923
 21
-0.7415871847202836
 31
0.0
100
AcDbText
 73
     3
  0
LINE
  5
318
330
1E
100
AcDbEntity
  8
ADP1DETAIL
100
AcDbLine
 10
106.8405719574188
 20
-0.0056459286733078
 30
0.0
 11
106.8405719574188
 21
6.494354071326692
 31
0.0
  0
LINE
  5
319
330
1E
100
AcDbEntity
  8
ADP1DETAIL
100
AcDbLine
 10
107.5922936250942
 20
6.494354071326692
 30
0.0
 11
107.5922936250942
 21
-0.0056459286733078
 31
0.0
  0
LINE
  5
31A
330
1E
100
AcDbEntity
  8
ADP1DETAIL
100
AcDbLine
 10
107.5922936250942
 20
-0.0056459286733078
 30
0.0
 11
106.8405719574188
 21
-0.0056459286733078
 31
0.0
  0
CIRCLE
  5
31B
330
1E
100
AcDbEntity
  8
ADP1DETAIL
100
AcDbCircle
 10
107.2124036742328
 20
0.73364930363404
 30
0.0
 40
0.2799043062200969
  0
LINE
  5
31C
330
1E
100
AcDbEntity
  8
ADP1DETAIL
100
AcDbLine
 10
106.9347976585962
 20
0.6978537630886752
 30
0.0
 11
107.4900096898694
 21
0.6978537630886752
 31
0.0
  0
LINE
  5
31D
330
1E
100
AcDbEntity
  8
ADP1DETAIL
100
AcDbLine
 10
106.9345034022338
 20
0.767083709018305
 30
0.0
 11
107.4903039462319
 21
0.767083709018305
 31
0.0
  0
LINE
  5
31E
102
{ACAD_REACTORS
330
324
102
}
330
1E
100
AcDbEntity
  8
ADP1DETAIL
100
AcDbLine
 10
106.8405719574188
 20
6.494354071326692
 30
0.0
 11
107.5922936250942
 21
6.494354071326692
 31
0.0
  0
CIRCLE
  5
31F
330
1E
100
AcDbEntity
  8
ADP1DETAIL
100
AcDbCircle
 10
107.2124036742328
 20
5.731856732907884
 30
0.0
 40
0.2799043062200969
  0
LINE
  5
320
330
1E
100
AcDbEntity
  8
ADP1DETAIL
100
AcDbLine
 10
106.9340763253868
 20
5.761526709734868
 30
0.0
 11
107.4907310230788
 21
5.761526709734868
 31
0.0
  0
LINE
  5
321
330
1E
100
AcDbEntity
  8
ADP1DETAIL
100
AcDbLine
 10
106.9340763253868
 20
5.7021867560809
 30
0.0
 11
107.4907310230788
 21
5.7021867560809
 31
0.0
  0
DIMENSION
  5
322
102
{ACAD_XDICTIONARY
360
323
102
}
102
{ACAD_REACTORS
330
324
102
}
330
1E
100
AcDbEntity
  8
ADPDIM
 62
     3
100
AcDbDimension
  2
*D6
 10
106.8422936250942
 20
6.902594131792884
 30
0.0
 11
107.2172936250942
 21
6.902594131792884
 31
0.0
 70
    32
 71
     5
 42
0.75
  3
Standard
100
AcDbAlignedDimension
 13
107.5922936250942
 23
6.494354071326692
 33
0.0
 14
106.8422936250942
 24
6.494354071326692
 34
0.0
100
AcDbRotatedDimension
1001
ACAD
1000
DSTYLE
1002
{
1070
    41
1040
0.125
1070
    73
1070
     0
1070
    74
1070
     0
1070
    78
1070
     3
1070
   140
1040
0.125
1070
   141
1040
0.1875
1070
   142
1040
0.125
1070
   147
1040
0.125
1070
   171
1070
     1
1070
   273
1070
     5
1070
   274
1070
     1
1070
   277
1070
     5
1070
   279
1070
     2
1070
   284
1070
     3
1070
   285
1070
     3
1070
   286
1070
     3
1002
}
  0
ENDSEC
  0
SECTION
  2
OBJECTS
  0
DICTIONARY
  5
C
330
0
100
AcDbDictionary
281
     1
  3
ACAD_COLOR
350
2F2
  3
ACAD_GROUP
350
D
  3
ACAD_LAYOUT
350
19
  3
ACAD_MATERIAL
350
2DD
  3
ACAD_MLINESTYLE
350
16
  3
ACAD_PLOTSETTINGS
350
18
  3
ACAD_PLOTSTYLENAME
350
E
  3
ACAD_TABLESTYLE
350
2F3
  3
ACAD_VISUALSTYLE
350
2E1
  3
AcDbVariableDictionary
350
180
  3
ASE_INDEX_DICTIONARY
350
333
  3
DWGPROPS
350
354
  0
DICTIONARY
  5
14B
330
1E
100
AcDbDictionary
280
     1
281
     1
  3
ACAD_LAYOUTSELFREF
360
2D9
  0
DICTIONARY
  5
14D
330
1A
100
AcDbDictionary
280
     1
281
     1
  3
ACAD_LAYOUTSELFREF
360
2D8
  0
DICTIONARY
  5
323
330
322
100
AcDbDictionary
280
     1
281
     1
  3
ACAD_DIMASSOC
360
324
  0
DICTIONARY
  5
2F2
102
{ACAD_REACTORS
330
C
102
}
330
C
100
AcDbDictionary
281
     1
  0
DICTIONARY
  5
D
102
{ACAD_REACTORS
330
C
102
}
330
C
100
AcDbDictionary
281
     1
  0
DICTIONARY
  5
19
102
{ACAD_REACTORS
330
C
102
}
330
C
100
AcDbDictionary
281
     1
  3
Layout1
350
1D
  3
Model
350
21
  0
DICTIONARY
  5
2DD
102
{ACAD_REACTORS
330
C
102
}
330
C
100
AcDbDictionary
281
     1
  3
ByBlock
350
2DF
  3
ByLayer
350
2DE
  3
Global
350
2E0
  0
DICTIONARY
  5
16
102
{ACAD_REACTORS
330
C
102
}
330
C
100
AcDbDictionary
281
     1
  3
Standard
350
17
  0
DICTIONARY
  5
18
102
{ACAD_REACTORS
330
C
102
}
330
C
100
AcDbDictionary
281
     1
  0
ACDBDICTIONARYWDFLT
  5
E
102
{ACAD_REACTORS
330
C
102
}
330
C
100
AcDbDictionary
281
     1
  3
Normal
350
F
100
AcDbDictionaryWithDefault
340
F
  0
DICTIONARY
  5
2F3
102
{ACAD_REACTORS
330
C
102
}
330
C
100
AcDbDictionary
281
     1
  3
Standard
350
2F4
  0
DICTIONARY
  5
2E1
102
{ACAD_REACTORS
330
C
102
}
330
C
100
AcDbDictionary
281
     1
  3
2dWireframe
350
2E7
  3
3D Hidden
350
2E9
  3
3dWireframe
350
2E8
  3
Basic
350
2E6
  3
Brighten
350
2ED
  3
ColorChange
350
2F1
  3
Conceptual
350
2EA
  3
Dim
350
2EC
  3
Facepattern
350
2F0
  3
Flat
350
2E2
  3
FlatWithEdges
350
2E3
  3
Gouraud
350
2E4
  3
GouraudWithEdges
350
2E5
  3
Linepattern
350
2EF
  3
Realistic
350
2EB
  3
Thicken
350
2EE
  0
DICTIONARY
  5
180
102
{ACAD_REACTORS
330
C
102
}
330
C
100
AcDbDictionary
281
     1
  3
CTABLESTYLE
350
351
  3
DIMASSOC
350
182
  3
HIDETEXT
350
181
  3
INDEXCTL
350
353
  3
SORTENTS
350
352
  0
DICTIONARY
  5
333
102
{ACAD_REACTORS
330
C
102
}
330
C
100
AcDbDictionary
281
     1
  3
ASEBlockHierarchyIndexRecord
350
334
1001
DCO15
1040
1567705954.229
  0
XRECORD
  5
354
102
{ACAD_REACTORS
330
C
102
}
330
C
100
AcDbXrecord
280
     1
  1
DWGPROPS COOKIE
  2

  3

  4

  6

  7

  8
Yu Hu
  9

300
=
301
=
302
=
303
=
304
=
305
=
306
=
307
=
308
=
309
=
 40
0.026005625
 41
2450367.474897952
 42
2453947.956692465
  1

 90
        0
  0
XRECORD
  5
2D9
102
{ACAD_REACTORS
330
14B
102
}
330
14B
100
AcDbXrecord
280
     1
340
1E
  0
XRECORD
  5
2D8
102
{ACAD_REACTORS
330
14D
102
}
330
14D
100
AcDbXrecord
280
     1
340
1A
  0
DIMASSOC
  5
324
102
{ACAD_REACTORS
330
323
102
}
330
323
100
AcDbDimAssoc
330
322
 90
        1
 70
     0
 71
     0
  1
AcDbOsnapPointRef
 72
     1
331
31E
 73
     2
 91
        0
 40
1.0
 10
0.0
 20
0.0
 30
2.000000000000000E+50
 75
     0
  0
LAYOUT
  5
1D
102
{ACAD_XDICTIONARY
360
355
102
}
102
{ACAD_REACTORS
330
19
102
}
330
19
100
AcDbPlotSettings
  1

  2
Fax
  4

  6

 40
0.0
 41
0.0
 42
0.0
 43
0.0
 44
0.0
 45
0.0
 46
0.0
 47
0.0
 48
0.0
 49
0.0
140
0.0
141
0.0
142
1.0
143
1.0
 70
   688
 72
     0
 73
     0
 74
     5
  7
Default R14 pen assignments.ctb
 75
    16
147
1.0
148
0.0
149
0.0
100
AcDbLayout
  1
Layout1
 70
     1
 71
     1
 10
0.0
 20
0.0
 11
12.0
 21
9.0
 12
0.109376907348633
 22
0.0
 32
0.0
 14
1.000000000000000E+20
 24
1.000000000000000E+20
 34
1.000000000000000E+20
 15
-1.000000000000000E+20
 25
-1.000000000000000E+20
 35
-1.000000000000000E+20
146
0.0
 13
0.0
 23
0.0
 33
0.0
 16
1.0
 26
0.0
 36
0.0
 17
0.0
 27
1.0
 37
0.0
 76
     0
330
1A
  0
LAYOUT
  5
21
102
{ACAD_XDICTIONARY
360
357
102
}
102
{ACAD_REACTORS
330
19
102
}
330
19
100
AcDbPlotSettings
  1

  2
Fax
  4

  6

 40
0.0
 41
0.0
 42
0.0
 43
0.0
 44
0.0
 45
0.0
 46
0.0
 47
0.0
 48
0.0
 49
0.0
140
0.0
141
0.0
142
1.0
143
1.0
 70
  1712
 72
     0
 73
     0
 74
     0
  7
Default R14 pen assignments.ctb
 75
     0
147
1.0
148
0.0
149
0.0
100
AcDbLayout
  1
Model
 70
     1
 71
     0
 10
0.0
 20
0.0
 11
12.0
 21
9.0
 12
0.0
 22
0.0
 32
0.0
 14
0.0
 24
0.0
 34
0.0
 15
0.0
 25
0.0
 35
0.0
146
0.0
 13
0.0
 23
0.0
 33
0.0
 16
1.0
 26
0.0
 36
0.0
 17
0.0
 27
1.0
 37
0.0
 76
     0
330
1E
331
2A6
  0
MATERIAL
  5
2DF
102
{ACAD_XDICTIONARY
360
35B
102
}
102
{ACAD_REACTORS
330
2DD
102
}
330
2DD
100
AcDbMaterial
  1
ByBlock
  0
MATERIAL
  5
2DE
102
{ACAD_XDICTIONARY
360
359
102
}
102
{ACAD_REACTORS
330
2DD
102
}
330
2DD
100
AcDbMaterial
  1
ByLayer
  0
MATERIAL
  5
2E0
102
{ACAD_XDICTIONARY
360
35D
102
}
102
{ACAD_REACTORS
330
2DD
102
}
330
2DD
100
AcDbMaterial
  1
Global
  0
MLINESTYLE
  5
17
102
{ACAD_REACTORS
330
16
102
}
330
16
100
AcDbMlineStyle
  2
STANDARD
 70
     0
  3

 62
   256
 51
90.0
 52
90.0
 71
     2
 49
0.5
 62
   256
  6
BYLAYER
 49
-0.5
 62
   256
  6
BYLAYER
  0
ACDBPLACEHOLDER
  5
F
102
{ACAD_REACTORS
330
E
102
}
330
E
  0
TABLESTYLE
  5
2F4
102
{ACAD_XDICTIONARY
360
35F
102
}
102
{ACAD_REACTORS
330
2F3
102
}
330
2F3
100
AcDbTableStyle
  3
Standard
 70
     0
 71
     0
 40
0.06
 41
0.06
280
     0
281
     0
  7
STANDARD
140
0.18
170
     2
 62
     0
 63
     7
283
     0
274
    -2
284
     1
 64
     0
275
    -2
285
     1
 65
     0
276
    -2
286
     1
 66
     0
277
    -2
287
     1
 67
     0
278
    -2
288
     1
 68
     0
279
    -2
289
     1
 69
     0
  7
STANDARD
140
0.25
170
     5
 62
     0
 63
     7
283
     0
274
    -2
284
     1
 64
     0
275
    -2
285
     1
 65
     0
276
    -2
286
     1
 66
     0
277
    -2
287
     1
 67
     0
278
    -2
288
     1
 68
     0
279
    -2
289
     1
 69
     0
  7
STANDARD
140
0.18
170
     5
 62
     0
 63
     7
283
     0
274
    -2
284
     1
 64
     0
275
    -2
285
     1
 65
     0
276
    -2
286
     1
 66
     0
277
    -2
287
     1
 67
     0
278
    -2
288
     1
 68
     0
279
    -2
289
     1
 69
     0
  0
VISUALSTYLE
  5
2E7
102
{ACAD_REACTORS
330
2E1
102
}
330
2E1
100
AcDbVisualStyle
  2
2dWireframe
 70
     4
 71
     0
 72
     2
 73
     0
 90
        0
 40
-0.6
 41
-30.0
 62
     5
 63
     7
 74
     1
 91
        4
 64
     7
 65
   257
 75
     1
175
     1
 42
1.0
 92
        0
 66
   257
 43
1.0
 76
     1
 77
     6
 78
     2
 67
     7
 79
     5
170
     0
171
     0
290
     0
174
     0
 93
        1
 44
0.0
173
     0
291
     0
 45
0.0
1001
ACAD
1000
AcDbSavedByObjectVersion
1070
     0
  0
VISUALSTYLE
  5
2E9
102
{ACAD_REACTORS
330
2E1
102
}
330
2E1
100
AcDbVisualStyle
  2
3D Hidden
 70
     6
 71
     1
 72
     2
 73
     2
 90
        0
 40
-0.6
 41
-30.0
 62
     5
 63
     7
 74
     2
 91
        2
 64
     7
 65
   257
 75
     2
175
     1
 42
40.0
 92
        0
 66
   257
 43
1.0
 76
     1
 77
     6
 78
     2
 67
     7
 79
     3
170
     0
171
     0
290
     0
174
     0
 93
        1
 44
0.0
173
     0
291
     0
 45
0.0
1001
ACAD
1000
AcDbSavedByObjectVersion
1070
     0
  0
VISUALSTYLE
  5
2E8
102
{ACAD_REACTORS
330
2E1
102
}
330
2E1
100
AcDbVisualStyle
  2
3dWireframe
 70
     5
 71
     0
 72
     2
 73
     0
 90
        0
 40
-0.6
 41
-30.0
 62
     5
 63
     7
 74
     1
 91
        4
 64
     7
 65
   257
 75
     1
175
     1
 42
1.0
 92
        0
 66
   257
 43
1.0
 76
     1
 77
     6
 78
     2
 67
     7
 79
     5
170
     0
171
     0
290
     0
174
     0
 93
        1
 44
0.0
173
     0
291
     0
 45
0.0
1001
ACAD
1000
AcDbSavedByObjectVersion
1070
     0
  0
VISUALSTYLE
  5
2E6
102
{ACAD_REACTORS
330
2E1
102
}
330
2E1
100
AcDbVisualStyle
  2
Basic
 70
     7
 71
     1
 72
     0
 73
     1
 90
        0
 40
-0.6
 41
-30.0
 62
     5
 63
     7
 74
     0
 91
        4
 64
     7
 65
   257
 75
     1
175
     1
 42
1.0
 92
        8
 66
     7
 43
1.0
 76
     1
 77
     6
 78
     2
 67
     7
 79
     5
170
     0
171
     0
290
     0
174
     0
 93
        1
 44
0.0
173
     0
291
     1
 45
0.0
1001
ACAD
1000
AcDbSavedByObjectVersion
1070
     0
  0
VISUALSTYLE
  5
2ED
102
{ACAD_REACTORS
330
2E1
102
}
330
2E1
100
AcDbVisualStyle
  2
Brighten
 70
    12
 71
     2
 72
     2
 73
     0
 90
        0
 40
-0.6
 41
-30.0
 62
     5
 63
     7
 74
     1
 91
        4
 64
     7
 65
   257
 75
     1
175
     1
 42
1.0
 92
        8
 66
     7
 43
1.0
 76
     1
 77
     6
 78
     2
 67
     7
 79
     5
170
     0
171
     0
290
     0
174
     0
 93
        1
 44
50.0
173
     0
291
     1
 45
0.0
1001
ACAD
1000
AcDbSavedByObjectVersion
1070
     0
  0
VISUALSTYLE
  5
2F1
102
{ACAD_REACTORS
330
2E1
102
}
330
2E1
100
AcDbVisualStyle
  2
ColorChange
 70
    16
 71
     2
 72
     2
 73
     3
 90
        0
 40
-0.6
 41
-30.0
 62
     5
 63
     8
 74
     1
 91
        4
 64
     7
 65
   257
 75
     1
175
     1
 42
1.0
 92
        8
 66
     8
 43
1.0
 76
     1
 77
     6
 78
     2
 67
     7
 79
     5
170
     0
171
     0
290
     0
174
     0
 93
        1
 44
0.0
173
     0
291
     1
 45
0.0
1001
ACAD
1000
AcDbSavedByObjectVersion
1070
     0
  0
VISUALSTYLE
  5
2EA
102
{ACAD_REACTORS
330
2E1
102
}
330
2E1
100
AcDbVisualStyle
  2
Conceptual
 70
     9
 71
     3
 72
     2
 73
     0
 90
        0
 40
-0.6
 41
-30.0
 62
     5
 63
     7
 74
     2
 91
        2
 64
     7
 65
   257
 75
     1
175
     1
 42
40.0
 92
        8
 66
     7
 43
1.0
 76
     1
 77
     6
 78
     2
 67
     7
 79
     3
170
     0
171
     0
290
     0
174
     0
 93
        1
 44
0.0
173
     0
291
     0
 45
0.0
1001
ACAD
1000
AcDbSavedByObjectVersion
1070
     0
  0
VISUALSTYLE
  5
2EC
102
{ACAD_REACTORS
330
2E1
102
}
330
2E1
100
AcDbVisualStyle
  2
Dim
 70
    11
 71
     2
 72
     2
 73
     0
 90
        0
 40
-0.6
 41
-30.0
 62
     5
 63
     7
 74
     1
 91
        4
 64
     7
 65
   257
 75
     1
175
     1
 42
1.0
 92
        8
 66
     7
 43
1.0
 76
     1
 77
     6
 78
     2
 67
     7
 79
     5
170
     0
171
     0
290
     0
174
     0
 93
        1
 44
-50.0
173
     0
291
     1
 45
0.0
1001
ACAD
1000
AcDbSavedByObjectVersion
1070
     0
  0
VISUALSTYLE
  5
2F0
102
{ACAD_REACTORS
330
2E1
102
}
330
2E1
100
AcDbVisualStyle
  2
Facepattern
 70
    15
 71
     2
 72
     2
 73
     0
 90
        0
 40
-0.6
 41
-30.0
 62
     5
 63
     7
 74
     1
 91
        4
 64
     7
 65
   257
 75
     1
175
     1
 42
1.0
 92
        8
 66
     7
 43
1.0
 76
     1
 77
     6
 78
     2
 67
     7
 79
     5
170
     0
171
     0
290
     0
174
     0
 93
        1
 44
0.0
173
     0
291
     1
 45
0.0
1001
ACAD
1000
AcDbSavedByObjectVersion
1070
     0
  0
VISUALSTYLE
  5
2E2
102
{ACAD_REACTORS
330
2E1
102
}
330
2E1
100
AcDbVisualStyle
  2
Flat
 70
     0
 71
     2
 72
     1
 73
     1
 90
        2
 40
-0.6
 41
30.0
 62
     5
 63
     7
 74
     0
 91
        4
 64
     7
 65
   257
 75
     1
175
     1
 42
1.0
 92
        8
 66
     7
 43
1.0
 76
     1
 77
     6
 78
     2
 67
     7
 79
     5
170
     0
171
     0
290
     0
174
     0
 93
       13
 44
0.0
173
     0
291
     1
 45
0.0
1001
ACAD
1000
AcDbSavedByObjectVersion
1070
     0
  0
VISUALSTYLE
  5
2E3
102
{ACAD_REACTORS
330
2E1
102
}
330
2E1
100
AcDbVisualStyle
  2
FlatWithEdges
 70
     1
 71
     2
 72
     1
 73
     1
 90
        2
 40
-0.6
 41
30.0
 62
     5
 63
     7
 74
     1
 91
        4
 64
     7
 65
   257
 75
     1
175
     1
 42
1.0
 92
        0
 66
   257
 43
1.0
 76
     1
 77
     6
 78
     2
 67
     7
 79
     5
170
     0
171
     0
290
     0
174
     0
 93
       13
 44
0.0
173
     0
291
     1
 45
0.0
1001
ACAD
1000
AcDbSavedByObjectVersion
1070
     0
  0
VISUALSTYLE
  5
2E4
102
{ACAD_REACTORS
330
2E1
102
}
330
2E1
100
AcDbVisualStyle
  2
Gouraud
 70
     2
 71
     2
 72
     2
 73
     1
 90
        2
 40
-0.6
 41
30.0
 62
     5
 63
     7
 74
     0
 91
        4
 64
     7
 65
   257
 75
     1
175
     1
 42
1.0
 92
        0
 66
     7
 43
1.0
 76
     1
 77
     6
 78
     2
 67
     7
 79
     5
170
     0
171
     0
290
     0
174
     0
 93
       13
 44
0.0
173
     0
291
     1
 45
0.0
1001
ACAD
1000
AcDbSavedByObjectVersion
1070
     0
  0
VISUALSTYLE
  5
2E5
102
{ACAD_REACTORS
330
2E1
102
}
330
2E1
100
AcDbVisualStyle
  2
GouraudWithEdges
 70
     3
 71
     2
 72
     2
 73
     1
 90
        2
 40
-0.6
 41
30.0
 62
     5
 63
     7
 74
     1
 91
        4
 64
     7
 65
   257
 75
     1
175
     1
 42
1.0
 92
        0
 66
   257
 43
1.0
 76
     1
 77
     6
 78
     2
 67
     7
 79
     5
170
     0
171
     0
290
     0
174
     0
 93
       13
 44
0.0
173
     0
291
     1
 45
0.0
1001
ACAD
1000
AcDbSavedByObjectVersion
1070
     0
  0
VISUALSTYLE
  5
2EF
102
{ACAD_REACTORS
330
2E1
102
}
330
2E1
100
AcDbVisualStyle
  2
Linepattern
 70
    14
 71
     2
 72
     2
 73
     0
 90
        0
 40
-0.6
 41
-30.0
 62
     5
 63
     7
 74
     1
 91
        4
 64
     7
 65
   257
 75
     7
175
     7
 42
1.0
 92
        8
 66
     7
 43
1.0
 76
     1
 77
     6
 78
     2
 67
     7
 79
     5
170
     0
171
     0
290
     0
174
     0
 93
        1
 44
0.0
173
     0
291
     1
 45
0.0
1001
ACAD
1000
AcDbSavedByObjectVersion
1070
     0
  0
VISUALSTYLE
  5
2EB
102
{ACAD_REACTORS
330
2E1
102
}
330
2E1
100
AcDbVisualStyle
  2
Realistic
 70
     8
 71
     2
 72
     2
 73
     0
 90
        0
 40
-0.6
 41
-30.0
 62
     5
 63
     7
 74
     1
 91
        0
 64
     7
 65
   257
 75
     1
175
     1
 42
1.0
 92
        8
 66
     8
 43
1.0
 76
     1
 77
     6
 78
     2
 67
     7
 79
     5
170
     0
171
     0
290
     0
174
     0
 93
       13
 44
0.0
173
     0
291
     0
 45
0.0
1001
ACAD
1000
AcDbSavedByObjectVersion
1070
     0
  0
VISUALSTYLE
  5
2EE
102
{ACAD_REACTORS
330
2E1
102
}
330
2E1
100
AcDbVisualStyle
  2
Thicken
 70
    13
 71
     2
 72
     2
 73
     0
 90
        0
 40
-0.6
 41
-30.0
 62
     5
 63
     7
 74
     1
 91
        4
 64
     7
 65
   257
 75
     1
175
     1
 42
1.0
 92
       12
 66
     7
 43
1.0
 76
     1
 77
     6
 78
     2
 67
     7
 79
     5
170
     0
171
     0
290
     0
174
     0
 93
        1
 44
0.0
173
     0
291
     1
 45
0.0
1001
ACAD
1000
AcDbSavedByObjectVersion
1070
     0
  0
DICTIONARYVAR
  5
351
102
{ACAD_REACTORS
330
180
102
}
330
180
100
DictionaryVariables
280
     0
  1
STANDARD
  0
DICTIONARYVAR
  5
182
102
{ACAD_REACTORS
330
180
102
}
330
180
100
DictionaryVariables
280
     0
  1
2
  0
DICTIONARYVAR
  5
181
102
{ACAD_REACTORS
330
180
102
}
330
180
100
DictionaryVariables
280
     0
  1
1
  0
DICTIONARYVAR
  5
353
102
{ACAD_REACTORS
330
180
102
}
330
180
100
DictionaryVariables
280
     0
  1
0
  0
DICTIONARYVAR
  5
352
102
{ACAD_REACTORS
330
180
102
}
330
180
100
DictionaryVariables
280
     0
  1
127
  0
XRECORD
  5
334
102
{ACAD_REACTORS
330
333
102
}
330
333
100
AcDbXrecord
280
     1
  0
DICTIONARY
  5
355
330
1D
100
AcDbDictionary
280
     1
281
     1
  3
ACAD_XREC_ROUNDTRIP
360
356
  0
DICTIONARY
  5
357
330
21
100
AcDbDictionary
280
     1
281
     1
  3
ACAD_XREC_ROUNDTRIP
360
358
  0
DICTIONARY
  5
35B
330
2DF
100
AcDbDictionary
280
     1
281
     1
  3
ACAD_XREC_ROUNDTRIP
360
35C
  0
DICTIONARY
  5
359
330
2DE
100
AcDbDictionary
280
     1
281
     1
  3
ACAD_XREC_ROUNDTRIP
360
35A
  0
DICTIONARY
  5
35D
330
2E0
100
AcDbDictionary
280
     1
281
     1
  3
ACAD_XREC_ROUNDTRIP
360
35E
  0
DICTIONARY
  5
35F
330
2F4
100
AcDbDictionary
280
     1
281
     1
  3
ACAD_XREC_ROUNDTRIP
360
360
  0
XRECORD
  5
356
102
{ACAD_REACTORS
330
355
102
}
330
355
100
AcDbXrecord
280
     1
102
SHADEPLOT
 70
     0
102
SHADEPLOTRESLEVEL
 70
     2
102
SHADEPLOTCUSTOMDPI
 70
   300
  0
XRECORD
  5
358
102
{ACAD_REACTORS
330
357
102
}
330
357
100
AcDbXrecord
280
     1
102
SHADEPLOT
 70
     0
102
SHADEPLOTRESLEVEL
 70
     2
102
SHADEPLOTCUSTOMDPI
 70
   300
  0
XRECORD
  5
35C
102
{ACAD_REACTORS
330
35B
102
}
330
35B
100
AcDbXrecord
280
     1
102
MATERIAL
148
0.0
149
0.0
149
0.0
 93
        0
 94
       63
282
     0
 72
     1
 77
     1
171
     1
175
     1
179
     1
273
     0
  0
XRECORD
  5
35A
102
{ACAD_REACTORS
330
359
102
}
330
359
100
AcDbXrecord
280
     1
102
MATERIAL
148
0.0
149
0.0
149
0.0
 93
        0
 94
       63
282
     0
 72
     1
 77
     1
171
     1
175
     1
179
     1
273
     0
  0
XRECORD
  5
35E
102
{ACAD_REACTORS
330
35D
102
}
330
35D
100
AcDbXrecord
280
     1
102
MATERIAL
148
0.0
149
0.0
149
0.0
 93
        0
 94
       63
282
     0
 72
     1
 77
     1
171
     1
175
     1
179
     1
273
     0
  0
XRECORD
  5
360
102
{ACAD_REACTORS
330
35F
102
}
330
35F
100
AcDbXrecord
280
     1
102
ACAD_ROUNDTRIP_PRE2007_TABLESTYLE
 90
      512
 91
        0
  1

 92
      512
 93
        0
  2

 94
      512
 95
        0
  3

  0
ENDSEC
  0
EOF
