  0
SECTION
  2
HEADER
  9
$ACADVER
  1
AC1014
  9
$ACADMAINTVER
 70
     9
  9
$DWGCODEPAGE
  3
ANSI_1252
  9
$INSBASE
 10
-3.643020339731325
 20
12.83537395423677
 30
0.0
  9
$EXTMIN
 10
-12.45080839333788
 20
11.24192101055807
 30
0.0
  9
$EXTMAX
 10
0.4669951537289645
 20
17.63818236531637
 30
0.0
  9
$LIMMIN
 10
0.0
 20
0.0
  9
$LIMMAX
 10
36.0
 20
36.0
  9
$ORTHOMODE
 70
     1
  9
$REGENMODE
 70
     1
  9
$FILLMODE
 70
     1
  9
$QTEXTMODE
 70
     0
  9
$MIRRTEXT
 70
     1
  9
$DRAGMODE
 70
     0
  9
$LTSCALE
 40
1.0
  9
$OSMODE
 70
    37
  9
$ATTMODE
 70
     1
  9
$TEXTSIZE
 40
0.2
  9
$TRACEWID
 40
0.05
  9
$TEXTSTYLE
  7
STANDARD
  9
$CLAYER
  8
ADP1DETAIL
  9
$CELTYPE
  6
BYLAYER
  9
$CECOLOR
 62
   256
  9
$CELTSCALE
 40
1.0
  9
$DELOBJ
 70
     1
  9
$DISPSILH
 70
     0
  9
$DIMSCALE
 40
1.0
  9
$DIMASZ
 40
0.125
  9
$DIMEXO
 40
0.0625
  9
$DIMDLI
 40
0.38
  9
$DIMRND
 40
0.0
  9
$DIMDLE
 40
0.0
  9
$DIMEXE
 40
0.18
  9
$DIMTP
 40
0.0
  9
$DIMTM
 40
0.0
  9
$DIMTXT
 40
0.125
  9
$DIMCEN
 40
0.1875
  9
$DIMTSZ
 40
0.125
  9
$DIMTOL
 70
     0
  9
$DIMLIM
 70
     0
  9
$DIMTIH
 70
     0
  9
$DIMTOH
 70
     0
  9
$DIMSE1
 70
     0
  9
$DIMSE2
 70
     0
  9
$DIMTAD
 70
     0
  9
$DIMZIN
 70
     3
  9
$DIMBLK
  1

  9
$DIMASO
 70
     1
  9
$DIMSHO
 70
     1
  9
$DIMPOST
  1

  9
$DIMAPOST
  1

  9
$DIMALT
 70
     0
  9
$DIMALTD
 70
     1
  9
$DIMALTF
 40
25.4
  9
$DIMLFAC
 40
1.0
  9
$DIMTOFL
 70
     0
  9
$DIMTVP
 40
0.0
  9
$DIMTIX
 70
     0
  9
$DIMSOXD
 70
     0
  9
$DIMSAH
 70
     0
  9
$DIMBLK1
  1

  9
$DIMBLK2
  1

  9
$DIMSTYLE
  2
STANDARD
  9
$DIMCLRD
 70
     0
  9
$DIMCLRE
 70
     0
  9
$DIMCLRT
 70
     0
  9
$DIMTFAC
 40
1.0
  9
$DIMGAP
 40
0.125
  9
$DIMJUST
 70
     0
  9
$DIMSD1
 70
     0
  9
$DIMSD2
 70
     0
  9
$DIMTOLJ
 70
     1
  9
$DIMTZIN
 70
     3
  9
$DIMALTZ
 70
     3
  9
$DIMALTTZ
 70
     3
  9
$DIMFIT
 70
     5
  9
$DIMUPT
 70
     0
  9
$DIMUNIT
 70
     5
  9
$DIMDEC
 70
     4
  9
$DIMTDEC
 70
     4
  9
$DIMALTU
 70
     5
  9
$DIMALTTD
 70
     1
  9
$DIMTXSTY
  7
STANDARD
  9
$DIMAUNIT
 70
     0
  9
$LUNITS
 70
     5
  9
$LUPREC
 70
     4
  9
$SKETCHINC
 40
0.1
  9
$FILLETRAD
 40
0.062
  9
$AUNITS
 70
     0
  9
$AUPREC
 70
     0
  9
$MENU
  1
acad
  9
$ELEVATION
 40
0.0
  9
$PELEVATION
 40
0.0
  9
$THICKNESS
 40
0.0
  9
$LIMCHECK
 70
     0
  9
$BLIPMODE
 70
     0
  9
$CHAMFERA
 40
0.0
  9
$CHAMFERB
 40
0.0
  9
$CHAMFERC
 40
0.0
  9
$CHAMFERD
 40
0.0
  9
$SKPOLY
 70
     0
  9
$TDCREATE
 40
2450382.652241701
  9
$TDUPDATE
 40
2452297.065198379
  9
$TDINDWG
 40
0.0064239352
  9
$TDUSRTIMER
 40
0.0064239352
  9
$USRTIMER
 70
     1
  9
$ANGBASE
 50
0.0
  9
$ANGDIR
 70
     0
  9
$PDMODE
 70
     0
  9
$PDSIZE
 40
0.0
  9
$PLINEWID
 40
0.0
  9
$COORDS
 70
     2
  9
$SPLFRAME
 70
     0
  9
$SPLINETYPE
 70
     6
  9
$SPLINESEGS
 70
     8
  9
$ATTDIA
 70
     0
  9
$ATTREQ
 70
     1
  9
$HANDLING
 70
 22529
  9
$HANDSEED
  5
285
  9
$SURFTAB1
 70
     6
  9
$SURFTAB2
 70
     6
  9
$SURFTYPE
 70
     6
  9
$SURFU
 70
     6
  9
$SURFV
 70
     6
  9
$UCSNAME
  2

  9
$UCSORG
 10
0.0
 20
0.0
 30
0.0
  9
$UCSXDIR
 10
1.0
 20
0.0
 30
0.0
  9
$UCSYDIR
 10
0.0
 20
1.0
 30
0.0
  9
$PUCSNAME
  2

  9
$PUCSORG
 10
0.0
 20
0.0
 30
0.0
  9
$PUCSXDIR
 10
1.0
 20
0.0
 30
0.0
  9
$PUCSYDIR
 10
0.0
 20
1.0
 30
0.0
  9
$USERI1
 70
     0
  9
$USERI2
 70
     0
  9
$USERI3
 70
     0
  9
$USERI4
 70
     0
  9
$USERI5
 70
     0
  9
$USERR1
 40
0.0
  9
$USERR2
 40
0.0
  9
$USERR3
 40
0.0
  9
$USERR4
 40
0.0
  9
$USERR5
 40
0.0
  9
$WORLDVIEW
 70
     1
  9
$SHADEDGE
 70
     3
  9
$SHADEDIF
 70
    70
  9
$TILEMODE
 70
     1
  9
$MAXACTVP
 70
    15
  9
$PINSBASE
 10
0.0
 20
0.0
 30
0.0
  9
$PLIMCHECK
 70
     0
  9
$PEXTMIN
 10
1.000000000000000E+20
 20
1.000000000000000E+20
 30
1.000000000000000E+20
  9
$PEXTMAX
 10
-1.000000000000000E+20
 20
-1.000000000000000E+20
 30
-1.000000000000000E+20
  9
$PLIMMIN
 10
0.0
 20
0.0
  9
$PLIMMAX
 10
12.0
 20
9.0
  9
$UNITMODE
 70
     0
  9
$VISRETAIN
 70
     0
  9
$PLINEGEN
 70
     0
  9
$PSLTSCALE
 70
     1
  9
$TREEDEPTH
 70
  3020
  9
$PICKSTYLE
 70
     1
  9
$CMLSTYLE
  2
STANDARD
  9
$CMLJUST
 70
     0
  9
$CMLSCALE
 40
1.0
  9
$PROXYGRAPHICS
 70
     1
  9
$MEASUREMENT
 70
     0
  0
ENDSEC
  0
SECTION
  2
CLASSES
  0
CLASS
  1
ACDBDICTIONARYWDFLT
  2
AcDbDictionaryWithDefault
  3
AutoCAD 2000
 90
        0
280
     0
281
     0
  0
CLASS
  1
ACDBPLACEHOLDER
  2
AcDbPlaceHolder
  3
AutoCAD 2000
 90
        0
280
     0
281
     0
  0
CLASS
  1
LAYOUT
  2
AcDbLayout
  3
AutoCAD 2000
 90
        0
280
     0
281
     0
  0
CLASS
  1
DICTIONARYVAR
  2
AcDbDictionaryVar
  3
AutoCAD 2000
 90
        0
280
     0
281
     0
  0
CLASS
  1
LONG_TRANSACTION
  2
AcDbLongTransaction
  3
AutoCAD 2000
 90
        0
280
     0
281
     0
  0
CLASS
  1
LWPOLYLINE
  2
AcDbPolyline
  3
AutoCAD 2000
 90
        0
280
     0
281
     1
  0
CLASS
  1
HATCH
  2
AcDbHatch
  3
AutoCAD 2000
 90
        0
280
     0
281
     1
  0
CLASS
  1
XRECORD
  2
AcDbXrecord
  3
AutoCAD 2000
 90
        0
280
     0
281
     0
  0
CLASS
  1
LONG_TRANSACTION
  2
AcDbLongTransaction
  3
AutoCAD 2000
 90
        0
280
     0
281
     0
  0
CLASS
  1
LWPOLYLINE
  2
AcDbPolyline
  3
AutoCAD 2000
 90
        0
280
     0
281
     1
  0
CLASS
  1
HATCH
  2
AcDbHatch
  3
AutoCAD 2000
 90
        0
280
     0
281
     1
  0
CLASS
  1
XRECORD
  2
AcDbXrecord
  3
AutoCAD 2000
 90
        0
280
     0
281
     0
  0
CLASS
  1
LONG_TRANSACTION
  2
AcDbLongTransaction
  3
AutoCAD 2000
 90
        0
280
     0
281
     0
  0
CLASS
  1
LWPOLYLINE
  2
AcDbPolyline
  3
AutoCAD 2000
 90
        0
280
     0
281
     1
  0
CLASS
  1
HATCH
  2
AcDbHatch
  3
AutoCAD 2000
 90
        0
280
     0
281
     1
  0
CLASS
  1
XRECORD
  2
AcDbXrecord
  3
AutoCAD 2000
 90
        0
280
     0
281
     0
  0
CLASS
  1
LONG_TRANSACTION
  2
AcDbLongTransaction
  3
AutoCAD 2000
 90
        0
280
     0
281
     0
  0
CLASS
  1
LWPOLYLINE
  2
AcDbPolyline
  3
AutoCAD 2000
 90
        0
280
     0
281
     1
  0
CLASS
  1
HATCH
  2
AcDbHatch
  3
AutoCAD 2000
 90
        0
280
     0
281
     1
  0
CLASS
  1
XRECORD
  2
AcDbXrecord
  3
AutoCAD 2000
 90
        0
280
     0
281
     0
  0
CLASS
  1
LONG_TRANSACTION
  2
AcDbLongTransaction
  3
AutoCAD 2000
 90
        0
280
     0
281
     0
  0
CLASS
  1
LWPOLYLINE
  2
AcDbPolyline
  3
AutoCAD 2000
 90
        0
280
     0
281
     1
  0
CLASS
  1
HATCH
  2
AcDbHatch
  3
AutoCAD 2000
 90
        0
280
     0
281
     1
  0
CLASS
  1
XRECORD
  2
AcDbXrecord
  3
AutoCAD 2000
 90
        0
280
     0
281
     0
  0
CLASS
  1
LONG_TRANSACTION
  2
AcDbLongTransaction
  3
AutoCAD 2000
 90
        0
280
     0
281
     0
  0
CLASS
  1
LWPOLYLINE
  2
AcDbPolyline
  3
AutoCAD 2000
 90
        0
280
     0
281
     1
  0
CLASS
  1
HATCH
  2
AcDbHatch
  3
AutoCAD 2000
 90
        0
280
     0
281
     1
  0
CLASS
  1
XRECORD
  2
AcDbXrecord
  3
AutoCAD 2000
 90
        0
280
     0
281
     0
  0
ENDSEC
  0
SECTION
  2
TABLES
  0
TABLE
  2
VPORT
  5
8
330
0
100
AcDbSymbolTable
 70
     2
  0
VPORT
  5
261
330
8
100
AcDbSymbolTableRecord
100
AcDbViewportTableRecord
  2
*ACTIVE
 70
     0
 10
0.0
 20
0.0
 11
1.0
 21
1.0
 12
-5.991621640736682
 22
14.44042976717515
 13
0.0
 23
0.0
 14
0.5740882589684922
 24
0.5740882589684922
 15
0.5
 25
0.5
 16
0.0
 26
0.0
 36
1.0
 17
0.0
 27
0.0
 37
0.0
 40
8.265030991223115
 41
1.570528967254408
 42
50.0
 43
0.0
 44
0.0
 50
0.0
 51
0.0
 71
     0
 72
   100
 73
     1
 74
     0
 75
     0
 76
     0
 77
     0
 78
     0
  0
ENDTAB
  0
TABLE
  2
LTYPE
  5
5
330
0
100
AcDbSymbolTable
 70
     2
  0
LTYPE
  5
13
330
5
100
AcDbSymbolTableRecord
100
AcDbLinetypeTableRecord
  2
BYBLOCK
 70
     0
  3

 72
    65
 73
     0
 40
0.0
  0
LTYPE
  5
14
330
5
100
AcDbSymbolTableRecord
100
AcDbLinetypeTableRecord
  2
BYLAYER
 70
     0
  3

 72
    65
 73
     0
 40
0.0
  0
LTYPE
  5
15
330
5
100
AcDbSymbolTableRecord
100
AcDbLinetypeTableRecord
  2
CONTINUOUS
 70
     0
  3
Solid line
 72
    65
 73
     0
 40
0.0
  0
LTYPE
  5
29
330
5
100
AcDbSymbolTableRecord
100
AcDbLinetypeTableRecord
  2
HIDDEN
 70
     0
  3
__ __ __ __ __ __ __ __ __ __ __ __ __ __ __ __
 72
    65
 73
     2
 40
0.375
 49
0.25
 74
     0
 49
-0.125
 74
     0
  0
ENDTAB
  0
TABLE
  2
LAYER
  5
2
330
0
100
AcDbSymbolTable
 70
     5
  0
LAYER
  5
10
330
2
100
AcDbSymbolTableRecord
100
AcDbLayerTableRecord
  2
0
 70
     0
 62
     7
  6
CONTINUOUS
  0
LAYER
  5
2B
330
2
100
AcDbSymbolTableRecord
100
AcDbLayerTableRecord
  2
ADP2DETAIL
 70
     0
 62
     5
  6
CONTINUOUS
  0
LAYER
  5
2C
330
2
100
AcDbSymbolTableRecord
100
AcDbLayerTableRecord
  2
ADP1DETAIL
 70
     0
 62
     7
  6
CONTINUOUS
  0
LAYER
  5
2D
330
2
100
AcDbSymbolTableRecord
100
AcDbLayerTableRecord
  2
DEFPOINTS
 70
     0
 62
     7
  6
CONTINUOUS
  0
LAYER
  5
2E
330
2
100
AcDbSymbolTableRecord
100
AcDbLayerTableRecord
  2
ADPDIM
 70
     0
 62
     3
  6
CONTINUOUS
  0
ENDTAB
  0
TABLE
  2
STYLE
  5
3
330
0
100
AcDbSymbolTable
 70
     2
  0
STYLE
  5
11
330
3
100
AcDbSymbolTableRecord
100
AcDbTextStyleTableRecord
  2
STANDARD
 70
     0
 40
0.0
 41
1.0
 50
0.0
 71
     0
 42
0.2
  3
txt
  4

  0
STYLE
  5
C5
330
3
100
AcDbSymbolTableRecord
100
AcDbTextStyleTableRecord
  2
ARIAL_WIDE
 70
     0
 40
0.0
 41
1.25
 50
0.0
 71
     0
 42
0.2
  3
ARIAL.TTF
  4

1001
ACAD
1000
Arial
1071
       34
  0
ENDTAB
  0
TABLE
  2
VIEW
  5
6
330
0
100
AcDbSymbolTable
 70
     0
  0
ENDTAB
  0
TABLE
  2
UCS
  5
7
330
0
100
AcDbSymbolTable
 70
     0
  0
ENDTAB
  0
TABLE
  2
APPID
  5
9
330
0
100
AcDbSymbolTable
 70
     1
  0
APPID
  5
12
330
9
100
AcDbSymbolTableRecord
100
AcDbRegAppTableRecord
  2
ACAD
 70
     0
  0
ENDTAB
  0
TABLE
  2
DIMSTYLE
  5
A
330
0
100
AcDbSymbolTable
 70
     1
  0
DIMSTYLE
105
C3
330
A
100
AcDbSymbolTableRecord
100
AcDbDimStyleTableRecord
  2
STANDARD
 70
     0
  3

  4

  5

  6

  7

 40
1.0
 41
0.18
 42
0.0625
 43
0.38
 44
0.18
 45
0.0
 46
0.0
 47
0.0
 48
0.0
140
0.18
141
0.09
142
0.0
143
25.4
144
1.0
145
0.0
146
1.0
147
0.09
 71
     0
 72
     0
 73
     1
 74
     1
 75
     0
 76
     0
 77
     0
 78
     0
170
     0
171
     2
172
     0
173
     0
174
     0
175
     0
176
     0
177
     0
178
     0
270
     2
271
     4
272
     4
273
     2
274
     2
340
11
275
     0
280
     0
281
     0
282
     0
283
     1
284
     0
285
     0
286
     0
287
     3
288
     0
  0
ENDTAB
  0
TABLE
  2
BLOCK_RECORD
  5
1
330
0
100
AcDbSymbolTable
 70
     7
  0
BLOCK_RECORD
  5
1E
102
{ACAD_XDICTIONARY
360
106
102
}
330
1
100
AcDbSymbolTableRecord
100
AcDbBlockTableRecord
  2
*MODEL_SPACE
  0
BLOCK_RECORD
  5
1A
102
{ACAD_XDICTIONARY
360
108
102
}
330
1
100
AcDbSymbolTableRecord
100
AcDbBlockTableRecord
  2
*PAPER_SPACE
  0
BLOCK_RECORD
  5
22
330
1
100
AcDbSymbolTableRecord
100
AcDbBlockTableRecord
  2
*D0
  0
BLOCK_RECORD
  5
23
330
1
100
AcDbSymbolTableRecord
100
AcDbBlockTableRecord
  2
*D1
  0
BLOCK_RECORD
  5
24
330
1
100
AcDbSymbolTableRecord
100
AcDbBlockTableRecord
  2
*D2
  0
BLOCK_RECORD
  5
25
330
1
100
AcDbSymbolTableRecord
100
AcDbBlockTableRecord
  2
*D3
  0
BLOCK_RECORD
  5
26
330
1
100
AcDbSymbolTableRecord
100
AcDbBlockTableRecord
  2
*D4
  0
BLOCK_RECORD
  5
27
330
1
100
AcDbSymbolTableRecord
100
AcDbBlockTableRecord
  2
*D5
  0
BLOCK_RECORD
  5
28
330
1
100
AcDbSymbolTableRecord
100
AcDbBlockTableRecord
  2
*D6
  0
ENDTAB
  0
ENDSEC
  0
SECTION
  2
BLOCKS
  0
BLOCK
  5
31
330
1E
100
AcDbEntity
  8
0
100
AcDbBlockBegin
  2
*MODEL_SPACE
 70
     0
 10
0.0
 20
0.0
 30
0.0
  3
*MODEL_SPACE
  1

  0
ENDBLK
  5
32
330
1E
100
AcDbEntity
  8
0
100
AcDbBlockEnd
  0
BLOCK
  5
2F
330
1A
100
AcDbEntity
 67
     1
  8
0
100
AcDbBlockBegin
  2
*PAPER_SPACE
 70
     0
 10
0.0
 20
0.0
 30
0.0
  3
*PAPER_SPACE
  1

  0
ENDBLK
  5
30
330
1A
100
AcDbEntity
 67
     1
  8
0
100
AcDbBlockEnd
  0
BLOCK
  5
33
330
22
100
AcDbEntity
  8
0
100
AcDbBlockBegin
  2
*D0
 70
     1
 10
0.0
 20
0.0
 30
0.0
  3
*D0
  1

  0
LINE
  5
34
330
22
100
AcDbEntity
  8
0
  6
BYBLOCK
 62
     0
100
AcDbLine
 10
-4.822403059131927
 20
14.21018049402241
 30
0.0
 11
-6.01898135610974
 21
13.37507342285848
 31
0.0
  0
LINE
  5
35
330
22
100
AcDbEntity
  8
0
  6
BYBLOCK
 62
     0
100
AcDbLine
 10
-4.853368350095495
 20
14.03613696281386
 30
0.0
 11
-4.791437768168359
 21
14.38422402523096
 31
0.0
  0
LINE
  5
36
330
22
100
AcDbEntity
  8
0
  6
BYBLOCK
 62
     0
100
AcDbLine
 10
-4.830520339731323
 20
14.33537395423677
 30
0.0
 11
-4.455520339731323
 21
14.33537395423677
 31
0.0
  0
LINE
  5
37
330
22
100
AcDbEntity
  8
0
  6
BYBLOCK
 62
     0
100
AcDbLine
 10
-4.643020339731323
 20
14.14787395423676
 30
0.0
 11
-4.643020339731323
 21
14.52287395423677
 31
0.0
  0
TEXT
  5
38
330
22
100
AcDbEntity
  8
0
  6
BYBLOCK
 62
     0
100
AcDbText
 10
-6.529901988507477
 20
12.94227924332884
 30
0.0
 40
0.125
  1
%%c7/16
 50
34.91167355860935
 72
     1
 11
-6.343578657882261
 21
13.14853287580393
 31
0.0
100
AcDbText
 73
     2
  0
POINT
  5
3A
330
22
100
AcDbEntity
  8
DEFPOINTS
  6
BYBLOCK
 62
     0
100
AcDbPoint
 10
-4.822403059131927
 20
14.21018049402241
 30
0.0
  0
POINT
  5
3B
330
22
100
AcDbEntity
  8
DEFPOINTS
  6
BYBLOCK
 62
     0
100
AcDbPoint
 10
-4.463637620330721
 20
14.46056741445112
 30
0.0
  0
ENDBLK
  5
3C
330
22
100
AcDbEntity
  8
0
100
AcDbBlockEnd
  0
BLOCK
  5
3D
330
23
100
AcDbEntity
  8
0
100
AcDbBlockBegin
  2
*D1
 70
     1
 10
0.0
 20
0.0
 30
0.0
  3
*D1
  1

  0
LINE
  5
3E
330
23
100
AcDbEntity
  8
0
  6
BYBLOCK
 62
     0
100
AcDbLine
 10
-4.354882231645172
 20
14.35968901614561
 30
0.0
 11
-2.846154354387564
 21
14.35968901614561
 31
0.0
  0
LINE
  5
3F
330
23
100
AcDbEntity
  8
0
  6
BYBLOCK
 62
     0
100
AcDbLine
 10
-3.580520339731325
 20
12.83537395423677
 30
0.0
 11
-2.846154354387564
 21
12.83537395423677
 31
0.0
  0
LINE
  5
40
330
23
100
AcDbEntity
  8
0
  6
BYBLOCK
 62
     0
100
AcDbLine
 10
-3.026154354387564
 20
14.35968901614561
 30
0.0
 11
-3.026154354387564
 21
13.97253148519119
 31
0.0
  0
LINE
  5
41
330
23
100
AcDbEntity
  8
0
  6
BYBLOCK
 62
     0
100
AcDbLine
 10
-3.026154354387564
 20
12.83537395423677
 30
0.0
 11
-3.026154354387564
 21
13.22253148519119
 31
0.0
  0
LINE
  5
42
330
23
100
AcDbEntity
  8
0
  6
BYBLOCK
 62
     0
100
AcDbLine
 10
-2.901154354387564
 20
14.23468901614561
 30
0.0
 11
-3.151154354387564
 21
14.48468901614561
 31
0.0
  0
LINE
  5
43
330
23
100
AcDbEntity
  8
0
  6
BYBLOCK
 62
     0
100
AcDbLine
 10
-2.901154354387564
 20
12.71037395423677
 30
0.0
 11
-3.151154354387564
 21
12.96037395423677
 31
0.0
  0
TEXT
  5
44
330
23
100
AcDbEntity
  8
0
  6
BYBLOCK
 62
     0
100
AcDbText
 10
-2.963654354387564
 20
13.34753148519119
 30
0.0
 40
0.125
  1
1 1/2
 50
90.0
 72
     1
 11
-3.026154354387564
 21
13.59753148519119
 31
0.0
100
AcDbText
 73
     2
  0
POINT
  5
45
330
23
100
AcDbEntity
  8
DEFPOINTS
  6
BYBLOCK
 62
     0
100
AcDbPoint
 10
-4.417382231645172
 20
14.35968901614561
 30
0.0
  0
POINT
  5
46
330
23
100
AcDbEntity
  8
DEFPOINTS
  6
BYBLOCK
 62
     0
100
AcDbPoint
 10
-3.643020339731325
 20
12.83537395423677
 30
0.0
  0
POINT
  5
47
330
23
100
AcDbEntity
  8
DEFPOINTS
  6
BYBLOCK
 62
     0
100
AcDbPoint
 10
-3.026154354387564
 20
12.83537395423677
 30
0.0
  0
ENDBLK
  5
48
330
23
100
AcDbEntity
  8
0
100
AcDbBlockEnd
  0
BLOCK
  5
49
330
24
100
AcDbEntity
  8
0
100
AcDbBlockBegin
  2
*D2
 70
     1
 10
0.0
 20
0.0
 30
0.0
  3
*D2
  1

  0
LINE
  5
4A
330
24
100
AcDbEntity
  8
0
  6
BYBLOCK
 62
     0
100
AcDbLine
 10
-5.643020339731325
 20
12.77287395423677
 30
0.0
 11
-5.643020339731325
 21
12.24501999901362
 31
0.0
  0
LINE
  5
4B
330
24
100
AcDbEntity
  8
0
  6
BYBLOCK
 62
     0
100
AcDbLine
 10
-3.643020339731325
 20
12.77287395423677
 30
0.0
 11
-3.643020339731325
 21
12.24501999901362
 31
0.0
  0
LINE
  5
4C
330
24
100
AcDbEntity
  8
0
  6
BYBLOCK
 62
     0
100
AcDbLine
 10
-5.643020339731325
 20
12.42501999901362
 30
0.0
 11
-4.809687006397992
 21
12.42501999901362
 31
0.0
  0
LINE
  5
4D
330
24
100
AcDbEntity
  8
0
  6
BYBLOCK
 62
     0
100
AcDbLine
 10
-3.643020339731325
 20
12.42501999901362
 30
0.0
 11
-4.476353673064658
 21
12.42501999901362
 31
0.0
  0
LINE
  5
4E
330
24
100
AcDbEntity
  8
0
  6
BYBLOCK
 62
     0
100
AcDbLine
 10
-5.768020339731325
 20
12.30001999901362
 30
0.0
 11
-5.518020339731325
 21
12.55001999901362
 31
0.0
  0
LINE
  5
4F
330
24
100
AcDbEntity
  8
0
  6
BYBLOCK
 62
     0
100
AcDbLine
 10
-3.768020339731325
 20
12.30001999901362
 30
0.0
 11
-3.518020339731325
 21
12.55001999901362
 31
0.0
  0
TEXT
  5
50
330
24
100
AcDbEntity
  8
0
  6
BYBLOCK
 62
     0
100
AcDbText
 10
-4.684687006397992
 20
12.36251999901362
 30
0.0
 40
0.125
  1
2
 72
     1
 11
-4.643020339731325
 21
12.42501999901362
 31
0.0
100
AcDbText
 73
     2
  0
POINT
  5
51
330
24
100
AcDbEntity
  8
DEFPOINTS
  6
BYBLOCK
 62
     0
100
AcDbPoint
 10
-5.643020339731325
 20
12.83537395423677
 30
0.0
  0
POINT
  5
52
330
24
100
AcDbEntity
  8
DEFPOINTS
  6
BYBLOCK
 62
     0
100
AcDbPoint
 10
-3.643020339731325
 20
12.83537395423677
 30
0.0
  0
POINT
  5
53
330
24
100
AcDbEntity
  8
DEFPOINTS
  6
BYBLOCK
 62
     0
100
AcDbPoint
 10
-3.643020339731325
 20
12.42501999901362
 30
0.0
  0
ENDBLK
  5
54
330
24
100
AcDbEntity
  8
0
100
AcDbBlockEnd
  0
BLOCK
  5
55
330
25
100
AcDbEntity
  8
0
100
AcDbBlockBegin
  2
*D3
 70
     1
 10
0.0
 20
0.0
 30
0.0
  3
*D3
  1

  0
LINE
  5
56
330
25
100
AcDbEntity
  8
0
  6
BYBLOCK
 62
     0
100
AcDbLine
 10
-6.363271578891234
 20
16.93632750369592
 30
0.0
 11
-6.363271578891234
 21
17.63818236531637
 31
0.0
  0
LINE
  5
57
330
25
100
AcDbEntity
  8
0
  6
BYBLOCK
 62
     0
100
AcDbLine
 10
-7.136930344984655
 20
16.93773423152466
 30
0.0
 11
-7.136930344984655
 21
17.63818236531637
 31
0.0
  0
LINE
  5
58
330
25
100
AcDbEntity
  8
0
  6
BYBLOCK
 62
     0
100
AcDbLine
 10
-6.363271578891234
 20
17.45818236531637
 30
0.0
 11
-6.113271578891234
 21
17.45818236531637
 31
0.0
  0
LINE
  5
59
330
25
100
AcDbEntity
  8
0
  6
BYBLOCK
 62
     0
100
AcDbLine
 10
-7.136930344984655
 20
17.45818236531637
 30
0.0
 11
-7.386930344984655
 21
17.45818236531637
 31
0.0
  0
LINE
  5
5A
330
25
100
AcDbEntity
  8
0
  6
BYBLOCK
 62
     0
100
AcDbLine
 10
-6.488271578891234
 20
17.33318236531637
 30
0.0
 11
-6.238271578891234
 21
17.58318236531637
 31
0.0
  0
LINE
  5
5B
330
25
100
AcDbEntity
  8
0
  6
BYBLOCK
 62
     0
100
AcDbLine
 10
-7.261930344984655
 20
17.33318236531637
 30
0.0
 11
-7.011930344984655
 21
17.58318236531637
 31
0.0
  0
TEXT
  5
5C
330
25
100
AcDbEntity
  8
0
  6
BYBLOCK
 62
     0
100
AcDbText
 10
-7.845263678317989
 20
17.39568236531637
 30
0.0
 40
0.125
  1
3/4
 72
     1
 11
-7.678597011651322
 21
17.45818236531637
 31
0.0
100
AcDbText
 73
     2
  0
POINT
  5
5D
330
25
100
AcDbEntity
  8
DEFPOINTS
  6
BYBLOCK
 62
     0
100
AcDbPoint
 10
-6.363271578891234
 20
16.87382750369592
 30
0.0
  0
POINT
  5
5E
330
25
100
AcDbEntity
  8
DEFPOINTS
  6
BYBLOCK
 62
     0
100
AcDbPoint
 10
-7.136930344984655
 20
16.87523423152466
 30
0.0
  0
POINT
  5
5F
330
25
100
AcDbEntity
  8
DEFPOINTS
  6
BYBLOCK
 62
     0
100
AcDbPoint
 10
-7.136930344984655
 20
17.45818236531637
 30
0.0
  0
ENDBLK
  5
60
330
25
100
AcDbEntity
  8
0
100
AcDbBlockEnd
  0
BLOCK
  5
61
330
26
100
AcDbEntity
  8
0
100
AcDbBlockBegin
  2
*D4
 70
     1
 10
0.0
 20
0.0
 30
0.0
  3
*D4
  1

  0
LINE
  5
62
330
26
100
AcDbEntity
  8
0
  6
BYBLOCK
 62
     0
100
AcDbLine
 10
-9.660771578891234
 20
15.54632750369592
 30
0.0
 11
-9.660771578891234
 21
17.32077573206032
 31
0.0
  0
LINE
  5
63
330
26
100
AcDbEntity
  8
0
  6
BYBLOCK
 62
     0
100
AcDbLine
 10
-6.636759678457742
 20
16.69632750369592
 30
0.0
 11
-6.636759678457742
 21
17.32077573206032
 31
0.0
  0
LINE
  5
64
330
26
100
AcDbEntity
  8
0
  6
BYBLOCK
 62
     0
100
AcDbLine
 10
-9.660771578891234
 20
17.14077573206032
 30
0.0
 11
-8.315432295341155
 21
17.14077573206032
 31
0.0
  0
LINE
  5
65
330
26
100
AcDbEntity
  8
0
  6
BYBLOCK
 62
     0
100
AcDbLine
 10
-6.636759678457742
 20
17.14077573206032
 30
0.0
 11
-7.982098962007822
 21
17.14077573206032
 31
0.0
  0
LINE
  5
66
330
26
100
AcDbEntity
  8
0
  6
BYBLOCK
 62
     0
100
AcDbLine
 10
-9.785771578891234
 20
17.01577573206032
 30
0.0
 11
-9.535771578891234
 21
17.26577573206032
 31
0.0
  0
LINE
  5
67
330
26
100
AcDbEntity
  8
0
  6
BYBLOCK
 62
     0
100
AcDbLine
 10
-6.761759678457742
 20
17.01577573206032
 30
0.0
 11
-6.511759678457742
 21
17.26577573206032
 31
0.0
  0
TEXT
  5
68
330
26
100
AcDbEntity
  8
0
  6
BYBLOCK
 62
     0
100
AcDbText
 10
-8.190432295341155
 20
17.07827573206032
 30
0.0
 40
0.125
  1
3
 72
     1
 11
-8.148765628674489
 21
17.14077573206032
 31
0.0
100
AcDbText
 73
     2
  0
POINT
  5
69
330
26
100
AcDbEntity
  8
DEFPOINTS
  6
BYBLOCK
 62
     0
100
AcDbPoint
 10
-9.660771578891234
 20
15.48382750369592
 30
0.0
  0
POINT
  5
6A
330
26
100
AcDbEntity
  8
DEFPOINTS
  6
BYBLOCK
 62
     0
100
AcDbPoint
 10
-6.636759678457742
 20
16.63382750369591
 30
0.0
  0
POINT
  5
6B
330
26
100
AcDbEntity
  8
DEFPOINTS
  6
BYBLOCK
 62
     0
100
AcDbPoint
 10
-6.636759678457742
 20
17.14077573206032
 30
0.0
  0
ENDBLK
  5
6C
330
26
100
AcDbEntity
  8
0
100
AcDbBlockEnd
  0
BLOCK
  5
6D
330
27
100
AcDbEntity
  8
0
100
AcDbBlockBegin
  2
*D5
 70
     1
 10
0.0
 20
0.0
 30
0.0
  3
*D5
  1

  0
LINE
  5
6E
330
27
100
AcDbEntity
  8
0
  6
BYBLOCK
 62
     0
100
AcDbLine
 10
-3.578193450473685
 20
16.88448240528058
 30
0.0
 11
-2.849178746591196
 21
16.88448240528058
 31
0.0
  0
LINE
  5
6F
330
27
100
AcDbEntity
  8
0
  6
BYBLOCK
 62
     0
100
AcDbLine
 10
-3.578193450473685
 20
14.35968901614561
 30
0.0
 11
-2.849178746591196
 21
14.35968901614561
 31
0.0
  0
LINE
  5
70
330
27
100
AcDbEntity
  8
0
  6
BYBLOCK
 62
     0
100
AcDbLine
 10
-3.029178746591195
 20
16.88448240528058
 30
0.0
 11
-3.029178746591195
 21
16.01791904404643
 31
0.0
  0
LINE
  5
71
330
27
100
AcDbEntity
  8
0
  6
BYBLOCK
 62
     0
100
AcDbLine
 10
-3.029178746591195
 20
14.35968901614561
 30
0.0
 11
-3.029178746591195
 21
15.22625237737976
 31
0.0
  0
LINE
  5
72
330
27
100
AcDbEntity
  8
0
  6
BYBLOCK
 62
     0
100
AcDbLine
 10
-2.904178746591195
 20
16.75948240528058
 30
0.0
 11
-3.154178746591195
 21
17.00948240528059
 31
0.0
  0
LINE
  5
73
330
27
100
AcDbEntity
  8
0
  6
BYBLOCK
 62
     0
100
AcDbLine
 10
-2.904178746591195
 20
14.23468901614561
 30
0.0
 11
-3.154178746591195
 21
14.48468901614561
 31
0.0
  0
TEXT
  5
74
330
27
100
AcDbEntity
  8
0
  6
BYBLOCK
 62
     0
100
AcDbText
 10
-2.966678746591195
 20
15.35125237737976
 30
0.0
 40
0.125
  1
2 1/2
 50
90.0
 72
     1
 11
-3.029178746591195
 21
15.6220857107131
 31
0.0
100
AcDbText
 73
     2
  0
POINT
  5
75
330
27
100
AcDbEntity
  8
DEFPOINTS
  6
BYBLOCK
 62
     0
100
AcDbPoint
 10
-3.640693450473685
 20
16.88448240528058
 30
0.0
  0
POINT
  5
76
330
27
100
AcDbEntity
  8
DEFPOINTS
  6
BYBLOCK
 62
     0
100
AcDbPoint
 10
-3.640693450473685
 20
14.35968901614561
 30
0.0
  0
POINT
  5
77
330
27
100
AcDbEntity
  8
DEFPOINTS
  6
BYBLOCK
 62
     0
100
AcDbPoint
 10
-3.029178746591195
 20
14.35968901614561
 30
0.0
  0
ENDBLK
  5
78
330
27
100
AcDbEntity
  8
0
100
AcDbBlockEnd
  0
BLOCK
  5
79
330
28
100
AcDbEntity
  8
0
100
AcDbBlockBegin
  2
*D6
 70
     1
 10
0.0
 20
0.0
 30
0.0
  3
*D6
  1

  0
LINE
  5
7A
330
28
100
AcDbEntity
  8
0
  6
BYBLOCK
 62
     0
100
AcDbLine
 10
-5.143020339731325
 20
17.06724431347919
 30
0.0
 11
-5.143020339731325
 21
17.33622351592501
 31
0.0
  0
LINE
  5
7B
330
28
100
AcDbEntity
  8
0
  6
BYBLOCK
 62
     0
100
AcDbLine
 10
-4.143020339731325
 20
17.06724431347919
 30
0.0
 11
-4.143020339731325
 21
17.33622351592501
 31
0.0
  0
LINE
  5
7C
330
28
100
AcDbEntity
  8
0
  6
BYBLOCK
 62
     0
100
AcDbLine
 10
-5.143020339731325
 20
17.15622351592501
 30
0.0
 11
-4.788853673064658
 21
17.15622351592501
 31
0.0
  0
LINE
  5
7D
330
28
100
AcDbEntity
  8
0
  6
BYBLOCK
 62
     0
100
AcDbLine
 10
-4.143020339731325
 20
17.15622351592501
 30
0.0
 11
-4.497187006397992
 21
17.15622351592501
 31
0.0
  0
LINE
  5
7E
330
28
100
AcDbEntity
  8
0
  6
BYBLOCK
 62
     0
100
AcDbLine
 10
-5.268020339731325
 20
17.03122351592501
 30
0.0
 11
-5.018020339731325
 21
17.28122351592501
 31
0.0
  0
LINE
  5
7F
330
28
100
AcDbEntity
  8
0
  6
BYBLOCK
 62
     0
100
AcDbLine
 10
-4.268020339731325
 20
17.03122351592501
 30
0.0
 11
-4.018020339731325
 21
17.28122351592501
 31
0.0
  0
TEXT
  5
80
330
28
100
AcDbEntity
  8
0
  6
BYBLOCK
 62
     0
100
AcDbText
 10
-4.663853673064658
 20
17.09372351592501
 30
0.0
 40
0.125
  1
1
 72
     1
 11
-4.643020339731325
 21
17.15622351592501
 31
0.0
100
AcDbText
 73
     2
  0
POINT
  5
81
330
28
100
AcDbEntity
  8
DEFPOINTS
  6
BYBLOCK
 62
     0
100
AcDbPoint
 10
-5.143020339731325
 20
17.00474431347919
 30
0.0
  0
POINT
  5
82
330
28
100
AcDbEntity
  8
DEFPOINTS
  6
BYBLOCK
 62
     0
100
AcDbPoint
 10
-4.143020339731325
 20
17.00474431347919
 30
0.0
  0
POINT
  5
83
330
28
100
AcDbEntity
  8
DEFPOINTS
  6
BYBLOCK
 62
     0
100
AcDbPoint
 10
-4.143020339731325
 20
17.15622351592501
 30
0.0
  0
ENDBLK
  5
84
330
28
100
AcDbEntity
  8
0
100
AcDbBlockEnd
  0
ENDSEC
  0
SECTION
  2
ENTITIES
  0
DIMENSION
  5
85
330
1E
100
AcDbEntity
  8
ADPDIM
100
AcDbDimension
  2
*D2
 10
-3.643020339731325
 20
12.42501999901362
 30
0.0
 11
-4.643020339731325
 21
12.42501999901362
 31
0.0
100
AcDbAlignedDimension
 13
-5.643020339731325
 23
12.83537395423677
 33
0.0
 14
-3.643020339731325
 24
12.83537395423677
 34
0.0
100
AcDbRotatedDimension
  0
ARC
  5
86
330
1E
100
AcDbEntity
  8
ADP1DETAIL
100
AcDbCircle
 10
-8.884278771839111
 20
16.96433853976741
 30
0.0
 40
1.960575444391992
100
AcDbArc
 50
270.4701015978646
 51
348.9059278119855
  0
ARC
  5
87
330
1E
100
AcDbEntity
  8
ADP1DETAIL
100
AcDbCircle
 10
-8.639108203682802
 20
16.98614204224002
 30
0.0
 40
1.506266530744348
100
AcDbArc
 50
265.8486461106785
 51
355.7774369454927
  0
DIMENSION
  5
88
330
1E
100
AcDbEntity
  8
ADPDIM
100
AcDbDimension
  2
*D4
 10
-6.636759678457742
 20
17.14077573206032
 30
0.0
 11
-8.148765628674489
 21
17.14077573206032
 31
0.0
100
AcDbAlignedDimension
 13
-9.660771578891234
 23
15.48382750369592
 33
0.0
 14
-6.636759678457742
 24
16.63382750369591
 34
0.0
100
AcDbRotatedDimension
  0
DIMENSION
  5
89
330
1E
100
AcDbEntity
  8
ADPDIM
100
AcDbDimension
  2
*D3
 10
-7.136930344984655
 20
17.45818236531637
 30
0.0
 11
-7.678597011651322
 21
17.45818236531637
 31
0.0
100
AcDbAlignedDimension
 13
-6.363271578891234
 23
16.87382750369592
 33
0.0
 14
-7.136930344984655
 24
16.87523423152466
 34
0.0
100
AcDbRotatedDimension
  0
LINE
  5
8A
330
1E
100
AcDbEntity
  8
ADP1DETAIL
100
AcDbLine
 10
-9.670771578891233
 20
12.84537395423677
 30
0.0
 11
-9.670771578891233
 21
15.47382750369592
 31
0.0
  0
LINE
  5
8B
330
1E
100
AcDbEntity
  8
ADP1DETAIL
100
AcDbLine
 10
-9.210771578891232
 20
14.612375796235
 30
0.0
 11
-9.210771578891232
 21
13.02337395423677
 31
0.0
  0
ARC
  5
8C
330
1E
100
AcDbEntity
  8
ADP1DETAIL
100
AcDbCircle
 10
-9.398771578891233
 20
13.02337395423677
 30
0.0
 40
0.188
100
AcDbArc
 50
270.0
 51
0.0
  0
LINE
  5
8D
330
1E
100
AcDbEntity
  8
ADP1DETAIL
100
AcDbLine
 10
-9.398771578891233
 20
12.83537395423677
 30
0.0
 11
-9.660771578891234
 21
12.83537395423677
 31
0.0
  0
ARC
  5
8E
330
1E
100
AcDbEntity
  8
ADP1DETAIL
100
AcDbCircle
 10
-9.660771578891234
 20
12.84537395423677
 30
0.0
 40
0.01
100
AcDbArc
 50
180.0
 51
270.0
  0
LINE
  5
8F
330
1E
100
AcDbEntity
  8
ADP2DETAIL
  6
HIDDEN
100
AcDbLine
 10
-9.664200154543499
 20
14.11662395423677
 30
0.0
 11
-9.204200154543499
 21
14.11662395423677
 31
0.0
  0
ARC
  5
90
330
1E
100
AcDbEntity
  8
ADP1DETAIL
100
AcDbCircle
 10
-8.823484936612782
 20
14.61907330934048
 30
0.0
 40
0.3873445494248175
100
AcDbArc
 50
96.6279306799872
 51
180.9907415984312
  0
LINE
  5
91
330
1E
100
AcDbEntity
  8
ADP2DETAIL
  6
HIDDEN
100
AcDbLine
 10
-9.664200154543499
 20
14.55412395423677
 30
0.0
 11
-9.204200154543499
 21
14.55412395423677
 31
0.0
  0
LINE
  5
92
330
1E
100
AcDbEntity
  8
ADP1DETAIL
100
AcDbLine
 10
-9.660771578891234
 20
15.48382750369592
 30
0.0
 11
-8.748148970919807
 21
15.48382750369592
 31
0.0
  0
ARC
  5
93
330
1E
100
AcDbEntity
  8
ADP1DETAIL
100
AcDbCircle
 10
-9.660771578891234
 20
15.47382750369592
 30
0.0
 40
0.01
100
AcDbArc
 50
90.0
 51
180.0
  0
LINE
  5
94
330
1E
100
AcDbEntity
  8
ADP1DETAIL
100
AcDbLine
 10
-5.643020339731325
 20
12.83537395423677
 30
0.0
 11
-5.643020339731325
 21
16.88382750369592
 31
0.0
  0
LINE
  5
95
330
1E
100
AcDbEntity
  8
ADP1DETAIL
100
AcDbLine
 10
-3.643020339731325
 20
16.88382750369592
 30
0.0
 11
-3.643020339731325
 21
12.83537395423677
 31
0.0
  0
DIMENSION
  5
96
330
1E
100
AcDbEntity
  8
ADPDIM
100
AcDbDimension
  2
*D5
 10
-3.029178746591195
 20
14.35968901614561
 30
0.0
 11
-3.029178746591195
 21
15.6220857107131
 31
0.0
100
AcDbAlignedDimension
 13
-3.640693450473685
 23
16.88448240528058
 33
0.0
 14
-3.640693450473685
 24
14.35968901614561
 34
0.0
 50
90.0
100
AcDbRotatedDimension
  0
LINE
  5
97
330
1E
100
AcDbEntity
  8
ADP1DETAIL
100
AcDbLine
 10
-5.640693450473685
 20
15.10918770258182
 30
0.0
 11
-3.640693450473685
 21
15.10918770258182
 31
0.0
  0
LINE
  5
98
330
1E
100
AcDbEntity
  8
ADP1DETAIL
100
AcDbLine
 10
-3.643020339731325
 20
12.83537395423677
 30
0.0
 11
-5.643020339731325
 21
12.83537395423677
 31
0.0
  0
DIMENSION
  5
99
330
1E
100
AcDbEntity
  8
ADPDIM
100
AcDbDimension
  2
*D0
 10
-4.463637620330721
 20
14.46056741445112
 30
0.0
 11
-6.343578657882261
 21
13.14853287580393
 31
0.0
 70
     3
100
AcDbDiametricDimension
 15
-4.822403059131927
 25
14.21018049402241
 35
0.0
 40
1.459179029833662
  0
DIMENSION
  5
9A
330
1E
100
AcDbEntity
  8
ADPDIM
100
AcDbDimension
  2
*D1
 10
-3.026154354387564
 20
12.83537395423677
 30
0.0
 11
-3.026154354387564
 21
13.59753148519119
 31
0.0
100
AcDbAlignedDimension
 13
-4.417382231645172
 23
14.35968901614561
 33
0.0
 14
-3.643020339731325
 24
12.83537395423677
 34
0.0
 50
90.0
100
AcDbRotatedDimension
  0
CIRCLE
  5
9B
330
1E
100
AcDbEntity
  8
ADP1DETAIL
100
AcDbCircle
 10
-4.643020339731325
 20
14.33537395423677
 30
0.0
 40
0.21875
  0
LINE
  5
9C
330
1E
100
AcDbEntity
  8
ADP1DETAIL
100
AcDbLine
 10
-5.640693450473685
 20
16.64198210426524
 30
0.0
 11
-3.640693450473685
 21
16.64198210426524
 31
0.0
  0
LINE
  5
9D
330
1E
100
AcDbEntity
  8
ADP1DETAIL
100
AcDbLine
 10
-5.643020339731325
 20
16.88382750369592
 30
0.0
 11
-3.643020339731325
 21
16.88382750369592
 31
0.0
  0
DIMENSION
  5
9E
330
1E
100
AcDbEntity
  8
ADPDIM
100
AcDbDimension
  2
*D6
 10
-4.143020339731325
 20
17.15622351592501
 30
0.0
 11
-4.643020339731325
 21
17.15622351592501
 31
0.0
100
AcDbAlignedDimension
 13
-5.143020339731325
 23
17.00474431347919
 33
0.0
 14
-4.143020339731325
 24
17.00474431347919
 34
0.0
100
AcDbRotatedDimension
  0
LINE
  5
9F
330
1E
100
AcDbEntity
  8
ADP2DETAIL
  6
HIDDEN
100
AcDbLine
 10
-5.640693450473685
 20
15.51152280991705
 30
0.0
 11
-3.640693450473685
 21
15.51152280991705
 31
0.0
  0
ARC
  5
A0
330
1E
100
AcDbEntity
  8
ADP1DETAIL
100
AcDbCircle
 10
-6.900247778024253
 20
16.57182750369592
 30
0.0
 40
0.062
100
AcDbArc
 50
90.0
 51
165.7550151096598
  0
LINE
  5
A1
330
1E
100
AcDbEntity
  8
ADP1DETAIL
100
AcDbLine
 10
-6.373271578891232
 20
16.63382750369591
 30
0.0
 11
-6.900247778024253
 21
16.63382750369591
 31
0.0
  0
LINE
  5
A2
330
1E
100
AcDbEntity
  8
ADP1DETAIL
100
AcDbLine
 10
-7.12702978354523
 20
16.88382750369592
 30
0.0
 11
-6.373271578891232
 21
16.88382750369592
 31
0.0
  0
ARC
  5
A3
330
1E
100
AcDbEntity
  8
ADP1DETAIL
100
AcDbCircle
 10
-7.12702978354523
 20
16.87382750369592
 30
0.0
 40
0.01
100
AcDbArc
 50
90.0
 51
171.9132208480403
  0
LWPOLYLINE
  5
A4
330
1E
100
AcDbEntity
  8
ADP2DETAIL
  6
HIDDEN
100
AcDbPolyline
 90
        3
 70
     0
 43
0.0
 10
-6.554119377945614
 20
16.88382750369592
 10
-6.554119377945614
 20
16.70245228902101
 10
-6.492119377945614
 20
16.64045228902101
  0
LWPOLYLINE
  5
A9
330
1E
100
AcDbEntity
  8
ADP2DETAIL
  6
HIDDEN
100
AcDbPolyline
 90
        3
 70
     0
 43
0.0
 10
-6.741619377945612
 20
16.88382750369592
 10
-6.741619377945612
 20
16.70245228902101
 10
-6.803619377945612
 20
16.64045228902101
  0
LINE
  5
AE
330
1E
100
AcDbEntity
  8
ADP1DETAIL
100
AcDbLine
 10
-6.363271578891234
 20
16.87382750369592
 30
0.0
 11
-6.363271578891234
 21
16.64382750369592
 31
0.0
  0
LWPOLYLINE
  5
AF
330
1E
100
AcDbEntity
  8
ADP2DETAIL
  6
HIDDEN
100
AcDbPolyline
 90
        3
 70
     0
 43
0.0
 10
-5.233752623545736
 20
16.88382750369592
 10
-5.233752623545736
 20
16.70245228902101
 10
-5.295752623545736
 20
16.64045228902101
  0
LWPOLYLINE
  5
B4
330
1E
100
AcDbEntity
  8
ADP2DETAIL
  6
HIDDEN
100
AcDbPolyline
 90
        3
 70
     0
 43
0.0
 10
-4.046252623545738
 20
16.88382750369592
 10
-4.046252623545738
 20
16.70245228902101
 10
-3.984252623545739
 20
16.64045228902101
  0
LWPOLYLINE
  5
B9
330
1E
100
AcDbEntity
  8
ADP2DETAIL
  6
HIDDEN
100
AcDbPolyline
 90
        3
 70
     0
 43
0.0
 10
-5.046252623545738
 20
16.88382750369592
 10
-5.046252623545738
 20
16.70245228902101
 10
-4.984252623545739
 20
16.64045228902101
  0
LWPOLYLINE
  5
BE
330
1E
100
AcDbEntity
  8
ADP2DETAIL
  6
HIDDEN
100
AcDbPolyline
 90
        3
 70
     0
 43
0.0
 10
-4.233752623545736
 20
16.88382750369592
 10
-4.233752623545736
 20
16.70245228902101
 10
-4.295752623545736
 20
16.64045228902101
  0
TEXT
  5
17C
330
1E
100
AcDbEntity
  8
ADPDIM
100
AcDbText
 10
-12.45080839333788
 20
11.27892646758399
 30
0.0
 40
0.125
  1
J U L I U S  B L U M  &  C O . ,  I N C .      ( 8 0 0 )  5 2 6 - 6 2 9 3        W W W . J U L I U S B L U M . C O M        P A R T  N O .  2 1 9
 41
1.25
  7
ARIAL_WIDE
 72
     1
 11
-5.99190661980446
 21
11.40392646758399
 31
0.0
100
AcDbText
 73
     3
  0
ENDSEC
  0
SECTION
  2
OBJECTS
  0
DICTIONARY
  5
C
330
0
100
AcDbDictionary
  3
ACAD_GROUP
350
D
  3
ACAD_LAYOUT
350
19
  3
ACAD_MLINESTYLE
350
16
  3
ACAD_PLOTSETTINGS
350
18
  3
ACAD_PLOTSTYLENAME
350
E
  3
ACDBHEADERROUNDTRIPXREC
350
262
  3
ACDBVARIABLEDICTIONARY
350
13B
  0
DICTIONARY
  5
106
330
1E
100
AcDbDictionary
280
     1
  3
ACAD_LAYOUTSELFREF
360
284
  0
DICTIONARY
  5
108
330
1A
100
AcDbDictionary
280
     1
  3
ACAD_LAYOUTSELFREF
360
283
  0
DICTIONARY
  5
D
102
{ACAD_REACTORS
330
C
102
}
330
C
100
AcDbDictionary
  0
DICTIONARY
  5
19
102
{ACAD_REACTORS
330
C
102
}
330
C
100
AcDbDictionary
  0
DICTIONARY
  5
16
102
{ACAD_REACTORS
330
C
102
}
330
C
100
AcDbDictionary
  3
STANDARD
350
17
  0
DICTIONARY
  5
18
102
{ACAD_REACTORS
330
C
102
}
330
C
100
AcDbDictionary
  0
ACDBDICTIONARYWDFLT
  5
E
102
{ACAD_REACTORS
330
C
102
}
330
C
100
AcDbDictionary
281
     1
  3
Normal
350
F
100
AcDbDictionaryWithDefault
340
F
  0
DICTIONARY
  5
262
102
{ACAD_REACTORS
330
C
102
}
330
C
100
AcDbDictionary
  3
CEPSNTYPE
350
26C
  3
DIMSTYLEDATA
350
270
  3
FINGERPRINTGUID
350
26D
  3
HYPERLINKBASE
350
265
  3
INSUNITS
350
26B
  3
LAYOUTDICT
350
267
  3
LWETCUNION
350
26A
  3
PLOTSETDICT
350
268
  3
PLOTSTYLNAMDICT
350
269
  3
PSVPSCALE
350
26F
  3
PUCSBASE
350
273
  3
PUCSORGBACK
350
279
  3
PUCSORGBOTTOM
350
275
  3
PUCSORGFRONT
350
278
  3
PUCSORGLEFT
350
276
  3
PUCSORGRIGHT
350
277
  3
PUCSORGTOP
350
274
  3
PUCSORTHOREF
350
271
  3
PUCSORTHOVIEW
350
272
  3
STYLESHEET
350
266
  3
TSTACKALIGN
350
263
  3
TSTACKSIZE
350
264
  3
UCSBASE
350
27C
  3
UCSORGBACK
350
282
  3
UCSORGBOTTOM
350
27E
  3
UCSORGFRONT
350
281
  3
UCSORGLEFT
350
27F
  3
UCSORGRIGHT
350
280
  3
UCSORGTOP
350
27D
  3
UCSORTHOREF
350
27A
  3
UCSORTHOVIEW
350
27B
  3
VERSIONGUID
350
26E
  0
DICTIONARY
  5
13B
102
{ACAD_REACTORS
330
C
102
}
330
C
100
AcDbDictionary
  3
DIMASSOC
350
13D
  3
HIDETEXT
350
13C
  0
XRECORD
  5
284
102
{ACAD_REACTORS
330
106
102
}
330
106
100
AcDbXrecord
340
1E
  0
XRECORD
  5
283
102
{ACAD_REACTORS
330
108
102
}
330
108
100
AcDbXrecord
340
1A
  0
MLINESTYLE
  5
17
102
{ACAD_REACTORS
330
16
102
}
330
16
100
AcDbMlineStyle
  2
STANDARD
 70
     0
  3

 62
   256
 51
90.0
 52
90.0
 71
     2
 49
0.5
 62
   256
  6
BYLAYER
 49
-0.5
 62
   256
  6
BYLAYER
  0
ACDBPLACEHOLDER
  5
F
102
{ACAD_REACTORS
330
E
102
}
330
E
100
AcDbPlaceHolder
280
     0
  0
XRECORD
  5
26C
102
{ACAD_REACTORS
330
262
102
}
330
262
100
AcDbXrecord
 90
        0
  0
XRECORD
  5
270
102
{ACAD_REACTORS
330
262
102
}
330
262
100
AcDbXrecord
1000
DSTYLE
1002
{
1070
   277
 70
     5
1070
   279
 70
     2
1002
}
  0
XRECORD
  5
26D
102
{ACAD_REACTORS
330
262
102
}
330
262
100
AcDbXrecord
  1
{B9104936-24EA-4964-B052-7286105B2D70}
  0
XRECORD
  5
265
102
{ACAD_REACTORS
330
262
102
}
330
262
100
AcDbXrecord
  1

  0
XRECORD
  5
26B
102
{ACAD_REACTORS
330
262
102
}
330
262
100
AcDbXrecord
 90
        0
  0
XRECORD
  5
267
102
{ACAD_REACTORS
330
262
102
}
330
262
100
AcDbXrecord
340
19
  0
XRECORD
  5
26A
102
{ACAD_REACTORS
330
262
102
}
330
262
100
AcDbXrecord
 90
    14877
  0
XRECORD
  5
268
102
{ACAD_REACTORS
330
262
102
}
330
262
100
AcDbXrecord
340
18
  0
XRECORD
  5
269
102
{ACAD_REACTORS
330
262
102
}
330
262
100
AcDbXrecord
340
E
  0
XRECORD
  5
26F
102
{ACAD_REACTORS
330
262
102
}
330
262
100
AcDbXrecord
 40
0.0
  0
XRECORD
  5
273
102
{ACAD_REACTORS
330
262
102
}
330
262
100
AcDbXrecord
340
0
  0
XRECORD
  5
279
102
{ACAD_REACTORS
330
262
102
}
330
262
100
AcDbXrecord
 10
0.0
 20
0.0
 30
0.0
  0
XRECORD
  5
275
102
{ACAD_REACTORS
330
262
102
}
330
262
100
AcDbXrecord
 10
0.0
 20
0.0
 30
0.0
  0
XRECORD
  5
278
102
{ACAD_REACTORS
330
262
102
}
330
262
100
AcDbXrecord
 10
0.0
 20
0.0
 30
0.0
  0
XRECORD
  5
276
102
{ACAD_REACTORS
330
262
102
}
330
262
100
AcDbXrecord
 10
0.0
 20
0.0
 30
0.0
  0
XRECORD
  5
277
102
{ACAD_REACTORS
330
262
102
}
330
262
100
AcDbXrecord
 10
0.0
 20
0.0
 30
0.0
  0
XRECORD
  5
274
102
{ACAD_REACTORS
330
262
102
}
330
262
100
AcDbXrecord
 10
0.0
 20
0.0
 30
0.0
  0
XRECORD
  5
271
102
{ACAD_REACTORS
330
262
102
}
330
262
100
AcDbXrecord
340
0
  0
XRECORD
  5
272
102
{ACAD_REACTORS
330
262
102
}
330
262
100
AcDbXrecord
 70
     0
  0
XRECORD
  5
266
102
{ACAD_REACTORS
330
262
102
}
330
262
100
AcDbXrecord
  1

  0
XRECORD
  5
263
102
{ACAD_REACTORS
330
262
102
}
330
262
100
AcDbXrecord
 90
        1
  0
XRECORD
  5
264
102
{ACAD_REACTORS
330
262
102
}
330
262
100
AcDbXrecord
 90
       70
  0
XRECORD
  5
27C
102
{ACAD_REACTORS
330
262
102
}
330
262
100
AcDbXrecord
340
0
  0
XRECORD
  5
282
102
{ACAD_REACTORS
330
262
102
}
330
262
100
AcDbXrecord
 10
0.0
 20
0.0
 30
0.0
  0
XRECORD
  5
27E
102
{ACAD_REACTORS
330
262
102
}
330
262
100
AcDbXrecord
 10
0.0
 20
0.0
 30
0.0
  0
XRECORD
  5
281
102
{ACAD_REACTORS
330
262
102
}
330
262
100
AcDbXrecord
 10
0.0
 20
0.0
 30
0.0
  0
XRECORD
  5
27F
102
{ACAD_REACTORS
330
262
102
}
330
262
100
AcDbXrecord
 10
0.0
 20
0.0
 30
0.0
  0
XRECORD
  5
280
102
{ACAD_REACTORS
330
262
102
}
330
262
100
AcDbXrecord
 10
0.0
 20
0.0
 30
0.0
  0
XRECORD
  5
27D
102
{ACAD_REACTORS
330
262
102
}
330
262
100
AcDbXrecord
 10
0.0
 20
0.0
 30
0.0
  0
XRECORD
  5
27A
102
{ACAD_REACTORS
330
262
102
}
330
262
100
AcDbXrecord
340
0
  0
XRECORD
  5
27B
102
{ACAD_REACTORS
330
262
102
}
330
262
100
AcDbXrecord
 70
     0
  0
XRECORD
  5
26E
102
{ACAD_REACTORS
330
262
102
}
330
262
100
AcDbXrecord
  1
{782F6B75-8658-49D8-AE9C-AFB047F42C3B}
  0
DICTIONARYVAR
  5
13D
102
{ACAD_REACTORS
330
13B
102
}
330
13B
100
DictionaryVariables
280
     0
  1
2
  0
DICTIONARYVAR
  5
13C
102
{ACAD_REACTORS
330
13B
102
}
330
13B
100
DictionaryVariables
280
     0
  1
1
  0
ENDSEC
  0
EOF
