  0
SECTION
  2
HEADER
  9
$ACADVER
  1
AC1015
  9
$ACADMAINTVER
 70
    20
  9
$DWGCODEPAGE
  3
ANSI_1252
  9
$INSBASE
 10
0.0
 20
0.0
 30
0.0
  9
$EXTMIN
 10
-660.8452785915797
 20
-4175.992212386339
 30
0.0
  9
$EXTMAX
 10
903.2135806679518
 20
700.9827080620659
 30
0.0
  9
$LIMMIN
 10
-661.5949313693576
 20
-479.9858615451388
  9
$LIMMAX
 10
910.8143446180553
 20
710.7557549370659
  9
$ORTHOMODE
 70
     0
  9
$REGENMODE
 70
     1
  9
$FILLMODE
 70
     1
  9
$QTEXTMODE
 70
     0
  9
$MIRRTEXT
 70
     1
  9
$LTSCALE
 40
1.0
  9
$ATTMODE
 70
     1
  9
$TEXTSIZE
 40
0.0
  9
$TRACEWID
 40
0.05
  9
$TEXTSTYLE
  7
Standard
  9
$CLAYER
  8
0
  9
$CELTYPE
  6
Continuous
  9
$CECOLOR
 62
   256
  9
$CELTSCALE
 40
1.0
  9
$DISPSILH
 70
     0
  9
$DIMSCALE
 40
1.0
  9
$DIMASZ
 40
0.18
  9
$DIMEXO
 40
0.0625
  9
$DIMDLI
 40
0.38
  9
$DIMRND
 40
0.0
  9
$DIMDLE
 40
0.0
  9
$DIMEXE
 40
0.18
  9
$DIMTP
 40
0.0
  9
$DIMTM
 40
0.0
  9
$DIMTXT
 40
0.18
  9
$DIMCEN
 40
0.09
  9
$DIMTSZ
 40
0.0
  9
$DIMTOL
 70
     0
  9
$DIMLIM
 70
     0
  9
$DIMTIH
 70
     1
  9
$DIMTOH
 70
     1
  9
$DIMSE1
 70
     0
  9
$DIMSE2
 70
     0
  9
$DIMTAD
 70
     0
  9
$DIMZIN
 70
     0
  9
$DIMBLK
  1

  9
$DIMASO
 70
     1
  9
$DIMSHO
 70
     1
  9
$DIMPOST
  1

  9
$DIMAPOST
  1

  9
$DIMALT
 70
     0
  9
$DIMALTD
 70
     2
  9
$DIMALTF
 40
25.4
  9
$DIMLFAC
 40
1.0
  9
$DIMTOFL
 70
     0
  9
$DIMTVP
 40
0.0
  9
$DIMTIX
 70
     0
  9
$DIMSOXD
 70
     0
  9
$DIMSAH
 70
     0
  9
$DIMBLK1
  1

  9
$DIMBLK2
  1

  9
$DIMSTYLE
  2
Standard
  9
$DIMCLRD
 70
     0
  9
$DIMCLRE
 70
     0
  9
$DIMCLRT
 70
     0
  9
$DIMTFAC
 40
1.0
  9
$DIMGAP
 40
0.09
  9
$DIMJUST
 70
     0
  9
$DIMSD1
 70
     0
  9
$DIMSD2
 70
     0
  9
$DIMTOLJ
 70
     1
  9
$DIMTZIN
 70
     0
  9
$DIMALTZ
 70
     0
  9
$DIMALTTZ
 70
     0
  9
$DIMUPT
 70
     0
  9
$DIMDEC
 70
     4
  9
$DIMTDEC
 70
     4
  9
$DIMALTU
 70
     2
  9
$DIMALTTD
 70
     2
  9
$DIMTXSTY
  7
Standard
  9
$DIMAUNIT
 70
     0
  9
$DIMADEC
 70
     0
  9
$DIMALTRND
 40
0.0
  9
$DIMAZIN
 70
     0
  9
$DIMDSEP
 70
     0
  9
$DIMATFIT
 70
     3
  9
$DIMFRAC
 70
     0
  9
$DIMLDRBLK
  1

  9
$DIMLUNIT
 70
     2
  9
$DIMLWD
 70
     0
  9
$DIMLWE
 70
     0
  9
$DIMTMOVE
 70
     0
  9
$LUNITS
 70
     2
  9
$LUPREC
 70
     4
  9
$SKETCHINC
 40
0.1
  9
$FILLETRAD
 40
0.0
  9
$AUNITS
 70
     0
  9
$AUPREC
 70
     0
  9
$MENU
  1
acad
  9
$ELEVATION
 40
0.0
  9
$PELEVATION
 40
0.0
  9
$THICKNESS
 40
0.0
  9
$LIMCHECK
 70
     0
  9
$CHAMFERA
 40
0.0
  9
$CHAMFERB
 40
0.0
  9
$CHAMFERC
 40
0.0
  9
$CHAMFERD
 40
0.0
  9
$SKPOLY
 70
     0
  9
$TDCREATE
 40
2453947.922205255
  9
$TDUCREATE
 40
2453948.088871921
  9
$TDUPDATE
 40
2453947.931280232
  9
$TDUUPDATE
 40
2453948.097946898
  9
$TDINDWG
 40
0.0091595833
  9
$TDUSRTIMER
 40
0.0091595833
  9
$USRTIMER
 70
     1
  9
$ANGBASE
 50
0.0
  9
$ANGDIR
 70
     0
  9
$PDMODE
 70
     0
  9
$PDSIZE
 40
0.0
  9
$PLINEWID
 40
0.0
  9
$SPLFRAME
 70
     0
  9
$SPLINETYPE
 70
     6
  9
$SPLINESEGS
 70
     8
  9
$HANDSEED
  5
1C1
  9
$SURFTAB1
 70
     6
  9
$SURFTAB2
 70
     6
  9
$SURFTYPE
 70
     6
  9
$SURFU
 70
     6
  9
$SURFV
 70
     6
  9
$UCSBASE
  2

  9
$UCSNAME
  2

  9
$UCSORG
 10
0.0
 20
0.0
 30
0.0
  9
$UCSXDIR
 10
1.0
 20
0.0
 30
0.0
  9
$UCSYDIR
 10
0.0
 20
1.0
 30
0.0
  9
$UCSORTHOREF
  2

  9
$UCSORTHOVIEW
 70
     0
  9
$UCSORGTOP
 10
0.0
 20
0.0
 30
0.0
  9
$UCSORGBOTTOM
 10
0.0
 20
0.0
 30
0.0
  9
$UCSORGLEFT
 10
0.0
 20
0.0
 30
0.0
  9
$UCSORGRIGHT
 10
0.0
 20
0.0
 30
0.0
  9
$UCSORGFRONT
 10
0.0
 20
0.0
 30
0.0
  9
$UCSORGBACK
 10
0.0
 20
0.0
 30
0.0
  9
$PUCSBASE
  2

  9
$PUCSNAME
  2

  9
$PUCSORG
 10
0.0
 20
0.0
 30
0.0
  9
$PUCSXDIR
 10
1.0
 20
0.0
 30
0.0
  9
$PUCSYDIR
 10
0.0
 20
1.0
 30
0.0
  9
$PUCSORTHOREF
  2

  9
$PUCSORTHOVIEW
 70
     0
  9
$PUCSORGTOP
 10
0.0
 20
0.0
 30
0.0
  9
$PUCSORGBOTTOM
 10
0.0
 20
0.0
 30
0.0
  9
$PUCSORGLEFT
 10
0.0
 20
0.0
 30
0.0
  9
$PUCSORGRIGHT
 10
0.0
 20
0.0
 30
0.0
  9
$PUCSORGFRONT
 10
0.0
 20
0.0
 30
0.0
  9
$PUCSORGBACK
 10
0.0
 20
0.0
 30
0.0
  9
$USERI1
 70
     0
  9
$USERI2
 70
     0
  9
$USERI3
 70
     0
  9
$USERI4
 70
     0
  9
$USERI5
 70
     0
  9
$USERR1
 40
0.0
  9
$USERR2
 40
0.0
  9
$USERR3
 40
0.0
  9
$USERR4
 40
0.0
  9
$USERR5
 40
0.0
  9
$WORLDVIEW
 70
     1
  9
$SHADEDGE
 70
     3
  9
$SHADEDIF
 70
    70
  9
$TILEMODE
 70
     1
  9
$MAXACTVP
 70
    16
  9
$PINSBASE
 10
0.0
 20
0.0
 30
0.0
  9
$PLIMCHECK
 70
     0
  9
$PEXTMIN
 10
1.000000000000000E+20
 20
1.000000000000000E+20
 30
1.000000000000000E+20
  9
$PEXTMAX
 10
-1.000000000000000E+20
 20
-1.000000000000000E+20
 30
-1.000000000000000E+20
  9
$PLIMMIN
 10
0.0
 20
0.0
  9
$PLIMMAX
 10
12.0
 20
9.0
  9
$UNITMODE
 70
     0
  9
$VISRETAIN
 70
     0
  9
$PLINEGEN
 70
     1
  9
$PSLTSCALE
 70
     0
  9
$TREEDEPTH
 70
  3020
  9
$CMLSTYLE
  2
Standard
  9
$CMLJUST
 70
     0
  9
$CMLSCALE
 40
1.0
  9
$PROXYGRAPHICS
 70
     0
  9
$MEASUREMENT
 70
     1
  9
$CELWEIGHT
370
     0
  9
$ENDCAPS
280
     0
  9
$JOINSTYLE
280
     0
  9
$LWDISPLAY
290
     0
  9
$INSUNITS
 70
     0
  9
$HYPERLINKBASE
  1

  9
$STYLESHEET
  1

  9
$XEDIT
290
     1
  9
$CEPSNTYPE
380
     0
  9
$PSTYLEMODE
290
     1
  9
$FINGERPRINTGUID
  2

  9
$VERSIONGUID
  2
{9A568F6E-E187-4E3F-8CDD-4C2E993DA7DC}
  9
$EXTNAMES
290
     1
  9
$PSVPSCALE
 40
0.0
  9
$OLESTARTUP
290
     0
  0
ENDSEC
  0
SECTION
  2
CLASSES
  0
CLASS
  1
IMAGE
  2
AcDbRasterImage
  3
ISM
 90
    34943
280
     0
281
     1
  0
CLASS
  1
DICTIONARYVAR
  2
AcDbDictionaryVar
  3
ObjectDBX Classes
 90
        0
280
     0
281
     0
  0
CLASS
  1
RASTERVARIABLES
  2
AcDbRasterVariables
  3
ISM
 90
    32768
280
     0
281
     0
  0
CLASS
  1
IMAGEDEF
  2
AcDbRasterImageDef
  3
ISM
 90
    32768
280
     0
281
     0
  0
CLASS
  1
IMAGEDEF_REACTOR
  2
AcDbRasterImageDefReactor
  3
ISM
 90
    32769
280
     0
281
     0
  0
CLASS
  1
IDBUFFER
  2
AcDbIdBuffer
  3
ObjectDBX Classes
 90
    32768
280
     0
281
     0
  0
CLASS
  1
SPATIAL_FILTER
  2
AcDbSpatialFilter
  3
ObjectDBX Classes
 90
    32768
280
     0
281
     0
  0
CLASS
  1
SORTENTSTABLE
  2
AcDbSortentsTable
  3
ObjectDBX Classes
 90
    32768
280
     0
281
     0
  0
CLASS
  1
LAYER_INDEX
  2
AcDbLayerIndex
  3
ObjectDBX Classes
 90
    32768
280
     0
281
     0
  0
CLASS
  1
SPATIAL_INDEX
  2
AcDbSpatialIndex
  3
ObjectDBX Classes
 90
    32768
280
     0
281
     0
  0
CLASS
  1
OBJECT_PTR
  2
CAseDLPNTableRecord
  3
"ASE-LPNTableRecord"
 90
    32769
280
     0
281
     0
  0
CLASS
  1
LAYOUT
  2
AcDbLayout
  3
ObjectDBX Classes
 90
        0
280
     0
281
     0
  0
CLASS
  1
PLOTSETTINGS
  2
AcDbPlotSettings
  3
ObjectDBX Classes
 90
    32768
280
     0
281
     0
  0
CLASS
  1
ACDBDICTIONARYWDFLT
  2
AcDbDictionaryWithDefault
  3
ObjectDBX Classes
 90
        0
280
     0
281
     0
  0
CLASS
  1
ACDBPLACEHOLDER
  2
AcDbPlaceHolder
  3
ObjectDBX Classes
 90
        0
280
     0
281
     0
  0
CLASS
  1
VBA_PROJECT
  2
AcDbVbaProject
  3
acad
 90
    32768
280
     0
281
     0
  0
CLASS
  1
WIPEOUT
  2
AcDbWipeout
  3
"WipeOut|Product Desc: Object Enabler for WipeOut entity                        |Company: Autodesk, Inc.                        |WEB Address: www.autodesk.com"
 90
    34943
280
     0
281
     1
  0
CLASS
  1
WIPEOUTVARIABLES
  2
AcDbWipeoutVariables
  3
"WipeOut|Product Desc:     WipeOut Dbx Application|Company:          Autodesk, Inc.|WEB Address:      www.autodesk.com"
 90
        0
280
     0
281
     0
  0
CLASS
  1
RTEXT
  2
RText
  3
RText|AutoCAD Express Tool|expresstools@autodesk.com
 90
    32768
280
     0
281
     1
  0
CLASS
  1
ARCALIGNEDTEXT
  2
AcDbArcAlignedText
  3
ATEXT|AutoCAD Express Tool|expresstools@autodesk.com
 90
    32768
280
     0
281
     1
  0
CLASS
  1
MATERIAL
  2
AcDbMaterial
  3
ObjectDBX Classes
 90
     1024
280
     0
281
     0
  0
CLASS
  1
VISUALSTYLE
  2
AcDbVisualStyle
  3
ObjectDBX Classes
 90
     4095
280
     0
281
     0
  0
CLASS
  1
TABLESTYLE
  2
AcDbTableStyle
  3
ObjectDBX Classes
 90
     4095
280
     0
281
     0
  0
CLASS
  1
ACAD_EVALUATION_GRAPH
  2
AcDbEvalGraph
  3
ObjectDBX Classes
 90
     1153
280
     0
281
     0
  0
CLASS
  1
ACAECUSTOBJ
  2
AcAeEditorObj
  3
AcAeEditorObj
 90
     1024
280
     0
281
     0
  0
CLASS
  1
ACDB_DYNAMICBLOCKPURGEPREVENTER_VERSION
  2
AcDbDynamicBlockPurgePreventer
  3
ObjectDBX Classes
 90
     1153
280
     0
281
     0
  0
ENDSEC
  0
SECTION
  2
TABLES
  0
TABLE
  2
VPORT
  5
7
330
0
100
AcDbSymbolTable
 70
     1
  0
VPORT
  5
15
330
7
100
AcDbSymbolTableRecord
100
AcDbViewportTableRecord
  2
*ACTIVE
 70
     0
 10
0.0
 20
0.0
 11
1.0
 21
1.0
 12
-190.7724753346183
 22
64.44386102289231
 13
0.0
 23
0.0
 14
1.0
 24
1.0
 15
0.0
 25
0.0
 16
0.0
 26
0.0
 36
1.0
 17
0.0
 27
0.0
 37
0.0
 40
67.21995124472804
 41
2.023012552301255
 42
50.0
 43
0.0
 44
0.0
 50
0.0
 51
0.0
 71
     0
 72
   100
 73
     1
 74
     1
 75
     0
 76
     0
 77
     0
 78
     0
281
     0
 65
     0
110
0.0
120
0.0
130
0.0
111
1.0
121
0.0
131
0.0
112
0.0
122
1.0
132
0.0
 79
     0
146
0.0
  0
ENDTAB
  0
TABLE
  2
LTYPE
  5
4
330
0
100
AcDbSymbolTable
 70
     1
  0
LTYPE
  5
11
330
4
100
AcDbSymbolTableRecord
100
AcDbLinetypeTableRecord
  2
ByBlock
 70
     0
  3

 72
    65
 73
     0
 40
0.0
  0
LTYPE
  5
12
330
4
100
AcDbSymbolTableRecord
100
AcDbLinetypeTableRecord
  2
ByLayer
 70
     0
  3

 72
    65
 73
     0
 40
0.0
  0
LTYPE
  5
13
330
4
100
AcDbSymbolTableRecord
100
AcDbLinetypeTableRecord
  2
Continuous
 70
     0
  3
Solid line
 72
    65
 73
     0
 40
0.0
  0
ENDTAB
  0
TABLE
  2
LAYER
  5
2
330
0
100
AcDbSymbolTable
 70
     6
  0
LAYER
  5
14
330
2
100
AcDbSymbolTableRecord
100
AcDbLayerTableRecord
  2
0
 70
     0
 62
     7
  6
Continuous
370
    -3
390
1D
  0
LAYER
  5
28
330
2
100
AcDbSymbolTableRecord
100
AcDbLayerTableRecord
  2
LAYER_2
 70
     0
 62
     1
  6
Continuous
370
    -3
390
1D
  0
LAYER
  5
CD
330
2
100
AcDbSymbolTableRecord
100
AcDbLayerTableRecord
  2
LAYER_1
 70
     0
 62
   160
  6
Continuous
370
    -3
390
1D
  0
LAYER
  5
10D
330
2
100
AcDbSymbolTableRecord
100
AcDbLayerTableRecord
  2
ADPDIM
 70
     0
 62
     3
  6
Continuous
370
    -3
390
1D
  0
LAYER
  5
10E
330
2
100
AcDbSymbolTableRecord
100
AcDbLayerTableRecord
  2
ADP1DETAIL
 70
     0
 62
     7
  6
Continuous
370
    -3
390
1D
  0
LAYER
  5
10F
330
2
100
AcDbSymbolTableRecord
100
AcDbLayerTableRecord
  2
DEFPOINTS
 70
     0
 62
     7
  6
Continuous
290
     0
370
    -3
390
1D
  0
ENDTAB
  0
TABLE
  2
STYLE
  5
3
330
0
100
AcDbSymbolTable
 70
     6
  0
STYLE
  5
17
330
3
100
AcDbSymbolTableRecord
100
AcDbTextStyleTableRecord
  2
Standard
 70
     0
 40
0.0
 41
1.0
 50
0.0
 71
     0
 42
0.0
  3
txt
  4

  0
STYLE
  5
24
330
3
100
AcDbSymbolTableRecord
100
AcDbTextStyleTableRecord
  2
STD
 70
     0
 40
0.0
 41
1.0
 50
0.0
 71
     0
 42
0.0
  3
txt
  4

  0
STYLE
  5
25
330
3
100
AcDbSymbolTableRecord
100
AcDbTextStyleTableRecord
  2
TATESTD
 70
     4
 40
0.0
 41
1.0
 50
0.0
 71
     0
 42
0.0
  3
txt
  4

  0
STYLE
  5
26
330
3
100
AcDbSymbolTableRecord
100
AcDbTextStyleTableRecord
  2
KANJISTD
 70
     0
 40
0.0
 41
1.0
 50
0.0
 71
     0
 42
0.0
  3
txt
  4
extfont
  0
STYLE
  5
27
330
3
100
AcDbSymbolTableRecord
100
AcDbTextStyleTableRecord
  2
KANJITATE
 70
     4
 40
0.0
 41
1.0
 50
0.0
 71
     0
 42
0.0
  3
txt
  4
extfont
  0
STYLE
  5
110
330
3
100
AcDbSymbolTableRecord
100
AcDbTextStyleTableRecord
  2
ARIAL_WIDE
 70
     0
 40
0.0
 41
1.25
 50
0.0
 71
     0
 42
0.2
  3
ARIAL.TTF
  4

1001
ACAD
1000
Arial
1071
       34
  0
ENDTAB
  0
TABLE
  2
VIEW
  5
5
330
0
100
AcDbSymbolTable
 70
     0
  0
ENDTAB
  0
TABLE
  2
UCS
  5
6
330
0
100
AcDbSymbolTable
 70
     0
  0
ENDTAB
  0
TABLE
  2
APPID
  5
8
330
0
100
AcDbSymbolTable
 70
     5
  0
APPID
  5
16
330
8
100
AcDbSymbolTableRecord
100
AcDbRegAppTableRecord
  2
ACAD
 70
     0
  0
APPID
  5
F8
330
8
100
AcDbSymbolTableRecord
100
AcDbRegAppTableRecord
  2
ACAUTHENVIRON
 70
     0
  0
APPID
  5
FC
330
8
100
AcDbSymbolTableRecord
100
AcDbRegAppTableRecord
  2
AcDbDynamicBlockTrueName
 70
     0
  0
APPID
  5
FD
330
8
100
AcDbSymbolTableRecord
100
AcDbRegAppTableRecord
  2
AcDbDynamicBlockGUID
 70
     0
  0
APPID
  5
FF
330
8
100
AcDbSymbolTableRecord
100
AcDbRegAppTableRecord
  2
AcDbBlockRepETag
 70
     0
  0
ENDTAB
  0
TABLE
  2
DIMSTYLE
  5
9
330
0
100
AcDbSymbolTable
 70
     1
100
AcDbDimStyleTable
 71
     1
340
18
  0
DIMSTYLE
105
18
102
{ACAD_REACTORS
330
119
330
134
102
}
330
9
100
AcDbSymbolTableRecord
100
AcDbDimStyleTableRecord
  2
Standard
 70
     0
289
     0
340
17
  0
ENDTAB
  0
TABLE
  2
BLOCK_RECORD
  5
1
330
0
100
AcDbSymbolTable
 70
    17
  0
BLOCK_RECORD
  5
A
330
1
100
AcDbSymbolTableRecord
100
AcDbBlockTableRecord
  2
*MODEL_SPACE
340
20
  0
BLOCK_RECORD
  5
B
330
1
100
AcDbSymbolTableRecord
100
AcDbBlockTableRecord
  2
*PAPER_SPACE
340
21
  0
BLOCK_RECORD
  5
29
330
1
100
AcDbSymbolTableRecord
100
AcDbBlockTableRecord
  2
AI9-BLK1
340
0
  0
BLOCK_RECORD
  5
69
102
{ACAD_XDICTIONARY
360
F9
102
}
330
1
100
AcDbSymbolTableRecord
100
AcDbBlockTableRecord
  2
AI9-BLK2
340
0
102
{BLKREFS
331
6A
102
}
1001
AcDbDynamicBlockGUID
1000
{643CBE29-7B89-4367-BB1E-B69E2D71006E}
1001
AcDbBlockRepETag
1070
     1
1071
        1
  0
BLOCK_RECORD
  5
6C
330
1
100
AcDbSymbolTableRecord
100
AcDbBlockTableRecord
  2
AI9-BLK3
340
0
102
{BLKREFS
331
6D
102
}
  0
BLOCK_RECORD
  5
6F
330
1
100
AcDbSymbolTableRecord
100
AcDbBlockTableRecord
  2
AI9-BLK4
340
0
102
{BLKREFS
331
70
102
}
  0
BLOCK_RECORD
  5
82
330
1
100
AcDbSymbolTableRecord
100
AcDbBlockTableRecord
  2
AI9-BLK5
340
0
102
{BLKREFS
331
83
102
}
  0
BLOCK_RECORD
  5
85
330
1
100
AcDbSymbolTableRecord
100
AcDbBlockTableRecord
  2
AI9-BLK6
340
0
102
{BLKREFS
331
86
102
}
  0
BLOCK_RECORD
  5
8D
330
1
100
AcDbSymbolTableRecord
100
AcDbBlockTableRecord
  2
AI9-BLK7
340
0
102
{BLKREFS
331
8E
331
ED
102
}
  0
BLOCK_RECORD
  5
90
330
1
100
AcDbSymbolTableRecord
100
AcDbBlockTableRecord
  2
AI9-BLK8
340
0
102
{BLKREFS
331
91
102
}
  0
BLOCK_RECORD
  5
93
330
1
100
AcDbSymbolTableRecord
100
AcDbBlockTableRecord
  2
AI9-BLK9
340
0
102
{BLKREFS
331
94
102
}
  0
BLOCK_RECORD
  5
9A
330
1
100
AcDbSymbolTableRecord
100
AcDbBlockTableRecord
  2
AI9-BLK10
340
0
102
{BLKREFS
331
9B
102
}
  0
BLOCK_RECORD
  5
A1
330
1
100
AcDbSymbolTableRecord
100
AcDbBlockTableRecord
  2
AI9-BLK11
340
0
102
{BLKREFS
331
A2
102
}
  0
BLOCK_RECORD
  5
C1
330
1
100
AcDbSymbolTableRecord
100
AcDbBlockTableRecord
  2
AI9-BLK12
340
0
102
{BLKREFS
331
C2
102
}
  0
BLOCK_RECORD
  5
100
330
1
100
AcDbSymbolTableRecord
100
AcDbBlockTableRecord
  2
*D13
340
0
  0
BLOCK_RECORD
  5
11B
330
1
100
AcDbSymbolTableRecord
100
AcDbBlockTableRecord
  2
*D15
340
0
  0
BLOCK_RECORD
  5
135
330
1
100
AcDbSymbolTableRecord
100
AcDbBlockTableRecord
  2
*D16
340
0
  0
ENDTAB
  0
ENDSEC
  0
SECTION
  2
BLOCKS
  0
BLOCK
  5
D
330
A
100
AcDbEntity
  8
0
100
AcDbBlockBegin
  2
*MODEL_SPACE
 70
     0
 10
0.0
 20
0.0
 30
0.0
  3
*MODEL_SPACE
  1

  0
ENDBLK
  5
E
330
A
100
AcDbEntity
  8
0
100
AcDbBlockEnd
  0
BLOCK
  5
F
330
B
100
AcDbEntity
 67
     1
  8
0
100
AcDbBlockBegin
  2
*PAPER_SPACE
 70
     0
 10
0.0
 20
0.0
 30
0.0
  3
*PAPER_SPACE
  1

  0
ENDBLK
  5
10
330
B
100
AcDbEntity
 67
     1
  8
0
100
AcDbBlockEnd
  0
BLOCK
  5
2B
330
29
100
AcDbEntity
  8
LAYER_2
 62
     7
100
AcDbBlockBegin
  2
AI9-BLK1
 70
     0
 10
0.0
 20
0.0
 30
0.0
  3
AI9-BLK1
  1

  0
HATCH
  5
67
330
29
100
AcDbEntity
  8
LAYER_2
 62
     3
100
AcDbHatch
 10
0.0
 20
0.0
 30
0.0
210
0.0
220
0.0
230
1.0
  2
SOLID
 70
     1
 71
     0
 91
        1
 92
        1
 93
        1
 72
     4
 94
        3
 73
     0
 74
     0
 95
       47
 96
       43
 40
0.0
 40
0.0
 40
0.0
 40
0.0
 40
1.0
 40
1.0
 40
1.0
 40
2.0
 40
2.0
 40
2.0
 40
3.0
 40
3.0
 40
3.0
 40
4.0
 40
4.0
 40
4.0
 40
5.0
 40
5.0
 40
5.0
 40
6.0
 40
6.0
 40
6.0
 40
7.0
 40
7.0
 40
7.0
 40
8.0
 40
8.0
 40
8.0
 40
9.0
 40
9.0
 40
9.0
 40
10.0
 40
10.0
 40
10.0
 40
11.0
 40
11.0
 40
11.0
 40
12.0
 40
12.0
 40
12.0
 40
13.0
 40
13.0
 40
13.0
 40
14.0
 40
14.0
 40
14.0
 40
14.0
 10
-782.0285793728297
 20
-1.198204210069444
 10
-782.0285793728297
 20
-1.198204210069444
 10
-779.7355238172742
 20
-0.9480902777777776
 10
-779.7355238172742
 20
-0.9480902777777776
 10
-779.6748901367187
 20
-2.115288628472221
 10
-779.3992824978297
 20
-2.914550781249999
 10
-778.9093899197048
 20
-3.345187717013888
 10
-778.4194973415798
 20
-3.775824652777777
 10
-777.7415025499131
 20
-3.99079861111111
 10
-776.8760945638019
 20
-3.99079861111111
 10
-776.2380628797743
 20
-3.99079861111111
 10
-775.6868476019964
 20
-3.874354383680555
 10
-775.2231377495659
 20
-3.641465928819444
 10
-774.7601169162326
 20
-3.408577473958333
 10
-774.4404120551214
 20
-3.09162868923611
 10
-774.265401204427
 20
-2.691308593749999
 10
-774.0903903537326
 20
-2.29167751736111
 10
-774.0028849283853
 20
-1.652956814236111
 10
-774.0028849283853
 20
-0.7758355034722222
 10
-774.0028849283853
 20
-0.7758355034722222
 10
-774.0028849283853
 20
9.767534722222221
 10
-774.0028849283853
 20
9.767534722222221
 10
-774.0028849283853
 20
9.767534722222221
 10
-771.4893432617186
 20
9.767534722222221
 10
-771.4893432617186
 20
9.767534722222221
 10
-771.4893432617186
 20
9.767534722222221
 10
-771.4893432617186
 20
-0.6621473524305555
 10
-771.4893432617186
 20
-0.6621473524305555
 10
-771.4893432617186
 20
-1.943033854166666
 10
-771.6836466471353
 20
-2.935221354166666
 10
-772.0715643988715
 20
-3.638020833333333
 10
-772.4594821506075
 20
-4.3408203125
 10
-773.0740871853297
 20
-4.876877170138888
 10
-773.9153795030381
 20
-5.245502387152777
 10
-774.7566718207464
 20
-5.614127604166665
 10
-775.7440361870659
 20
-5.798784722222221
 10
-776.8767835828992
 20
-5.798784722222221
 10
-778.5593682183158
 20
-5.798784722222221
 10
-779.8471449110242
 20
-5.412934027777777
 10
-780.7401136610242
 20
-4.641232638888888
 10
-781.6337714301214
 20
-3.869531249999999
 10
-782.0630303276908
 20
-2.721625434027777
 10
-782.0285793728297
 20
-1.198204210069444
 97
        0
 75
     2
 76
     1
 98
        1
 10
0.0
 20
0.0
  0
HATCH
  5
66
330
29
100
AcDbEntity
  8
LAYER_2
 62
     3
100
AcDbHatch
 10
0.0
 20
0.0
 30
0.0
210
0.0
220
0.0
230
1.0
  2
SOLID
 70
     1
 71
     0
 91
        1
 92
        1
 93
        1
 72
     4
 94
        3
 73
     0
 74
     0
 95
       56
 96
       52
 40
0.0
 40
0.0
 40
0.0
 40
0.0
 40
1.0
 40
1.0
 40
1.0
 40
2.0
 40
2.0
 40
2.0
 40
3.0
 40
3.0
 40
3.0
 40
4.0
 40
4.0
 40
4.0
 40
5.0
 40
5.0
 40
5.0
 40
6.0
 40
6.0
 40
6.0
 40
7.0
 40
7.0
 40
7.0
 40
8.0
 40
8.0
 40
8.0
 40
9.0
 40
9.0
 40
9.0
 40
10.0
 40
10.0
 40
10.0
 40
11.0
 40
11.0
 40
11.0
 40
12.0
 40
12.0
 40
12.0
 40
13.0
 40
13.0
 40
13.0
 40
14.0
 40
14.0
 40
14.0
 40
15.0
 40
15.0
 40
15.0
 40
16.0
 40
16.0
 40
16.0
 40
17.0
 40
17.0
 40
17.0
 40
17.0
 10
-747.4372368706596
 20
9.767534722222221
 10
-747.4372368706596
 20
9.767534722222221
 10
-744.923695203993
 20
9.767534722222221
 10
-744.923695203993
 20
9.767534722222221
 10
-744.923695203993
 20
9.767534722222221
 10
-744.923695203993
 20
0.9246636284722221
 10
-744.923695203993
 20
0.9246636284722221
 10
-744.923695203993
 20
-0.613916015625
 10
-745.1400472005206
 20
-1.835546875
 10
-745.5720621744791
 20
-2.740228949652777
 10
-746.0047661675346
 20
-3.644911024305555
 10
-746.7847357855902
 20
-4.380783420138888
 10
-747.9126600477429
 20
-4.947846137152777
 10
-749.0405843098957
 20
-5.515597873263888
 10
-750.520597330729
 20
-5.798784722222221
 10
-752.3526991102429
 20
-5.798784722222221
 10
-754.1331244574652
 20
-5.798784722222221
 10
-755.589710828993
 20
-5.551426866319443
 10
-756.721769205729
 20
-5.05740017361111
 10
-757.8545166015624
 20
-4.563373480902777
 10
-758.662736002604
 20
-3.84817165798611
 10
-759.1464274088541
 20
-2.91179470486111
 10
-759.6308078342012
 20
-1.976106770833333
 10
-759.8726535373263
 20
-0.6972873263888888
 10
-759.8726535373263
 20
0.9246636284722221
 10
-759.8726535373263
 20
0.9246636284722221
 10
-759.8726535373263
 20
9.767534722222221
 10
-759.8726535373263
 20
9.767534722222221
 10
-759.8726535373263
 20
9.767534722222221
 10
-757.3591118706596
 20
9.767534722222221
 10
-757.3591118706596
 20
9.767534722222221
 10
-757.3591118706596
 20
9.767534722222221
 10
-757.3591118706596
 20
0.97978515625
 10
-757.3591118706596
 20
0.97978515625
 10
-757.3591118706596
 20
-0.3431315104166666
 10
-757.2061496310762
 20
-1.31809353298611
 10
-756.8988471137152
 20
-1.945100911458333
 10
-756.5922336154512
 20
-2.572108289930555
 10
-756.0651340060762
 20
-3.055110677083332
 10
-755.3168592664929
 20
-3.394108072916666
 10
-754.5685845269096
 20
-3.733105468749999
 10
-753.6542561848957
 20
-3.902604166666666
 10
-752.5731852213541
 20
-3.902604166666666
 10
-750.7231689453123
 20
-3.902604166666666
 10
-749.404386393229
 20
-3.567051866319443
 10
-748.6175265842013
 20
-2.895258246527777
 10
-747.8306667751735
 20
-2.22346462673611
 10
-747.4372368706596
 20
-0.9315538194444442
 10
-747.4372368706596
 20
0.97978515625
 10
-747.4372368706596
 20
0.97978515625
 10
-747.4372368706596
 20
9.767534722222221
 10
-747.4372368706596
 20
9.767534722222221
 97
        0
 75
     2
 76
     1
 98
        1
 10
0.0
 20
0.0
  0
HATCH
  5
65
330
29
100
AcDbEntity
  8
LAYER_2
 62
     3
100
AcDbHatch
 10
0.0
 20
0.0
 30
0.0
210
0.0
220
0.0
230
1.0
  2
SOLID
 70
     1
 71
     0
 91
        1
 92
        1
 93
        1
 72
     4
 94
        3
 73
     0
 74
     0
 95
       23
 96
       19
 40
0.0
 40
0.0
 40
0.0
 40
0.0
 40
1.0
 40
1.0
 40
1.0
 40
2.0
 40
2.0
 40
2.0
 40
3.0
 40
3.0
 40
3.0
 40
4.0
 40
4.0
 40
4.0
 40
5.0
 40
5.0
 40
5.0
 40
6.0
 40
6.0
 40
6.0
 40
6.0
 10
-733.4231051974825
 20
-5.534201388888888
 10
-733.4231051974825
 20
-5.534201388888888
 10
-733.4231051974825
 20
9.767534722222221
 10
-733.4231051974825
 20
9.767534722222221
 10
-733.4231051974825
 20
9.767534722222221
 10
-730.9095635308159
 20
9.767534722222221
 10
-730.9095635308159
 20
9.767534722222221
 10
-730.9095635308159
 20
9.767534722222221
 10
-730.9095635308159
 20
-3.726215277777777
 10
-730.9095635308159
 20
-3.726215277777777
 10
-730.9095635308159
 20
-3.726215277777777
 10
-721.5168551974825
 20
-3.726215277777777
 10
-721.5168551974825
 20
-3.726215277777777
 10
-721.5168551974825
 20
-3.726215277777777
 10
-721.5168551974825
 20
-5.534201388888888
 10
-721.5168551974825
 20
-5.534201388888888
 10
-721.5168551974825
 20
-5.534201388888888
 10
-733.4231051974825
 20
-5.534201388888888
 10
-733.4231051974825
 20
-5.534201388888888
 97
        0
 75
     2
 76
     1
 98
        1
 10
0.0
 20
0.0
  0
HATCH
  5
64
330
29
100
AcDbEntity
  8
LAYER_2
 62
     3
100
AcDbHatch
 10
0.0
 20
0.0
 30
0.0
210
0.0
220
0.0
230
1.0
  2
SOLID
 70
     1
 71
     0
 91
        1
 92
        1
 93
        1
 72
     4
 94
        3
 73
     0
 74
     0
 95
       17
 96
       13
 40
0.0
 40
0.0
 40
0.0
 40
0.0
 40
1.0
 40
1.0
 40
1.0
 40
2.0
 40
2.0
 40
2.0
 40
3.0
 40
3.0
 40
3.0
 40
4.0
 40
4.0
 40
4.0
 40
4.0
 10
-711.6413167317707
 20
-5.534201388888888
 10
-711.6413167317707
 20
-5.534201388888888
 10
-711.6413167317707
 20
9.767534722222221
 10
-711.6413167317707
 20
9.767534722222221
 10
-711.6413167317707
 20
9.767534722222221
 10
-709.127775065104
 20
9.767534722222221
 10
-709.127775065104
 20
9.767534722222221
 10
-709.127775065104
 20
9.767534722222221
 10
-709.127775065104
 20
-5.534201388888888
 10
-709.127775065104
 20
-5.534201388888888
 10
-709.127775065104
 20
-5.534201388888888
 10
-711.6413167317707
 20
-5.534201388888888
 10
-711.6413167317707
 20
-5.534201388888888
 97
        0
 75
     2
 76
     1
 98
        1
 10
0.0
 20
0.0
  0
HATCH
  5
63
330
29
100
AcDbEntity
  8
LAYER_2
 62
     3
100
AcDbHatch
 10
0.0
 20
0.0
 30
0.0
210
0.0
220
0.0
230
1.0
  2
SOLID
 70
     1
 71
     0
 91
        1
 92
        1
 93
        1
 72
     4
 94
        3
 73
     0
 74
     0
 95
       56
 96
       52
 40
0.0
 40
0.0
 40
0.0
 40
0.0
 40
1.0
 40
1.0
 40
1.0
 40
2.0
 40
2.0
 40
2.0
 40
3.0
 40
3.0
 40
3.0
 40
4.0
 40
4.0
 40
4.0
 40
5.0
 40
5.0
 40
5.0
 40
6.0
 40
6.0
 40
6.0
 40
7.0
 40
7.0
 40
7.0
 40
8.0
 40
8.0
 40
8.0
 40
9.0
 40
9.0
 40
9.0
 40
10.0
 40
10.0
 40
10.0
 40
11.0
 40
11.0
 40
11.0
 40
12.0
 40
12.0
 40
12.0
 40
13.0
 40
13.0
 40
13.0
 40
14.0
 40
14.0
 40
14.0
 40
15.0
 40
15.0
 40
15.0
 40
16.0
 40
16.0
 40
16.0
 40
17.0
 40
17.0
 40
17.0
 40
17.0
 10
-684.6951578776041
 20
9.767534722222221
 10
-684.6951578776041
 20
9.767534722222221
 10
-682.1816162109374
 20
9.767534722222221
 10
-682.1816162109374
 20
9.767534722222221
 10
-682.1816162109374
 20
9.767534722222221
 10
-682.1816162109374
 20
0.9246636284722221
 10
-682.1816162109374
 20
0.9246636284722221
 10
-682.1816162109374
 20
-0.613916015625
 10
-682.3979682074651
 20
-1.835546875
 10
-682.8299831814235
 20
-2.740228949652777
 10
-683.2626871744791
 20
-3.644911024305555
 10
-684.0426567925346
 20
-4.380783420138888
 10
-685.1705810546874
 20
-4.947846137152777
 10
-686.2985053168402
 20
-5.515597873263888
 10
-687.7785183376735
 20
-5.798784722222221
 10
-689.6106201171874
 20
-5.798784722222221
 10
-691.3910454644097
 20
-5.798784722222221
 10
-692.8476318359375
 20
-5.551426866319443
 10
-693.9796902126735
 20
-5.05740017361111
 10
-695.1124376085068
 20
-4.563373480902777
 10
-695.9206570095485
 20
-3.84817165798611
 10
-696.4043484157985
 20
-2.91179470486111
 10
-696.8887288411457
 20
-1.976106770833333
 10
-697.1305745442707
 20
-0.6972873263888888
 10
-697.1305745442707
 20
0.9246636284722221
 10
-697.1305745442707
 20
0.9246636284722221
 10
-697.1305745442707
 20
9.767534722222221
 10
-697.1305745442707
 20
9.767534722222221
 10
-697.1305745442707
 20
9.767534722222221
 10
-694.617032877604
 20
9.767534722222221
 10
-694.617032877604
 20
9.767534722222221
 10
-694.617032877604
 20
9.767534722222221
 10
-694.617032877604
 20
0.97978515625
 10
-694.617032877604
 20
0.97978515625
 10
-694.617032877604
 20
-0.3431315104166666
 10
-694.4640706380207
 20
-1.31809353298611
 10
-694.1567681206596
 20
-1.945100911458333
 10
-693.8501546223957
 20
-2.572108289930555
 10
-693.3230550130207
 20
-3.055110677083332
 10
-692.5747802734374
 20
-3.394108072916666
 10
-691.826505533854
 20
-3.733105468749999
 10
-690.9121771918401
 20
-3.902604166666666
 10
-689.8311062282985
 20
-3.902604166666666
 10
-687.9810899522568
 20
-3.902604166666666
 10
-686.6623074001735
 20
-3.567051866319443
 10
-685.8754475911458
 20
-2.895258246527777
 10
-685.088587782118
 20
-2.22346462673611
 10
-684.6951578776041
 20
-0.9315538194444442
 10
-684.6951578776041
 20
0.97978515625
 10
-684.6951578776041
 20
0.97978515625
 10
-684.6951578776041
 20
9.767534722222221
 10
-684.6951578776041
 20
9.767534722222221
 97
        0
 75
     2
 76
     1
 98
        1
 10
0.0
 20
0.0
  0
HATCH
  5
62
330
29
100
AcDbEntity
  8
LAYER_2
 62
     3
100
AcDbHatch
 10
0.0
 20
0.0
 30
0.0
210
0.0
220
0.0
230
1.0
  2
SOLID
 70
     1
 71
     0
 91
        1
 92
        1
 93
        1
 72
     4
 94
        3
 73
     0
 74
     0
 95
      110
 96
      106
 40
0.0
 40
0.0
 40
0.0
 40
0.0
 40
1.0
 40
1.0
 40
1.0
 40
2.0
 40
2.0
 40
2.0
 40
3.0
 40
3.0
 40
3.0
 40
4.0
 40
4.0
 40
4.0
 40
5.0
 40
5.0
 40
5.0
 40
6.0
 40
6.0
 40
6.0
 40
7.0
 40
7.0
 40
7.0
 40
8.0
 40
8.0
 40
8.0
 40
9.0
 40
9.0
 40
9.0
 40
10.0
 40
10.0
 40
10.0
 40
11.0
 40
11.0
 40
11.0
 40
12.0
 40
12.0
 40
12.0
 40
13.0
 40
13.0
 40
13.0
 40
14.0
 40
14.0
 40
14.0
 40
15.0
 40
15.0
 40
15.0
 40
16.0
 40
16.0
 40
16.0
 40
17.0
 40
17.0
 40
17.0
 40
18.0
 40
18.0
 40
18.0
 40
19.0
 40
19.0
 40
19.0
 40
20.0
 40
20.0
 40
20.0
 40
21.0
 40
21.0
 40
21.0
 40
22.0
 40
22.0
 40
22.0
 40
23.0
 40
23.0
 40
23.0
 40
24.0
 40
24.0
 40
24.0
 40
25.0
 40
25.0
 40
25.0
 40
26.0
 40
26.0
 40
26.0
 40
27.0
 40
27.0
 40
27.0
 40
28.0
 40
28.0
 40
28.0
 40
29.0
 40
29.0
 40
29.0
 40
30.0
 40
30.0
 40
30.0
 40
31.0
 40
31.0
 40
31.0
 40
32.0
 40
32.0
 40
32.0
 40
33.0
 40
33.0
 40
33.0
 40
34.0
 40
34.0
 40
34.0
 40
35.0
 40
35.0
 40
35.0
 40
35.0
 10
-671.3865817599826
 20
-0.6394097222222222
 10
-671.3865817599826
 20
-0.6394097222222222
 10
-669.0053317599826
 20
-0.4630208333333333
 10
-669.0053317599826
 20
-0.4630208333333333
 10
-668.8937106662325
 20
-1.228521050347222
 10
-668.6325724283854
 20
-1.856217447916666
 10
-668.2226060655381
 20
-2.346799045138888
 10
-667.8126397026909
 20
-2.837380642361111
 10
-667.1759860568576
 20
-3.23425564236111
 10
-666.3126451280382
 20
-3.536735026041666
 10
-665.4499932183159
 20
-3.839903428819443
 10
-664.4784762912325
 20
-3.99079861111111
 10
-663.3994723849825
 20
-3.99079861111111
 10
-662.4417358398436
 20
-3.99079861111111
 10
-661.5956203884548
 20
-3.876421440972221
 10
-660.8618150499132
 20
-3.646289062499999
 10
-660.1286987304687
 20
-3.416845703124999
 10
-659.5823065863714
 20
-3.101963975694444
 10
-659.2240166558159
 20
-2.701643880208333
 10
-658.8657267252604
 20
-2.302012803819444
 10
-658.6865817599825
 20
-1.865174696180555
 10
-658.6865817599825
 20
-1.392507595486111
 10
-658.6865817599825
 20
-0.9129503038194442
 10
-658.8622816297742
 20
-0.4947157118055556
 10
-659.2129923502604
 20
-0.13642578125
 10
-659.5643920898436
 20
0.2218641493055555
 10
-660.1369669596354
 20
0.5222764756944444
 10
-660.9320949978298
 20
0.766189236111111
 10
-661.4419691297743
 20
0.9260416666666666
 10
-662.569893391927
 20
1.174088541666666
 10
-664.3151787651909
 20
1.511707899305555
 10
-666.0611531575519
 20
1.848638237847222
 10
-667.2834730360242
 20
2.166965060763888
 10
-667.983516438802
 20
2.467377387152777
 10
-668.8916436089409
 20
2.850472005208333
 10
-669.5682603624131
 20
3.326584201388888
 10
-670.0133666992186
 20
3.895024956597221
 10
-670.4584730360242
 20
4.463465711805555
 10
-670.6810262044269
 20
5.100119357638888
 10
-670.6810262044269
 20
5.804985894097221
 10
-670.6810262044269
 20
6.579443359374999
 10
-670.4088636610243
 20
7.302913411458332
 10
-669.8638495551214
 20
7.976085069444443
 10
-669.3188354492186
 20
8.648567708333333
 10
-668.523018391927
 20
9.159819878472221
 10
-667.4757093641492
 20
9.508463541666666
 10
-666.4290893554687
 20
9.85710720486111
 10
-665.2653361002603
 20
10.03211805555555
 10
-663.9851386176214
 20
10.03211805555555
 10
-662.5754055447048
 20
10.03211805555555
 10
-661.3317260742186
 20
9.848838975694443
 10
-660.2541002061631
 20
9.48228081597222
 10
-659.1771633572047
 20
9.11572265625
 10
-658.3489624023436
 20
8.576220703124999
 10
-657.7688083224825
 20
7.864463975694444
 10
-657.1893432617187
 20
7.152018229166666
 10
-656.8779066297742
 20
6.345865885416666
 10
-656.8344984266492
 20
5.446006944444444
 10
-656.8344984266492
 20
5.446006944444444
 10
-659.2598456488714
 20
5.313715277777776
 10
-659.2598456488714
 20
5.313715277777776
 10
-659.3893812391492
 20
6.27282986111111
 10
-659.8282864040798
 20
6.997677951388888
 10
-660.5758721245658
 20
7.48825954861111
 10
-661.323457845052
 20
7.978841145833333
 10
-662.427266438802
 20
8.224131944444444
 10
-663.8872979058159
 20
8.224131944444444
 10
-665.4086520724826
 20
8.224131944444444
 10
-666.5165947808159
 20
7.999511718749999
 10
-667.2125040690104
 20
7.550960286458332
 10
-667.9084133572048
 20
7.102408854166665
 10
-668.2556789822048
 20
6.561528862847221
 10
-668.2556789822048
 20
5.929009331597221
 10
-668.2556789822048
 20
5.379172092013888
 10
-668.0096991644965
 20
4.92717556423611
 10
-667.5170505099826
 20
4.573019748263888
 10
-667.0333591037326
 20
4.218174913194443
 10
-665.7690090603298
 20
3.855061848958333
 10
-663.7253784179687
 20
3.482991536458333
 10
-661.6817477756076
 20
3.110921223958333
 10
-660.2782158745659
 20
2.785704210069444
 10
-659.5147827148437
 20
2.508029513888888
 10
-658.4040839301215
 20
2.097374131944444
 10
-657.584151204427
 20
1.577853732638888
 10
-657.0549845377603
 20
0.9494683159722221
 10
-656.5258178710936
 20
0.3210828993055555
 10
-656.2612345377604
 20
-0.403076171875
 10
-656.2612345377604
 20
-1.223008897569444
 10
-656.2612345377604
 20
-2.036051432291666
 10
-656.5513115776909
 20
-2.802240668402777
 10
-657.1300876193576
 20
-3.521576605902777
 10
-657.7088636610242
 20
-4.240912543402777
 10
-658.5405097113714
 20
-4.799707031249999
 10
-659.6250257703992
 20
-5.199338107638888
 10
-660.709541829427
 20
-5.598969184027777
 10
-661.9297946506076
 20
-5.798784722222221
 10
-663.2857842339409
 20
-5.798784722222221
 10
-665.0055759006075
 20
-5.798784722222221
 10
-666.4470038519964
 20
-5.597591145833332
 10
-667.6086900499131
 20
-5.195893012152777
 10
-668.771065266927
 20
-4.793505859374999
 10
-669.682637532552
 20
-4.188547092013888
 10
-670.3434068467881
 20
-3.380327690972221
 10
-671.0048651801214
 20
-2.572797309027777
 10
-671.3521308051213
 20
-1.65915798611111
 10
-671.3865817599826
 20
-0.6394097222222222
 97
        0
 75
     2
 76
     1
 98
        1
 10
0.0
 20
0.0
  0
HATCH
  5
61
330
29
100
AcDbEntity
  8
LAYER_2
 62
     3
100
AcDbHatch
 10
0.0
 20
0.0
 30
0.0
210
0.0
220
0.0
230
1.0
  2
SOLID
 70
     1
 71
     0
 91
        3
 92
       16
 93
        1
 72
     4
 94
        3
 73
     0
 74
     0
 95
       35
 96
       31
 40
0.0
 40
0.0
 40
0.0
 40
0.0
 40
1.0
 40
1.0
 40
1.0
 40
2.0
 40
2.0
 40
2.0
 40
3.0
 40
3.0
 40
3.0
 40
4.0
 40
4.0
 40
4.0
 40
5.0
 40
5.0
 40
5.0
 40
6.0
 40
6.0
 40
6.0
 40
7.0
 40
7.0
 40
7.0
 40
8.0
 40
8.0
 40
8.0
 40
9.0
 40
9.0
 40
9.0
 40
10.0
 40
10.0
 40
10.0
 40
10.0
 10
-635.5593112521701
 20
-3.726215277777777
 10
-635.5593112521701
 20
-3.726215277777777
 10
-630.7664944118922
 20
-3.726215277777777
 10
-630.7664944118922
 20
-3.726215277777777
 10
-629.9438056098089
 20
-3.726215277777777
 10
-629.3664076063367
 20
-3.702099609374999
 10
-629.0336113823784
 20
-3.653179253472222
 10
-628.4472561306423
 20
-3.570496961805555
 10
-627.9573635525173
 20
-3.431315104166666
 10
-627.5632446289062
 20
-3.237011718749999
 10
-627.1691257052951
 20
-3.042708333333333
 10
-626.8452867296006
 20
-2.760210503472221
 10
-626.5917277018228
 20
-2.388829210069444
 10
-626.3381686740451
 20
-2.017447916666666
 10
-626.210700141059
 20
-1.588878038194444
 10
-626.210700141059
 20
-1.102430555555555
 10
-626.210700141059
 20
-0.53330078125
 10
-626.3939792209201
 20
-0.0392740885416667
 10
-626.7591593424478
 20
0.3810275607638888
 10
-627.1243394639756
 20
0.8013292100694442
 10
-627.6335245768229
 20
1.096229383680555
 10
-628.2860256618922
 20
1.266417100694444
 10
-628.9392157660589
 20
1.435915798611111
 10
-629.8783487955728
 20
1.521354166666666
 10
-631.1048027886283
 20
1.521354166666666
 10
-631.1048027886283
 20
1.521354166666666
 10
-635.5593112521701
 20
1.521354166666666
 10
-635.5593112521701
 20
1.521354166666666
 10
-635.5593112521701
 20
1.521354166666666
 10
-635.5593112521701
 20
-3.726215277777777
 10
-635.5593112521701
 20
-3.726215277777777
 97
        0
 92
       16
 93
        1
 72
     4
 94
        3
 73
     0
 74
     0
 95
       32
 96
       28
 40
0.0
 40
0.0
 40
0.0
 40
0.0
 40
1.0
 40
1.0
 40
1.0
 40
2.0
 40
2.0
 40
2.0
 40
3.0
 40
3.0
 40
3.0
 40
4.0
 40
4.0
 40
4.0
 40
5.0
 40
5.0
 40
5.0
 40
6.0
 40
6.0
 40
6.0
 40
7.0
 40
7.0
 40
7.0
 40
8.0
 40
8.0
 40
8.0
 40
9.0
 40
9.0
 40
9.0
 40
9.0
 10
-635.5593112521701
 20
3.329340277777777
 10
-635.5593112521701
 20
3.329340277777777
 10
-631.3935017903645
 20
3.329340277777777
 10
-631.3935017903645
 20
3.329340277777777
 10
-630.26351047092
 20
3.329340277777777
 10
-629.4525349934895
 20
3.388595920138888
 10
-628.9619533962673
 20
3.50710720486111
 10
-628.3142754448784
 20
3.660069444444443
 10
-627.8257609049478
 20
3.914317491319444
 10
-627.4970987955728
 20
4.26985134548611
 10
-627.1691257052951
 20
4.625385199652777
 10
-627.0044501410589
 20
5.071180555555555
 10
-627.0044501410589
 20
5.607926432291666
 10
-627.0044501410589
 20
6.116422526041666
 10
-627.1581013997395
 20
6.563595920138888
 10
-627.4647148980034
 20
6.950824652777777
 10
-627.7713283962673
 20
7.337364366319444
 10
-628.2095445421006
 20
7.601947699652777
 10
-628.7786743164062
 20
7.745263671874999
 10
-629.3478040907118
 20
7.887890624999998
 10
-630.3248331705729
 20
7.95954861111111
 10
-631.7090725368923
 20
7.95954861111111
 10
-631.7090725368923
 20
7.95954861111111
 10
-635.5593112521701
 20
7.95954861111111
 10
-635.5593112521701
 20
7.95954861111111
 10
-635.5593112521701
 20
7.95954861111111
 10
-635.5593112521701
 20
3.329340277777777
 10
-635.5593112521701
 20
3.329340277777777
 97
        0
 92
        1
 93
        1
 72
     4
 94
        3
 73
     0
 74
     0
 95
       47
 96
       43
 40
0.0
 40
0.0
 40
0.0
 40
0.0
 40
1.0
 40
1.0
 40
1.0
 40
2.0
 40
2.0
 40
2.0
 40
3.0
 40
3.0
 40
3.0
 40
4.0
 40
4.0
 40
4.0
 40
5.0
 40
5.0
 40
5.0
 40
6.0
 40
6.0
 40
6.0
 40
7.0
 40
7.0
 40
7.0
 40
8.0
 40
8.0
 40
8.0
 40
9.0
 40
9.0
 40
9.0
 40
10.0
 40
10.0
 40
10.0
 40
11.0
 40
11.0
 40
11.0
 40
12.0
 40
12.0
 40
12.0
 40
13.0
 40
13.0
 40
13.0
 40
14.0
 40
14.0
 40
14.0
 40
14.0
 10
-638.0728529188367
 20
-5.534201388888888
 10
-638.0728529188367
 20
-5.534201388888888
 10
-638.0728529188367
 20
9.767534722222221
 10
-638.0728529188367
 20
9.767534722222221
 10
-638.0728529188367
 20
9.767534722222221
 10
-630.8856947157117
 20
9.767534722222221
 10
-630.8856947157117
 20
9.767534722222221
 10
-629.4222181532116
 20
9.767534722222221
 10
-628.2488186306423
 20
9.61181640625
 10
-627.3641181098089
 20
9.301068793402777
 10
-626.4801066080728
 20
8.990321180555554
 10
-625.7876424153645
 20
8.512141927083332
 10
-625.2867255316839
 20
7.865842013888888
 10
-624.7858086480034
 20
7.219542100694443
 10
-624.5350056966145
 20
6.543614366319443
 10
-624.5350056966145
 20
5.838058810763888
 10
-624.5350056966145
 20
5.18142361111111
 10
-624.7554918077256
 20
4.563373480902777
 10
-625.1950859917534
 20
3.983908420138888
 10
-625.6353691948784
 20
3.403754340277777
 10
-626.2995836046006
 20
2.935910373263888
 10
-627.1884182400173
 20
2.579687499999999
 10
-626.0391343858506
 20
2.308902994791666
 10
-625.1551228841146
 20
1.847949218749999
 10
-624.5363837348089
 20
1.196137152777777
 10
-623.9183336046006
 20
0.5443250868055555
 10
-623.6089640299478
 20
-0.2259982638888888
 10
-623.6089640299478
 20
-1.113454861111111
 10
-623.6089640299478
 20
-1.827967664930555
 10
-623.7984442816839
 20
-2.492182074652777
 10
-624.1774047851562
 20
-3.105409071180555
 10
-624.5563652886284
 20
-3.719325086805555
 10
-625.0248982747394
 20
-4.192681206597221
 10
-625.5823147243923
 20
-4.525477430555555
 10
-626.139731174045
 20
-4.858273654513888
 10
-626.8383965386284
 20
-5.109765624999999
 10
-627.6789998372395
 20
-5.279264322916666
 10
-628.5196031358506
 20
-5.449452039930554
 10
-629.5496866861979
 20
-5.534201388888888
 10
-630.7692504882811
 20
-5.534201388888888
 10
-630.7692504882811
 20
-5.534201388888888
 10
-638.0728529188367
 20
-5.534201388888888
 10
-638.0728529188367
 20
-5.534201388888888
 97
        0
 75
     2
 76
     1
 98
        1
 10
0.0
 20
0.0
  0
HATCH
  5
60
330
29
100
AcDbEntity
  8
LAYER_2
 62
     3
100
AcDbHatch
 10
0.0
 20
0.0
 30
0.0
210
0.0
220
0.0
230
1.0
  2
SOLID
 70
     1
 71
     0
 91
        1
 92
        1
 93
        1
 72
     4
 94
        3
 73
     0
 74
     0
 95
       23
 96
       19
 40
0.0
 40
0.0
 40
0.0
 40
0.0
 40
1.0
 40
1.0
 40
1.0
 40
2.0
 40
2.0
 40
2.0
 40
3.0
 40
3.0
 40
3.0
 40
4.0
 40
4.0
 40
4.0
 40
5.0
 40
5.0
 40
5.0
 40
6.0
 40
6.0
 40
6.0
 40
6.0
 10
-612.8743910047742
 20
-5.534201388888888
 10
-612.8743910047742
 20
-5.534201388888888
 10
-612.8743910047742
 20
9.767534722222221
 10
-612.8743910047742
 20
9.767534722222221
 10
-612.8743910047742
 20
9.767534722222221
 10
-610.3608493381075
 20
9.767534722222221
 10
-610.3608493381075
 20
9.767534722222221
 10
-610.3608493381075
 20
9.767534722222221
 10
-610.3608493381075
 20
-3.726215277777777
 10
-610.3608493381075
 20
-3.726215277777777
 10
-610.3608493381075
 20
-3.726215277777777
 10
-600.9681410047742
 20
-3.726215277777777
 10
-600.9681410047742
 20
-3.726215277777777
 10
-600.9681410047742
 20
-3.726215277777777
 10
-600.9681410047742
 20
-5.534201388888888
 10
-600.9681410047742
 20
-5.534201388888888
 10
-600.9681410047742
 20
-5.534201388888888
 10
-612.8743910047742
 20
-5.534201388888888
 10
-612.8743910047742
 20
-5.534201388888888
 97
        0
 75
     2
 76
     1
 98
        1
 10
0.0
 20
0.0
  0
HATCH
  5
5F
330
29
100
AcDbEntity
  8
LAYER_2
 62
     3
100
AcDbHatch
 10
0.0
 20
0.0
 30
0.0
210
0.0
220
0.0
230
1.0
  2
SOLID
 70
     1
 71
     0
 91
        1
 92
        1
 93
        1
 72
     4
 94
        3
 73
     0
 74
     0
 95
       56
 96
       52
 40
0.0
 40
0.0
 40
0.0
 40
0.0
 40
1.0
 40
1.0
 40
1.0
 40
2.0
 40
2.0
 40
2.0
 40
3.0
 40
3.0
 40
3.0
 40
4.0
 40
4.0
 40
4.0
 40
5.0
 40
5.0
 40
5.0
 40
6.0
 40
6.0
 40
6.0
 40
7.0
 40
7.0
 40
7.0
 40
8.0
 40
8.0
 40
8.0
 40
9.0
 40
9.0
 40
9.0
 40
10.0
 40
10.0
 40
10.0
 40
11.0
 40
11.0
 40
11.0
 40
12.0
 40
12.0
 40
12.0
 40
13.0
 40
13.0
 40
13.0
 40
14.0
 40
14.0
 40
14.0
 40
15.0
 40
15.0
 40
15.0
 40
16.0
 40
16.0
 40
16.0
 40
17.0
 40
17.0
 40
17.0
 40
17.0
 10
-578.9656941731769
 20
9.767534722222221
 10
-578.9656941731769
 20
9.767534722222221
 10
-576.4521525065104
 20
9.767534722222221
 10
-576.4521525065104
 20
9.767534722222221
 10
-576.4521525065104
 20
9.767534722222221
 10
-576.4521525065104
 20
0.9246636284722221
 10
-576.4521525065104
 20
0.9246636284722221
 10
-576.4521525065104
 20
-0.613916015625
 10
-576.6685045030381
 20
-1.835546875
 10
-577.1005194769965
 20
-2.740228949652777
 10
-577.533223470052
 20
-3.644911024305555
 10
-578.3131930881076
 20
-4.380783420138888
 10
-579.4411173502603
 20
-4.947846137152777
 10
-580.569041612413
 20
-5.515597873263888
 10
-582.0490546332464
 20
-5.798784722222221
 10
-583.8811564127603
 20
-5.798784722222221
 10
-585.6615817599825
 20
-5.798784722222221
 10
-587.1181681315103
 20
-5.551426866319443
 10
-588.2502265082464
 20
-5.05740017361111
 10
-589.3829739040797
 20
-4.563373480902777
 10
-590.1911933051215
 20
-3.84817165798611
 10
-590.6748847113714
 20
-2.91179470486111
 10
-591.1592651367186
 20
-1.976106770833333
 10
-591.4011108398437
 20
-0.6972873263888888
 10
-591.4011108398437
 20
0.9246636284722221
 10
-591.4011108398437
 20
0.9246636284722221
 10
-591.4011108398437
 20
9.767534722222221
 10
-591.4011108398437
 20
9.767534722222221
 10
-591.4011108398437
 20
9.767534722222221
 10
-588.887569173177
 20
9.767534722222221
 10
-588.887569173177
 20
9.767534722222221
 10
-588.887569173177
 20
9.767534722222221
 10
-588.887569173177
 20
0.97978515625
 10
-588.887569173177
 20
0.97978515625
 10
-588.887569173177
 20
-0.3431315104166666
 10
-588.7346069335936
 20
-1.31809353298611
 10
-588.4273044162325
 20
-1.945100911458333
 10
-588.1206909179686
 20
-2.572108289930555
 10
-587.5935913085936
 20
-3.055110677083332
 10
-586.8453165690104
 20
-3.394108072916666
 10
-586.097041829427
 20
-3.733105468749999
 10
-585.1827134874131
 20
-3.902604166666666
 10
-584.1016425238714
 20
-3.902604166666666
 10
-582.2516262478298
 20
-3.902604166666666
 10
-580.9328436957464
 20
-3.567051866319443
 10
-580.1459838867186
 20
-2.895258246527777
 10
-579.3591240776909
 20
-2.22346462673611
 10
-578.9656941731769
 20
-0.9315538194444442
 10
-578.9656941731769
 20
0.97978515625
 10
-578.9656941731769
 20
0.97978515625
 10
-578.9656941731769
 20
9.767534722222221
 10
-578.9656941731769
 20
9.767534722222221
 97
        0
 75
     2
 76
     1
 98
        1
 10
0.0
 20
0.0
  0
HATCH
  5
5E
330
29
100
AcDbEntity
  8
LAYER_2
 62
     3
100
AcDbHatch
 10
0.0
 20
0.0
 30
0.0
210
0.0
220
0.0
230
1.0
  2
SOLID
 70
     1
 71
     0
 91
        1
 92
        1
 93
        1
 72
     4
 94
        3
 73
     0
 74
     0
 95
       50
 96
       46
 40
0.0
 40
0.0
 40
0.0
 40
0.0
 40
1.0
 40
1.0
 40
1.0
 40
2.0
 40
2.0
 40
2.0
 40
3.0
 40
3.0
 40
3.0
 40
4.0
 40
4.0
 40
4.0
 40
5.0
 40
5.0
 40
5.0
 40
6.0
 40
6.0
 40
6.0
 40
7.0
 40
7.0
 40
7.0
 40
8.0
 40
8.0
 40
8.0
 40
9.0
 40
9.0
 40
9.0
 40
10.0
 40
10.0
 40
10.0
 40
11.0
 40
11.0
 40
11.0
 40
12.0
 40
12.0
 40
12.0
 40
13.0
 40
13.0
 40
13.0
 40
14.0
 40
14.0
 40
14.0
 40
15.0
 40
15.0
 40
15.0
 40
15.0
 10
-564.9076375325519
 20
-5.534201388888888
 10
-564.9076375325519
 20
-5.534201388888888
 10
-564.9076375325519
 20
9.767534722222221
 10
-564.9076375325519
 20
9.767534722222221
 10
-564.9076375325519
 20
9.767534722222221
 10
-561.1690199110243
 20
9.767534722222221
 10
-561.1690199110243
 20
9.767534722222221
 10
-561.1690199110243
 20
9.767534722222221
 10
-556.5925550672742
 20
-1.049376085069444
 10
-556.5925550672742
 20
-1.049376085069444
 10
-556.1708753797741
 20
-2.057411024305555
 10
-555.8628838433159
 20
-2.811197916666666
 10
-555.6692694769965
 20
-3.311425781249999
 10
-555.4515394422742
 20
-2.756076388888888
 10
-555.1111640082465
 20
-1.939588758680555
 10
-554.6488321940103
 20
-0.8619628906249998
 10
-554.6488321940103
 20
-0.8619628906249998
 10
-550.0572089301215
 20
9.767534722222221
 10
-550.0572089301215
 20
9.767534722222221
 10
-550.0572089301215
 20
9.767534722222221
 10
-546.6954847547742
 20
9.767534722222221
 10
-546.6954847547742
 20
9.767534722222221
 10
-546.6954847547742
 20
9.767534722222221
 10
-546.6954847547742
 20
-5.534201388888888
 10
-546.6954847547742
 20
-5.534201388888888
 10
-546.6954847547742
 20
-5.534201388888888
 10
-549.1208319769964
 20
-5.534201388888888
 10
-549.1208319769964
 20
-5.534201388888888
 10
-549.1208319769964
 20
-5.534201388888888
 10
-549.1208319769964
 20
7.298090277777776
 10
-549.1208319769964
 20
7.298090277777776
 10
-549.1208319769964
 20
7.298090277777776
 10
-554.6639906141492
 20
-5.534201388888888
 10
-554.6639906141492
 20
-5.534201388888888
 10
-554.6639906141492
 20
-5.534201388888888
 10
-556.945332845052
 20
-5.534201388888888
 10
-556.945332845052
 20
-5.534201388888888
 10
-556.945332845052
 20
-5.534201388888888
 10
-562.4822903103298
 20
7.430381944444444
 10
-562.4822903103298
 20
7.430381944444444
 10
-562.4822903103298
 20
7.430381944444444
 10
-562.4822903103298
 20
-5.534201388888888
 10
-562.4822903103298
 20
-5.534201388888888
 10
-562.4822903103298
 20
-5.534201388888888
 10
-564.9076375325519
 20
-5.534201388888888
 10
-564.9076375325519
 20
-5.534201388888888
 97
        0
 75
     2
 76
     1
 98
        1
 10
0.0
 20
0.0
  0
HATCH
  5
5D
330
29
100
AcDbEntity
  8
LAYER_2
 62
     3
100
AcDbHatch
 10
0.0
 20
0.0
 30
0.0
210
0.0
220
0.0
230
1.0
  2
SOLID
 70
     1
 71
     0
 91
        3
 92
       16
 93
        1
 72
     4
 94
        3
 73
     0
 74
     0
 95
       32
 96
       28
 40
0.0
 40
0.0
 40
0.0
 40
0.0
 40
1.0
 40
1.0
 40
1.0
 40
2.0
 40
2.0
 40
2.0
 40
3.0
 40
3.0
 40
3.0
 40
4.0
 40
4.0
 40
4.0
 40
5.0
 40
5.0
 40
5.0
 40
6.0
 40
6.0
 40
6.0
 40
7.0
 40
7.0
 40
7.0
 40
8.0
 40
8.0
 40
8.0
 40
9.0
 40
9.0
 40
9.0
 40
9.0
 10
-521.9696899414061
 20
4.209906684027777
 10
-520.9499416775173
 20
4.694287109374999
 10
-520.2898613823784
 20
5.11941189236111
 10
-519.9887600368923
 20
5.484592013888888
 10
-519.6883477105034
 20
5.849772135416666
 10
-519.5374525282117
 20
6.25422634548611
 10
-519.5374525282117
 20
6.697265624999999
 10
-519.5374525282117
 20
7.223676215277777
 10
-519.7414021809895
 20
7.654313151041665
 10
-520.1486124674478
 20
7.987798394097221
 10
-520.5558227539062
 20
8.321283637152777
 10
-521.063629828559
 20
8.488715277777776
 10
-521.6727227105034
 20
8.488715277777776
 10
-522.2983520507812
 20
8.488715277777776
 10
-522.8192504882811
 20
8.323350694444442
 10
-523.2354180230033
 20
7.993310546874999
 10
-523.6515855577256
 20
7.662581380208332
 10
-523.8589803059896
 20
7.25881618923611
 10
-523.8589803059896
 20
6.78132595486111
 10
-523.8589803059896
 20
6.542236328124999
 10
-523.785944281684
 20
6.290744357638888
 10
-523.6384941948784
 20
6.027539062499999
 10
-523.4917331271701
 20
5.76433376736111
 10
-523.2712470160589
 20
5.484592013888888
 10
-522.9770358615451
 20
5.189691840277776
 10
-522.9770358615451
 20
5.189691840277776
 10
-521.9696899414061
 20
4.209906684027777
 10
-521.9696899414061
 20
4.209906684027777
 97
        0
 92
       16
 93
        1
 72
     4
 94
        3
 73
     0
 74
     0
 95
       26
 96
       22
 40
0.0
 40
0.0
 40
0.0
 40
0.0
 40
1.0
 40
1.0
 40
1.0
 40
2.0
 40
2.0
 40
2.0
 40
3.0
 40
3.0
 40
3.0
 40
4.0
 40
4.0
 40
4.0
 40
5.0
 40
5.0
 40
5.0
 40
6.0
 40
6.0
 40
6.0
 40
7.0
 40
7.0
 40
7.0
 40
7.0
 10
-518.6575751410589
 20
-2.255848524305555
 10
-518.6575751410589
 20
-2.255848524305555
 10
-522.942584906684
 20
2.020893012152777
 10
-522.942584906684
 20
2.020893012152777
 10
-524.2021118164061
 20
1.416623263888888
 10
-525.0523613823784
 20
0.85576171875
 10
-525.4919555664062
 20
0.3389973958333333
 10
-525.9322387695312
 20
-0.1784559461805555
 10
-526.1520358615451
 20
-0.6903971354166666
 10
-526.1520358615451
 20
-1.196826171874999
 10
-526.1520358615451
 20
-1.814876302083333
 10
-525.8454223632811
 20
-2.457042100694444
 10
-525.2315063476562
 20
-3.123323567708332
 10
-524.6182793511284
 20
-3.790294053819444
 10
-523.7494262695312
 20
-4.123090277777777
 10
-522.6249471028645
 20
-4.123090277777777
 10
-521.9249037000866
 20
-4.123090277777777
 10
-521.2014336480034
 20
-3.949457465277777
 10
-520.4538479275173
 20
-3.602191840277777
 10
-519.7062622070311
 20
-3.254926215277777
 10
-519.107504611545
 20
-2.806374782986111
 10
-518.6575751410589
 20
-2.255848524305555
 97
        0
 92
        1
 93
        1
 72
     4
 94
        3
 73
     0
 74
     0
 95
       65
 96
       61
 40
0.0
 40
0.0
 40
0.0
 40
0.0
 40
1.0
 40
1.0
 40
1.0
 40
2.0
 40
2.0
 40
2.0
 40
3.0
 40
3.0
 40
3.0
 40
4.0
 40
4.0
 40
4.0
 40
5.0
 40
5.0
 40
5.0
 40
6.0
 40
6.0
 40
6.0
 40
7.0
 40
7.0
 40
7.0
 40
8.0
 40
8.0
 40
8.0
 40
9.0
 40
9.0
 40
9.0
 40
10.0
 40
10.0
 40
10.0
 40
11.0
 40
11.0
 40
11.0
 40
12.0
 40
12.0
 40
12.0
 40
13.0
 40
13.0
 40
13.0
 40
14.0
 40
14.0
 40
14.0
 40
15.0
 40
15.0
 40
15.0
 40
16.0
 40
16.0
 40
16.0
 40
17.0
 40
17.0
 40
17.0
 40
18.0
 40
18.0
 40
18.0
 40
19.0
 40
19.0
 40
19.0
 40
20.0
 40
20.0
 40
20.0
 40
20.0
 10
-517.1582695855033
 20
-3.702788628472221
 10
-517.9299709743922
 20
-4.386984592013888
 10
-518.7712632921006
 20
-4.900303819444443
 10
-519.6807685004339
 20
-5.242057291666665
 10
-520.5909627278645
 20
-5.583121744791665
 10
-521.5748819986978
 20
-5.754687499999999
 10
-522.632526312934
 20
-5.754687499999999
 10
-524.5831393771701
 20
-5.754687499999999
 10
-526.1306762695312
 20
-5.228965928819444
 10
-527.27444797092
 20
-4.177522786458332
 10
-528.2018676757811
 20
-3.320383029513888
 10
-528.6655775282118
 20
-2.361957465277777
 10
-528.6655775282118
 20
-1.303624131944444
 10
-528.6655775282118
 20
-0.3631130642361111
 10
-528.2893731011284
 20
0.4857584635416666
 10
-527.5369642469617
 20
1.242990451388888
 10
-526.7845553927951
 20
2.00022243923611
 10
-525.6600762261284
 20
2.665814887152777
 10
-524.1635267469617
 20
3.24045681423611
 10
-525.0123982747395
 20
4.035584852430555
 10
-525.578082953559
 20
4.680506727430555
 10
-525.8605807834201
 20
5.175911458333333
 10
-526.1430786132812
 20
5.67131618923611
 10
-526.2843275282117
 20
6.149495442708333
 10
-526.2843275282117
 20
6.610449218749999
 10
-526.2843275282117
 20
7.530978732638888
 10
-525.83577609592
 20
8.330929904513888
 10
-524.9379842122395
 20
9.011680772569443
 10
-524.0401923285589
 20
9.691742621527776
 10
-522.9102010091145
 20
10.03211805555555
 10
-521.5486992730034
 20
10.03211805555555
 10
-520.2478312174479
 20
10.03211805555555
 10
-519.1832967122395
 20
9.709657118055554
 10
-518.3550957573784
 20
9.065424262152776
 10
-517.5268948025173
 20
8.421191406249999
 10
-517.1121053059895
 20
7.647422960069444
 10
-517.1121053059895
 20
6.74411892361111
 10
-517.1121053059895
 20
5.279953342013888
 10
-518.3302910698784
 20
4.030072699652777
 10
-520.7659735785589
 20
2.993787977430555
 10
-520.7659735785589
 20
2.993787977430555
 10
-517.3243231879339
 20
-0.4823133680555556
 10
-517.3243231879339
 20
-0.4823133680555556
 10
-516.912289767795
 20
0.1288465711805555
 10
-516.5918958875867
 20
0.8371582031249998
 10
-516.3624525282117
 20
1.643310546874999
 10
-516.3624525282117
 20
1.643310546874999
 10
-513.9371053059895
 20
1.226453993055555
 10
-513.9371053059895
 20
1.226453993055555
 10
-514.3608520507812
 20
-0.1061089409722222
 10
-514.93411593967
 20
-1.199582248263888
 10
-515.6575859917534
 20
-2.054654947916666
 10
-514.7756415473089
 20
-2.974495442708333
 10
-513.7758748372394
 20
-3.746885850694444
 10
-512.658285861545
 20
-4.371137152777777
 10
-512.658285861545
 20
-4.371137152777777
 10
-514.2457858615451
 20
-5.842881944444443
 10
-514.2457858615451
 20
-5.842881944444443
 10
-515.1869859483506
 20
-5.360568576388888
 10
-516.1578138563367
 20
-4.647433810763888
 10
-517.1582695855033
 20
-3.702788628472221
 97
        0
 75
     2
 76
     1
 98
        1
 10
0.0
 20
0.0
  0
HATCH
  5
5C
330
29
100
AcDbEntity
  8
LAYER_2
 62
     3
100
AcDbHatch
 10
0.0
 20
0.0
 30
0.0
210
0.0
220
0.0
230
1.0
  2
SOLID
 70
     1
 71
     0
 91
        1
 92
        1
 93
        1
 72
     4
 94
        3
 73
     0
 74
     0
 95
       71
 96
       67
 40
0.0
 40
0.0
 40
0.0
 40
0.0
 40
1.0
 40
1.0
 40
1.0
 40
2.0
 40
2.0
 40
2.0
 40
3.0
 40
3.0
 40
3.0
 40
4.0
 40
4.0
 40
4.0
 40
5.0
 40
5.0
 40
5.0
 40
6.0
 40
6.0
 40
6.0
 40
7.0
 40
7.0
 40
7.0
 40
8.0
 40
8.0
 40
8.0
 40
9.0
 40
9.0
 40
9.0
 40
10.0
 40
10.0
 40
10.0
 40
11.0
 40
11.0
 40
11.0
 40
12.0
 40
12.0
 40
12.0
 40
13.0
 40
13.0
 40
13.0
 40
14.0
 40
14.0
 40
14.0
 40
15.0
 40
15.0
 40
15.0
 40
16.0
 40
16.0
 40
16.0
 40
17.0
 40
17.0
 40
17.0
 40
18.0
 40
18.0
 40
18.0
 40
19.0
 40
19.0
 40
19.0
 40
20.0
 40
20.0
 40
20.0
 40
21.0
 40
21.0
 40
21.0
 40
22.0
 40
22.0
 40
22.0
 40
22.0
 10
-481.5494181315103
 20
-0.1750108506944444
 10
-481.5494181315103
 20
-0.1750108506944444
 10
-479.0358764648437
 20
-0.688330078125
 10
-479.0358764648437
 20
-0.688330078125
 10
-479.5664211697048
 20
-2.350244140624999
 10
-480.5200236002603
 20
-3.618039279513888
 10
-481.8966837565104
 20
-4.490337456597221
 10
-483.2733439127603
 20
-5.362635633680555
 10
-484.9566175672742
 20
-5.798784722222221
 10
-486.9465047200519
 20
-5.798784722222221
 10
-489.005293782552
 20
-5.798784722222221
 10
-490.6802992078993
 20
-5.463232421874999
 10
-491.9701429578992
 20
-4.791438802083332
 10
-493.2599867078992
 20
-4.119645182291666
 10
-494.2418389214409
 20
-3.146750217013888
 10
-494.915010579427
 20
-1.872753906249999
 10
-495.5888712565103
 20
-0.5987575954861111
 10
-495.9251125759548
 20
0.7696343315972222
 10
-495.9251125759548
 20
2.231732855902777
 10
-495.9251125759548
 20
3.825434027777777
 10
-495.5447740342881
 20
5.215874565972221
 10
-494.7840969509548
 20
6.40305447048611
 10
-494.0234198676215
 20
7.589545355902776
 10
-492.9402818467881
 20
8.491471354166666
 10
-491.535371907552
 20
9.107454427083332
 10
-490.1311509874131
 20
9.723437499999999
 10
-488.5849921332464
 20
10.03211805555555
 10
-486.8975843641492
 20
10.03211805555555
 10
-484.9848673502603
 20
10.03211805555555
 10
-483.3760077582464
 20
9.642822265625
 10
-482.0710055881075
 20
8.864230685763887
 10
-480.7666924370659
 20
8.085639105902776
 10
-479.8578762478298
 20
6.991476779513888
 10
-479.3445570203992
 20
5.581054687499999
 10
-479.3445570203992
 20
5.581054687499999
 10
-481.8140014648437
 20
5.109765624999999
 10
-481.8140014648437
 20
5.109765624999999
 10
-482.2591078016492
 20
6.225976562499999
 10
-482.9040296766492
 20
7.038330078124999
 10
-483.7501451280381
 20
7.548204210069443
 10
-484.596260579427
 20
8.057389322916666
 10
-485.6594170464409
 20
8.312326388888887
 10
-486.9409925672742
 20
8.312326388888887
 10
-488.4148044162325
 20
8.312326388888887
 10
-489.6467705620659
 20
8.029139539930554
 10
-490.636201985677
 20
7.464143880208332
 10
-491.6256334092881
 20
6.89914822048611
 10
-492.3208536783853
 20
6.140538194444443
 10
-492.7218627929686
 20
5.188313802083333
 10
-493.122871907552
 20
4.236089409722222
 10
-493.3233764648437
 20
3.253548177083333
 10
-493.3233764648437
 20
2.242068142361111
 10
-493.3233764648437
 20
0.9370659722222221
 10
-493.0863538953992
 20
-0.2018825954861111
 10
-492.6123087565103
 20
-1.174777560763888
 10
-492.1382636176215
 20
-2.148361545138888
 10
-491.4003241644965
 20
-2.875965711805555
 10
-490.3998684353298
 20
-3.356901041666666
 10
-489.3994127061631
 20
-3.838525390624999
 10
-488.3155856662326
 20
-4.078993055555555
 10
-487.1490763346353
 20
-4.078993055555555
 10
-485.731075032552
 20
-4.078993055555555
 10
-484.5301147460936
 20
-3.751019965277777
 10
-483.5468844943576
 20
-3.095073784722222
 10
-482.5636542426215
 20
-2.439127604166666
 10
-481.8980617947048
 20
-1.466232638888888
 10
-481.5494181315103
 20
-0.1750108506944444
 97
        0
 75
     2
 76
     1
 98
        1
 10
0.0
 20
0.0
  0
HATCH
  5
5B
330
29
100
AcDbEntity
  8
LAYER_2
 62
     3
100
AcDbHatch
 10
0.0
 20
0.0
 30
0.0
210
0.0
220
0.0
230
1.0
  2
SOLID
 70
     1
 71
     0
 91
        2
 92
       16
 93
        1
 72
     4
 94
        3
 73
     0
 74
     0
 95
       32
 96
       28
 40
0.0
 40
0.0
 40
0.0
 40
0.0
 40
1.0
 40
1.0
 40
1.0
 40
2.0
 40
2.0
 40
2.0
 40
3.0
 40
3.0
 40
3.0
 40
4.0
 40
4.0
 40
4.0
 40
5.0
 40
5.0
 40
5.0
 40
6.0
 40
6.0
 40
6.0
 40
7.0
 40
7.0
 40
7.0
 40
8.0
 40
8.0
 40
8.0
 40
9.0
 40
9.0
 40
9.0
 40
9.0
 10
-466.7413642035589
 20
1.886534288194444
 10
-466.7413642035589
 20
0.03720703125
 10
-466.1184909396701
 20
-1.419379340277777
 10
-464.8727444118923
 20
-2.483224826388888
 10
-463.6269978841145
 20
-3.547070312499999
 10
-462.0636135525173
 20
-4.078993055555555
 10
-460.1839694552951
 20
-4.078993055555555
 10
-458.2698744032117
 20
-4.078993055555555
 10
-456.6940877278645
 20
-3.542247178819444
 10
-455.4566094292534
 20
-2.467377387152777
 10
-454.2191311306423
 20
-1.393196614583333
 10
-453.6003919813367
 20
0.1316026475694444
 10
-453.6003919813367
 20
2.106331380208333
 10
-453.6003919813367
 20
3.354833984374999
 10
-453.86497531467
 20
4.444862196180555
 10
-454.3941419813367
 20
5.376416015624999
 10
-454.9233086480034
 20
6.307969835069443
 10
-455.6970770941839
 20
7.030061848958332
 10
-456.7154473198784
 20
7.542692057291666
 10
-457.7338175455729
 20
8.055322265624999
 10
-458.8769002278645
 20
8.312326388888887
 10
-460.1446953667534
 20
8.312326388888887
 10
-461.9457912868923
 20
8.312326388888887
 10
-463.4960842556423
 20
7.818299696180554
 10
-464.7941962348089
 20
6.83093532986111
 10
-466.0923082139756
 20
5.843570963541665
 10
-466.7413642035589
 20
4.195437282986111
 10
-466.7413642035589
 20
1.886534288194444
 97
        0
 92
        1
 93
        1
 72
     4
 94
        3
 73
     0
 74
     0
 95
       38
 96
       34
 40
0.0
 40
0.0
 40
0.0
 40
0.0
 40
1.0
 40
1.0
 40
1.0
 40
2.0
 40
2.0
 40
2.0
 40
3.0
 40
3.0
 40
3.0
 40
4.0
 40
4.0
 40
4.0
 40
5.0
 40
5.0
 40
5.0
 40
6.0
 40
6.0
 40
6.0
 40
7.0
 40
7.0
 40
7.0
 40
8.0
 40
8.0
 40
8.0
 40
9.0
 40
9.0
 40
9.0
 40
10.0
 40
10.0
 40
10.0
 40
11.0
 40
11.0
 40
11.0
 40
11.0
 10
-469.3431003146701
 20
1.91340603298611
 10
-469.3431003146701
 20
4.452441406249999
 10
-468.4887166341145
 20
6.44026150173611
 10
-466.778571234809
 20
7.876866319444443
 10
-465.0691148546006
 20
9.313471137152776
 10
-462.8621866861979
 20
10.03211805555555
 10
-460.1577867296007
 20
10.03211805555555
 10
-458.3870076497395
 20
10.03211805555555
 10
-456.7912394205729
 20
9.694498697916666
 10
-455.3691040039062
 20
9.01994900173611
 10
-453.9469685872395
 20
8.344710286458331
 10
-452.863141547309
 20
7.404199218749999
 10
-452.1176228841145
 20
6.197037760416666
 10
-451.37210422092
 20
4.989876302083333
 10
-450.9986558702256
 20
3.620795355902777
 10
-450.9986558702256
 20
2.090483940972222
 10
-450.9986558702256
 20
0.5388129340277778
 10
-451.3913967556423
 20
-0.8488715277777776
 10
-452.1761895073784
 20
-2.073258463541666
 10
-452.9616712782117
 20
-3.298334418402777
 10
-454.0737481011284
 20
-4.225065104166666
 10
-455.5131089952256
 20
-4.854828559027777
 10
-456.9524698893228
 20
-5.484592013888888
 10
-458.5048299153645
 20
-5.798784722222221
 10
-460.1708780924479
 20
-5.798784722222221
 10
-461.9767971462673
 20
-5.798784722222221
 10
-463.5904798719617
 20
-5.451519097222221
 10
-465.0126152886284
 20
-4.755609809027776
 10
-466.434750705295
 20
-4.059700520833333
 10
-467.5116875542534
 20
-3.11023220486111
 10
-468.2441148546006
 20
-1.906515842013888
 10
-468.977231174045
 20
-0.7027994791666666
 10
-469.3431003146701
 20
0.5705078125
 10
-469.3431003146701
 20
1.91340603298611
 97
        0
 75
     2
 76
     1
 98
        1
 10
0.0
 20
0.0
  0
HATCH
  5
5A
330
29
100
AcDbEntity
  8
LAYER_2
 62
     3
100
AcDbHatch
 10
0.0
 20
0.0
 30
0.0
210
0.0
220
0.0
230
1.0
  2
SOLID
 70
     1
 71
     0
 91
        1
 92
        1
 93
        1
 72
     4
 94
        3
 73
     0
 74
     0
 95
       17
 96
       13
 40
0.0
 40
0.0
 40
0.0
 40
0.0
 40
1.0
 40
1.0
 40
1.0
 40
2.0
 40
2.0
 40
2.0
 40
3.0
 40
3.0
 40
3.0
 40
4.0
 40
4.0
 40
4.0
 40
4.0
 10
-440.0422186957465
 20
-5.534201388888888
 10
-440.0422186957465
 20
-5.534201388888888
 10
-440.0422186957465
 20
-3.417534722222221
 10
-440.0422186957465
 20
-3.417534722222221
 10
-440.0422186957465
 20
-3.417534722222221
 10
-437.3522881401909
 20
-3.417534722222221
 10
-437.3522881401909
 20
-3.417534722222221
 10
-437.3522881401909
 20
-3.417534722222221
 10
-437.3522881401909
 20
-5.534201388888888
 10
-437.3522881401909
 20
-5.534201388888888
 10
-437.3522881401909
 20
-5.534201388888888
 10
-440.0422186957465
 20
-5.534201388888888
 10
-440.0422186957465
 20
-5.534201388888888
 97
        0
 75
     2
 76
     1
 98
        1
 10
0.0
 20
0.0
  0
HATCH
  5
59
330
29
100
AcDbEntity
  8
LAYER_2
 62
     3
100
AcDbHatch
 10
0.0
 20
0.0
 30
0.0
210
0.0
220
0.0
230
1.0
  2
SOLID
 70
     1
 71
     0
 91
        1
 92
        1
 93
        1
 72
     4
 94
        3
 73
     0
 74
     0
 95
       32
 96
       28
 40
0.0
 40
0.0
 40
0.0
 40
0.0
 40
1.0
 40
1.0
 40
1.0
 40
2.0
 40
2.0
 40
2.0
 40
3.0
 40
3.0
 40
3.0
 40
4.0
 40
4.0
 40
4.0
 40
5.0
 40
5.0
 40
5.0
 40
6.0
 40
6.0
 40
6.0
 40
7.0
 40
7.0
 40
7.0
 40
8.0
 40
8.0
 40
8.0
 40
9.0
 40
9.0
 40
9.0
 40
9.0
 10
-425.2224514431423
 20
-5.534201388888888
 10
-425.2224514431423
 20
-5.534201388888888
 10
-425.2224514431423
 20
-3.417534722222221
 10
-425.2224514431423
 20
-3.417534722222221
 10
-425.2224514431423
 20
-3.417534722222221
 10
-422.5325208875867
 20
-3.417534722222221
 10
-422.5325208875867
 20
-3.417534722222221
 10
-422.5325208875867
 20
-3.417534722222221
 10
-422.5325208875867
 20
-5.534201388888888
 10
-422.5325208875867
 20
-5.534201388888888
 10
-422.5325208875867
 20
-6.324506293402777
 10
-422.7123548719617
 20
-6.962537977430555
 10
-423.0713338216145
 20
-7.448985460069443
 10
-423.4310017903645
 20
-7.93474392361111
 10
-424.0008205837673
 20
-8.310948350694443
 10
-424.7814792209201
 20
-8.576909722222222
 10
-424.7814792209201
 20
-8.576909722222222
 10
-425.3988403320311
 20
-7.827256944444443
 10
-425.3988403320311
 20
-7.827256944444443
 10
-424.8944783528645
 20
-7.647422960069444
 10
-424.5224080403645
 20
-7.383528645833332
 10
-424.2833184136284
 20
-7.036263020833332
 10
-424.0442287868923
 20
-6.687619357638888
 10
-423.9112481011284
 20
-6.187391493055555
 10
-423.8843763563367
 20
-5.534201388888888
 10
-423.8843763563367
 20
-5.534201388888888
 10
-425.2224514431423
 20
-5.534201388888888
 10
-425.2224514431423
 20
-5.534201388888888
 97
        0
 75
     2
 76
     1
 98
        1
 10
0.0
 20
0.0
  0
HATCH
  5
58
330
29
100
AcDbEntity
  8
LAYER_2
 62
     3
100
AcDbHatch
 10
0.0
 20
0.0
 30
0.0
210
0.0
220
0.0
230
1.0
  2
SOLID
 70
     1
 71
     0
 91
        1
 92
        1
 93
        1
 72
     4
 94
        3
 73
     0
 74
     0
 95
       17
 96
       13
 40
0.0
 40
0.0
 40
0.0
 40
0.0
 40
1.0
 40
1.0
 40
1.0
 40
2.0
 40
2.0
 40
2.0
 40
3.0
 40
3.0
 40
3.0
 40
4.0
 40
4.0
 40
4.0
 40
4.0
 10
-402.9051228841145
 20
-5.534201388888888
 10
-402.9051228841145
 20
-5.534201388888888
 10
-402.9051228841145
 20
9.767534722222221
 10
-402.9051228841145
 20
9.767534722222221
 10
-402.9051228841145
 20
9.767534722222221
 10
-400.3915812174478
 20
9.767534722222221
 10
-400.3915812174478
 20
9.767534722222221
 10
-400.3915812174478
 20
9.767534722222221
 10
-400.3915812174478
 20
-5.534201388888888
 10
-400.3915812174478
 20
-5.534201388888888
 10
-400.3915812174478
 20
-5.534201388888888
 10
-402.9051228841145
 20
-5.534201388888888
 10
-402.9051228841145
 20
-5.534201388888888
 97
        0
 75
     2
 76
     1
 98
        1
 10
0.0
 20
0.0
  0
HATCH
  5
57
330
29
100
AcDbEntity
  8
LAYER_2
 62
     3
100
AcDbHatch
 10
0.0
 20
0.0
 30
0.0
210
0.0
220
0.0
230
1.0
  2
SOLID
 70
     1
 71
     0
 91
        1
 92
        1
 93
        1
 72
     4
 94
        3
 73
     0
 74
     0
 95
       35
 96
       31
 40
0.0
 40
0.0
 40
0.0
 40
0.0
 40
1.0
 40
1.0
 40
1.0
 40
2.0
 40
2.0
 40
2.0
 40
3.0
 40
3.0
 40
3.0
 40
4.0
 40
4.0
 40
4.0
 40
5.0
 40
5.0
 40
5.0
 40
6.0
 40
6.0
 40
6.0
 40
7.0
 40
7.0
 40
7.0
 40
8.0
 40
8.0
 40
8.0
 40
9.0
 40
9.0
 40
9.0
 40
10.0
 40
10.0
 40
10.0
 40
10.0
 10
-388.5263278537326
 20
-5.534201388888888
 10
-388.5263278537326
 20
-5.534201388888888
 10
-388.5263278537326
 20
9.767534722222221
 10
-388.5263278537326
 20
9.767534722222221
 10
-388.5263278537326
 20
9.767534722222221
 10
-385.9307929144965
 20
9.767534722222221
 10
-385.9307929144965
 20
9.767534722222221
 10
-385.9307929144965
 20
9.767534722222221
 10
-375.8704250759548
 20
-2.253781467013888
 10
-375.8704250759548
 20
-2.253781467013888
 10
-375.8704250759548
 20
-2.253781467013888
 10
-375.8704250759548
 20
9.767534722222221
 10
-375.8704250759548
 20
9.767534722222221
 10
-375.8704250759548
 20
9.767534722222221
 10
-373.4450778537326
 20
9.767534722222221
 10
-373.4450778537326
 20
9.767534722222221
 10
-373.4450778537326
 20
9.767534722222221
 10
-373.4450778537326
 20
-5.534201388888888
 10
-373.4450778537326
 20
-5.534201388888888
 10
-373.4450778537326
 20
-5.534201388888888
 10
-376.0406127929687
 20
-5.534201388888888
 10
-376.0406127929687
 20
-5.534201388888888
 10
-376.0406127929687
 20
-5.534201388888888
 10
-386.1009806315104
 20
6.487803819444444
 10
-386.1009806315104
 20
6.487803819444444
 10
-386.1009806315104
 20
6.487803819444444
 10
-386.1009806315104
 20
-5.534201388888888
 10
-386.1009806315104
 20
-5.534201388888888
 10
-386.1009806315104
 20
-5.534201388888888
 10
-388.5263278537326
 20
-5.534201388888888
 10
-388.5263278537326
 20
-5.534201388888888
 97
        0
 75
     2
 76
     1
 98
        1
 10
0.0
 20
0.0
  0
HATCH
  5
56
330
29
100
AcDbEntity
  8
LAYER_2
 62
     3
100
AcDbHatch
 10
0.0
 20
0.0
 30
0.0
210
0.0
220
0.0
230
1.0
  2
SOLID
 70
     1
 71
     0
 91
        1
 92
        1
 93
        1
 72
     4
 94
        3
 73
     0
 74
     0
 95
       71
 96
       67
 40
0.0
 40
0.0
 40
0.0
 40
0.0
 40
1.0
 40
1.0
 40
1.0
 40
2.0
 40
2.0
 40
2.0
 40
3.0
 40
3.0
 40
3.0
 40
4.0
 40
4.0
 40
4.0
 40
5.0
 40
5.0
 40
5.0
 40
6.0
 40
6.0
 40
6.0
 40
7.0
 40
7.0
 40
7.0
 40
8.0
 40
8.0
 40
8.0
 40
9.0
 40
9.0
 40
9.0
 40
10.0
 40
10.0
 40
10.0
 40
11.0
 40
11.0
 40
11.0
 40
12.0
 40
12.0
 40
12.0
 40
13.0
 40
13.0
 40
13.0
 40
14.0
 40
14.0
 40
14.0
 40
15.0
 40
15.0
 40
15.0
 40
16.0
 40
16.0
 40
16.0
 40
17.0
 40
17.0
 40
17.0
 40
18.0
 40
18.0
 40
18.0
 40
19.0
 40
19.0
 40
19.0
 40
20.0
 40
20.0
 40
20.0
 40
21.0
 40
21.0
 40
21.0
 40
22.0
 40
22.0
 40
22.0
 40
22.0
 10
-348.1863267686632
 20
-0.1750108506944444
 10
-348.1863267686632
 20
-0.1750108506944444
 10
-345.6727851019965
 20
-0.688330078125
 10
-345.6727851019965
 20
-0.688330078125
 10
-346.2033298068576
 20
-2.350244140624999
 10
-347.1569322374132
 20
-3.618039279513888
 10
-348.5335923936632
 20
-4.490337456597221
 10
-349.9102525499131
 20
-5.362635633680555
 10
-351.593526204427
 20
-5.798784722222221
 10
-353.5834133572048
 20
-5.798784722222221
 10
-355.6422024197048
 20
-5.798784722222221
 10
-357.3172078450521
 20
-5.463232421874999
 10
-358.607051595052
 20
-4.791438802083332
 10
-359.896895345052
 20
-4.119645182291666
 10
-360.8787475585937
 20
-3.146750217013888
 10
-361.5519192165799
 20
-1.872753906249999
 10
-362.2257798936632
 20
-0.5987575954861111
 10
-362.5620212131076
 20
0.7696343315972222
 10
-362.5620212131076
 20
2.231732855902777
 10
-362.5620212131076
 20
3.825434027777777
 10
-362.181682671441
 20
5.215874565972221
 10
-361.4210055881076
 20
6.40305447048611
 10
-360.6603285047743
 20
7.589545355902776
 10
-359.577190483941
 20
8.491471354166666
 10
-358.1722805447049
 20
9.107454427083332
 10
-356.7680596245659
 20
9.723437499999999
 10
-355.2219007703993
 20
10.03211805555555
 10
-353.5344930013021
 20
10.03211805555555
 10
-351.6217759874132
 20
10.03211805555555
 10
-350.0129163953993
 20
9.642822265625
 10
-348.7079142252604
 20
8.864230685763887
 10
-347.4036010742187
 20
8.085639105902776
 10
-346.4947848849826
 20
6.991476779513888
 10
-345.9814656575521
 20
5.581054687499999
 10
-345.9814656575521
 20
5.581054687499999
 10
-348.4509101019965
 20
5.109765624999999
 10
-348.4509101019965
 20
5.109765624999999
 10
-348.8960164388021
 20
6.225976562499999
 10
-349.540938313802
 20
7.038330078124999
 10
-350.387053765191
 20
7.548204210069443
 10
-351.2331692165798
 20
8.057389322916666
 10
-352.2963256835937
 20
8.312326388888887
 10
-353.5779012044271
 20
8.312326388888887
 10
-355.0517130533854
 20
8.312326388888887
 10
-356.2836791992187
 20
8.029139539930554
 10
-357.2731106228299
 20
7.464143880208332
 10
-358.262542046441
 20
6.89914822048611
 10
-358.9577623155382
 20
6.140538194444443
 10
-359.3587714301215
 20
5.188313802083333
 10
-359.7597805447048
 20
4.236089409722222
 10
-359.9602851019965
 20
3.253548177083333
 10
-359.9602851019965
 20
2.242068142361111
 10
-359.9602851019965
 20
0.9370659722222221
 10
-359.7232625325521
 20
-0.2018825954861111
 10
-359.2492173936632
 20
-1.174777560763888
 10
-358.7751722547742
 20
-2.148361545138888
 10
-358.0372328016493
 20
-2.875965711805555
 10
-357.0367770724826
 20
-3.356901041666666
 10
-356.0363213433159
 20
-3.838525390624999
 10
-354.9524943033854
 20
-4.078993055555555
 10
-353.7859849717881
 20
-4.078993055555555
 10
-352.3679836697048
 20
-4.078993055555555
 10
-351.1670233832465
 20
-3.751019965277777
 10
-350.1837931315104
 20
-3.095073784722222
 10
-349.2005628797743
 20
-2.439127604166666
 10
-348.5349704318576
 20
-1.466232638888888
 10
-348.1863267686632
 20
-0.1750108506944444
 97
        0
 75
     2
 76
     1
 98
        1
 10
0.0
 20
0.0
  0
HATCH
  5
55
330
29
100
AcDbEntity
  8
LAYER_2
 62
     3
100
AcDbHatch
 10
0.0
 20
0.0
 30
0.0
210
0.0
220
0.0
230
1.0
  2
SOLID
 70
     1
 71
     0
 91
        1
 92
        1
 93
        1
 72
     4
 94
        3
 73
     0
 74
     0
 95
       17
 96
       13
 40
0.0
 40
0.0
 40
0.0
 40
0.0
 40
1.0
 40
1.0
 40
1.0
 40
2.0
 40
2.0
 40
2.0
 40
3.0
 40
3.0
 40
3.0
 40
4.0
 40
4.0
 40
4.0
 40
4.0
 10
-334.8338256835937
 20
-5.534201388888888
 10
-334.8338256835937
 20
-5.534201388888888
 10
-334.8338256835937
 20
-3.417534722222221
 10
-334.8338256835937
 20
-3.417534722222221
 10
-334.8338256835937
 20
-3.417534722222221
 10
-332.1438951280381
 20
-3.417534722222221
 10
-332.1438951280381
 20
-3.417534722222221
 10
-332.1438951280381
 20
-3.417534722222221
 10
-332.1438951280381
 20
-5.534201388888888
 10
-332.1438951280381
 20
-5.534201388888888
 10
-332.1438951280381
 20
-5.534201388888888
 10
-334.8338256835937
 20
-5.534201388888888
 10
-334.8338256835937
 20
-5.534201388888888
 97
        0
 75
     2
 76
     1
 98
        1
 10
0.0
 20
0.0
  0
HATCH
  5
54
330
29
100
AcDbEntity
  8
LAYER_2
 62
     3
100
AcDbHatch
 10
0.0
 20
0.0
 30
0.0
210
0.0
220
0.0
230
1.0
  2
SOLID
 70
     1
 71
     0
 91
        1
 92
        1
 93
        1
 72
     4
 94
        3
 73
     0
 74
     0
 95
       35
 96
       31
 40
0.0
 40
0.0
 40
0.0
 40
0.0
 40
1.0
 40
1.0
 40
1.0
 40
2.0
 40
2.0
 40
2.0
 40
3.0
 40
3.0
 40
3.0
 40
4.0
 40
4.0
 40
4.0
 40
5.0
 40
5.0
 40
5.0
 40
6.0
 40
6.0
 40
6.0
 40
7.0
 40
7.0
 40
7.0
 40
8.0
 40
8.0
 40
8.0
 40
9.0
 40
9.0
 40
9.0
 40
10.0
 40
10.0
 40
10.0
 40
10.0
 10
-279.0405042860243
 20
-10.03211805555555
 10
-280.3365492078993
 20
-8.726426866319442
 10
-281.4320895724826
 20
-7.198871527777777
 10
-282.3278143988715
 20
-5.449452039930554
 10
-283.2235392252604
 20
-3.69934353298611
 10
-283.6707126193577
 20
-1.887223307291666
 10
-283.6707126193577
 20
-0.0117133246527778
 10
-283.6707126193577
 20
1.640554470486111
 10
-283.3358493381076
 20
3.223920355902777
 10
-282.6661227756076
 20
4.738384331597221
 10
-281.8840861002604
 20
6.494694010416665
 10
-280.6755466037326
 20
8.24480251736111
 10
-279.0405042860243
 20
9.988020833333331
 10
-279.0405042860243
 20
9.988020833333331
 10
-277.3648098415798
 20
9.988020833333331
 10
-277.3648098415798
 20
9.988020833333331
 10
-278.4121188693577
 20
8.543836805555555
 10
-279.1038940429687
 20
7.512375217013888
 10
-279.4415134006076
 20
6.894325086805555
 10
-279.9693020290798
 20
5.935899522569443
 10
-280.3847805447048
 20
4.936132812499999
 10
-280.6872599283854
 20
3.894335937499999
 10
-281.0593302408854
 20
2.59553493923611
 10
-281.2453653971354
 20
1.289843749999999
 10
-281.2453653971354
 20
-0.0220486111111111
 10
-281.2453653971354
 20
-3.362413194444444
 10
-279.9520765516493
 20
-6.698643663194443
 10
-277.3648098415798
 20
-10.03211805555555
 10
-277.3648098415798
 20
-10.03211805555555
 10
-279.0405042860243
 20
-10.03211805555555
 10
-279.0405042860243
 20
-10.03211805555555
 97
        0
 75
     2
 76
     1
 98
        1
 10
0.0
 20
0.0
  0
HATCH
  5
53
330
29
100
AcDbEntity
  8
LAYER_2
 62
     3
100
AcDbHatch
 10
0.0
 20
0.0
 30
0.0
210
0.0
220
0.0
230
1.0
  2
SOLID
 70
     1
 71
     0
 91
        3
 92
       16
 93
        1
 72
     4
 94
        3
 73
     0
 74
     0
 95
       29
 96
       25
 40
0.0
 40
0.0
 40
0.0
 40
0.0
 40
1.0
 40
1.0
 40
1.0
 40
2.0
 40
2.0
 40
2.0
 40
3.0
 40
3.0
 40
3.0
 40
4.0
 40
4.0
 40
4.0
 40
5.0
 40
5.0
 40
5.0
 40
6.0
 40
6.0
 40
6.0
 40
7.0
 40
7.0
 40
7.0
 40
8.0
 40
8.0
 40
8.0
 40
8.0
 10
-264.7778089735242
 20
5.971728515624999
 10
-264.7778089735242
 20
5.246880425347221
 10
-264.4953111436632
 20
4.655013020833332
 10
-263.9296264648438
 20
4.195437282986111
 10
-263.3646308051215
 20
3.735172526041666
 10
-262.6170450846354
 20
3.505729166666666
 10
-261.6875583224826
 20
3.505729166666666
 10
-260.783565266927
 20
3.505729166666666
 10
-260.0511379665799
 20
3.733794487847221
 10
-259.490276421441
 20
4.189925130208332
 10
-258.9294148763021
 20
4.646055772569444
 10
-258.6482950846354
 20
5.205539279513888
 10
-258.6482950846354
 20
5.866997612847221
 10
-258.6482950846354
 20
6.556705729166665
 10
-258.9376831054687
 20
7.136859809027777
 10
-259.5157701280382
 20
7.606770833333333
 10
-260.0945461697048
 20
8.076681857638888
 10
-260.826973470052
 20
8.312326388888887
 10
-261.7130520290798
 20
8.312326388888887
 10
-262.6087768554687
 20
8.312326388888887
 10
-263.3432712131076
 20
8.082194010416666
 10
-263.9172241210937
 20
7.622618272569443
 10
-264.4911770290798
 20
7.162353515624999
 10
-264.7778089735242
 20
6.612516276041666
 10
-264.7778089735242
 20
5.971728515624999
 97
        0
 92
       16
 93
        1
 72
     4
 94
        3
 73
     0
 74
     0
 95
       32
 96
       28
 40
0.0
 40
0.0
 40
0.0
 40
0.0
 40
1.0
 40
1.0
 40
1.0
 40
2.0
 40
2.0
 40
2.0
 40
3.0
 40
3.0
 40
3.0
 40
4.0
 40
4.0
 40
4.0
 40
5.0
 40
5.0
 40
5.0
 40
6.0
 40
6.0
 40
6.0
 40
7.0
 40
7.0
 40
7.0
 40
8.0
 40
8.0
 40
8.0
 40
9.0
 40
9.0
 40
9.0
 40
9.0
 10
-265.5274617513021
 20
-1.114832899305555
 10
-265.5274617513021
 20
-1.652267795138888
 10
-265.3751885308159
 20
-2.172477213541666
 10
-265.0692640516493
 20
-2.674772135416666
 10
-264.7640285915799
 20
-3.177756076388888
 10
-264.2989407009549
 20
-3.566362847222221
 10
-263.6746893988715
 20
-3.84197048611111
 10
-263.0504380967882
 20
-4.117578124999999
 10
-262.3827785915799
 20
-4.255381944444444
 10
-261.6717108832465
 20
-4.255381944444444
 10
-260.5520548502604
 20
-4.255381944444444
 10
-259.6356594509548
 20
-3.96599392361111
 10
-258.9232137044271
 20
-3.386528862847221
 10
-258.2107679578993
 20
-2.807752821180555
 10
-257.8545450846354
 20
-2.071191406249999
 10
-257.8545450846354
 20
-1.17822265625
 10
-257.8545450846354
 20
-0.2714735243055555
 10
-258.2217922634549
 20
0.4788682725694445
 10
-258.9555976019965
 20
1.072113715277777
 10
-259.6894029405382
 20
1.66535915798611
 10
-260.6202677408854
 20
1.962326388888888
 10
-261.7488810221354
 20
1.962326388888888
 10
-262.8520005967882
 20
1.962326388888888
 10
-263.7573716905381
 20
1.668804253472222
 10
-264.4656833224826
 20
1.083138020833333
 10
-265.1739949544271
 20
0.4967827690972222
 10
-265.5274617513021
 20
-0.23564453125
 10
-265.5274617513021
 20
-1.114832899305555
 97
        0
 92
        1
 93
        1
 72
     4
 94
        3
 73
     0
 74
     0
 95
       53
 96
       49
 40
0.0
 40
0.0
 40
0.0
 40
0.0
 40
1.0
 40
1.0
 40
1.0
 40
2.0
 40
2.0
 40
2.0
 40
3.0
 40
3.0
 40
3.0
 40
4.0
 40
4.0
 40
4.0
 40
5.0
 40
5.0
 40
5.0
 40
6.0
 40
6.0
 40
6.0
 40
7.0
 40
7.0
 40
7.0
 40
8.0
 40
8.0
 40
8.0
 40
9.0
 40
9.0
 40
9.0
 40
10.0
 40
10.0
 40
10.0
 40
11.0
 40
11.0
 40
11.0
 40
12.0
 40
12.0
 40
12.0
 40
13.0
 40
13.0
 40
13.0
 40
14.0
 40
14.0
 40
14.0
 40
15.0
 40
15.0
 40
15.0
 40
16.0
 40
16.0
 40
16.0
 40
16.0
 10
-264.3161661783854
 20
2.78157009548611
 10
-265.2959513346354
 20
3.06682400173611
 10
-266.0221774631076
 20
3.474723307291666
 10
-266.4948445638021
 20
4.003889973958332
 10
-266.9675116644965
 20
4.533056640624999
 10
-267.2031561957465
 20
5.166954210069444
 10
-267.2031561957465
 20
5.905582682291665
 10
-267.2031561957465
 20
7.020415581597221
 10
-266.7063734266493
 20
7.957481553819444
 10
-265.7128078884548
 20
8.716780598958331
 10
-264.7192423502604
 20
9.476079644097222
 10
-263.3963256835937
 20
9.855729166666666
 10
-261.7454359266493
 20
9.855729166666666
 10
-260.0862779405382
 20
9.855729166666666
 10
-258.7516479492188
 20
9.467122395833332
 10
-257.7401679144965
 20
8.690597873263888
 10
-256.7286878797743
 20
7.913384331597221
 10
-256.2229478624132
 20
6.968050130208332
 10
-256.2229478624132
 20
5.853906249999999
 10
-256.2229478624132
 20
5.142838541666666
 10
-256.4565253363715
 20
4.524788411458333
 10
-256.9223022460938
 20
3.999066840277777
 10
-257.3887681749132
 20
3.472656249999999
 10
-258.0963907877604
 20
3.06682400173611
 10
-259.0458591037326
 20
2.78157009548611
 10
-257.8669474283854
 20
2.474267578124999
 10
-256.9691555447048
 20
1.978862847222222
 10
-256.3531724717882
 20
1.295355902777777
 10
-255.7371893988715
 20
0.6118489583333333
 10
-255.4291978624132
 20
-0.204638671875
 10
-255.4291978624132
 20
-1.152728949652777
 10
-255.4291978624132
 20
-2.464621310763888
 10
-256.0045288085937
 20
-3.566362847222221
 10
-257.1538126627604
 20
-4.459331597222221
 10
-258.3030965169271
 20
-5.352300347222222
 10
-259.8154934353298
 20
-5.798784722222221
 10
-261.6910034179687
 20
-5.798784722222221
 10
-263.5665134006076
 20
-5.798784722222221
 10
-265.0795993381076
 20
-5.350922309027777
 10
-266.2288831922743
 20
-4.454508463541666
 10
-267.3781670464409
 20
-3.558094618055555
 10
-267.9528089735243
 20
-2.439816623263888
 10
-267.9528089735243
 20
-1.100363498263888
 10
-267.9528089735243
 20
-0.1033528645833333
 10
-267.6379272460938
 20
0.73173828125
 10
-267.0081637912326
 20
1.404909939236111
 10
-266.3784003363715
 20
2.078081597222221
 10
-265.480608452691
 20
2.536968315972222
 10
-264.3161661783854
 20
2.78157009548611
 97
        0
 75
     2
 76
     1
 98
        1
 10
0.0
 20
0.0
  0
HATCH
  5
52
330
29
100
AcDbEntity
  8
LAYER_2
 62
     3
100
AcDbHatch
 10
0.0
 20
0.0
 30
0.0
210
0.0
220
0.0
230
1.0
  2
SOLID
 70
     1
 71
     0
 91
        2
 92
       16
 93
        1
 72
     4
 94
        3
 73
     0
 74
     0
 95
       29
 96
       25
 40
0.0
 40
0.0
 40
0.0
 40
0.0
 40
1.0
 40
1.0
 40
1.0
 40
2.0
 40
2.0
 40
2.0
 40
3.0
 40
3.0
 40
3.0
 40
4.0
 40
4.0
 40
4.0
 40
5.0
 40
5.0
 40
5.0
 40
6.0
 40
6.0
 40
6.0
 40
7.0
 40
7.0
 40
7.0
 40
8.0
 40
8.0
 40
8.0
 40
8.0
 10
-243.2852362738715
 20
2.028472222222222
 10
-243.2852362738715
 20
-0.5043619791666666
 10
-242.920745171441
 20
-2.184879557291666
 10
-242.1917629665798
 20
-3.013080512152777
 10
-241.4627807617187
 20
-3.841281467013888
 10
-240.5629218207465
 20
-4.255381944444444
 10
-239.4928751627604
 20
-4.255381944444444
 10
-238.4235175238715
 20
-4.255381944444444
 10
-237.5236585828993
 20
-3.839903428819443
 10
-236.7946763780381
 20
-3.007568359374999
 10
-236.0656941731771
 20
-2.175922309027777
 10
-235.7005140516493
 20
-0.4974717881944444
 10
-235.7005140516493
 20
2.028472222222222
 10
-235.7005140516493
 20
4.555794270833333
 10
-236.0636271158854
 20
6.234933810763888
 10
-236.7891642252604
 20
7.065890842013888
 10
-237.5147013346354
 20
7.896847873263888
 10
-238.4248955620659
 20
8.312326388888887
 10
-239.5190578884549
 20
8.312326388888887
 10
-240.589104546441
 20
8.312326388888887
 10
-241.4469333224826
 20
7.945768229166666
 10
-242.0925442165799
 20
7.212651909722221
 10
-242.8876722547743
 20
6.276963975694443
 10
-243.2852362738715
 20
4.54890407986111
 10
-243.2852362738715
 20
2.028472222222222
 97
        0
 92
        1
 93
        1
 72
     4
 94
        3
 73
     0
 74
     0
 95
       41
 96
       37
 40
0.0
 40
0.0
 40
0.0
 40
0.0
 40
1.0
 40
1.0
 40
1.0
 40
2.0
 40
2.0
 40
2.0
 40
3.0
 40
3.0
 40
3.0
 40
4.0
 40
4.0
 40
4.0
 40
5.0
 40
5.0
 40
5.0
 40
6.0
 40
6.0
 40
6.0
 40
7.0
 40
7.0
 40
7.0
 40
8.0
 40
8.0
 40
8.0
 40
9.0
 40
9.0
 40
9.0
 40
10.0
 40
10.0
 40
10.0
 40
11.0
 40
11.0
 40
11.0
 40
12.0
 40
12.0
 40
12.0
 40
12.0
 10
-245.7105834960938
 20
2.022960069444444
 10
-245.7105834960938
 20
3.835080295138888
 10
-245.479073079427
 20
5.297178819444443
 10
-245.0146742078993
 20
6.408566623263888
 10
-244.5509643554687
 20
7.51926540798611
 10
-243.8619452582465
 20
8.37158203125
 10
-242.9469278971354
 20
8.965516493055554
 10
-242.0319105360243
 20
9.558761935763888
 10
-240.880559624566
 20
9.855729166666666
 10
-239.4928751627604
 20
9.855729166666666
 10
-238.4696818033854
 20
9.855729166666666
 10
-237.5684448242187
 20
9.689675564236109
 10
-236.7891642252604
 20
9.358946397569443
 10
-236.0105726453993
 20
9.027528211805554
 10
-235.3732299804687
 20
8.550037977430553
 10
-234.8771362304687
 20
7.925786675347221
 10
-234.3817314995659
 20
7.301535373263888
 10
-233.991057671441
 20
6.542236328124999
 10
-233.7044257269965
 20
5.64651150173611
 10
-233.4184828016493
 20
4.750786675347221
 10
-233.2751668294271
 20
3.542936197916666
 10
-233.2751668294271
 20
2.022960069444444
 10
-233.2751668294271
 20
0.2246202256944444
 10
-233.5052992078993
 20
-1.230588107638888
 10
-233.9648749457465
 20
-2.34128689236111
 10
-234.4244506835937
 20
-3.451985677083333
 10
-235.1114027235243
 20
-4.306369357638888
 10
-236.0264200846354
 20
-4.903059895833332
 10
-236.9414374457465
 20
-5.500439453124999
 10
-238.0969224717881
 20
-5.798784722222221
 10
-239.4928751627604
 20
-5.798784722222221
 10
-241.3311781141493
 20
-5.798784722222221
 10
-242.775362141927
 20
-5.275130208333332
 10
-243.8247382269965
 20
-4.227132161458333
 10
-245.0821980794271
 20
-2.940044487847222
 10
-245.7105834960938
 20
-0.8564507378472221
 10
-245.7105834960938
 20
2.022960069444444
 97
        0
 75
     2
 76
     1
 98
        1
 10
0.0
 20
0.0
  0
HATCH
  5
51
330
29
100
AcDbEntity
  8
LAYER_2
 62
     3
100
AcDbHatch
 10
0.0
 20
0.0
 30
0.0
210
0.0
220
0.0
230
1.0
  2
SOLID
 70
     1
 71
     0
 91
        2
 92
       16
 93
        1
 72
     4
 94
        3
 73
     0
 74
     0
 95
       29
 96
       25
 40
0.0
 40
0.0
 40
0.0
 40
0.0
 40
1.0
 40
1.0
 40
1.0
 40
2.0
 40
2.0
 40
2.0
 40
3.0
 40
3.0
 40
3.0
 40
4.0
 40
4.0
 40
4.0
 40
5.0
 40
5.0
 40
5.0
 40
6.0
 40
6.0
 40
6.0
 40
7.0
 40
7.0
 40
7.0
 40
8.0
 40
8.0
 40
8.0
 40
8.0
 10
-221.0430107964409
 20
2.028472222222222
 10
-221.0430107964409
 20
-0.5043619791666666
 10
-220.6785196940104
 20
-2.184879557291666
 10
-219.9495374891493
 20
-3.013080512152777
 10
-219.2205552842882
 20
-3.841281467013888
 10
-218.320696343316
 20
-4.255381944444444
 10
-217.2506496853298
 20
-4.255381944444444
 10
-216.1812920464409
 20
-4.255381944444444
 10
-215.2814331054687
 20
-3.839903428819443
 10
-214.5524509006076
 20
-3.007568359374999
 10
-213.8234686957465
 20
-2.175922309027777
 10
-213.4582885742187
 20
-0.4974717881944444
 10
-213.4582885742187
 20
2.028472222222222
 10
-213.4582885742187
 20
4.555794270833333
 10
-213.8214016384548
 20
6.234933810763888
 10
-214.5469387478299
 20
7.065890842013888
 10
-215.2724758572048
 20
7.896847873263888
 10
-216.1826700846354
 20
8.312326388888887
 10
-217.2768324110243
 20
8.312326388888887
 10
-218.3468790690104
 20
8.312326388888887
 10
-219.2047078450521
 20
7.945768229166666
 10
-219.8503187391493
 20
7.212651909722221
 10
-220.6454467773437
 20
6.276963975694443
 10
-221.0430107964409
 20
4.54890407986111
 10
-221.0430107964409
 20
2.028472222222222
 97
        0
 92
        1
 93
        1
 72
     4
 94
        3
 73
     0
 74
     0
 95
       41
 96
       37
 40
0.0
 40
0.0
 40
0.0
 40
0.0
 40
1.0
 40
1.0
 40
1.0
 40
2.0
 40
2.0
 40
2.0
 40
3.0
 40
3.0
 40
3.0
 40
4.0
 40
4.0
 40
4.0
 40
5.0
 40
5.0
 40
5.0
 40
6.0
 40
6.0
 40
6.0
 40
7.0
 40
7.0
 40
7.0
 40
8.0
 40
8.0
 40
8.0
 40
9.0
 40
9.0
 40
9.0
 40
10.0
 40
10.0
 40
10.0
 40
11.0
 40
11.0
 40
11.0
 40
12.0
 40
12.0
 40
12.0
 40
12.0
 10
-223.4683580186632
 20
2.022960069444444
 10
-223.4683580186632
 20
3.835080295138888
 10
-223.2368476019965
 20
5.297178819444443
 10
-222.7724487304687
 20
6.408566623263888
 10
-222.3087388780382
 20
7.51926540798611
 10
-221.619719780816
 20
8.37158203125
 10
-220.7047024197049
 20
8.965516493055554
 10
-219.7896850585937
 20
9.558761935763888
 10
-218.6383341471354
 20
9.855729166666666
 10
-217.2506496853298
 20
9.855729166666666
 10
-216.2274563259548
 20
9.855729166666666
 10
-215.3262193467882
 20
9.689675564236109
 10
-214.5469387478299
 20
9.358946397569443
 10
-213.7683471679687
 20
9.027528211805554
 10
-213.1310045030382
 20
8.550037977430553
 10
-212.6349107530382
 20
7.925786675347221
 10
-212.1395060221354
 20
7.301535373263888
 10
-211.7488321940104
 20
6.542236328124999
 10
-211.462200249566
 20
5.64651150173611
 10
-211.1762573242188
 20
4.750786675347221
 10
-211.0329413519965
 20
3.542936197916666
 10
-211.0329413519965
 20
2.022960069444444
 10
-211.0329413519965
 20
0.2246202256944444
 10
-211.2630737304687
 20
-1.230588107638888
 10
-211.7226494683159
 20
-2.34128689236111
 10
-212.1822252061632
 20
-3.451985677083333
 10
-212.8691772460937
 20
-4.306369357638888
 10
-213.7841946072049
 20
-4.903059895833332
 10
-214.6992119683159
 20
-5.500439453124999
 10
-215.8546969943576
 20
-5.798784722222221
 10
-217.2506496853298
 20
-5.798784722222221
 10
-219.0889526367187
 20
-5.798784722222221
 10
-220.5331366644965
 20
-5.275130208333332
 10
-221.5825127495659
 20
-4.227132161458333
 10
-222.8399726019965
 20
-2.940044487847222
 10
-223.4683580186632
 20
-0.8564507378472221
 10
-223.4683580186632
 20
2.022960069444444
 97
        0
 75
     2
 76
     1
 98
        1
 10
0.0
 20
0.0
  0
HATCH
  5
50
330
29
100
AcDbEntity
  8
LAYER_2
 62
     3
100
AcDbHatch
 10
0.0
 20
0.0
 30
0.0
210
0.0
220
0.0
230
1.0
  2
SOLID
 70
     1
 71
     0
 91
        1
 92
        1
 93
        1
 72
     4
 94
        3
 73
     0
 74
     0
 95
       35
 96
       31
 40
0.0
 40
0.0
 40
0.0
 40
0.0
 40
1.0
 40
1.0
 40
1.0
 40
2.0
 40
2.0
 40
2.0
 40
3.0
 40
3.0
 40
3.0
 40
4.0
 40
4.0
 40
4.0
 40
5.0
 40
5.0
 40
5.0
 40
6.0
 40
6.0
 40
6.0
 40
7.0
 40
7.0
 40
7.0
 40
8.0
 40
8.0
 40
8.0
 40
9.0
 40
9.0
 40
9.0
 40
10.0
 40
10.0
 40
10.0
 40
10.0
 10
-199.0650241427951
 20
-10.03211805555555
 10
-199.0650241427951
 20
-10.03211805555555
 10
-200.7407185872396
 20
-10.03211805555555
 10
-200.7407185872396
 20
-10.03211805555555
 10
-198.1541408962673
 20
-6.698643663194443
 10
-196.860163031684
 20
-3.362413194444444
 10
-196.860163031684
 20
-0.0220486111111111
 10
-196.860163031684
 20
1.282953559027777
 10
-197.046198187934
 20
2.578309461805555
 10
-197.418268500434
 20
3.863330078124999
 10
-197.7124796549479
 20
4.904437934027777
 10
-198.1231350368923
 20
5.904204644097221
 10
-198.6509236653645
 20
6.863319227430555
 10
-198.9885430230034
 20
7.487570529513888
 10
-199.6851413302951
 20
8.529367404513887
 10
-200.7407185872396
 20
9.988020833333331
 10
-200.7407185872396
 20
9.988020833333331
 10
-199.0650241427951
 20
9.988020833333331
 10
-199.0650241427951
 20
9.988020833333331
 10
-197.430670844184
 20
8.24480251736111
 10
-196.2221313476562
 20
6.494694010416665
 10
-195.4394056532118
 20
4.738384331597221
 10
-194.7696790907118
 20
3.223920355902777
 10
-194.4348158094618
 20
1.640554470486111
 10
-194.4348158094618
 20
-0.0117133246527778
 10
-194.4348158094618
 20
-1.887223307291666
 10
-194.8847452799479
 20
-3.69934353298611
 10
-195.7846042209201
 20
-5.449452039930554
 10
-196.6844631618923
 20
-7.198871527777777
 10
-197.777936469184
 20
-8.726426866319442
 10
-199.0650241427951
 20
-10.03211805555555
 97
        0
 75
     2
 76
     1
 98
        1
 10
0.0
 20
0.0
  0
HATCH
  5
4F
330
29
100
AcDbEntity
  8
LAYER_2
 62
     3
100
AcDbHatch
 10
0.0
 20
0.0
 30
0.0
210
0.0
220
0.0
230
1.0
  2
SOLID
 70
     1
 71
     0
 91
        1
 92
        1
 93
        1
 72
     4
 94
        3
 73
     0
 74
     0
 95
       71
 96
       67
 40
0.0
 40
0.0
 40
0.0
 40
0.0
 40
1.0
 40
1.0
 40
1.0
 40
2.0
 40
2.0
 40
2.0
 40
3.0
 40
3.0
 40
3.0
 40
4.0
 40
4.0
 40
4.0
 40
5.0
 40
5.0
 40
5.0
 40
6.0
 40
6.0
 40
6.0
 40
7.0
 40
7.0
 40
7.0
 40
8.0
 40
8.0
 40
8.0
 40
9.0
 40
9.0
 40
9.0
 40
10.0
 40
10.0
 40
10.0
 40
11.0
 40
11.0
 40
11.0
 40
12.0
 40
12.0
 40
12.0
 40
13.0
 40
13.0
 40
13.0
 40
14.0
 40
14.0
 40
14.0
 40
15.0
 40
15.0
 40
15.0
 40
16.0
 40
16.0
 40
16.0
 40
17.0
 40
17.0
 40
17.0
 40
18.0
 40
18.0
 40
18.0
 40
19.0
 40
19.0
 40
19.0
 40
20.0
 40
20.0
 40
20.0
 40
21.0
 40
21.0
 40
21.0
 40
22.0
 40
22.0
 40
22.0
 40
22.0
 10
-177.524909125434
 20
-1.521354166666666
 10
-177.524909125434
 20
-1.521354166666666
 10
-175.0995619032118
 20
-1.389062499999999
 10
-175.0995619032118
 20
-1.389062499999999
 10
-174.9162828233506
 20
-2.34128689236111
 10
-174.4939141167534
 20
-3.056488715277777
 10
-173.8324557834201
 20
-3.536046006944443
 10
-173.1709974500868
 20
-4.01560329861111
 10
-172.3614000108506
 20
-4.255381944444444
 10
-171.4022854275173
 20
-4.255381944444444
 10
-170.244733344184
 20
-4.255381944444444
 10
-169.2780395507812
 20
-3.913628472222221
 10
-168.502204047309
 20
-3.228743489583333
 10
-167.7263685438368
 20
-2.543858506944444
 10
-167.3384507921007
 20
-1.635731336805555
 10
-167.3384507921007
 20
-0.5029839409722223
 10
-167.3384507921007
 20
0.5725748697916666
 10
-167.7105211046006
 20
1.421446397569444
 10
-168.4532836914062
 20
2.04363064236111
 10
-169.1960462782118
 20
2.665125868055555
 10
-170.188922797309
 20
2.976562499999999
 10
-171.4319132486979
 20
2.976562499999999
 10
-172.2049926757812
 20
2.976562499999999
 10
-172.8933227539062
 20
2.833246527777777
 10
-173.4962144639757
 20
2.547303602430555
 10
-174.0991061740451
 20
2.26067165798611
 10
-174.5745293511284
 20
1.889290364583333
 10
-174.9231730143229
 20
1.433159722222222
 10
-174.9231730143229
 20
1.433159722222222
 10
-177.128034125434
 20
1.697743055555555
 10
-177.128034125434
 20
1.697743055555555
 10
-177.128034125434
 20
1.697743055555555
 10
-175.2759507921006
 20
9.591145833333332
 10
-175.2759507921006
 20
9.591145833333332
 10
-175.2759507921006
 20
9.591145833333332
 10
-165.7509507921006
 20
9.591145833333332
 10
-165.7509507921006
 20
9.591145833333332
 10
-165.7509507921006
 20
9.591145833333332
 10
-165.7509507921006
 20
7.783159722222221
 10
-165.7509507921006
 20
7.783159722222221
 10
-165.7509507921006
 20
7.783159722222221
 10
-173.4176662868923
 20
7.783159722222221
 10
-173.4176662868923
 20
7.783159722222221
 10
-173.4176662868923
 20
7.783159722222221
 10
-174.4408596462673
 20
3.682807074652777
 10
-174.4408596462673
 20
3.682807074652777
 10
-173.2915757921007
 20
4.329106987847222
 10
-172.0857923719618
 20
4.652256944444443
 10
-170.8235093858507
 20
4.652256944444443
 10
-169.1519490559896
 20
4.652256944444443
 10
-167.7422159830729
 20
4.187169053819443
 10
-166.5929321289062
 20
3.257682291666666
 10
-165.4436482747395
 20
2.328195529513888
 10
-164.8690063476562
 20
1.133436414930555
 10
-164.8690063476562
 20
-0.3265950520833333
 10
-164.8690063476562
 20
-1.717724609374999
 10
-165.3726793077257
 20
-2.920062934027777
 10
-166.3793362087673
 20
-3.932921006944443
 10
-167.6037231445312
 20
-5.177289496527777
 10
-169.2745944552951
 20
-5.798784722222221
 10
-171.391950141059
 20
-5.798784722222221
 10
-173.128278266059
 20
-5.798784722222221
 10
-174.5455905490451
 20
-5.408799913194443
 10
-175.6438869900173
 20
-4.627452256944444
 10
-176.7421834309895
 20
-3.846793619791666
 10
-177.3691908094618
 20
-2.811197916666666
 10
-177.524909125434
 20
-1.521354166666666
 97
        0
 75
     2
 76
     1
 98
        1
 10
0.0
 20
0.0
  0
HATCH
  5
4E
330
29
100
AcDbEntity
  8
LAYER_2
 62
     3
100
AcDbHatch
 10
0.0
 20
0.0
 30
0.0
210
0.0
220
0.0
230
1.0
  2
SOLID
 70
     1
 71
     0
 91
        1
 92
        1
 93
        1
 72
     4
 94
        3
 73
     0
 74
     0
 95
       71
 96
       67
 40
0.0
 40
0.0
 40
0.0
 40
0.0
 40
1.0
 40
1.0
 40
1.0
 40
2.0
 40
2.0
 40
2.0
 40
3.0
 40
3.0
 40
3.0
 40
4.0
 40
4.0
 40
4.0
 40
5.0
 40
5.0
 40
5.0
 40
6.0
 40
6.0
 40
6.0
 40
7.0
 40
7.0
 40
7.0
 40
8.0
 40
8.0
 40
8.0
 40
9.0
 40
9.0
 40
9.0
 40
10.0
 40
10.0
 40
10.0
 40
11.0
 40
11.0
 40
11.0
 40
12.0
 40
12.0
 40
12.0
 40
13.0
 40
13.0
 40
13.0
 40
14.0
 40
14.0
 40
14.0
 40
15.0
 40
15.0
 40
15.0
 40
16.0
 40
16.0
 40
16.0
 40
17.0
 40
17.0
 40
17.0
 40
18.0
 40
18.0
 40
18.0
 40
19.0
 40
19.0
 40
19.0
 40
20.0
 40
20.0
 40
20.0
 40
21.0
 40
21.0
 40
21.0
 40
22.0
 40
22.0
 40
22.0
 40
22.0
 10
-142.9795586480034
 20
-3.726215277777777
 10
-142.9795586480034
 20
-3.726215277777777
 10
-142.9795586480034
 20
-5.534201388888888
 10
-142.9795586480034
 20
-5.534201388888888
 10
-142.9795586480034
 20
-5.534201388888888
 10
-155.591364203559
 20
-5.534201388888888
 10
-155.591364203559
 20
-5.534201388888888
 10
-155.6092787000868
 20
-5.081515842013888
 10
-155.5176391601562
 20
-4.646055772569444
 10
-155.3171346028646
 20
-4.227132161458333
 10
-154.996051703559
 20
-3.537424045138888
 10
-154.4806654188368
 20
-2.859429253472221
 10
-153.7716647677951
 20
-2.193147786458333
 10
-153.0633531358507
 20
-1.526866319444444
 10
-152.0436048719618
 20
-0.7530978732638888
 10
-150.7137980143229
 20
0.1274685329861111
 10
-148.6494967990451
 20
1.511707899305555
 10
-147.2563001844618
 20
2.60173611111111
 10
-146.5335191514756
 20
3.397553168402777
 10
-145.8107381184896
 20
4.193370225694444
 10
-145.4490030924479
 20
4.949224175347222
 10
-145.4490030924479
 20
5.664425998263888
 10
-145.4490030924479
 20
6.407877604166666
 10
-145.7790432400173
 20
7.034884982638888
 10
-146.4377454969618
 20
7.546137152777776
 10
-147.0971367730034
 20
8.056700303819443
 10
-147.9563435872395
 20
8.312326388888887
 10
-149.0160549587673
 20
8.312326388888887
 10
-150.1364000108507
 20
8.312326388888887
 10
-151.0321248372395
 20
8.035340711805554
 10
-151.7039184570312
 20
7.481369357638888
 10
-152.3764010959201
 20
6.927398003472221
 10
-152.7167765299479
 20
6.16120876736111
 10
-152.7250447591146
 20
5.18142361111111
 10
-152.7250447591146
 20
5.18142361111111
 10
-155.1503919813367
 20
5.446006944444444
 10
-155.1503919813367
 20
5.446006944444444
 10
-154.9864054361979
 20
6.881233723958332
 10
-154.3669772677951
 20
7.974707031249999
 10
-153.2921074761284
 20
8.727115885416665
 10
-152.2172376844618
 20
9.479524739583332
 10
-150.7744316948784
 20
9.855729166666666
 10
-148.9636895073784
 20
9.855729166666666
 10
-147.1357218424479
 20
9.855729166666666
 10
-145.6887817382812
 20
9.44782986111111
 10
-144.6228691948784
 20
8.632720269097221
 10
-143.5569566514756
 20
7.817610677083332
 10
-143.0236558702256
 20
6.807508680555555
 10
-143.0236558702256
 20
5.60310329861111
 10
-143.0236558702256
 20
4.989876302083333
 10
-143.1793741861979
 20
4.386984592013888
 10
-143.4894327799479
 20
3.795117187499999
 10
-143.8001803927951
 20
3.202560763888888
 10
-144.3155666775173
 20
2.578998480902777
 10
-145.0355916341146
 20
1.924430338541666
 10
-145.756305609809
 20
1.269862196180555
 10
-146.9545098198785
 20
0.3700032552083333
 10
-148.6302042643229
 20
-0.7744574652777777
 10
-150.0358032226562
 20
-1.723925781249999
 10
-150.9370402018229
 20
-2.367469618055555
 10
-151.3325371636284
 20
-2.705777994791666
 10
-151.7287231445312
 20
-3.044775390624999
 10
-152.0560072157118
 20
-3.384461805555555
 10
-152.3137003580729
 20
-3.726215277777777
 10
-152.3137003580729
 20
-3.726215277777777
 10
-142.9795586480034
 20
-3.726215277777777
 10
-142.9795586480034
 20
-3.726215277777777
 97
        0
 75
     2
 76
     1
 98
        1
 10
0.0
 20
0.0
  0
HATCH
  5
4D
330
29
100
AcDbEntity
  8
LAYER_2
 62
     3
100
AcDbHatch
 10
0.0
 20
0.0
 30
0.0
210
0.0
220
0.0
230
1.0
  2
SOLID
 70
     1
 71
     0
 91
        2
 92
       16
 93
        1
 72
     4
 94
        3
 73
     0
 74
     0
 95
       32
 96
       28
 40
0.0
 40
0.0
 40
0.0
 40
0.0
 40
1.0
 40
1.0
 40
1.0
 40
2.0
 40
2.0
 40
2.0
 40
3.0
 40
3.0
 40
3.0
 40
4.0
 40
4.0
 40
4.0
 40
5.0
 40
5.0
 40
5.0
 40
6.0
 40
6.0
 40
6.0
 40
7.0
 40
7.0
 40
7.0
 40
8.0
 40
8.0
 40
8.0
 40
9.0
 40
9.0
 40
9.0
 40
9.0
 10
-130.4387220594618
 20
-0.589111328125
 10
-130.4387220594618
 20
-1.235411241319444
 10
-130.2678453233507
 20
-1.853461371527777
 10
-129.9254028320312
 20
-2.443261718749999
 10
-129.583649359809
 20
-3.033751085069444
 10
-129.1089152018229
 20
-3.483680555555555
 10
-128.5012003580729
 20
-3.79236111111111
 10
-127.8934855143229
 20
-4.101041666666666
 10
-127.2444295247395
 20
-4.255381944444444
 10
-126.5540323893229
 20
-4.255381944444444
 10
-125.5521986219618
 20
-4.255381944444444
 10
-124.6991929796007
 20
-3.936366102430555
 10
-123.996393500434
 20
-3.297645399305555
 10
-123.2935940212673
 20
-2.658924696180555
 10
-122.942194281684
 20
-1.790760633680555
 10
-122.942194281684
 20
-0.6938422309027778
 10
-122.942194281684
 20
0.3617350260416666
 10
-123.289459906684
 20
1.192692057291666
 10
-123.983991156684
 20
1.800406901041666
 10
-124.678522406684
 20
2.408121744791666
 10
-125.565289984809
 20
2.711979166666666
 10
-126.6449829101562
 20
2.711979166666666
 10
-127.7019382052951
 20
2.711979166666666
 10
-128.5983520507812
 20
2.408121744791666
 10
-129.3342244466145
 20
1.800406901041666
 10
-130.0707858615451
 20
1.192692057291666
 10
-130.4387220594618
 20
0.3961859809027777
 10
-130.4387220594618
 20
-0.589111328125
 97
        0
 92
        1
 93
        1
 72
     4
 94
        3
 73
     0
 74
     0
 95
       62
 96
       58
 40
0.0
 40
0.0
 40
0.0
 40
0.0
 40
1.0
 40
1.0
 40
1.0
 40
2.0
 40
2.0
 40
2.0
 40
3.0
 40
3.0
 40
3.0
 40
4.0
 40
4.0
 40
4.0
 40
5.0
 40
5.0
 40
5.0
 40
6.0
 40
6.0
 40
6.0
 40
7.0
 40
7.0
 40
7.0
 40
8.0
 40
8.0
 40
8.0
 40
9.0
 40
9.0
 40
9.0
 40
10.0
 40
10.0
 40
10.0
 40
11.0
 40
11.0
 40
11.0
 40
12.0
 40
12.0
 40
12.0
 40
13.0
 40
13.0
 40
13.0
 40
14.0
 40
14.0
 40
14.0
 40
15.0
 40
15.0
 40
15.0
 40
16.0
 40
16.0
 40
16.0
 40
17.0
 40
17.0
 40
17.0
 40
18.0
 40
18.0
 40
18.0
 40
19.0
 40
19.0
 40
19.0
 40
19.0
 10
-120.8255276150173
 20
6.063368055555555
 10
-120.8255276150173
 20
6.063368055555555
 10
-123.1626803927951
 20
5.931076388888888
 10
-123.1626803927951
 20
5.931076388888888
 10
-123.3721421983507
 20
6.659369574652776
 10
-123.667731391059
 20
7.188536241319443
 10
-124.0508260091145
 20
7.518576388888888
 10
-124.6867906358507
 20
8.047743055555555
 10
-125.4708943684895
 20
8.312326388888887
 10
-126.402448187934
 20
8.312326388888887
 10
-127.1514119466145
 20
8.312326388888887
 10
-127.816315375434
 20
8.143516710069443
 10
-128.3971584743923
 20
7.807275390624999
 10
-129.1226955837673
 20
7.371815321180554
 10
-129.6987155490451
 20
6.737228732638888
 10
-130.1252183702257
 20
5.902826605902776
 10
-130.5524102105035
 20
5.067735460069443
 10
-130.774274359809
 20
3.88537868923611
 10
-130.7914998372395
 20
2.355756293402777
 10
-130.2278822157118
 20
3.043397352430555
 10
-129.5374850802951
 20
3.553960503472221
 10
-128.7209974500868
 20
3.887445746527777
 10
-127.9051988389757
 20
4.220930989583332
 10
-127.0501261393229
 20
4.38767361111111
 10
-126.1557793511284
 20
4.38767361111111
 10
-124.5930840386284
 20
4.38767361111111
 10
-123.2625881618923
 20
3.926719835069444
 10
-122.1642917209201
 20
3.00481228298611
 10
-121.0659952799479
 20
2.082904730902777
 10
-120.5168470594618
 20
0.8909016927083332
 10
-120.5168470594618
 20
-0.5698187934027778
 10
-120.5168470594618
 20
-1.530311414930555
 10
-120.7752292209201
 20
-2.422591145833333
 10
-121.2919935438368
 20
-3.24665798611111
 10
-121.8087578667534
 20
-4.071413845486111
 10
-122.5191365559896
 20
-4.703244357638888
 10
-123.4224405924479
 20
-5.141460503472221
 10
-124.3257446289062
 20
-5.578987630208333
 10
-125.3503160264757
 20
-5.798784722222221
 10
-126.4968438042534
 20
-5.798784722222221
 10
-128.4515909830729
 20
-5.798784722222221
 10
-130.0452921549479
 20
-5.222075737847221
 10
-131.2786363389756
 20
-4.067968749999999
 10
-132.5119805230035
 20
-2.914550781249999
 10
-133.1286526150173
 20
-1.012858072916666
 10
-133.1286526150173
 20
1.636420355902777
 10
-133.1286526150173
 20
4.599202473958333
 10
-132.4451456705729
 20
6.753076171874999
 10
-131.078131781684
 20
8.098730468749998
 10
-129.8854397243923
 20
9.270062934027777
 10
-128.2786471896701
 20
9.855729166666666
 10
-126.2584431966146
 20
9.855729166666666
 10
-124.7522474500868
 20
9.855729166666666
 10
-123.5182142469618
 20
9.519487847222221
 10
-122.5563435872395
 20
8.847694227430555
 10
-121.5944729275173
 20
8.175900607638888
 10
-121.0170749240451
 20
7.247791883680554
 10
-120.8255276150173
 20
6.063368055555555
 97
        0
 75
     2
 76
     1
 98
        1
 10
0.0
 20
0.0
  0
HATCH
  5
4C
330
29
100
AcDbEntity
  8
LAYER_2
 62
     3
100
AcDbHatch
 10
0.0
 20
0.0
 30
0.0
210
0.0
220
0.0
230
1.0
  2
SOLID
 70
     1
 71
     0
 91
        1
 92
        1
 93
        1
 72
     4
 94
        3
 73
     0
 74
     0
 95
       17
 96
       13
 40
0.0
 40
0.0
 40
0.0
 40
0.0
 40
1.0
 40
1.0
 40
1.0
 40
2.0
 40
2.0
 40
2.0
 40
3.0
 40
3.0
 40
3.0
 40
4.0
 40
4.0
 40
4.0
 40
4.0
 10
-111.062471516927
 20
-0.9480902777777776
 10
-111.062471516927
 20
-0.9480902777777776
 10
-111.062471516927
 20
0.9480902777777776
 10
-111.062471516927
 20
0.9480902777777776
 10
-111.062471516927
 20
0.9480902777777776
 10
-103.8305270724826
 20
0.9480902777777776
 10
-103.8305270724826
 20
0.9480902777777776
 10
-103.8305270724826
 20
0.9480902777777776
 10
-103.8305270724826
 20
-0.9480902777777776
 10
-103.8305270724826
 20
-0.9480902777777776
 10
-103.8305270724826
 20
-0.9480902777777776
 10
-111.062471516927
 20
-0.9480902777777776
 10
-111.062471516927
 20
-0.9480902777777776
 97
        0
 75
     2
 76
     1
 98
        1
 10
0.0
 20
0.0
  0
HATCH
  5
4B
330
29
100
AcDbEntity
  8
LAYER_2
 62
     3
100
AcDbHatch
 10
0.0
 20
0.0
 30
0.0
210
0.0
220
0.0
230
1.0
  2
SOLID
 70
     1
 71
     0
 91
        2
 92
       16
 93
        1
 72
     4
 94
        3
 73
     0
 74
     0
 95
       32
 96
       28
 40
0.0
 40
0.0
 40
0.0
 40
0.0
 40
1.0
 40
1.0
 40
1.0
 40
2.0
 40
2.0
 40
2.0
 40
3.0
 40
3.0
 40
3.0
 40
4.0
 40
4.0
 40
4.0
 40
5.0
 40
5.0
 40
5.0
 40
6.0
 40
6.0
 40
6.0
 40
7.0
 40
7.0
 40
7.0
 40
8.0
 40
8.0
 40
8.0
 40
9.0
 40
9.0
 40
9.0
 40
9.0
 10
-91.90498453776042
 20
-0.589111328125
 10
-91.90498453776042
 20
-1.235411241319444
 10
-91.7341078016493
 20
-1.853461371527777
 10
-91.39166531032985
 20
-2.443261718749999
 10
-91.04991183810763
 20
-3.033751085069444
 10
-90.57517768012152
 20
-3.483680555555555
 10
-89.96746283637152
 20
-3.79236111111111
 10
-89.35974799262153
 20
-4.101041666666666
 10
-88.7106920030382
 20
-4.255381944444444
 10
-88.02029486762151
 20
-4.255381944444444
 10
-87.01846110026041
 20
-4.255381944444444
 10
-86.1654554578993
 20
-3.936366102430555
 10
-85.46265597873263
 20
-3.297645399305555
 10
-84.75985649956596
 20
-2.658924696180555
 10
-84.40845675998263
 20
-1.790760633680555
 10
-84.40845675998263
 20
-0.6938422309027778
 10
-84.40845675998263
 20
0.3617350260416666
 10
-84.75572238498264
 20
1.192692057291666
 10
-85.45025363498263
 20
1.800406901041666
 10
-86.14478488498262
 20
2.408121744791666
 10
-87.03155246310762
 20
2.711979166666666
 10
-88.11124538845485
 20
2.711979166666666
 10
-89.16820068359374
 20
2.711979166666666
 10
-90.06461452907984
 20
2.408121744791666
 10
-90.80048692491319
 20
1.800406901041666
 10
-91.53704833984374
 20
1.192692057291666
 10
-91.90498453776042
 20
0.3961859809027777
 10
-91.90498453776042
 20
-0.589111328125
 97
        0
 92
        1
 93
        1
 72
     4
 94
        3
 73
     0
 74
     0
 95
       62
 96
       58
 40
0.0
 40
0.0
 40
0.0
 40
0.0
 40
1.0
 40
1.0
 40
1.0
 40
2.0
 40
2.0
 40
2.0
 40
3.0
 40
3.0
 40
3.0
 40
4.0
 40
4.0
 40
4.0
 40
5.0
 40
5.0
 40
5.0
 40
6.0
 40
6.0
 40
6.0
 40
7.0
 40
7.0
 40
7.0
 40
8.0
 40
8.0
 40
8.0
 40
9.0
 40
9.0
 40
9.0
 40
10.0
 40
10.0
 40
10.0
 40
11.0
 40
11.0
 40
11.0
 40
12.0
 40
12.0
 40
12.0
 40
13.0
 40
13.0
 40
13.0
 40
14.0
 40
14.0
 40
14.0
 40
15.0
 40
15.0
 40
15.0
 40
16.0
 40
16.0
 40
16.0
 40
17.0
 40
17.0
 40
17.0
 40
18.0
 40
18.0
 40
18.0
 40
19.0
 40
19.0
 40
19.0
 40
19.0
 10
-82.29179009331597
 20
6.063368055555555
 10
-82.29179009331597
 20
6.063368055555555
 10
-84.62894287109374
 20
5.931076388888888
 10
-84.62894287109374
 20
5.931076388888888
 10
-84.83840467664931
 20
6.659369574652776
 10
-85.13399386935763
 20
7.188536241319443
 10
-85.51708848741318
 20
7.518576388888888
 10
-86.1530531141493
 20
8.047743055555555
 10
-86.93715684678819
 20
8.312326388888887
 10
-87.86871066623263
 20
8.312326388888887
 10
-88.61767442491318
 20
8.312326388888887
 10
-89.28257785373263
 20
8.143516710069443
 10
-89.86342095269096
 20
7.807275390624999
 10
-90.58895806206598
 20
7.371815321180554
 10
-91.16497802734373
 20
6.737228732638888
 10
-91.5914808485243
 20
5.902826605902776
 10
-92.01867268880207
 20
5.067735460069443
 10
-92.24053683810764
 20
3.88537868923611
 10
-92.25776231553819
 20
2.355756293402777
 10
-91.6941446940104
 20
3.043397352430555
 10
-91.00374755859375
 20
3.553960503472221
 10
-90.1872599283854
 20
3.887445746527777
 10
-89.37146131727429
 20
4.220930989583332
 10
-88.51638861762152
 20
4.38767361111111
 10
-87.62204182942708
 20
4.38767361111111
 10
-86.05934651692708
 20
4.38767361111111
 10
-84.72885064019097
 20
3.926719835069444
 10
-83.63055419921874
 20
3.00481228298611
 10
-82.53225775824651
 20
2.082904730902777
 10
-81.98310953776042
 20
0.8909016927083332
 10
-81.98310953776042
 20
-0.5698187934027778
 10
-81.98310953776042
 20
-1.530311414930555
 10
-82.24149169921874
 20
-2.422591145833333
 10
-82.75825602213542
 20
-3.24665798611111
 10
-83.27502034505206
 20
-4.071413845486111
 10
-83.98539903428819
 20
-4.703244357638888
 10
-84.88870307074652
 20
-5.141460503472221
 10
-85.79200710720485
 20
-5.578987630208333
 10
-86.8165785047743
 20
-5.798784722222221
 10
-87.96310628255207
 20
-5.798784722222221
 10
-89.91785346137152
 20
-5.798784722222221
 10
-91.51155463324652
 20
-5.222075737847221
 10
-92.74489881727429
 20
-4.067968749999999
 10
-93.97824300130208
 20
-2.914550781249999
 10
-94.59491509331597
 20
-1.012858072916666
 10
-94.59491509331597
 20
1.636420355902777
 10
-94.59491509331597
 20
4.599202473958333
 10
-93.91140814887151
 20
6.753076171874999
 10
-92.54439425998262
 20
8.098730468749998
 10
-91.35170220269095
 20
9.270062934027777
 10
-89.74490966796874
 20
9.855729166666666
 10
-87.72470567491318
 20
9.855729166666666
 10
-86.21850992838542
 20
9.855729166666666
 10
-84.9844767252604
 20
9.519487847222221
 10
-84.02260606553818
 20
8.847694227430555
 10
-83.06073540581596
 20
8.175900607638888
 10
-82.48333740234373
 20
7.247791883680554
 10
-82.29179009331597
 20
6.063368055555555
 97
        0
 75
     2
 76
     1
 98
        1
 10
0.0
 20
0.0
  0
HATCH
  5
4A
330
29
100
AcDbEntity
  8
LAYER_2
 62
     3
100
AcDbHatch
 10
0.0
 20
0.0
 30
0.0
210
0.0
220
0.0
230
1.0
  2
SOLID
 70
     1
 71
     0
 91
        1
 92
        1
 93
        1
 72
     4
 94
        3
 73
     0
 74
     0
 95
       71
 96
       67
 40
0.0
 40
0.0
 40
0.0
 40
0.0
 40
1.0
 40
1.0
 40
1.0
 40
2.0
 40
2.0
 40
2.0
 40
3.0
 40
3.0
 40
3.0
 40
4.0
 40
4.0
 40
4.0
 40
5.0
 40
5.0
 40
5.0
 40
6.0
 40
6.0
 40
6.0
 40
7.0
 40
7.0
 40
7.0
 40
8.0
 40
8.0
 40
8.0
 40
9.0
 40
9.0
 40
9.0
 40
10.0
 40
10.0
 40
10.0
 40
11.0
 40
11.0
 40
11.0
 40
12.0
 40
12.0
 40
12.0
 40
13.0
 40
13.0
 40
13.0
 40
14.0
 40
14.0
 40
14.0
 40
15.0
 40
15.0
 40
15.0
 40
16.0
 40
16.0
 40
16.0
 40
17.0
 40
17.0
 40
17.0
 40
18.0
 40
18.0
 40
18.0
 40
19.0
 40
19.0
 40
19.0
 40
20.0
 40
20.0
 40
20.0
 40
21.0
 40
21.0
 40
21.0
 40
22.0
 40
22.0
 40
22.0
 40
22.0
 10
-59.96137017144096
 20
-3.726215277777777
 10
-59.96137017144096
 20
-3.726215277777777
 10
-59.96137017144096
 20
-5.534201388888888
 10
-59.96137017144096
 20
-5.534201388888888
 10
-59.96137017144096
 20
-5.534201388888888
 10
-72.57317572699652
 20
-5.534201388888888
 10
-72.57317572699652
 20
-5.534201388888888
 10
-72.5910902235243
 20
-5.081515842013888
 10
-72.49945068359375
 20
-4.646055772569444
 10
-72.29894612630207
 20
-4.227132161458333
 10
-71.97786322699652
 20
-3.537424045138888
 10
-71.4624769422743
 20
-2.859429253472221
 10
-70.75347629123263
 20
-2.193147786458333
 10
-70.04516465928819
 20
-1.526866319444444
 10
-69.0254163953993
 20
-0.7530978732638888
 10
-67.6956095377604
 20
0.1274685329861111
 10
-65.63130832248264
 20
1.511707899305555
 10
-64.23811170789929
 20
2.60173611111111
 10
-63.51533067491319
 20
3.397553168402777
 10
-62.79254964192707
 20
4.193370225694444
 10
-62.43081461588541
 20
4.949224175347222
 10
-62.43081461588541
 20
5.664425998263888
 10
-62.43081461588541
 20
6.407877604166666
 10
-62.76085476345485
 20
7.034884982638888
 10
-63.4195570203993
 20
7.546137152777776
 10
-64.07894829644097
 20
8.056700303819443
 10
-64.93815511067707
 20
8.312326388888887
 10
-65.99786648220486
 20
8.312326388888887
 10
-67.11821153428819
 20
8.312326388888887
 10
-68.01393636067707
 20
8.035340711805554
 10
-68.68572998046875
 20
7.481369357638888
 10
-69.35821261935763
 20
6.927398003472221
 10
-69.69858805338541
 20
6.16120876736111
 10
-69.70685628255208
 20
5.18142361111111
 10
-69.70685628255208
 20
5.18142361111111
 10
-72.13220350477429
 20
5.446006944444444
 10
-72.13220350477429
 20
5.446006944444444
 10
-71.96821695963541
 20
6.881233723958332
 10
-71.34878879123263
 20
7.974707031249999
 10
-70.27391899956596
 20
8.727115885416665
 10
-69.19904920789929
 20
9.479524739583332
 10
-67.75624321831597
 20
9.855729166666666
 10
-65.94550103081596
 20
9.855729166666666
 10
-64.11753336588541
 20
9.855729166666666
 10
-62.67059326171875
 20
9.44782986111111
 10
-61.60468071831597
 20
8.632720269097221
 10
-60.53876817491318
 20
7.817610677083332
 10
-60.00546739366319
 20
6.807508680555555
 10
-60.00546739366319
 20
5.60310329861111
 10
-60.00546739366319
 20
4.989876302083333
 10
-60.16118570963541
 20
4.386984592013888
 10
-60.47124430338541
 20
3.795117187499999
 10
-60.78199191623263
 20
3.202560763888888
 10
-61.29737820095485
 20
2.578998480902777
 10
-62.01740315755207
 20
1.924430338541666
 10
-62.73811713324652
 20
1.269862196180555
 10
-63.93632134331596
 20
0.3700032552083333
 10
-65.61201578776041
 20
-0.7744574652777777
 10
-67.01761474609374
 20
-1.723925781249999
 10
-67.91885172526041
 20
-2.367469618055555
 10
-68.31434868706597
 20
-2.705777994791666
 10
-68.71053466796874
 20
-3.044775390624999
 10
-69.0378187391493
 20
-3.384461805555555
 10
-69.29551188151041
 20
-3.726215277777777
 10
-69.29551188151041
 20
-3.726215277777777
 10
-59.96137017144096
 20
-3.726215277777777
 10
-59.96137017144096
 20
-3.726215277777777
 97
        0
 75
     2
 76
     1
 98
        1
 10
0.0
 20
0.0
  0
HATCH
  5
49
330
29
100
AcDbEntity
  8
LAYER_2
 62
     3
100
AcDbHatch
 10
0.0
 20
0.0
 30
0.0
210
0.0
220
0.0
230
1.0
  2
SOLID
 70
     1
 71
     0
 91
        2
 92
       16
 93
        1
 72
     4
 94
        3
 73
     0
 74
     0
 95
       29
 96
       25
 40
0.0
 40
0.0
 40
0.0
 40
0.0
 40
1.0
 40
1.0
 40
1.0
 40
2.0
 40
2.0
 40
2.0
 40
3.0
 40
3.0
 40
3.0
 40
4.0
 40
4.0
 40
4.0
 40
5.0
 40
5.0
 40
5.0
 40
6.0
 40
6.0
 40
6.0
 40
7.0
 40
7.0
 40
7.0
 40
8.0
 40
8.0
 40
8.0
 40
8.0
 10
-40.10039469401041
 20
4.792127821180555
 10
-40.10039469401041
 20
5.871131727430555
 10
-40.45317247178819
 20
6.727582465277777
 10
-41.15803900824652
 20
7.361480034722221
 10
-41.86290554470486
 20
7.995377604166665
 10
-42.72280137803819
 20
8.312326388888887
 10
-43.73841552734375
 20
8.312326388888887
 10
-44.78916965060763
 20
8.312326388888887
 10
-45.69522976345485
 20
7.970572916666665
 10
-46.45590684678818
 20
7.288444010416665
 10
-47.21658393012152
 20
6.606315104166665
 10
-47.59692247178819
 20
5.721614583333332
 10
-47.59692247178819
 20
4.63572048611111
 10
-47.59692247178819
 20
3.660069444444443
 10
-47.23587646484374
 20
2.867697482638888
 10
-46.51378445095486
 20
2.258604600694444
 10
-45.79169243706597
 20
1.649511718749999
 10
-44.88838840060763
 20
1.344965277777777
 10
-43.80318332248263
 20
1.344965277777777
 10
-42.72417941623263
 20
1.344965277777777
 10
-41.83741183810763
 20
1.649511718749999
 10
-41.14288058810763
 20
2.258604600694444
 10
-40.44834933810763
 20
2.867697482638888
 10
-40.10039469401041
 20
3.712434895833332
 10
-40.10039469401041
 20
4.792127821180555
 97
        0
 92
        1
 93
        1
 72
     4
 94
        3
 73
     0
 74
     0
 95
       71
 96
       67
 40
0.0
 40
0.0
 40
0.0
 40
0.0
 40
1.0
 40
1.0
 40
1.0
 40
2.0
 40
2.0
 40
2.0
 40
3.0
 40
3.0
 40
3.0
 40
4.0
 40
4.0
 40
4.0
 40
5.0
 40
5.0
 40
5.0
 40
6.0
 40
6.0
 40
6.0
 40
7.0
 40
7.0
 40
7.0
 40
8.0
 40
8.0
 40
8.0
 40
9.0
 40
9.0
 40
9.0
 40
10.0
 40
10.0
 40
10.0
 40
11.0
 40
11.0
 40
11.0
 40
12.0
 40
12.0
 40
12.0
 40
13.0
 40
13.0
 40
13.0
 40
14.0
 40
14.0
 40
14.0
 40
15.0
 40
15.0
 40
15.0
 40
16.0
 40
16.0
 40
16.0
 40
17.0
 40
17.0
 40
17.0
 40
18.0
 40
18.0
 40
18.0
 40
19.0
 40
19.0
 40
19.0
 40
20.0
 40
20.0
 40
20.0
 40
21.0
 40
21.0
 40
21.0
 40
22.0
 40
22.0
 40
22.0
 40
22.0
 10
-49.71358913845485
 20
-2.00642361111111
 10
-49.71358913845485
 20
-2.00642361111111
 10
-47.46463080512152
 20
-1.874131944444444
 10
-47.46463080512152
 20
-1.874131944444444
 10
-47.27308349609375
 20
-2.709223090277777
 10
-46.90790337456596
 20
-3.31487087673611
 10
-46.36771240234375
 20
-3.691075303819443
 10
-45.82752143012152
 20
-4.067279730902777
 10
-45.13505723741319
 20
-4.255381944444444
 10
-44.29031982421874
 20
-4.255381944444444
 10
-43.56753879123263
 20
-4.255381944444444
 10
-42.93019612630208
 20
-4.123090277777777
 10
-42.3789808485243
 20
-3.857128906249999
 10
-41.82776557074652
 20
-3.591167534722222
 10
-41.38128119574652
 20
-3.236322699652777
 10
-41.04021674262152
 20
-2.791905381944444
 10
-40.69915228949652
 20
-2.34748806423611
 10
-40.41114230685763
 20
-1.748041449652777
 10
-40.17618679470485
 20
-0.9935655381944442
 10
-39.94123128255208
 20
-0.2390896267361111
 10
-39.82340901692708
 20
0.527099609375
 10
-39.82340901692708
 20
1.30569118923611
 10
-39.82340901692708
 20
1.388373480902777
 10
-39.82754313151041
 20
1.513774956597222
 10
-39.83581136067708
 20
1.680517578124999
 10
-40.30365532769097
 20
1.083138020833333
 10
-40.94237603081597
 20
0.5987575954861111
 10
-41.7526624891493
 20
0.2266872829861111
 10
-42.56294894748263
 20
-0.1453830295138889
 10
-43.4393812391493
 20
-0.3307291666666666
 10
-44.38333740234375
 20
-0.3307291666666666
 10
-45.95981309678818
 20
-0.3307291666666666
 10
-47.2937540690104
 20
0.1288465711805555
 10
-48.38516031901041
 20
1.047998046874999
 10
-49.47656656901042
 20
1.967149522569444
 10
-50.02226969401041
 20
3.179134114583332
 10
-50.02226969401041
 20
4.683951822916665
 10
-50.02226969401041
 20
6.237000868055554
 10
-49.45313991970486
 20
7.487570529513888
 10
-48.31419135199652
 20
8.434971788194443
 10
-47.17524278428818
 20
9.381684027777776
 10
-45.74828423394097
 20
9.855729166666666
 10
-44.03331570095486
 20
9.855729166666666
 10
-42.79514838324653
 20
9.855729166666666
 10
-41.66309000651041
 20
9.587011718749998
 10
-40.63645155164929
 20
9.050265842013887
 10
-39.6098130967882
 20
8.513519965277776
 10
-38.83053249782986
 20
7.74870876736111
 10
-38.29792073567708
 20
6.755143229166666
 10
-37.7653089735243
 20
5.761577690972221
 10
-37.4986585828993
 20
4.323594835069443
 10
-37.4986585828993
 20
2.441194661458333
 10
-37.4986585828993
 20
0.4823133680555556
 10
-37.76393093532986
 20
-1.077625868055555
 10
-38.29378662109375
 20
-2.237934027777777
 10
-38.82433132595486
 20
-3.398931206597221
 10
-39.61256917317708
 20
-4.282942708333332
 10
-40.65987820095485
 20
-4.889279513888888
 10
-41.70718722873263
 20
-5.495616319444444
 10
-42.93501925998262
 20
-5.798784722222221
 10
-44.34268527560763
 20
-5.798784722222221
 10
-45.83785671657985
 20
-5.798784722222221
 10
-47.05879855685763
 20
-5.467366536458333
 10
-48.00619981553818
 20
-4.803841145833333
 10
-48.95360107421875
 20
-4.141004774305555
 10
-49.5227308485243
 20
-3.208072916666666
 10
-49.71358913845485
 20
-2.00642361111111
 97
        0
 75
     2
 76
     1
 98
        1
 10
0.0
 20
0.0
  0
HATCH
  5
48
330
29
100
AcDbEntity
  8
LAYER_2
 62
     3
100
AcDbHatch
 10
0.0
 20
0.0
 30
0.0
210
0.0
220
0.0
230
1.0
  2
SOLID
 70
     1
 71
     0
 91
        1
 92
        1
 93
        1
 72
     4
 94
        3
 73
     0
 74
     0
 95
       95
 96
       91
 40
0.0
 40
0.0
 40
0.0
 40
0.0
 40
1.0
 40
1.0
 40
1.0
 40
2.0
 40
2.0
 40
2.0
 40
3.0
 40
3.0
 40
3.0
 40
4.0
 40
4.0
 40
4.0
 40
5.0
 40
5.0
 40
5.0
 40
6.0
 40
6.0
 40
6.0
 40
7.0
 40
7.0
 40
7.0
 40
8.0
 40
8.0
 40
8.0
 40
9.0
 40
9.0
 40
9.0
 40
10.0
 40
10.0
 40
10.0
 40
11.0
 40
11.0
 40
11.0
 40
12.0
 40
12.0
 40
12.0
 40
13.0
 40
13.0
 40
13.0
 40
14.0
 40
14.0
 40
14.0
 40
15.0
 40
15.0
 40
15.0
 40
16.0
 40
16.0
 40
16.0
 40
17.0
 40
17.0
 40
17.0
 40
18.0
 40
18.0
 40
18.0
 40
19.0
 40
19.0
 40
19.0
 40
20.0
 40
20.0
 40
20.0
 40
21.0
 40
21.0
 40
21.0
 40
22.0
 40
22.0
 40
22.0
 40
23.0
 40
23.0
 40
23.0
 40
24.0
 40
24.0
 40
24.0
 40
25.0
 40
25.0
 40
25.0
 40
26.0
 40
26.0
 40
26.0
 40
27.0
 40
27.0
 40
27.0
 40
28.0
 40
28.0
 40
28.0
 40
29.0
 40
29.0
 40
29.0
 40
30.0
 40
30.0
 40
30.0
 40
30.0
 10
-27.77969970703125
 20
-1.521354166666666
 10
-27.77969970703125
 20
-1.521354166666666
 10
-25.44254692925347
 20
-1.256770833333333
 10
-25.44254692925347
 20
-1.256770833333333
 10
-25.17245144314236
 20
-2.319238281249999
 10
-24.71494276258681
 20
-3.084049479166666
 10
-24.07139892578125
 20
-3.552582465277777
 10
-23.42785508897569
 20
-4.021115451388888
 10
-22.63203803168403
 20
-4.255381944444444
 10
-21.6825697157118
 20
-4.255381944444444
 10
-20.55877956814236
 20
-4.255381944444444
 10
-19.61826850043403
 20
-3.94739040798611
 10
-18.8610365125868
 20
-3.331407335069444
 10
-18.1044935438368
 20
-2.715424262152777
 10
-17.72553304036458
 20
-1.951991102430555
 10
-17.72553304036458
 20
-1.041796874999999
 10
-17.72553304036458
 20
-0.1736328125
 10
-18.0796888563368
 20
0.5422580295138888
 10
-18.7866224500868
 20
1.105186631944444
 10
-19.49424506293403
 20
1.668115234374999
 10
-20.39410400390625
 20
1.949924045138888
 10
-21.48551025390625
 20
1.949924045138888
 10
-21.93130560980903
 20
1.949924045138888
 10
-22.48596598307292
 20
1.880333116319444
 10
-23.14949137369791
 20
1.741840277777777
 10
-23.14949137369791
 20
1.741840277777777
 10
-22.88766411675347
 20
3.373437499999999
 10
-22.88766411675347
 20
3.373437499999999
 10
-22.7305677625868
 20
3.358968098958333
 10
-22.60447726779513
 20
3.35207790798611
 10
-22.50870361328125
 20
3.35207790798611
 10
-21.50824788411458
 20
3.35207790798611
 10
-20.60838894314236
 20
3.560850694444444
 10
-19.80774875217013
 20
3.979774305555555
 10
-19.00779758029513
 20
4.398697916666666
 10
-18.60747748480903
 20
5.043619791666666
 10
-18.60747748480903
 20
5.915917968749999
 10
-18.60747748480903
 20
6.606315104166665
 10
-18.90237765842013
 20
7.178889973958332
 10
-19.49079996744791
 20
7.632264539930554
 10
-20.07991129557292
 20
8.085639105902776
 10
-20.84058837890625
 20
8.312326388888887
 10
-21.77214219835069
 20
8.312326388888887
 10
-22.69542778862847
 20
8.312326388888887
 10
-23.46437310112847
 20
8.080815972222222
 10
-24.07966715494791
 20
7.617795138888888
 10
-24.69496120876736
 20
7.154774305555554
 10
-25.09045817057292
 20
6.460243055555555
 10
-25.26615804036458
 20
5.534201388888888
 10
-25.26615804036458
 20
5.534201388888888
 10
-27.60331081814236
 20
5.886979166666666
 10
-27.60331081814236
 20
5.886979166666666
 10
-27.31461181640625
 20
7.14719509548611
 10
-26.65797661675347
 20
8.12353515625
 10
-25.63409423828125
 20
8.816688368055555
 10
-24.61021185980903
 20
9.509152560763887
 10
-23.33690456814236
 20
9.855729166666666
 10
-21.81417236328125
 20
9.855729166666666
 10
-20.76410725911458
 20
9.855729166666666
 10
-19.79672444661458
 20
9.675895182291665
 10
-18.91271294487847
 20
9.317605251736109
 10
-18.02939046223958
 20
8.959315321180554
 10
-17.35346272786458
 20
8.470111762152777
 10
-16.88492974175347
 20
7.850683593749999
 10
-16.41639675564236
 20
7.230566406249999
 10
-16.1821302625868
 20
6.572553168402777
 10
-16.1821302625868
 20
5.876643880208332
 10
-16.1821302625868
 20
5.215185546874999
 10
-16.40399441189236
 20
4.612293836805554
 10
-16.84703369140625
 20
4.069346788194444
 10
-17.29007297092013
 20
3.526399739583332
 10
-17.94533013237847
 20
3.094384765624999
 10
-18.81349419487847
 20
2.774679904513888
 10
-17.68488091362847
 20
2.565218098958333
 10
-16.80982666015625
 20
2.131825086805555
 10
-16.1883314344618
 20
1.47312282986111
 10
-15.56683620876736
 20
0.8144205729166666
 10
-15.25608859592014
 20
-0.0103352864583333
 10
-15.25608859592014
 20
-0.9997667100694444
 10
-15.25608859592014
 20
-2.337841796874999
 10
-15.86518147786458
 20
-3.472656249999999
 10
-17.08267822265625
 20
-4.40283203125
 10
-18.30017496744791
 20
-5.333696831597221
 10
-19.83944363064236
 20
-5.798784722222221
 10
-21.70048421223958
 20
-5.798784722222221
 10
-23.37893473307291
 20
-5.798784722222221
 10
-24.77282036675347
 20
-5.401909722222221
 10
-25.88145209418403
 20
-4.608159722222222
 10
-26.9907728407118
 20
-3.814409722222221
 10
-27.6232923719618
 20
-2.785015190972222
 10
-27.77969970703125
 20
-1.521354166666666
 97
        0
 75
     2
 76
     1
 98
        1
 10
0.0
 20
0.0
  0
HATCH
  5
47
330
29
100
AcDbEntity
  8
LAYER_2
 62
     3
100
AcDbHatch
 10
0.0
 20
0.0
 30
0.0
210
0.0
220
0.0
230
1.0
  2
SOLID
 70
     1
 71
     0
 91
        1
 92
        1
 93
        1
 72
     4
 94
        3
 73
     0
 74
     0
 95
       62
 96
       58
 40
0.0
 40
0.0
 40
0.0
 40
0.0
 40
1.0
 40
1.0
 40
1.0
 40
2.0
 40
2.0
 40
2.0
 40
3.0
 40
3.0
 40
3.0
 40
4.0
 40
4.0
 40
4.0
 40
5.0
 40
5.0
 40
5.0
 40
6.0
 40
6.0
 40
6.0
 40
7.0
 40
7.0
 40
7.0
 40
8.0
 40
8.0
 40
8.0
 40
9.0
 40
9.0
 40
9.0
 40
10.0
 40
10.0
 40
10.0
 40
11.0
 40
11.0
 40
11.0
 40
12.0
 40
12.0
 40
12.0
 40
13.0
 40
13.0
 40
13.0
 40
14.0
 40
14.0
 40
14.0
 40
15.0
 40
15.0
 40
15.0
 40
16.0
 40
16.0
 40
16.0
 40
17.0
 40
17.0
 40
17.0
 40
18.0
 40
18.0
 40
18.0
 40
19.0
 40
19.0
 40
19.0
 40
19.0
 10
50.55264214409722
 20
-5.534201388888888
 10
50.55264214409722
 20
-5.534201388888888
 10
45.53727213541666
 20
9.767534722222221
 10
45.53727213541666
 20
9.767534722222221
 10
45.53727213541666
 20
9.767534722222221
 10
48.1369411892361
 20
9.767534722222221
 10
48.1369411892361
 20
9.767534722222221
 10
48.1369411892361
 20
9.767534722222221
 10
50.99705946180555
 20
-0.2866319444444444
 10
50.99705946180555
 20
-0.2866319444444444
 10
51.32020941840277
 20
-1.333251953124999
 10
51.59512803819444
 20
-2.369536675347221
 10
51.82112630208333
 20
-3.394797092013888
 10
52.31790907118055
 20
-1.759065755208333
 10
52.60936414930554
 20
-0.815798611111111
 10
52.6948025173611
 20
-0.5649956597222223
 10
52.6948025173611
 20
-0.5649956597222223
 10
56.3162868923611
 20
9.767534722222221
 10
56.3162868923611
 20
9.767534722222221
 10
56.3162868923611
 20
9.767534722222221
 10
59.36244032118055
 20
9.767534722222221
 10
59.36244032118055
 20
9.767534722222221
 10
59.36244032118055
 20
9.767534722222221
 10
62.092333984375
 20
1.996777343749999
 10
62.092333984375
 20
1.996777343749999
 10
62.7717068142361
 20
0.0764811197916667
 10
63.27262369791666
 20
-1.720480685763888
 10
63.59508463541666
 20
-3.394797092013888
 10
63.85415581597222
 20
-2.430859374999999
 10
64.17317165798611
 20
-1.321538628472222
 10
64.55075412326388
 20
-0.0661458333333333
 10
64.55075412326388
 20
-0.0661458333333333
 10
67.55832248263889
 20
9.767534722222221
 10
67.55832248263889
 20
9.767534722222221
 10
67.55832248263889
 20
9.767534722222221
 10
70.09942491319444
 20
9.767534722222221
 10
70.09942491319444
 20
9.767534722222221
 10
70.09942491319444
 20
9.767534722222221
 10
64.84703233506944
 20
-5.534201388888888
 10
64.84703233506944
 20
-5.534201388888888
 10
64.84703233506944
 20
-5.534201388888888
 10
62.37896592881944
 20
-5.534201388888888
 10
62.37896592881944
 20
-5.534201388888888
 10
62.37896592881944
 20
-5.534201388888888
 10
58.39712456597222
 20
6.101953124999999
 10
58.39712456597222
 20
6.101953124999999
 10
58.06363932291667
 20
7.075537109374999
 10
57.85555555555554
 20
7.681873914930554
 10
57.77425130208333
 20
7.920274522569443
 10
57.56410047743055
 20
7.216786024305554
 10
57.37462022569443
 20
6.617339409722221
 10
57.20649956597221
 20
6.122623697916665
 10
57.20649956597221
 20
6.122623697916665
 10
53.17918294270833
 20
-5.534201388888888
 10
53.17918294270833
 20
-5.534201388888888
 10
53.17918294270833
 20
-5.534201388888888
 10
50.55264214409722
 20
-5.534201388888888
 10
50.55264214409722
 20
-5.534201388888888
 97
        0
 75
     2
 76
     1
 98
        1
 10
0.0
 20
0.0
  0
HATCH
  5
46
330
29
100
AcDbEntity
  8
LAYER_2
 62
     3
100
AcDbHatch
 10
0.0
 20
0.0
 30
0.0
210
0.0
220
0.0
230
1.0
  2
SOLID
 70
     1
 71
     0
 91
        1
 92
        1
 93
        1
 72
     4
 94
        3
 73
     0
 74
     0
 95
       62
 96
       58
 40
0.0
 40
0.0
 40
0.0
 40
0.0
 40
1.0
 40
1.0
 40
1.0
 40
2.0
 40
2.0
 40
2.0
 40
3.0
 40
3.0
 40
3.0
 40
4.0
 40
4.0
 40
4.0
 40
5.0
 40
5.0
 40
5.0
 40
6.0
 40
6.0
 40
6.0
 40
7.0
 40
7.0
 40
7.0
 40
8.0
 40
8.0
 40
8.0
 40
9.0
 40
9.0
 40
9.0
 40
10.0
 40
10.0
 40
10.0
 40
11.0
 40
11.0
 40
11.0
 40
12.0
 40
12.0
 40
12.0
 40
13.0
 40
13.0
 40
13.0
 40
14.0
 40
14.0
 40
14.0
 40
15.0
 40
15.0
 40
15.0
 40
16.0
 40
16.0
 40
16.0
 40
17.0
 40
17.0
 40
17.0
 40
18.0
 40
18.0
 40
18.0
 40
19.0
 40
19.0
 40
19.0
 40
19.0
 10
83.13497721354165
 20
-5.534201388888888
 10
83.13497721354165
 20
-5.534201388888888
 10
78.11960720486109
 20
9.767534722222221
 10
78.11960720486109
 20
9.767534722222221
 10
78.11960720486109
 20
9.767534722222221
 10
80.71927625868054
 20
9.767534722222221
 10
80.71927625868054
 20
9.767534722222221
 10
80.71927625868054
 20
9.767534722222221
 10
83.57939453124998
 20
-0.2866319444444444
 10
83.57939453124998
 20
-0.2866319444444444
 10
83.90254448784721
 20
-1.333251953124999
 10
84.17746310763888
 20
-2.369536675347221
 10
84.40346137152777
 20
-3.394797092013888
 10
84.90024414062499
 20
-1.759065755208333
 10
85.19169921874999
 20
-0.815798611111111
 10
85.27713758680555
 20
-0.5649956597222223
 10
85.27713758680555
 20
-0.5649956597222223
 10
88.89862196180555
 20
9.767534722222221
 10
88.89862196180555
 20
9.767534722222221
 10
88.89862196180555
 20
9.767534722222221
 10
91.944775390625
 20
9.767534722222221
 10
91.944775390625
 20
9.767534722222221
 10
91.944775390625
 20
9.767534722222221
 10
94.67466905381945
 20
1.996777343749999
 10
94.67466905381945
 20
1.996777343749999
 10
95.35404188368055
 20
0.0764811197916667
 10
95.85495876736109
 20
-1.720480685763888
 10
96.17741970486111
 20
-3.394797092013888
 10
96.43649088541666
 20
-2.430859374999999
 10
96.75550672743055
 20
-1.321538628472222
 10
97.13308919270833
 20
-0.0661458333333333
 10
97.13308919270833
 20
-0.0661458333333333
 10
100.1406575520833
 20
9.767534722222221
 10
100.1406575520833
 20
9.767534722222221
 10
100.1406575520833
 20
9.767534722222221
 10
102.6817599826389
 20
9.767534722222221
 10
102.6817599826389
 20
9.767534722222221
 10
102.6817599826389
 20
9.767534722222221
 10
97.42936740451389
 20
-5.534201388888888
 10
97.42936740451389
 20
-5.534201388888888
 10
97.42936740451389
 20
-5.534201388888888
 10
94.96130099826388
 20
-5.534201388888888
 10
94.96130099826388
 20
-5.534201388888888
 10
94.96130099826388
 20
-5.534201388888888
 10
90.97945963541667
 20
6.101953124999999
 10
90.97945963541667
 20
6.101953124999999
 10
90.64597439236109
 20
7.075537109374999
 10
90.437890625
 20
7.681873914930554
 10
90.35658637152776
 20
7.920274522569443
 10
90.146435546875
 20
7.216786024305554
 10
89.95695529513888
 20
6.617339409722221
 10
89.78883463541666
 20
6.122623697916665
 10
89.78883463541666
 20
6.122623697916665
 10
85.76151801215276
 20
-5.534201388888888
 10
85.76151801215276
 20
-5.534201388888888
 10
85.76151801215276
 20
-5.534201388888888
 10
83.13497721354165
 20
-5.534201388888888
 10
83.13497721354165
 20
-5.534201388888888
 97
        0
 75
     2
 76
     1
 98
        1
 10
0.0
 20
0.0
  0
HATCH
  5
45
330
29
100
AcDbEntity
  8
LAYER_2
 62
     3
100
AcDbHatch
 10
0.0
 20
0.0
 30
0.0
210
0.0
220
0.0
230
1.0
  2
SOLID
 70
     1
 71
     0
 91
        1
 92
        1
 93
        1
 72
     4
 94
        3
 73
     0
 74
     0
 95
       62
 96
       58
 40
0.0
 40
0.0
 40
0.0
 40
0.0
 40
1.0
 40
1.0
 40
1.0
 40
2.0
 40
2.0
 40
2.0
 40
3.0
 40
3.0
 40
3.0
 40
4.0
 40
4.0
 40
4.0
 40
5.0
 40
5.0
 40
5.0
 40
6.0
 40
6.0
 40
6.0
 40
7.0
 40
7.0
 40
7.0
 40
8.0
 40
8.0
 40
8.0
 40
9.0
 40
9.0
 40
9.0
 40
10.0
 40
10.0
 40
10.0
 40
11.0
 40
11.0
 40
11.0
 40
12.0
 40
12.0
 40
12.0
 40
13.0
 40
13.0
 40
13.0
 40
14.0
 40
14.0
 40
14.0
 40
15.0
 40
15.0
 40
15.0
 40
16.0
 40
16.0
 40
16.0
 40
17.0
 40
17.0
 40
17.0
 40
18.0
 40
18.0
 40
18.0
 40
19.0
 40
19.0
 40
19.0
 40
19.0
 10
115.7173122829861
 20
-5.534201388888888
 10
115.7173122829861
 20
-5.534201388888888
 10
110.7019422743055
 20
9.767534722222221
 10
110.7019422743055
 20
9.767534722222221
 10
110.7019422743055
 20
9.767534722222221
 10
113.301611328125
 20
9.767534722222221
 10
113.301611328125
 20
9.767534722222221
 10
113.301611328125
 20
9.767534722222221
 10
116.1617296006944
 20
-0.2866319444444444
 10
116.1617296006944
 20
-0.2866319444444444
 10
116.4848795572916
 20
-1.333251953124999
 10
116.7597981770833
 20
-2.369536675347221
 10
116.9857964409722
 20
-3.394797092013888
 10
117.4825792100694
 20
-1.759065755208333
 10
117.7740342881944
 20
-0.815798611111111
 10
117.85947265625
 20
-0.5649956597222223
 10
117.85947265625
 20
-0.5649956597222223
 10
121.48095703125
 20
9.767534722222221
 10
121.48095703125
 20
9.767534722222221
 10
121.48095703125
 20
9.767534722222221
 10
124.5271104600694
 20
9.767534722222221
 10
124.5271104600694
 20
9.767534722222221
 10
124.5271104600694
 20
9.767534722222221
 10
127.2570041232639
 20
1.996777343749999
 10
127.2570041232639
 20
1.996777343749999
 10
127.936376953125
 20
0.0764811197916667
 10
128.4372938368055
 20
-1.720480685763888
 10
128.7597547743055
 20
-3.394797092013888
 10
129.0188259548611
 20
-2.430859374999999
 10
129.3378417968749
 20
-1.321538628472222
 10
129.7154242621527
 20
-0.0661458333333333
 10
129.7154242621527
 20
-0.0661458333333333
 10
132.7229926215277
 20
9.767534722222221
 10
132.7229926215277
 20
9.767534722222221
 10
132.7229926215277
 20
9.767534722222221
 10
135.2640950520833
 20
9.767534722222221
 10
135.2640950520833
 20
9.767534722222221
 10
135.2640950520833
 20
9.767534722222221
 10
130.0117024739583
 20
-5.534201388888888
 10
130.0117024739583
 20
-5.534201388888888
 10
130.0117024739583
 20
-5.534201388888888
 10
127.5436360677083
 20
-5.534201388888888
 10
127.5436360677083
 20
-5.534201388888888
 10
127.5436360677083
 20
-5.534201388888888
 10
123.5617947048611
 20
6.101953124999999
 10
123.5617947048611
 20
6.101953124999999
 10
123.2283094618055
 20
7.075537109374999
 10
123.0202256944444
 20
7.681873914930554
 10
122.9389214409722
 20
7.920274522569443
 10
122.7287706163194
 20
7.216786024305554
 10
122.5392903645833
 20
6.617339409722221
 10
122.3711697048611
 20
6.122623697916665
 10
122.3711697048611
 20
6.122623697916665
 10
118.3438530815972
 20
-5.534201388888888
 10
118.3438530815972
 20
-5.534201388888888
 10
118.3438530815972
 20
-5.534201388888888
 10
115.7173122829861
 20
-5.534201388888888
 10
115.7173122829861
 20
-5.534201388888888
 97
        0
 75
     2
 76
     1
 98
        1
 10
0.0
 20
0.0
  0
HATCH
  5
44
330
29
100
AcDbEntity
  8
LAYER_2
 62
     3
100
AcDbHatch
 10
0.0
 20
0.0
 30
0.0
210
0.0
220
0.0
230
1.0
  2
SOLID
 70
     1
 71
     0
 91
        1
 92
        1
 93
        1
 72
     4
 94
        3
 73
     0
 74
     0
 95
       17
 96
       13
 40
0.0
 40
0.0
 40
0.0
 40
0.0
 40
1.0
 40
1.0
 40
1.0
 40
2.0
 40
2.0
 40
2.0
 40
3.0
 40
3.0
 40
3.0
 40
4.0
 40
4.0
 40
4.0
 40
4.0
 10
145.3561577690972
 20
-5.534201388888888
 10
145.3561577690972
 20
-5.534201388888888
 10
145.3561577690972
 20
-3.417534722222221
 10
145.3561577690972
 20
-3.417534722222221
 10
145.3561577690972
 20
-3.417534722222221
 10
148.0460883246528
 20
-3.417534722222221
 10
148.0460883246528
 20
-3.417534722222221
 10
148.0460883246528
 20
-3.417534722222221
 10
148.0460883246528
 20
-5.534201388888888
 10
148.0460883246528
 20
-5.534201388888888
 10
148.0460883246528
 20
-5.534201388888888
 10
145.3561577690972
 20
-5.534201388888888
 10
145.3561577690972
 20
-5.534201388888888
 97
        0
 75
     2
 76
     1
 98
        1
 10
0.0
 20
0.0
  0
HATCH
  5
43
330
29
100
AcDbEntity
  8
LAYER_2
 62
     3
100
AcDbHatch
 10
0.0
 20
0.0
 30
0.0
210
0.0
220
0.0
230
1.0
  2
SOLID
 70
     1
 71
     0
 91
        1
 92
        1
 93
        1
 72
     4
 94
        3
 73
     0
 74
     0
 95
       47
 96
       43
 40
0.0
 40
0.0
 40
0.0
 40
0.0
 40
1.0
 40
1.0
 40
1.0
 40
2.0
 40
2.0
 40
2.0
 40
3.0
 40
3.0
 40
3.0
 40
4.0
 40
4.0
 40
4.0
 40
5.0
 40
5.0
 40
5.0
 40
6.0
 40
6.0
 40
6.0
 40
7.0
 40
7.0
 40
7.0
 40
8.0
 40
8.0
 40
8.0
 40
9.0
 40
9.0
 40
9.0
 40
10.0
 40
10.0
 40
10.0
 40
11.0
 40
11.0
 40
11.0
 40
12.0
 40
12.0
 40
12.0
 40
13.0
 40
13.0
 40
13.0
 40
14.0
 40
14.0
 40
14.0
 40
14.0
 10
158.5446723090277
 20
-1.198204210069444
 10
158.5446723090277
 20
-1.198204210069444
 10
160.8377278645833
 20
-0.9480902777777776
 10
160.8377278645833
 20
-0.9480902777777776
 10
160.8983615451388
 20
-2.115288628472221
 10
161.1739691840277
 20
-2.914550781249999
 10
161.6638617621527
 20
-3.345187717013888
 10
162.1537543402777
 20
-3.775824652777777
 10
162.8317491319444
 20
-3.99079861111111
 10
163.6971571180555
 20
-3.99079861111111
 10
164.3351888020833
 20
-3.99079861111111
 10
164.8864040798611
 20
-3.874354383680555
 10
165.3501139322916
 20
-3.641465928819444
 10
165.813134765625
 20
-3.408577473958333
 10
166.1328396267361
 20
-3.09162868923611
 10
166.3078504774305
 20
-2.691308593749999
 10
166.4828613281249
 20
-2.29167751736111
 10
166.5703667534722
 20
-1.652956814236111
 10
166.5703667534722
 20
-0.7758355034722222
 10
166.5703667534722
 20
-0.7758355034722222
 10
166.5703667534722
 20
9.767534722222221
 10
166.5703667534722
 20
9.767534722222221
 10
166.5703667534722
 20
9.767534722222221
 10
169.0839084201388
 20
9.767534722222221
 10
169.0839084201388
 20
9.767534722222221
 10
169.0839084201388
 20
9.767534722222221
 10
169.0839084201388
 20
-0.6621473524305555
 10
169.0839084201388
 20
-0.6621473524305555
 10
169.0839084201388
 20
-1.943033854166666
 10
168.8896050347222
 20
-2.935221354166666
 10
168.5016872829861
 20
-3.638020833333333
 10
168.1137695312499
 20
-4.3408203125
 10
167.4991644965277
 20
-4.876877170138888
 10
166.6578721788194
 20
-5.245502387152777
 10
165.8165798611111
 20
-5.614127604166665
 10
164.8292154947916
 20
-5.798784722222221
 10
163.6964680989583
 20
-5.798784722222221
 10
162.0138834635416
 20
-5.798784722222221
 10
160.7261067708333
 20
-5.412934027777777
 10
159.8331380208333
 20
-4.641232638888888
 10
158.9394802517361
 20
-3.869531249999999
 10
158.5102213541666
 20
-2.721625434027777
 10
158.5446723090277
 20
-1.198204210069444
 97
        0
 75
     2
 76
     1
 98
        1
 10
0.0
 20
0.0
  0
HATCH
  5
42
330
29
100
AcDbEntity
  8
LAYER_2
 62
     3
100
AcDbHatch
 10
0.0
 20
0.0
 30
0.0
210
0.0
220
0.0
230
1.0
  2
SOLID
 70
     1
 71
     0
 91
        1
 92
        1
 93
        1
 72
     4
 94
        3
 73
     0
 74
     0
 95
       56
 96
       52
 40
0.0
 40
0.0
 40
0.0
 40
0.0
 40
1.0
 40
1.0
 40
1.0
 40
2.0
 40
2.0
 40
2.0
 40
3.0
 40
3.0
 40
3.0
 40
4.0
 40
4.0
 40
4.0
 40
5.0
 40
5.0
 40
5.0
 40
6.0
 40
6.0
 40
6.0
 40
7.0
 40
7.0
 40
7.0
 40
8.0
 40
8.0
 40
8.0
 40
9.0
 40
9.0
 40
9.0
 40
10.0
 40
10.0
 40
10.0
 40
11.0
 40
11.0
 40
11.0
 40
12.0
 40
12.0
 40
12.0
 40
13.0
 40
13.0
 40
13.0
 40
14.0
 40
14.0
 40
14.0
 40
15.0
 40
15.0
 40
15.0
 40
16.0
 40
16.0
 40
16.0
 40
17.0
 40
17.0
 40
17.0
 40
17.0
 10
193.135498046875
 20
9.767534722222221
 10
193.135498046875
 20
9.767534722222221
 10
195.6490397135416
 20
9.767534722222221
 10
195.6490397135416
 20
9.767534722222221
 10
195.6490397135416
 20
9.767534722222221
 10
195.6490397135416
 20
0.9246636284722221
 10
195.6490397135416
 20
0.9246636284722221
 10
195.6490397135416
 20
-0.613916015625
 10
195.4326877170139
 20
-1.835546875
 10
195.0006727430555
 20
-2.740228949652777
 10
194.56796875
 20
-3.644911024305555
 10
193.7879991319444
 20
-4.380783420138888
 10
192.6600748697916
 20
-4.947846137152777
 10
191.5321506076388
 20
-5.515597873263888
 10
190.0521375868055
 20
-5.798784722222221
 10
188.2200358072916
 20
-5.798784722222221
 10
186.4396104600694
 20
-5.798784722222221
 10
184.9830240885416
 20
-5.551426866319443
 10
183.8509657118055
 20
-5.05740017361111
 10
182.7182183159722
 20
-4.563373480902777
 10
181.9099989149305
 20
-3.84817165798611
 10
181.4263075086805
 20
-2.91179470486111
 10
180.9419270833333
 20
-1.976106770833333
 10
180.7000813802083
 20
-0.6972873263888888
 10
180.7000813802083
 20
0.9246636284722221
 10
180.7000813802083
 20
0.9246636284722221
 10
180.7000813802083
 20
9.767534722222221
 10
180.7000813802083
 20
9.767534722222221
 10
180.7000813802083
 20
9.767534722222221
 10
183.213623046875
 20
9.767534722222221
 10
183.213623046875
 20
9.767534722222221
 10
183.213623046875
 20
9.767534722222221
 10
183.213623046875
 20
0.97978515625
 10
183.213623046875
 20
0.97978515625
 10
183.213623046875
 20
-0.3431315104166666
 10
183.3665852864583
 20
-1.31809353298611
 10
183.6738878038194
 20
-1.945100911458333
 10
183.9805013020833
 20
-2.572108289930555
 10
184.5076009114583
 20
-3.055110677083332
 10
185.2558756510416
 20
-3.394108072916666
 10
186.0041503906249
 20
-3.733105468749999
 10
186.9184787326388
 20
-3.902604166666666
 10
187.9995496961805
 20
-3.902604166666666
 10
189.8495659722222
 20
-3.902604166666666
 10
191.1683485243055
 20
-3.567051866319443
 10
191.9552083333333
 20
-2.895258246527777
 10
192.7420681423611
 20
-2.22346462673611
 10
193.135498046875
 20
-0.9315538194444442
 10
193.135498046875
 20
0.97978515625
 10
193.135498046875
 20
0.97978515625
 10
193.135498046875
 20
9.767534722222221
 10
193.135498046875
 20
9.767534722222221
 97
        0
 75
     2
 76
     1
 98
        1
 10
0.0
 20
0.0
  0
HATCH
  5
41
330
29
100
AcDbEntity
  8
LAYER_2
 62
     3
100
AcDbHatch
 10
0.0
 20
0.0
 30
0.0
210
0.0
220
0.0
230
1.0
  2
SOLID
 70
     1
 71
     0
 91
        1
 92
        1
 93
        1
 72
     4
 94
        3
 73
     0
 74
     0
 95
       23
 96
       19
 40
0.0
 40
0.0
 40
0.0
 40
0.0
 40
1.0
 40
1.0
 40
1.0
 40
2.0
 40
2.0
 40
2.0
 40
3.0
 40
3.0
 40
3.0
 40
4.0
 40
4.0
 40
4.0
 40
5.0
 40
5.0
 40
5.0
 40
6.0
 40
6.0
 40
6.0
 40
6.0
 10
207.1494574652777
 20
-5.534201388888888
 10
207.1494574652777
 20
-5.534201388888888
 10
207.1494574652777
 20
9.767534722222221
 10
207.1494574652777
 20
9.767534722222221
 10
207.1494574652777
 20
9.767534722222221
 10
209.6629991319444
 20
9.767534722222221
 10
209.6629991319444
 20
9.767534722222221
 10
209.6629991319444
 20
9.767534722222221
 10
209.6629991319444
 20
-3.726215277777777
 10
209.6629991319444
 20
-3.726215277777777
 10
209.6629991319444
 20
-3.726215277777777
 10
219.0557074652777
 20
-3.726215277777777
 10
219.0557074652777
 20
-3.726215277777777
 10
219.0557074652777
 20
-3.726215277777777
 10
219.0557074652777
 20
-5.534201388888888
 10
219.0557074652777
 20
-5.534201388888888
 10
219.0557074652777
 20
-5.534201388888888
 10
207.1494574652777
 20
-5.534201388888888
 10
207.1494574652777
 20
-5.534201388888888
 97
        0
 75
     2
 76
     1
 98
        1
 10
0.0
 20
0.0
  0
HATCH
  5
40
330
29
100
AcDbEntity
  8
LAYER_2
 62
     3
100
AcDbHatch
 10
0.0
 20
0.0
 30
0.0
210
0.0
220
0.0
230
1.0
  2
SOLID
 70
     1
 71
     0
 91
        1
 92
        1
 93
        1
 72
     4
 94
        3
 73
     0
 74
     0
 95
       17
 96
       13
 40
0.0
 40
0.0
 40
0.0
 40
0.0
 40
1.0
 40
1.0
 40
1.0
 40
2.0
 40
2.0
 40
2.0
 40
3.0
 40
3.0
 40
3.0
 40
4.0
 40
4.0
 40
4.0
 40
4.0
 10
228.9314181857639
 20
-5.534201388888888
 10
228.9314181857639
 20
-5.534201388888888
 10
228.9314181857639
 20
9.767534722222221
 10
228.9314181857639
 20
9.767534722222221
 10
228.9314181857639
 20
9.767534722222221
 10
231.4449598524305
 20
9.767534722222221
 10
231.4449598524305
 20
9.767534722222221
 10
231.4449598524305
 20
9.767534722222221
 10
231.4449598524305
 20
-5.534201388888888
 10
231.4449598524305
 20
-5.534201388888888
 10
231.4449598524305
 20
-5.534201388888888
 10
228.9314181857639
 20
-5.534201388888888
 10
228.9314181857639
 20
-5.534201388888888
 97
        0
 75
     2
 76
     1
 98
        1
 10
0.0
 20
0.0
  0
HATCH
  5
3F
330
29
100
AcDbEntity
  8
LAYER_2
 62
     3
100
AcDbHatch
 10
0.0
 20
0.0
 30
0.0
210
0.0
220
0.0
230
1.0
  2
SOLID
 70
     1
 71
     0
 91
        1
 92
        1
 93
        1
 72
     4
 94
        3
 73
     0
 74
     0
 95
       56
 96
       52
 40
0.0
 40
0.0
 40
0.0
 40
0.0
 40
1.0
 40
1.0
 40
1.0
 40
2.0
 40
2.0
 40
2.0
 40
3.0
 40
3.0
 40
3.0
 40
4.0
 40
4.0
 40
4.0
 40
5.0
 40
5.0
 40
5.0
 40
6.0
 40
6.0
 40
6.0
 40
7.0
 40
7.0
 40
7.0
 40
8.0
 40
8.0
 40
8.0
 40
9.0
 40
9.0
 40
9.0
 40
10.0
 40
10.0
 40
10.0
 40
11.0
 40
11.0
 40
11.0
 40
12.0
 40
12.0
 40
12.0
 40
13.0
 40
13.0
 40
13.0
 40
14.0
 40
14.0
 40
14.0
 40
15.0
 40
15.0
 40
15.0
 40
16.0
 40
16.0
 40
16.0
 40
17.0
 40
17.0
 40
17.0
 40
17.0
 10
255.8775770399305
 20
9.767534722222221
 10
255.8775770399305
 20
9.767534722222221
 10
258.3911187065972
 20
9.767534722222221
 10
258.3911187065972
 20
9.767534722222221
 10
258.3911187065972
 20
9.767534722222221
 10
258.3911187065972
 20
0.9246636284722221
 10
258.3911187065972
 20
0.9246636284722221
 10
258.3911187065972
 20
-0.613916015625
 10
258.1747667100694
 20
-1.835546875
 10
257.7427517361111
 20
-2.740228949652777
 10
257.3100477430555
 20
-3.644911024305555
 10
256.530078125
 20
-4.380783420138888
 10
255.4021538628472
 20
-4.947846137152777
 10
254.2742296006944
 20
-5.515597873263888
 10
252.7942165798611
 20
-5.798784722222221
 10
250.9621148003472
 20
-5.798784722222221
 10
249.181689453125
 20
-5.798784722222221
 10
247.7251030815972
 20
-5.551426866319443
 10
246.5930447048611
 20
-5.05740017361111
 10
245.4602973090278
 20
-4.563373480902777
 10
244.6520779079861
 20
-3.84817165798611
 10
244.1683865017361
 20
-2.91179470486111
 10
243.6840060763889
 20
-1.976106770833333
 10
243.4421603732639
 20
-0.6972873263888888
 10
243.4421603732639
 20
0.9246636284722221
 10
243.4421603732639
 20
0.9246636284722221
 10
243.4421603732639
 20
9.767534722222221
 10
243.4421603732639
 20
9.767534722222221
 10
243.4421603732639
 20
9.767534722222221
 10
245.9557020399306
 20
9.767534722222221
 10
245.9557020399306
 20
9.767534722222221
 10
245.9557020399306
 20
9.767534722222221
 10
245.9557020399306
 20
0.97978515625
 10
245.9557020399306
 20
0.97978515625
 10
245.9557020399306
 20
-0.3431315104166666
 10
246.1086642795139
 20
-1.31809353298611
 10
246.415966796875
 20
-1.945100911458333
 10
246.7225802951389
 20
-2.572108289930555
 10
247.2496799045138
 20
-3.055110677083332
 10
247.9979546440972
 20
-3.394108072916666
 10
248.7462293836805
 20
-3.733105468749999
 10
249.6605577256944
 20
-3.902604166666666
 10
250.7416286892361
 20
-3.902604166666666
 10
252.5916449652778
 20
-3.902604166666666
 10
253.9104275173611
 20
-3.567051866319443
 10
254.6972873263889
 20
-2.895258246527777
 10
255.4841471354166
 20
-2.22346462673611
 10
255.8775770399305
 20
-0.9315538194444442
 10
255.8775770399305
 20
0.97978515625
 10
255.8775770399305
 20
0.97978515625
 10
255.8775770399305
 20
9.767534722222221
 10
255.8775770399305
 20
9.767534722222221
 97
        0
 75
     2
 76
     1
 98
        1
 10
0.0
 20
0.0
  0
HATCH
  5
3E
330
29
100
AcDbEntity
  8
LAYER_2
 62
     3
100
AcDbHatch
 10
0.0
 20
0.0
 30
0.0
210
0.0
220
0.0
230
1.0
  2
SOLID
 70
     1
 71
     0
 91
        1
 92
        1
 93
        1
 72
     4
 94
        3
 73
     0
 74
     0
 95
      110
 96
      106
 40
0.0
 40
0.0
 40
0.0
 40
0.0
 40
1.0
 40
1.0
 40
1.0
 40
2.0
 40
2.0
 40
2.0
 40
3.0
 40
3.0
 40
3.0
 40
4.0
 40
4.0
 40
4.0
 40
5.0
 40
5.0
 40
5.0
 40
6.0
 40
6.0
 40
6.0
 40
7.0
 40
7.0
 40
7.0
 40
8.0
 40
8.0
 40
8.0
 40
9.0
 40
9.0
 40
9.0
 40
10.0
 40
10.0
 40
10.0
 40
11.0
 40
11.0
 40
11.0
 40
12.0
 40
12.0
 40
12.0
 40
13.0
 40
13.0
 40
13.0
 40
14.0
 40
14.0
 40
14.0
 40
15.0
 40
15.0
 40
15.0
 40
16.0
 40
16.0
 40
16.0
 40
17.0
 40
17.0
 40
17.0
 40
18.0
 40
18.0
 40
18.0
 40
19.0
 40
19.0
 40
19.0
 40
20.0
 40
20.0
 40
20.0
 40
21.0
 40
21.0
 40
21.0
 40
22.0
 40
22.0
 40
22.0
 40
23.0
 40
23.0
 40
23.0
 40
24.0
 40
24.0
 40
24.0
 40
25.0
 40
25.0
 40
25.0
 40
26.0
 40
26.0
 40
26.0
 40
27.0
 40
27.0
 40
27.0
 40
28.0
 40
28.0
 40
28.0
 40
29.0
 40
29.0
 40
29.0
 40
30.0
 40
30.0
 40
30.0
 40
31.0
 40
31.0
 40
31.0
 40
32.0
 40
32.0
 40
32.0
 40
33.0
 40
33.0
 40
33.0
 40
34.0
 40
34.0
 40
34.0
 40
35.0
 40
35.0
 40
35.0
 40
35.0
 10
269.186669921875
 20
-0.6394097222222222
 10
269.186669921875
 20
-0.6394097222222222
 10
271.567919921875
 20
-0.4630208333333333
 10
271.567919921875
 20
-0.4630208333333333
 10
271.679541015625
 20
-1.228521050347222
 10
271.9406792534722
 20
-1.856217447916666
 10
272.3506456163194
 20
-2.346799045138888
 10
272.7606119791667
 20
-2.837380642361111
 10
273.397265625
 20
-3.23425564236111
 10
274.2606065538194
 20
-3.536735026041666
 10
275.1232584635416
 20
-3.839903428819443
 10
276.094775390625
 20
-3.99079861111111
 10
277.173779296875
 20
-3.99079861111111
 10
278.1315158420138
 20
-3.99079861111111
 10
278.9776312934027
 20
-3.876421440972221
 10
279.7114366319444
 20
-3.646289062499999
 10
280.4445529513889
 20
-3.416845703124999
 10
280.9909450954861
 20
-3.101963975694444
 10
281.3492350260416
 20
-2.701643880208333
 10
281.7075249565972
 20
-2.302012803819444
 10
281.8866699218749
 20
-1.865174696180555
 10
281.8866699218749
 20
-1.392507595486111
 10
281.8866699218749
 20
-0.9129503038194442
 10
281.7109700520833
 20
-0.4947157118055556
 10
281.3602593315972
 20
-0.13642578125
 10
281.0088595920139
 20
0.2218641493055555
 10
280.4362847222222
 20
0.5222764756944444
 10
279.6411566840277
 20
0.766189236111111
 10
279.1312825520833
 20
0.9260416666666666
 10
278.0033582899305
 20
1.174088541666666
 10
276.2580729166667
 20
1.511707899305555
 10
274.5120985243056
 20
1.848638237847222
 10
273.2897786458333
 20
2.166965060763888
 10
272.5897352430556
 20
2.467377387152777
 10
271.6816080729166
 20
2.850472005208333
 10
271.0049913194444
 20
3.326584201388888
 10
270.5598849826389
 20
3.895024956597221
 10
270.1147786458333
 20
4.463465711805555
 10
269.8922254774306
 20
5.100119357638888
 10
269.8922254774306
 20
5.804985894097221
 10
269.8922254774306
 20
6.579443359374999
 10
270.1643880208333
 20
7.302913411458332
 10
270.7094021267361
 20
7.976085069444443
 10
271.2544162326389
 20
8.648567708333333
 10
272.0502332899305
 20
9.159819878472221
 10
273.0975423177083
 20
9.508463541666666
 10
274.1441623263889
 20
9.85710720486111
 10
275.3079155815972
 20
10.03211805555555
 10
276.5881130642361
 20
10.03211805555555
 10
277.9978461371527
 20
10.03211805555555
 10
279.2415256076389
 20
9.848838975694443
 10
280.3191514756944
 20
9.48228081597222
 10
281.3960883246527
 20
9.11572265625
 10
282.2242892795139
 20
8.576220703124999
 10
282.804443359375
 20
7.864463975694444
 10
283.3839084201389
 20
7.152018229166666
 10
283.6953450520833
 20
6.345865885416666
 10
283.7387532552083
 20
5.446006944444444
 10
283.7387532552083
 20
5.446006944444444
 10
281.3134060329861
 20
5.313715277777776
 10
281.3134060329861
 20
5.313715277777776
 10
281.1838704427083
 20
6.27282986111111
 10
280.7449652777777
 20
6.997677951388888
 10
279.9973795572916
 20
7.48825954861111
 10
279.2497938368055
 20
7.978841145833333
 10
278.1459852430555
 20
8.224131944444444
 10
276.6859537760416
 20
8.224131944444444
 10
275.164599609375
 20
8.224131944444444
 10
274.0566569010417
 20
7.999511718749999
 10
273.3607476128472
 20
7.550960286458332
 10
272.6648383246527
 20
7.102408854166665
 10
272.3175726996528
 20
6.561528862847221
 10
272.3175726996528
 20
5.929009331597221
 10
272.3175726996528
 20
5.379172092013888
 10
272.5635525173611
 20
4.92717556423611
 10
273.056201171875
 20
4.573019748263888
 10
273.539892578125
 20
4.218174913194443
 10
274.8042426215278
 20
3.855061848958333
 10
276.8478732638889
 20
3.482991536458333
 10
278.89150390625
 20
3.110921223958333
 10
280.2950358072916
 20
2.785704210069444
 10
281.0584689670139
 20
2.508029513888888
 10
282.1691677517361
 20
2.097374131944444
 10
282.9891004774306
 20
1.577853732638888
 10
283.5182671440972
 20
0.9494683159722221
 10
284.0474338107639
 20
0.3210828993055555
 10
284.3120171440972
 20
-0.403076171875
 10
284.3120171440972
 20
-1.223008897569444
 10
284.3120171440972
 20
-2.036051432291666
 10
284.0219401041666
 20
-2.802240668402777
 10
283.4431640625
 20
-3.521576605902777
 10
282.8643880208333
 20
-4.240912543402777
 10
282.0327419704861
 20
-4.799707031249999
 10
280.9482259114583
 20
-5.199338107638888
 10
279.8637098524305
 20
-5.598969184027777
 10
278.64345703125
 20
-5.798784722222221
 10
277.2874674479167
 20
-5.798784722222221
 10
275.56767578125
 20
-5.798784722222221
 10
274.1262478298611
 20
-5.597591145833332
 10
272.9645616319444
 20
-5.195893012152777
 10
271.8021864149305
 20
-4.793505859374999
 10
270.8906141493055
 20
-4.188547092013888
 10
270.2298448350694
 20
-3.380327690972221
 10
269.5683865017361
 20
-2.572797309027777
 10
269.2211208767361
 20
-1.65915798611111
 10
269.186669921875
 20
-0.6394097222222222
 97
        0
 75
     2
 76
     1
 98
        1
 10
0.0
 20
0.0
  0
HATCH
  5
3D
330
29
100
AcDbEntity
  8
LAYER_2
 62
     3
100
AcDbHatch
 10
0.0
 20
0.0
 30
0.0
210
0.0
220
0.0
230
1.0
  2
SOLID
 70
     1
 71
     0
 91
        3
 92
       16
 93
        1
 72
     4
 94
        3
 73
     0
 74
     0
 95
       35
 96
       31
 40
0.0
 40
0.0
 40
0.0
 40
0.0
 40
1.0
 40
1.0
 40
1.0
 40
2.0
 40
2.0
 40
2.0
 40
3.0
 40
3.0
 40
3.0
 40
4.0
 40
4.0
 40
4.0
 40
5.0
 40
5.0
 40
5.0
 40
6.0
 40
6.0
 40
6.0
 40
7.0
 40
7.0
 40
7.0
 40
8.0
 40
8.0
 40
8.0
 40
9.0
 40
9.0
 40
9.0
 40
10.0
 40
10.0
 40
10.0
 40
10.0
 10
297.6038845486111
 20
-3.726215277777777
 10
297.6038845486111
 20
-3.726215277777777
 10
302.3967013888888
 20
-3.726215277777777
 10
302.3967013888888
 20
-3.726215277777777
 10
303.2193901909722
 20
-3.726215277777777
 10
303.7967881944444
 20
-3.702099609374999
 10
304.1295844184028
 20
-3.653179253472222
 10
304.7159396701389
 20
-3.570496961805555
 10
305.2058322482638
 20
-3.431315104166666
 10
305.599951171875
 20
-3.237011718749999
 10
305.9940700954861
 20
-3.042708333333333
 10
306.3179090711805
 20
-2.760210503472221
 10
306.5714680989583
 20
-2.388829210069444
 10
306.8250271267361
 20
-2.017447916666666
 10
306.9524956597222
 20
-1.588878038194444
 10
306.9524956597222
 20
-1.102430555555555
 10
306.9524956597222
 20
-0.53330078125
 10
306.7692165798611
 20
-0.0392740885416667
 10
306.4040364583333
 20
0.3810275607638888
 10
306.0388563368055
 20
0.8013292100694442
 10
305.5296712239583
 20
1.096229383680555
 10
304.8771701388889
 20
1.266417100694444
 10
304.2239800347222
 20
1.435915798611111
 10
303.2848470052083
 20
1.521354166666666
 10
302.0583930121528
 20
1.521354166666666
 10
302.0583930121528
 20
1.521354166666666
 10
297.6038845486111
 20
1.521354166666666
 10
297.6038845486111
 20
1.521354166666666
 10
297.6038845486111
 20
1.521354166666666
 10
297.6038845486111
 20
-3.726215277777777
 10
297.6038845486111
 20
-3.726215277777777
 97
        0
 92
       16
 93
        1
 72
     4
 94
        3
 73
     0
 74
     0
 95
       32
 96
       28
 40
0.0
 40
0.0
 40
0.0
 40
0.0
 40
1.0
 40
1.0
 40
1.0
 40
2.0
 40
2.0
 40
2.0
 40
3.0
 40
3.0
 40
3.0
 40
4.0
 40
4.0
 40
4.0
 40
5.0
 40
5.0
 40
5.0
 40
6.0
 40
6.0
 40
6.0
 40
7.0
 40
7.0
 40
7.0
 40
8.0
 40
8.0
 40
8.0
 40
9.0
 40
9.0
 40
9.0
 40
9.0
 10
297.6038845486111
 20
3.329340277777777
 10
297.6038845486111
 20
3.329340277777777
 10
301.7696940104166
 20
3.329340277777777
 10
301.7696940104166
 20
3.329340277777777
 10
302.8996853298611
 20
3.329340277777777
 10
303.7106608072916
 20
3.388595920138888
 10
304.2012424045138
 20
3.50710720486111
 10
304.8489203559027
 20
3.660069444444443
 10
305.3374348958333
 20
3.914317491319444
 10
305.6660970052083
 20
4.26985134548611
 10
305.9940700954861
 20
4.625385199652777
 10
306.1587456597222
 20
5.071180555555555
 10
306.1587456597222
 20
5.607926432291666
 10
306.1587456597222
 20
6.116422526041666
 10
306.0050944010416
 20
6.563595920138888
 10
305.6984809027778
 20
6.950824652777777
 10
305.3918674045139
 20
7.337364366319444
 10
304.9536512586805
 20
7.601947699652777
 10
304.384521484375
 20
7.745263671874999
 10
303.8153917100694
 20
7.887890624999998
 10
302.8383626302083
 20
7.95954861111111
 10
301.4541232638888
 20
7.95954861111111
 10
301.4541232638888
 20
7.95954861111111
 10
297.6038845486111
 20
7.95954861111111
 10
297.6038845486111
 20
7.95954861111111
 10
297.6038845486111
 20
7.95954861111111
 10
297.6038845486111
 20
3.329340277777777
 10
297.6038845486111
 20
3.329340277777777
 97
        0
 92
        1
 93
        1
 72
     4
 94
        3
 73
     0
 74
     0
 95
       47
 96
       43
 40
0.0
 40
0.0
 40
0.0
 40
0.0
 40
1.0
 40
1.0
 40
1.0
 40
2.0
 40
2.0
 40
2.0
 40
3.0
 40
3.0
 40
3.0
 40
4.0
 40
4.0
 40
4.0
 40
5.0
 40
5.0
 40
5.0
 40
6.0
 40
6.0
 40
6.0
 40
7.0
 40
7.0
 40
7.0
 40
8.0
 40
8.0
 40
8.0
 40
9.0
 40
9.0
 40
9.0
 40
10.0
 40
10.0
 40
10.0
 40
11.0
 40
11.0
 40
11.0
 40
12.0
 40
12.0
 40
12.0
 40
13.0
 40
13.0
 40
13.0
 40
14.0
 40
14.0
 40
14.0
 40
14.0
 10
295.0903428819444
 20
-5.534201388888888
 10
295.0903428819444
 20
-5.534201388888888
 10
295.0903428819444
 20
9.767534722222221
 10
295.0903428819444
 20
9.767534722222221
 10
295.0903428819444
 20
9.767534722222221
 10
302.2775010850694
 20
9.767534722222221
 10
302.2775010850694
 20
9.767534722222221
 10
303.7409776475694
 20
9.767534722222221
 10
304.9143771701388
 20
9.61181640625
 10
305.7990776909722
 20
9.301068793402777
 10
306.6830891927083
 20
8.990321180555554
 10
307.3755533854166
 20
8.512141927083332
 10
307.8764702690972
 20
7.865842013888888
 10
308.3773871527778
 20
7.219542100694443
 10
308.6281901041667
 20
6.543614366319443
 10
308.6281901041667
 20
5.838058810763888
 10
308.6281901041667
 20
5.18142361111111
 10
308.4077039930555
 20
4.563373480902777
 10
307.9681098090278
 20
3.983908420138888
 10
307.5278266059028
 20
3.403754340277777
 10
306.8636121961806
 20
2.935910373263888
 10
305.9747775607639
 20
2.579687499999999
 10
307.1240614149305
 20
2.308902994791666
 10
308.0080729166667
 20
1.847949218749999
 10
308.6268120659722
 20
1.196137152777777
 10
309.2448621961805
 20
0.5443250868055555
 10
309.5542317708333
 20
-0.2259982638888888
 10
309.5542317708333
 20
-1.113454861111111
 10
309.5542317708333
 20
-1.827967664930555
 10
309.3647515190972
 20
-2.492182074652777
 10
308.985791015625
 20
-3.105409071180555
 10
308.6068305121527
 20
-3.719325086805555
 10
308.1382975260416
 20
-4.192681206597221
 10
307.5808810763888
 20
-4.525477430555555
 10
307.0234646267361
 20
-4.858273654513888
 10
306.3247992621527
 20
-5.109765624999999
 10
305.4841959635417
 20
-5.279264322916666
 10
304.6435926649305
 20
-5.449452039930554
 10
303.6135091145833
 20
-5.534201388888888
 10
302.3939453125
 20
-5.534201388888888
 10
302.3939453125
 20
-5.534201388888888
 10
295.0903428819444
 20
-5.534201388888888
 10
295.0903428819444
 20
-5.534201388888888
 97
        0
 75
     2
 76
     1
 98
        1
 10
0.0
 20
0.0
  0
HATCH
  5
3C
330
29
100
AcDbEntity
  8
LAYER_2
 62
     3
100
AcDbHatch
 10
0.0
 20
0.0
 30
0.0
210
0.0
220
0.0
230
1.0
  2
SOLID
 70
     1
 71
     0
 91
        1
 92
        1
 93
        1
 72
     4
 94
        3
 73
     0
 74
     0
 95
       23
 96
       19
 40
0.0
 40
0.0
 40
0.0
 40
0.0
 40
1.0
 40
1.0
 40
1.0
 40
2.0
 40
2.0
 40
2.0
 40
3.0
 40
3.0
 40
3.0
 40
4.0
 40
4.0
 40
4.0
 40
5.0
 40
5.0
 40
5.0
 40
6.0
 40
6.0
 40
6.0
 40
6.0
 10
320.2891493055556
 20
-5.534201388888888
 10
320.2891493055556
 20
-5.534201388888888
 10
320.2891493055556
 20
9.767534722222221
 10
320.2891493055556
 20
9.767534722222221
 10
320.2891493055556
 20
9.767534722222221
 10
322.8026909722222
 20
9.767534722222221
 10
322.8026909722222
 20
9.767534722222221
 10
322.8026909722222
 20
9.767534722222221
 10
322.8026909722222
 20
-3.726215277777777
 10
322.8026909722222
 20
-3.726215277777777
 10
322.8026909722222
 20
-3.726215277777777
 10
332.1953993055555
 20
-3.726215277777777
 10
332.1953993055555
 20
-3.726215277777777
 10
332.1953993055555
 20
-3.726215277777777
 10
332.1953993055555
 20
-5.534201388888888
 10
332.1953993055555
 20
-5.534201388888888
 10
332.1953993055555
 20
-5.534201388888888
 10
320.2891493055556
 20
-5.534201388888888
 10
320.2891493055556
 20
-5.534201388888888
 97
        0
 75
     2
 76
     1
 98
        1
 10
0.0
 20
0.0
  0
HATCH
  5
3B
330
29
100
AcDbEntity
  8
LAYER_2
 62
     3
100
AcDbHatch
 10
0.0
 20
0.0
 30
0.0
210
0.0
220
0.0
230
1.0
  2
SOLID
 70
     1
 71
     0
 91
        1
 92
        1
 93
        1
 72
     4
 94
        3
 73
     0
 74
     0
 95
       56
 96
       52
 40
0.0
 40
0.0
 40
0.0
 40
0.0
 40
1.0
 40
1.0
 40
1.0
 40
2.0
 40
2.0
 40
2.0
 40
3.0
 40
3.0
 40
3.0
 40
4.0
 40
4.0
 40
4.0
 40
5.0
 40
5.0
 40
5.0
 40
6.0
 40
6.0
 40
6.0
 40
7.0
 40
7.0
 40
7.0
 40
8.0
 40
8.0
 40
8.0
 40
9.0
 40
9.0
 40
9.0
 40
10.0
 40
10.0
 40
10.0
 40
11.0
 40
11.0
 40
11.0
 40
12.0
 40
12.0
 40
12.0
 40
13.0
 40
13.0
 40
13.0
 40
14.0
 40
14.0
 40
14.0
 40
15.0
 40
15.0
 40
15.0
 40
16.0
 40
16.0
 40
16.0
 40
17.0
 40
17.0
 40
17.0
 40
17.0
 10
354.1971571180555
 20
9.767534722222221
 10
354.1971571180555
 20
9.767534722222221
 10
356.7106987847222
 20
9.767534722222221
 10
356.7106987847222
 20
9.767534722222221
 10
356.7106987847222
 20
9.767534722222221
 10
356.7106987847222
 20
0.9246636284722221
 10
356.7106987847222
 20
0.9246636284722221
 10
356.7106987847222
 20
-0.613916015625
 10
356.4943467881944
 20
-1.835546875
 10
356.0623318142361
 20
-2.740228949652777
 10
355.6296278211805
 20
-3.644911024305555
 10
354.849658203125
 20
-4.380783420138888
 10
353.7217339409722
 20
-4.947846137152777
 10
352.5938096788194
 20
-5.515597873263888
 10
351.1137966579861
 20
-5.798784722222221
 10
349.2816948784722
 20
-5.798784722222221
 10
347.50126953125
 20
-5.798784722222221
 10
346.0446831597222
 20
-5.551426866319443
 10
344.9126247829861
 20
-5.05740017361111
 10
343.7798773871528
 20
-4.563373480902777
 10
342.9716579861111
 20
-3.84817165798611
 10
342.4879665798611
 20
-2.91179470486111
 10
342.0035861545139
 20
-1.976106770833333
 10
341.7617404513888
 20
-0.6972873263888888
 10
341.7617404513888
 20
0.9246636284722221
 10
341.7617404513888
 20
0.9246636284722221
 10
341.7617404513888
 20
9.767534722222221
 10
341.7617404513888
 20
9.767534722222221
 10
341.7617404513888
 20
9.767534722222221
 10
344.2752821180556
 20
9.767534722222221
 10
344.2752821180556
 20
9.767534722222221
 10
344.2752821180556
 20
9.767534722222221
 10
344.2752821180556
 20
0.97978515625
 10
344.2752821180556
 20
0.97978515625
 10
344.2752821180556
 20
-0.3431315104166666
 10
344.4282443576388
 20
-1.31809353298611
 10
344.735546875
 20
-1.945100911458333
 10
345.0421603732639
 20
-2.572108289930555
 10
345.5692599826388
 20
-3.055110677083332
 10
346.3175347222222
 20
-3.394108072916666
 10
347.0658094618055
 20
-3.733105468749999
 10
347.9801378038194
 20
-3.902604166666666
 10
349.0612087673611
 20
-3.902604166666666
 10
350.9112250434027
 20
-3.902604166666666
 10
352.2300075954861
 20
-3.567051866319443
 10
353.0168674045139
 20
-2.895258246527777
 10
353.8037272135416
 20
-2.22346462673611
 10
354.1971571180555
 20
-0.9315538194444442
 10
354.1971571180555
 20
0.97978515625
 10
354.1971571180555
 20
0.97978515625
 10
354.1971571180555
 20
9.767534722222221
 10
354.1971571180555
 20
9.767534722222221
 97
        0
 75
     2
 76
     1
 98
        1
 10
0.0
 20
0.0
  0
HATCH
  5
3A
330
29
100
AcDbEntity
  8
LAYER_2
 62
     3
100
AcDbHatch
 10
0.0
 20
0.0
 30
0.0
210
0.0
220
0.0
230
1.0
  2
SOLID
 70
     1
 71
     0
 91
        1
 92
        1
 93
        1
 72
     4
 94
        3
 73
     0
 74
     0
 95
       50
 96
       46
 40
0.0
 40
0.0
 40
0.0
 40
0.0
 40
1.0
 40
1.0
 40
1.0
 40
2.0
 40
2.0
 40
2.0
 40
3.0
 40
3.0
 40
3.0
 40
4.0
 40
4.0
 40
4.0
 40
5.0
 40
5.0
 40
5.0
 40
6.0
 40
6.0
 40
6.0
 40
7.0
 40
7.0
 40
7.0
 40
8.0
 40
8.0
 40
8.0
 40
9.0
 40
9.0
 40
9.0
 40
10.0
 40
10.0
 40
10.0
 40
11.0
 40
11.0
 40
11.0
 40
12.0
 40
12.0
 40
12.0
 40
13.0
 40
13.0
 40
13.0
 40
14.0
 40
14.0
 40
14.0
 40
15.0
 40
15.0
 40
15.0
 40
15.0
 10
368.2559027777778
 20
-5.534201388888888
 10
368.2559027777778
 20
-5.534201388888888
 10
368.2559027777778
 20
9.767534722222221
 10
368.2559027777778
 20
9.767534722222221
 10
368.2559027777778
 20
9.767534722222221
 10
371.9945203993055
 20
9.767534722222221
 10
371.9945203993055
 20
9.767534722222221
 10
371.9945203993055
 20
9.767534722222221
 10
376.5709852430555
 20
-1.049376085069444
 10
376.5709852430555
 20
-1.049376085069444
 10
376.9926649305555
 20
-2.057411024305555
 10
377.3006564670139
 20
-2.811197916666666
 10
377.4942708333333
 20
-3.311425781249999
 10
377.7120008680555
 20
-2.756076388888888
 10
378.0523763020833
 20
-1.939588758680555
 10
378.5147081163194
 20
-0.8619628906249998
 10
378.5147081163194
 20
-0.8619628906249998
 10
383.1063313802083
 20
9.767534722222221
 10
383.1063313802083
 20
9.767534722222221
 10
383.1063313802083
 20
9.767534722222221
 10
386.4680555555555
 20
9.767534722222221
 10
386.4680555555555
 20
9.767534722222221
 10
386.4680555555555
 20
9.767534722222221
 10
386.4680555555555
 20
-5.534201388888888
 10
386.4680555555555
 20
-5.534201388888888
 10
386.4680555555555
 20
-5.534201388888888
 10
384.0427083333333
 20
-5.534201388888888
 10
384.0427083333333
 20
-5.534201388888888
 10
384.0427083333333
 20
-5.534201388888888
 10
384.0427083333333
 20
7.298090277777776
 10
384.0427083333333
 20
7.298090277777776
 10
384.0427083333333
 20
7.298090277777776
 10
378.4995496961805
 20
-5.534201388888888
 10
378.4995496961805
 20
-5.534201388888888
 10
378.4995496961805
 20
-5.534201388888888
 10
376.2182074652778
 20
-5.534201388888888
 10
376.2182074652778
 20
-5.534201388888888
 10
376.2182074652778
 20
-5.534201388888888
 10
370.68125
 20
7.430381944444444
 10
370.68125
 20
7.430381944444444
 10
370.68125
 20
7.430381944444444
 10
370.68125
 20
-5.534201388888888
 10
370.68125
 20
-5.534201388888888
 10
370.68125
 20
-5.534201388888888
 10
368.2559027777778
 20
-5.534201388888888
 10
368.2559027777778
 20
-5.534201388888888
 97
        0
 75
     2
 76
     1
 98
        1
 10
0.0
 20
0.0
  0
HATCH
  5
39
330
29
100
AcDbEntity
  8
LAYER_2
 62
     3
100
AcDbHatch
 10
0.0
 20
0.0
 30
0.0
210
0.0
220
0.0
230
1.0
  2
SOLID
 70
     1
 71
     0
 91
        1
 92
        1
 93
        1
 72
     4
 94
        3
 73
     0
 74
     0
 95
       17
 96
       13
 40
0.0
 40
0.0
 40
0.0
 40
0.0
 40
1.0
 40
1.0
 40
1.0
 40
2.0
 40
2.0
 40
2.0
 40
3.0
 40
3.0
 40
3.0
 40
4.0
 40
4.0
 40
4.0
 40
4.0
 10
398.2785319010416
 20
-5.534201388888888
 10
398.2785319010416
 20
-5.534201388888888
 10
398.2785319010416
 20
-3.417534722222221
 10
398.2785319010416
 20
-3.417534722222221
 10
398.2785319010416
 20
-3.417534722222221
 10
400.9684624565972
 20
-3.417534722222221
 10
400.9684624565972
 20
-3.417534722222221
 10
400.9684624565972
 20
-3.417534722222221
 10
400.9684624565972
 20
-5.534201388888888
 10
400.9684624565972
 20
-5.534201388888888
 10
400.9684624565972
 20
-5.534201388888888
 10
398.2785319010416
 20
-5.534201388888888
 10
398.2785319010416
 20
-5.534201388888888
 97
        0
 75
     2
 76
     1
 98
        1
 10
0.0
 20
0.0
  0
HATCH
  5
38
330
29
100
AcDbEntity
  8
LAYER_2
 62
     3
100
AcDbHatch
 10
0.0
 20
0.0
 30
0.0
210
0.0
220
0.0
230
1.0
  2
SOLID
 70
     1
 71
     0
 91
        1
 92
        1
 93
        1
 72
     4
 94
        3
 73
     0
 74
     0
 95
       71
 96
       67
 40
0.0
 40
0.0
 40
0.0
 40
0.0
 40
1.0
 40
1.0
 40
1.0
 40
2.0
 40
2.0
 40
2.0
 40
3.0
 40
3.0
 40
3.0
 40
4.0
 40
4.0
 40
4.0
 40
5.0
 40
5.0
 40
5.0
 40
6.0
 40
6.0
 40
6.0
 40
7.0
 40
7.0
 40
7.0
 40
8.0
 40
8.0
 40
8.0
 40
9.0
 40
9.0
 40
9.0
 40
10.0
 40
10.0
 40
10.0
 40
11.0
 40
11.0
 40
11.0
 40
12.0
 40
12.0
 40
12.0
 40
13.0
 40
13.0
 40
13.0
 40
14.0
 40
14.0
 40
14.0
 40
15.0
 40
15.0
 40
15.0
 40
16.0
 40
16.0
 40
16.0
 40
17.0
 40
17.0
 40
17.0
 40
18.0
 40
18.0
 40
18.0
 40
19.0
 40
19.0
 40
19.0
 40
20.0
 40
20.0
 40
20.0
 40
21.0
 40
21.0
 40
21.0
 40
22.0
 40
22.0
 40
22.0
 40
22.0
 10
426.4153157552082
 20
-0.1750108506944444
 10
426.4153157552082
 20
-0.1750108506944444
 10
428.9288574218749
 20
-0.688330078125
 10
428.9288574218749
 20
-0.688330078125
 10
428.3983127170138
 20
-2.350244140624999
 10
427.4447102864582
 20
-3.618039279513888
 10
426.0680501302083
 20
-4.490337456597221
 10
424.6913899739582
 20
-5.362635633680555
 10
423.0081163194443
 20
-5.798784722222221
 10
421.0182291666666
 20
-5.798784722222221
 10
418.9594401041666
 20
-5.798784722222221
 10
417.2844346788194
 20
-5.463232421874999
 10
415.9945909288194
 20
-4.791438802083332
 10
414.7047471788193
 20
-4.119645182291666
 10
413.7228949652778
 20
-3.146750217013888
 10
413.0497233072916
 20
-1.872753906249999
 10
412.3758626302082
 20
-0.5987575954861111
 10
412.0396213107638
 20
0.7696343315972222
 10
412.0396213107638
 20
2.231732855902777
 10
412.0396213107638
 20
3.825434027777777
 10
412.4199598524304
 20
5.215874565972221
 10
413.1806369357638
 20
6.40305447048611
 10
413.9413140190971
 20
7.589545355902776
 10
415.0244520399304
 20
8.491471354166666
 10
416.4293619791666
 20
9.107454427083332
 10
417.8335828993055
 20
9.723437499999999
 10
419.3797417534721
 20
10.03211805555555
 10
421.0671495225694
 20
10.03211805555555
 10
422.9798665364582
 20
10.03211805555555
 10
424.5887261284721
 20
9.642822265625
 10
425.893728298611
 20
8.864230685763887
 10
427.1980414496527
 20
8.085639105902776
 10
428.1068576388888
 20
6.991476779513888
 10
428.6201768663194
 20
5.581054687499999
 10
428.6201768663194
 20
5.581054687499999
 10
426.1507324218749
 20
5.109765624999999
 10
426.1507324218749
 20
5.109765624999999
 10
425.7056260850694
 20
6.225976562499999
 10
425.0607042100694
 20
7.038330078124999
 10
424.2145887586805
 20
7.548204210069443
 10
423.3684733072916
 20
8.057389322916666
 10
422.3053168402777
 20
8.312326388888887
 10
421.0237413194444
 20
8.312326388888887
 10
419.549929470486
 20
8.312326388888887
 10
418.3179633246527
 20
8.029139539930554
 10
417.3285319010416
 20
7.464143880208332
 10
416.3391004774305
 20
6.89914822048611
 10
415.6438802083333
 20
6.140538194444443
 10
415.2428710937499
 20
5.188313802083333
 10
414.8418619791666
 20
4.236089409722222
 10
414.6413574218749
 20
3.253548177083333
 10
414.6413574218749
 20
2.242068142361111
 10
414.6413574218749
 20
0.9370659722222221
 10
414.8783799913194
 20
-0.2018825954861111
 10
415.3524251302083
 20
-1.174777560763888
 10
415.8264702690972
 20
-2.148361545138888
 10
416.5644097222221
 20
-2.875965711805555
 10
417.5648654513889
 20
-3.356901041666666
 10
418.5653211805555
 20
-3.838525390624999
 10
419.649148220486
 20
-4.078993055555555
 10
420.8156575520832
 20
-4.078993055555555
 10
422.2336588541666
 20
-4.078993055555555
 10
423.434619140625
 20
-3.751019965277777
 10
424.4178493923611
 20
-3.095073784722222
 10
425.4010796440971
 20
-2.439127604166666
 10
426.0666720920138
 20
-1.466232638888888
 10
426.4153157552082
 20
-0.1750108506944444
 97
        0
 75
     2
 76
     1
 98
        1
 10
0.0
 20
0.0
  0
HATCH
  5
37
330
29
100
AcDbEntity
  8
LAYER_2
 62
     3
100
AcDbHatch
 10
0.0
 20
0.0
 30
0.0
210
0.0
220
0.0
230
1.0
  2
SOLID
 70
     1
 71
     0
 91
        2
 92
       16
 93
        1
 72
     4
 94
        3
 73
     0
 74
     0
 95
       32
 96
       28
 40
0.0
 40
0.0
 40
0.0
 40
0.0
 40
1.0
 40
1.0
 40
1.0
 40
2.0
 40
2.0
 40
2.0
 40
3.0
 40
3.0
 40
3.0
 40
4.0
 40
4.0
 40
4.0
 40
5.0
 40
5.0
 40
5.0
 40
6.0
 40
6.0
 40
6.0
 40
7.0
 40
7.0
 40
7.0
 40
8.0
 40
8.0
 40
8.0
 40
9.0
 40
9.0
 40
9.0
 40
9.0
 10
441.2230251736111
 20
1.886534288194444
 10
441.2230251736111
 20
0.03720703125
 10
441.8458984374999
 20
-1.419379340277777
 10
443.0916449652777
 20
-2.483224826388888
 10
444.3373914930555
 20
-3.547070312499999
 10
445.9007758246527
 20
-4.078993055555555
 10
447.7804199218749
 20
-4.078993055555555
 10
449.6945149739582
 20
-4.078993055555555
 10
451.2703016493055
 20
-3.542247178819444
 10
452.5077799479165
 20
-2.467377387152777
 10
453.7452582465276
 20
-1.393196614583333
 10
454.3639973958333
 20
0.1316026475694444
 10
454.3639973958333
 20
2.106331380208333
 10
454.3639973958333
 20
3.354833984374999
 10
454.0994140624999
 20
4.444862196180555
 10
453.5702473958332
 20
5.376416015624999
 10
453.0410807291666
 20
6.307969835069443
 10
452.2673122829861
 20
7.030061848958332
 10
451.2489420572916
 20
7.542692057291666
 10
450.2305718315971
 20
8.055322265624999
 10
449.0874891493055
 20
8.312326388888887
 10
447.8196940104166
 20
8.312326388888887
 10
446.0185980902777
 20
8.312326388888887
 10
444.4683051215277
 20
7.818299696180554
 10
443.170193142361
 20
6.83093532986111
 10
441.8720811631944
 20
5.843570963541665
 10
441.2230251736111
 20
4.195437282986111
 10
441.2230251736111
 20
1.886534288194444
 97
        0
 92
        1
 93
        1
 72
     4
 94
        3
 73
     0
 74
     0
 95
       38
 96
       34
 40
0.0
 40
0.0
 40
0.0
 40
0.0
 40
1.0
 40
1.0
 40
1.0
 40
2.0
 40
2.0
 40
2.0
 40
3.0
 40
3.0
 40
3.0
 40
4.0
 40
4.0
 40
4.0
 40
5.0
 40
5.0
 40
5.0
 40
6.0
 40
6.0
 40
6.0
 40
7.0
 40
7.0
 40
7.0
 40
8.0
 40
8.0
 40
8.0
 40
9.0
 40
9.0
 40
9.0
 40
10.0
 40
10.0
 40
10.0
 40
11.0
 40
11.0
 40
11.0
 40
11.0
 10
438.6212890624999
 20
1.91340603298611
 10
438.6212890624999
 20
4.452441406249999
 10
439.4756727430555
 20
6.44026150173611
 10
441.185818142361
 20
7.876866319444443
 10
442.8952745225694
 20
9.313471137152776
 10
445.1022026909722
 20
10.03211805555555
 10
447.8066026475693
 20
10.03211805555555
 10
449.5773817274304
 20
10.03211805555555
 10
451.1731499565971
 20
9.694498697916666
 10
452.5952853732638
 20
9.01994900173611
 10
454.0174207899305
 20
8.344710286458331
 10
455.101247829861
 20
7.404199218749999
 10
455.8467664930555
 20
6.197037760416666
 10
456.5922851562499
 20
4.989876302083333
 10
456.9657335069443
 20
3.620795355902777
 10
456.9657335069443
 20
2.090483940972222
 10
456.9657335069443
 20
0.5388129340277778
 10
456.5729926215277
 20
-0.8488715277777776
 10
455.7881998697916
 20
-2.073258463541666
 10
455.0027180989582
 20
-3.298334418402777
 10
453.8906412760415
 20
-4.225065104166666
 10
452.4512803819444
 20
-4.854828559027777
 10
451.0119194878472
 20
-5.484592013888888
 10
449.4595594618054
 20
-5.798784722222221
 10
447.7935112847221
 20
-5.798784722222221
 10
445.9875922309027
 20
-5.798784722222221
 10
444.3739095052083
 20
-5.451519097222221
 10
442.9517740885416
 20
-4.755609809027776
 10
441.529638671875
 20
-4.059700520833333
 10
440.4527018229166
 20
-3.11023220486111
 10
439.7202745225694
 20
-1.906515842013888
 10
438.987158203125
 20
-0.7027994791666666
 10
438.6212890624999
 20
0.5705078125
 10
438.6212890624999
 20
1.91340603298611
 97
        0
 75
     2
 76
     1
 98
        1
 10
0.0
 20
0.0
  0
HATCH
  5
36
330
29
100
AcDbEntity
  8
LAYER_2
 62
     3
100
AcDbHatch
 10
0.0
 20
0.0
 30
0.0
210
0.0
220
0.0
230
1.0
  2
SOLID
 70
     1
 71
     0
 91
        1
 92
        1
 93
        1
 72
     4
 94
        3
 73
     0
 74
     0
 95
       50
 96
       46
 40
0.0
 40
0.0
 40
0.0
 40
0.0
 40
1.0
 40
1.0
 40
1.0
 40
2.0
 40
2.0
 40
2.0
 40
3.0
 40
3.0
 40
3.0
 40
4.0
 40
4.0
 40
4.0
 40
5.0
 40
5.0
 40
5.0
 40
6.0
 40
6.0
 40
6.0
 40
7.0
 40
7.0
 40
7.0
 40
8.0
 40
8.0
 40
8.0
 40
9.0
 40
9.0
 40
9.0
 40
10.0
 40
10.0
 40
10.0
 40
11.0
 40
11.0
 40
11.0
 40
12.0
 40
12.0
 40
12.0
 40
13.0
 40
13.0
 40
13.0
 40
14.0
 40
14.0
 40
14.0
 40
15.0
 40
15.0
 40
15.0
 40
15.0
 10
467.5256401909721
 20
-5.534201388888888
 10
467.5256401909721
 20
-5.534201388888888
 10
467.5256401909721
 20
9.767534722222221
 10
467.5256401909721
 20
9.767534722222221
 10
467.5256401909721
 20
9.767534722222221
 10
471.2642578125
 20
9.767534722222221
 10
471.2642578125
 20
9.767534722222221
 10
471.2642578125
 20
9.767534722222221
 10
475.8407226562499
 20
-1.049376085069444
 10
475.8407226562499
 20
-1.049376085069444
 10
476.2624023437499
 20
-2.057411024305555
 10
476.5703938802083
 20
-2.811197916666666
 10
476.7640082465277
 20
-3.311425781249999
 10
476.9817382812499
 20
-2.756076388888888
 10
477.3221137152777
 20
-1.939588758680555
 10
477.7844455295138
 20
-0.8619628906249998
 10
477.7844455295138
 20
-0.8619628906249998
 10
482.3760687934027
 20
9.767534722222221
 10
482.3760687934027
 20
9.767534722222221
 10
482.3760687934027
 20
9.767534722222221
 10
485.7377929687499
 20
9.767534722222221
 10
485.7377929687499
 20
9.767534722222221
 10
485.7377929687499
 20
9.767534722222221
 10
485.7377929687499
 20
-5.534201388888888
 10
485.7377929687499
 20
-5.534201388888888
 10
485.7377929687499
 20
-5.534201388888888
 10
483.3124457465276
 20
-5.534201388888888
 10
483.3124457465276
 20
-5.534201388888888
 10
483.3124457465276
 20
-5.534201388888888
 10
483.3124457465276
 20
7.298090277777776
 10
483.3124457465276
 20
7.298090277777776
 10
483.3124457465276
 20
7.298090277777776
 10
477.7692871093749
 20
-5.534201388888888
 10
477.7692871093749
 20
-5.534201388888888
 10
477.7692871093749
 20
-5.534201388888888
 10
475.4879448784722
 20
-5.534201388888888
 10
475.4879448784722
 20
-5.534201388888888
 10
475.4879448784722
 20
-5.534201388888888
 10
469.9509874131944
 20
7.430381944444444
 10
469.9509874131944
 20
7.430381944444444
 10
469.9509874131944
 20
7.430381944444444
 10
469.9509874131944
 20
-5.534201388888888
 10
469.9509874131944
 20
-5.534201388888888
 10
469.9509874131944
 20
-5.534201388888888
 10
467.5256401909721
 20
-5.534201388888888
 10
467.5256401909721
 20
-5.534201388888888
 97
        0
 75
     2
 76
     1
 98
        1
 10
0.0
 20
0.0
  0
HATCH
  5
35
330
29
100
AcDbEntity
  8
LAYER_2
 62
     3
100
AcDbHatch
 10
0.0
 20
0.0
 30
0.0
210
0.0
220
0.0
230
1.0
  2
SOLID
 70
     1
 71
     0
 91
        2
 92
       16
 93
        1
 72
     4
 94
        3
 73
     0
 74
     0
 95
       29
 96
       25
 40
0.0
 40
0.0
 40
0.0
 40
0.0
 40
1.0
 40
1.0
 40
1.0
 40
2.0
 40
2.0
 40
2.0
 40
3.0
 40
3.0
 40
3.0
 40
4.0
 40
4.0
 40
4.0
 40
5.0
 40
5.0
 40
5.0
 40
6.0
 40
6.0
 40
6.0
 40
7.0
 40
7.0
 40
7.0
 40
8.0
 40
8.0
 40
8.0
 40
8.0
 10
551.6217990451387
 20
2.491493055555555
 10
551.6217990451387
 20
2.491493055555555
 10
556.5779134114583
 20
2.491493055555555
 10
556.5779134114583
 20
2.491493055555555
 10
558.2164008246527
 20
2.491493055555555
 10
559.3801540798611
 20
2.734716796874999
 10
560.0691731770832
 20
3.22185329861111
 10
560.7581922743055
 20
3.708300781249999
 10
561.1027018229166
 20
4.39387478298611
 10
561.1027018229166
 20
5.277886284722221
 10
561.1027018229166
 20
5.917296006944443
 10
560.8994411892361
 20
6.46506618923611
 10
560.4942979600694
 20
6.921196831597221
 10
560.0891547309027
 20
7.37663845486111
 10
559.5551649305555
 20
7.677739800347221
 10
558.8923285590277
 20
7.823811848958333
 10
558.4651367187499
 20
7.914073350694443
 10
557.6762098524304
 20
7.95954861111111
 10
556.5255479600693
 20
7.95954861111111
 10
556.5255479600693
 20
7.95954861111111
 10
551.6217990451387
 20
7.95954861111111
 10
551.6217990451387
 20
7.95954861111111
 10
551.6217990451387
 20
7.95954861111111
 10
551.6217990451387
 20
2.491493055555555
 10
551.6217990451387
 20
2.491493055555555
 97
        0
 92
        1
 93
        1
 72
     4
 94
        3
 73
     0
 74
     0
 95
       38
 96
       34
 40
0.0
 40
0.0
 40
0.0
 40
0.0
 40
1.0
 40
1.0
 40
1.0
 40
2.0
 40
2.0
 40
2.0
 40
3.0
 40
3.0
 40
3.0
 40
4.0
 40
4.0
 40
4.0
 40
5.0
 40
5.0
 40
5.0
 40
6.0
 40
6.0
 40
6.0
 40
7.0
 40
7.0
 40
7.0
 40
8.0
 40
8.0
 40
8.0
 40
9.0
 40
9.0
 40
9.0
 40
10.0
 40
10.0
 40
10.0
 40
11.0
 40
11.0
 40
11.0
 40
11.0
 10
549.1082573784722
 20
-5.534201388888888
 10
549.1082573784722
 20
-5.534201388888888
 10
549.1082573784722
 20
9.767534722222221
 10
549.1082573784722
 20
9.767534722222221
 10
549.1082573784722
 20
9.767534722222221
 10
556.3215983072916
 20
9.767534722222221
 10
556.3215983072916
 20
9.767534722222221
 10
557.5907714843749
 20
9.767534722222221
 10
558.5609103732638
 20
9.718614366319442
 10
559.2306369357638
 20
9.621462673611111
 10
560.1690809461805
 20
9.496061197916665
 10
560.9559407552082
 20
9.257660590277776
 10
561.5912163628471
 20
8.906260850694444
 10
562.2258029513887
 20
8.55486111111111
 10
562.7363661024304
 20
8.062212456597221
 10
563.1235948350694
 20
7.428314887152777
 10
563.5108235677082
 20
6.794417317708332
 10
563.7044379340277
 20
6.098508029513888
 10
563.7044379340277
 20
5.340587022569444
 10
563.7044379340277
 20
4.038340928819444
 10
563.1862955729165
 20
2.93659939236111
 10
562.1500108506943
 20
2.035362413194444
 10
561.1137261284722
 20
1.134125434027777
 10
559.2409722222221
 20
0.6835069444444444
 10
556.5331271701388
 20
0.6835069444444444
 10
556.5331271701388
 20
0.6835069444444444
 10
551.6217990451387
 20
0.6835069444444444
 10
551.6217990451387
 20
0.6835069444444444
 10
551.6217990451387
 20
0.6835069444444444
 10
551.6217990451387
 20
-5.534201388888888
 10
551.6217990451387
 20
-5.534201388888888
 10
551.6217990451387
 20
-5.534201388888888
 10
549.1082573784722
 20
-5.534201388888888
 10
549.1082573784722
 20
-5.534201388888888
 97
        0
 75
     2
 76
     1
 98
        1
 10
0.0
 20
0.0
  0
HATCH
  5
34
330
29
100
AcDbEntity
  8
LAYER_2
 62
     3
100
AcDbHatch
 10
0.0
 20
0.0
 30
0.0
210
0.0
220
0.0
230
1.0
  2
SOLID
 70
     1
 71
     0
 91
        2
 92
       16
 93
        1
 72
     4
 94
        3
 73
     0
 74
     0
 95
       20
 96
       16
 40
0.0
 40
0.0
 40
0.0
 40
0.0
 40
1.0
 40
1.0
 40
1.0
 40
2.0
 40
2.0
 40
2.0
 40
3.0
 40
3.0
 40
3.0
 40
4.0
 40
4.0
 40
4.0
 40
5.0
 40
5.0
 40
5.0
 40
5.0
 10
577.2223036024305
 20
0.7276041666666666
 10
577.2223036024305
 20
0.7276041666666666
 10
583.7865885416666
 20
0.7276041666666666
 10
583.7865885416666
 20
0.7276041666666666
 10
583.7865885416666
 20
0.7276041666666666
 10
581.7560492621526
 20
4.994699435763888
 10
581.7560492621526
 20
4.994699435763888
 10
581.1559136284721
 20
6.283165147569444
 10
580.6949598524305
 20
7.344943576388888
 10
580.3731879340277
 20
8.18003472222222
 10
580.0975802951389
 20
7.179578993055554
 10
579.7475585937499
 20
6.192903645833332
 10
579.3238118489582
 20
5.219319661458333
 10
579.3238118489582
 20
5.219319661458333
 10
577.2223036024305
 20
0.7276041666666666
 10
577.2223036024305
 20
0.7276041666666666
 97
        0
 92
        1
 93
        1
 72
     4
 94
        3
 73
     0
 74
     0
 95
       29
 96
       25
 40
0.0
 40
0.0
 40
0.0
 40
0.0
 40
1.0
 40
1.0
 40
1.0
 40
2.0
 40
2.0
 40
2.0
 40
3.0
 40
3.0
 40
3.0
 40
4.0
 40
4.0
 40
4.0
 40
5.0
 40
5.0
 40
5.0
 40
6.0
 40
6.0
 40
6.0
 40
7.0
 40
7.0
 40
7.0
 40
8.0
 40
8.0
 40
8.0
 40
8.0
 10
571.7356445312499
 20
-5.534201388888888
 10
571.7356445312499
 20
-5.534201388888888
 10
579.075075954861
 20
9.767534722222221
 10
579.075075954861
 20
9.767534722222221
 10
579.075075954861
 20
9.767534722222221
 10
581.8339084201388
 20
9.767534722222221
 10
581.8339084201388
 20
9.767534722222221
 10
581.8339084201388
 20
9.767534722222221
 10
589.6246473524305
 20
-5.534201388888888
 10
589.6246473524305
 20
-5.534201388888888
 10
589.6246473524305
 20
-5.534201388888888
 10
586.7452365451388
 20
-5.534201388888888
 10
586.7452365451388
 20
-5.534201388888888
 10
586.7452365451388
 20
-5.534201388888888
 10
584.544509548611
 20
-0.9039930555555553
 10
584.544509548611
 20
-0.9039930555555553
 10
584.544509548611
 20
-0.9039930555555553
 10
576.4630045572915
 20
-0.9039930555555553
 10
576.4630045572915
 20
-0.9039930555555553
 10
576.4630045572915
 20
-0.9039930555555553
 10
574.3980143229166
 20
-5.534201388888888
 10
574.3980143229166
 20
-5.534201388888888
 10
574.3980143229166
 20
-5.534201388888888
 10
571.7356445312499
 20
-5.534201388888888
 10
571.7356445312499
 20
-5.534201388888888
 97
        0
 75
     2
 76
     1
 98
        1
 10
0.0
 20
0.0
  0
HATCH
  5
33
330
29
100
AcDbEntity
  8
LAYER_2
 62
     3
100
AcDbHatch
 10
0.0
 20
0.0
 30
0.0
210
0.0
220
0.0
230
1.0
  2
SOLID
 70
     1
 71
     0
 91
        2
 92
       16
 93
        1
 72
     4
 94
        3
 73
     0
 74
     0
 95
       29
 96
       25
 40
0.0
 40
0.0
 40
0.0
 40
0.0
 40
1.0
 40
1.0
 40
1.0
 40
2.0
 40
2.0
 40
2.0
 40
3.0
 40
3.0
 40
3.0
 40
4.0
 40
4.0
 40
4.0
 40
5.0
 40
5.0
 40
5.0
 40
6.0
 40
6.0
 40
6.0
 40
7.0
 40
7.0
 40
7.0
 40
8.0
 40
8.0
 40
8.0
 40
8.0
 10
600.1535481770832
 20
3.064756944444444
 10
600.1535481770832
 20
3.064756944444444
 10
605.5685492621527
 20
3.064756944444444
 10
605.5685492621527
 20
3.064756944444444
 10
606.7199001736111
 20
3.064756944444444
 10
607.6197591145833
 20
3.159152560763888
 10
608.2681260850693
 20
3.349321831597221
 10
608.9158040364583
 20
3.539491102430555
 10
609.4084526909721
 20
3.843348524305555
 10
609.746072048611
 20
4.261583116319443
 10
610.0830023871528
 20
4.679817708333333
 10
610.2518120659722
 20
5.134570312499999
 10
610.2518120659722
 20
5.625151909722221
 10
610.2518120659722
 20
6.343109809027777
 10
609.9252170138888
 20
6.934288194444444
 10
609.2720269097221
 20
7.397309027777777
 10
608.6188368055554
 20
7.86032986111111
 10
607.5880642361111
 20
8.091840277777777
 10
606.1790201822916
 20
8.091840277777777
 10
606.1790201822916
 20
8.091840277777777
 10
600.1535481770832
 20
8.091840277777777
 10
600.1535481770832
 20
8.091840277777777
 10
600.1535481770832
 20
8.091840277777777
 10
600.1535481770832
 20
3.064756944444444
 10
600.1535481770832
 20
3.064756944444444
 97
        0
 92
        1
 93
        1
 72
     4
 94
        3
 73
     0
 74
     0
 95
       62
 96
       58
 40
0.0
 40
0.0
 40
0.0
 40
0.0
 40
1.0
 40
1.0
 40
1.0
 40
2.0
 40
2.0
 40
2.0
 40
3.0
 40
3.0
 40
3.0
 40
4.0
 40
4.0
 40
4.0
 40
5.0
 40
5.0
 40
5.0
 40
6.0
 40
6.0
 40
6.0
 40
7.0
 40
7.0
 40
7.0
 40
8.0
 40
8.0
 40
8.0
 40
9.0
 40
9.0
 40
9.0
 40
10.0
 40
10.0
 40
10.0
 40
11.0
 40
11.0
 40
11.0
 40
12.0
 40
12.0
 40
12.0
 40
13.0
 40
13.0
 40
13.0
 40
14.0
 40
14.0
 40
14.0
 40
15.0
 40
15.0
 40
15.0
 40
16.0
 40
16.0
 40
16.0
 40
17.0
 40
17.0
 40
17.0
 40
18.0
 40
18.0
 40
18.0
 40
19.0
 40
19.0
 40
19.0
 40
19.0
 10
597.6400065104165
 20
-5.534201388888888
 10
597.6400065104165
 20
-5.534201388888888
 10
597.6400065104165
 20
9.767534722222221
 10
597.6400065104165
 20
9.767534722222221
 10
597.6400065104165
 20
9.767534722222221
 10
606.0749782986111
 20
9.767534722222221
 10
606.0749782986111
 20
9.767534722222221
 10
607.7713433159722
 20
9.767534722222221
 10
609.0611870659721
 20
9.629730902777776
 10
609.944509548611
 20
9.355501302083332
 10
610.8278320312499
 20
9.080582682291666
 10
611.5333875868055
 20
8.595513237847221
 10
612.0611762152776
 20
7.900292968749999
 10
612.58896484375
 20
7.204383680555555
 10
612.8535481770833
 20
6.436127387152777
 10
612.8535481770833
 20
5.594835069444443
 10
612.8535481770833
 20
4.510319010416666
 10
612.4160210503471
 20
3.595990668402777
 10
611.5416558159721
 20
2.851850043402777
 10
610.6672905815972
 20
2.107709418402777
 10
609.3168131510416
 20
1.63435329861111
 10
607.4902235243055
 20
1.433159722222222
 10
608.1571940104165
 20
1.175466579861111
 10
608.6636230468749
 20
0.9219075520833332
 10
609.0101996527777
 20
0.6711046006944443
 10
609.746072048611
 20
0.1281575520833333
 10
610.4419813368054
 20
-0.5505262586805556
 10
611.0972384982638
 20
-1.366324869791666
 10
611.0972384982638
 20
-1.366324869791666
 10
614.3935058593749
 20
-5.534201388888888
 10
614.3935058593749
 20
-5.534201388888888
 10
614.3935058593749
 20
-5.534201388888888
 10
611.2433105468749
 20
-5.534201388888888
 10
611.2433105468749
 20
-5.534201388888888
 10
611.2433105468749
 20
-5.534201388888888
 10
608.7242567274305
 20
-2.348177083333333
 10
608.7242567274305
 20
-2.348177083333333
 10
607.9952745225694
 20
-1.429025607638888
 10
607.393071831597
 20
-0.7262261284722222
 10
606.9169596354165
 20
-0.2384006076388889
 10
606.4408474392361
 20
0.2494249131944444
 10
606.012966579861
 20
0.589111328125
 10
605.6326280381944
 20
0.7820366753472222
 10
605.2522894965277
 20
0.9742730034722221
 10
604.8671278211805
 20
1.108631727430555
 10
604.4778320312499
 20
1.184423828124999
 10
604.1918891059027
 20
1.232655164930555
 10
603.7240451388888
 20
1.256770833333333
 10
603.0749891493054
 20
1.256770833333333
 10
603.0749891493054
 20
1.256770833333333
 10
600.1535481770832
 20
1.256770833333333
 10
600.1535481770832
 20
1.256770833333333
 10
600.1535481770832
 20
1.256770833333333
 10
600.1535481770832
 20
-5.534201388888888
 10
600.1535481770832
 20
-5.534201388888888
 10
600.1535481770832
 20
-5.534201388888888
 10
597.6400065104165
 20
-5.534201388888888
 10
597.6400065104165
 20
-5.534201388888888
 97
        0
 75
     2
 76
     1
 98
        1
 10
0.0
 20
0.0
  0
HATCH
  5
32
330
29
100
AcDbEntity
  8
LAYER_2
 62
     3
100
AcDbHatch
 10
0.0
 20
0.0
 30
0.0
210
0.0
220
0.0
230
1.0
  2
SOLID
 70
     1
 71
     0
 91
        1
 92
        1
 93
        1
 72
     4
 94
        3
 73
     0
 74
     0
 95
       29
 96
       25
 40
0.0
 40
0.0
 40
0.0
 40
0.0
 40
1.0
 40
1.0
 40
1.0
 40
2.0
 40
2.0
 40
2.0
 40
3.0
 40
3.0
 40
3.0
 40
4.0
 40
4.0
 40
4.0
 40
5.0
 40
5.0
 40
5.0
 40
6.0
 40
6.0
 40
6.0
 40
7.0
 40
7.0
 40
7.0
 40
8.0
 40
8.0
 40
8.0
 40
8.0
 10
629.0723687065971
 20
-5.534201388888888
 10
629.0723687065971
 20
-5.534201388888888
 10
629.0723687065971
 20
7.95954861111111
 10
629.0723687065971
 20
7.95954861111111
 10
629.0723687065971
 20
7.95954861111111
 10
622.7664659288193
 20
7.95954861111111
 10
622.7664659288193
 20
7.95954861111111
 10
622.7664659288193
 20
7.95954861111111
 10
622.7664659288193
 20
9.767534722222221
 10
622.7664659288193
 20
9.767534722222221
 10
622.7664659288193
 20
9.767534722222221
 10
637.8918131510415
 20
9.767534722222221
 10
637.8918131510415
 20
9.767534722222221
 10
637.8918131510415
 20
9.767534722222221
 10
637.8918131510415
 20
7.95954861111111
 10
637.8918131510415
 20
7.95954861111111
 10
637.8918131510415
 20
7.95954861111111
 10
631.5859103732638
 20
7.95954861111111
 10
631.5859103732638
 20
7.95954861111111
 10
631.5859103732638
 20
7.95954861111111
 10
631.5859103732638
 20
-5.534201388888888
 10
631.5859103732638
 20
-5.534201388888888
 10
631.5859103732638
 20
-5.534201388888888
 10
629.0723687065971
 20
-5.534201388888888
 10
629.0723687065971
 20
-5.534201388888888
 97
        0
 75
     2
 76
     1
 98
        1
 10
0.0
 20
0.0
  0
HATCH
  5
31
330
29
100
AcDbEntity
  8
LAYER_2
 62
     3
100
AcDbHatch
 10
0.0
 20
0.0
 30
0.0
210
0.0
220
0.0
230
1.0
  2
SOLID
 70
     1
 71
     0
 91
        1
 92
        1
 93
        1
 72
     4
 94
        3
 73
     0
 74
     0
 95
       35
 96
       31
 40
0.0
 40
0.0
 40
0.0
 40
0.0
 40
1.0
 40
1.0
 40
1.0
 40
2.0
 40
2.0
 40
2.0
 40
3.0
 40
3.0
 40
3.0
 40
4.0
 40
4.0
 40
4.0
 40
5.0
 40
5.0
 40
5.0
 40
6.0
 40
6.0
 40
6.0
 40
7.0
 40
7.0
 40
7.0
 40
8.0
 40
8.0
 40
8.0
 40
9.0
 40
9.0
 40
9.0
 40
10.0
 40
10.0
 40
10.0
 40
10.0
 10
654.8065429687499
 20
-5.534201388888888
 10
654.8065429687499
 20
-5.534201388888888
 10
654.8065429687499
 20
9.767534722222221
 10
654.8065429687499
 20
9.767534722222221
 10
654.8065429687499
 20
9.767534722222221
 10
657.402077907986
 20
9.767534722222221
 10
657.402077907986
 20
9.767534722222221
 10
657.402077907986
 20
9.767534722222221
 10
667.4624457465276
 20
-2.253781467013888
 10
667.4624457465276
 20
-2.253781467013888
 10
667.4624457465276
 20
-2.253781467013888
 10
667.4624457465276
 20
9.767534722222221
 10
667.4624457465276
 20
9.767534722222221
 10
667.4624457465276
 20
9.767534722222221
 10
669.8877929687499
 20
9.767534722222221
 10
669.8877929687499
 20
9.767534722222221
 10
669.8877929687499
 20
9.767534722222221
 10
669.8877929687499
 20
-5.534201388888888
 10
669.8877929687499
 20
-5.534201388888888
 10
669.8877929687499
 20
-5.534201388888888
 10
667.2922580295138
 20
-5.534201388888888
 10
667.2922580295138
 20
-5.534201388888888
 10
667.2922580295138
 20
-5.534201388888888
 10
657.2318901909722
 20
6.487803819444444
 10
657.2318901909722
 20
6.487803819444444
 10
657.2318901909722
 20
6.487803819444444
 10
657.2318901909722
 20
-5.534201388888888
 10
657.2318901909722
 20
-5.534201388888888
 10
657.2318901909722
 20
-5.534201388888888
 10
654.8065429687499
 20
-5.534201388888888
 10
654.8065429687499
 20
-5.534201388888888
 97
        0
 75
     2
 76
     1
 98
        1
 10
0.0
 20
0.0
  0
HATCH
  5
30
330
29
100
AcDbEntity
  8
LAYER_2
 62
     3
100
AcDbHatch
 10
0.0
 20
0.0
 30
0.0
210
0.0
220
0.0
230
1.0
  2
SOLID
 70
     1
 71
     0
 91
        2
 92
       16
 93
        1
 72
     4
 94
        3
 73
     0
 74
     0
 95
       29
 96
       25
 40
0.0
 40
0.0
 40
0.0
 40
0.0
 40
1.0
 40
1.0
 40
1.0
 40
2.0
 40
2.0
 40
2.0
 40
3.0
 40
3.0
 40
3.0
 40
4.0
 40
4.0
 40
4.0
 40
5.0
 40
5.0
 40
5.0
 40
6.0
 40
6.0
 40
6.0
 40
7.0
 40
7.0
 40
7.0
 40
8.0
 40
8.0
 40
8.0
 40
8.0
 10
682.7552246093749
 20
0.0275607638888889
 10
682.7552246093749
 20
-1.389062499999999
 10
683.1403862847221
 20
-2.450151909722221
 10
683.9107096354166
 20
-3.154329427083332
 10
684.681032986111
 20
-3.859195963541666
 10
685.6497938368055
 20
-4.211284722222221
 10
686.8183702256943
 20
-4.211284722222221
 10
687.9779893663194
 20
-4.211284722222221
 10
688.9433051215277
 20
-3.857817925347221
 10
689.7136284722221
 20
-3.149506293402777
 10
690.4839518229167
 20
-2.441194661458333
 10
690.8691134982638
 20
-1.361501736111111
 10
690.8691134982638
 20
0.0895724826388889
 10
690.8691134982638
 20
1.457275390624999
 10
690.4811957465277
 20
2.493560112847221
 10
689.7067382812499
 20
3.198426649305555
 10
688.9322808159721
 20
3.902604166666666
 10
687.9690321180554
 20
4.255381944444444
 10
686.8183702256943
 20
4.255381944444444
 10
685.6497938368055
 20
4.255381944444444
 10
684.681032986111
 20
3.904671223958332
 10
683.9107096354166
 20
3.20324978298611
 10
683.1403862847221
 20
2.501828342013888
 10
682.7552246093749
 20
1.443495008680555
 10
682.7552246093749
 20
0.0275607638888889
 97
        0
 92
        1
 93
        1
 72
     4
 94
        3
 73
     0
 74
     0
 95
       32
 96
       28
 40
0.0
 40
0.0
 40
0.0
 40
0.0
 40
1.0
 40
1.0
 40
1.0
 40
2.0
 40
2.0
 40
2.0
 40
3.0
 40
3.0
 40
3.0
 40
4.0
 40
4.0
 40
4.0
 40
5.0
 40
5.0
 40
5.0
 40
6.0
 40
6.0
 40
6.0
 40
7.0
 40
7.0
 40
7.0
 40
8.0
 40
8.0
 40
8.0
 40
9.0
 40
9.0
 40
9.0
 40
9.0
 10
680.3298773871526
 20
0.0220486111111111
 10
680.3298773871526
 20
2.06843532986111
 10
681.0416341145833
 20
3.584966362847221
 10
682.4665256076388
 20
4.570263671874999
 10
683.6564615885415
 20
5.388818359374999
 10
685.1068467881944
 20
5.798784722222221
 10
686.8183702256943
 20
5.798784722222221
 10
688.7207519531249
 20
5.798784722222221
 10
690.2758680555555
 20
5.300623914930555
 10
691.4830295138888
 20
4.304991319444444
 10
692.6901909722221
 20
3.30866970486111
 10
693.294460720486
 20
1.933387586805555
 10
693.294460720486
 20
0.1784559461805555
 10
693.294460720486
 20
-1.244368489583333
 10
693.0271213107638
 20
-2.363335503472221
 10
692.4931315104165
 20
-3.17844509548611
 10
691.9584526909722
 20
-3.994243706597222
 10
691.1812391493055
 20
-4.627452256944444
 10
690.1608018663194
 20
-5.078070746527777
 10
689.1396755642361
 20
-5.529378255208333
 10
688.0255316840276
 20
-5.754687499999999
 10
686.8183702256943
 20
-5.754687499999999
 10
684.8808485243055
 20
-5.754687499999999
 10
683.3153971354165
 20
-5.258593749999999
 10
682.1213270399304
 20
-4.266406249999999
 10
680.9265679253472
 20
-3.274218749999999
 10
680.3298773871526
 20
-1.845193142361111
 10
680.3298773871526
 20
0.0220486111111111
 97
        0
 75
     2
 76
     1
 98
        1
 10
0.0
 20
0.0
  0
HATCH
  5
2F
330
29
100
AcDbEntity
  8
LAYER_2
 62
     3
100
AcDbHatch
 10
0.0
 20
0.0
 30
0.0
210
0.0
220
0.0
230
1.0
  2
SOLID
 70
     1
 71
     0
 91
        1
 92
        1
 93
        1
 72
     4
 94
        3
 73
     0
 74
     0
 95
       17
 96
       13
 40
0.0
 40
0.0
 40
0.0
 40
0.0
 40
1.0
 40
1.0
 40
1.0
 40
2.0
 40
2.0
 40
2.0
 40
3.0
 40
3.0
 40
3.0
 40
4.0
 40
4.0
 40
4.0
 40
4.0
 10
704.0720974392359
 20
-5.534201388888888
 10
704.0720974392359
 20
-5.534201388888888
 10
704.0720974392359
 20
-3.417534722222221
 10
704.0720974392359
 20
-3.417534722222221
 10
704.0720974392359
 20
-3.417534722222221
 10
706.7620279947917
 20
-3.417534722222221
 10
706.7620279947917
 20
-3.417534722222221
 10
706.7620279947917
 20
-3.417534722222221
 10
706.7620279947917
 20
-5.534201388888888
 10
706.7620279947917
 20
-5.534201388888888
 10
706.7620279947917
 20
-5.534201388888888
 10
704.0720974392359
 20
-5.534201388888888
 10
704.0720974392359
 20
-5.534201388888888
 97
        0
 75
     2
 76
     1
 98
        1
 10
0.0
 20
0.0
  0
HATCH
  5
2E
330
29
100
AcDbEntity
  8
LAYER_2
 62
     3
100
AcDbHatch
 10
0.0
 20
0.0
 30
0.0
210
0.0
220
0.0
230
1.0
  2
SOLID
 70
     1
 71
     0
 91
        1
 92
        1
 93
        1
 72
     4
 94
        3
 73
     0
 74
     0
 95
       71
 96
       67
 40
0.0
 40
0.0
 40
0.0
 40
0.0
 40
1.0
 40
1.0
 40
1.0
 40
2.0
 40
2.0
 40
2.0
 40
3.0
 40
3.0
 40
3.0
 40
4.0
 40
4.0
 40
4.0
 40
5.0
 40
5.0
 40
5.0
 40
6.0
 40
6.0
 40
6.0
 40
7.0
 40
7.0
 40
7.0
 40
8.0
 40
8.0
 40
8.0
 40
9.0
 40
9.0
 40
9.0
 40
10.0
 40
10.0
 40
10.0
 40
11.0
 40
11.0
 40
11.0
 40
12.0
 40
12.0
 40
12.0
 40
13.0
 40
13.0
 40
13.0
 40
14.0
 40
14.0
 40
14.0
 40
15.0
 40
15.0
 40
15.0
 40
16.0
 40
16.0
 40
16.0
 40
17.0
 40
17.0
 40
17.0
 40
18.0
 40
18.0
 40
18.0
 40
19.0
 40
19.0
 40
19.0
 40
20.0
 40
20.0
 40
20.0
 40
21.0
 40
21.0
 40
21.0
 40
22.0
 40
22.0
 40
22.0
 40
22.0
 10
737.3255371093749
 20
-3.726215277777777
 10
737.3255371093749
 20
-3.726215277777777
 10
737.3255371093749
 20
-5.534201388888888
 10
737.3255371093749
 20
-5.534201388888888
 10
737.3255371093749
 20
-5.534201388888888
 10
724.7137315538193
 20
-5.534201388888888
 10
724.7137315538193
 20
-5.534201388888888
 10
724.6958170572916
 20
-5.081515842013888
 10
724.7874565972221
 20
-4.646055772569444
 10
724.9879611545138
 20
-4.227132161458333
 10
725.3090440538194
 20
-3.537424045138888
 10
725.8244303385415
 20
-2.859429253472221
 10
726.5334309895832
 20
-2.193147786458333
 10
727.2417426215277
 20
-1.526866319444444
 10
728.2614908854165
 20
-0.7530978732638888
 10
729.5912977430555
 20
0.1274685329861111
 10
731.6555989583332
 20
1.511707899305555
 10
733.0487955729165
 20
2.60173611111111
 10
733.7715766059027
 20
3.397553168402777
 10
734.4943576388888
 20
4.193370225694444
 10
734.8560926649305
 20
4.949224175347222
 10
734.8560926649305
 20
5.664425998263888
 10
734.8560926649305
 20
6.407877604166666
 10
734.526052517361
 20
7.034884982638888
 10
733.8673502604166
 20
7.546137152777776
 10
733.207958984375
 20
8.056700303819443
 10
732.3487521701387
 20
8.312326388888887
 10
731.289040798611
 20
8.312326388888887
 10
730.1686957465277
 20
8.312326388888887
 10
729.2729709201388
 20
8.035340711805554
 10
728.6011773003471
 20
7.481369357638888
 10
727.9286946614583
 20
6.927398003472221
 10
727.5883192274305
 20
6.16120876736111
 10
727.5800509982637
 20
5.18142361111111
 10
727.5800509982637
 20
5.18142361111111
 10
725.1547037760416
 20
5.446006944444444
 10
725.1547037760416
 20
5.446006944444444
 10
725.3186903211805
 20
6.881233723958332
 10
725.9381184895833
 20
7.974707031249999
 10
727.0129882812499
 20
8.727115885416665
 10
728.0878580729165
 20
9.479524739583332
 10
729.5306640624999
 20
9.855729166666666
 10
731.3414062499999
 20
9.855729166666666
 10
733.1693739149304
 20
9.855729166666666
 10
734.6163140190971
 20
9.44782986111111
 10
735.6822265624999
 20
8.632720269097221
 10
736.7481391059027
 20
7.817610677083332
 10
737.2814398871526
 20
6.807508680555555
 10
737.2814398871526
 20
5.60310329861111
 10
737.2814398871526
 20
4.989876302083333
 10
737.1257215711805
 20
4.386984592013888
 10
736.8156629774305
 20
3.795117187499999
 10
736.5049153645832
 20
3.202560763888888
 10
735.989529079861
 20
2.578998480902777
 10
735.2695041232638
 20
1.924430338541666
 10
734.5487901475694
 20
1.269862196180555
 10
733.3505859374999
 20
0.3700032552083333
 10
731.6748914930554
 20
-0.7744574652777777
 10
730.2692925347221
 20
-1.723925781249999
 10
729.3680555555555
 20
-2.367469618055555
 10
728.9725585937499
 20
-2.705777994791666
 10
728.5763726128472
 20
-3.044775390624999
 10
728.2490885416666
 20
-3.384461805555555
 10
727.9913953993054
 20
-3.726215277777777
 10
727.9913953993054
 20
-3.726215277777777
 10
737.3255371093749
 20
-3.726215277777777
 10
737.3255371093749
 20
-3.726215277777777
 97
        0
 75
     2
 76
     1
 98
        1
 10
0.0
 20
0.0
  0
HATCH
  5
2D
330
29
100
AcDbEntity
  8
LAYER_2
 62
     3
100
AcDbHatch
 10
0.0
 20
0.0
 30
0.0
210
0.0
220
0.0
230
1.0
  2
SOLID
 70
     1
 71
     0
 91
        2
 92
       16
 93
        1
 72
     4
 94
        3
 73
     0
 74
     0
 95
       29
 96
       25
 40
0.0
 40
0.0
 40
0.0
 40
0.0
 40
1.0
 40
1.0
 40
1.0
 40
2.0
 40
2.0
 40
2.0
 40
3.0
 40
3.0
 40
3.0
 40
4.0
 40
4.0
 40
4.0
 40
5.0
 40
5.0
 40
5.0
 40
6.0
 40
6.0
 40
6.0
 40
7.0
 40
7.0
 40
7.0
 40
8.0
 40
8.0
 40
8.0
 40
8.0
 10
749.6899848090277
 20
2.028472222222222
 10
749.6899848090277
 20
-0.5043619791666666
 10
750.0544759114582
 20
-2.184879557291666
 10
750.7834581163193
 20
-3.013080512152777
 10
751.5124403211805
 20
-3.841281467013888
 10
752.4122992621527
 20
-4.255381944444444
 10
753.4823459201389
 20
-4.255381944444444
 10
754.5517035590277
 20
-4.255381944444444
 10
755.4515624999999
 20
-3.839903428819443
 10
756.1805447048611
 20
-3.007568359374999
 10
756.909526909722
 20
-2.175922309027777
 10
757.2747070312499
 20
-0.4974717881944444
 10
757.2747070312499
 20
2.028472222222222
 10
757.2747070312499
 20
4.555794270833333
 10
756.9115939670138
 20
6.234933810763888
 10
756.1860568576388
 20
7.065890842013888
 10
755.4605197482637
 20
7.896847873263888
 10
754.5503255208331
 20
8.312326388888887
 10
753.4561631944443
 20
8.312326388888887
 10
752.3861165364583
 20
8.312326388888887
 10
751.5282877604165
 20
7.945768229166666
 10
750.8826768663193
 20
7.212651909722221
 10
750.0875488281248
 20
6.276963975694443
 10
749.6899848090277
 20
4.54890407986111
 10
749.6899848090277
 20
2.028472222222222
 97
        0
 92
        1
 93
        1
 72
     4
 94
        3
 73
     0
 74
     0
 95
       41
 96
       37
 40
0.0
 40
0.0
 40
0.0
 40
0.0
 40
1.0
 40
1.0
 40
1.0
 40
2.0
 40
2.0
 40
2.0
 40
3.0
 40
3.0
 40
3.0
 40
4.0
 40
4.0
 40
4.0
 40
5.0
 40
5.0
 40
5.0
 40
6.0
 40
6.0
 40
6.0
 40
7.0
 40
7.0
 40
7.0
 40
8.0
 40
8.0
 40
8.0
 40
9.0
 40
9.0
 40
9.0
 40
10.0
 40
10.0
 40
10.0
 40
11.0
 40
11.0
 40
11.0
 40
12.0
 40
12.0
 40
12.0
 40
12.0
 10
747.2646375868055
 20
2.022960069444444
 10
747.2646375868055
 20
3.835080295138888
 10
747.4961480034721
 20
5.297178819444443
 10
747.9605468749999
 20
6.408566623263888
 10
748.4242567274304
 20
7.51926540798611
 10
749.1132758246528
 20
8.37158203125
 10
750.0282931857638
 20
8.965516493055554
 10
750.9433105468749
 20
9.558761935763888
 10
752.0946614583332
 20
9.855729166666666
 10
753.4823459201389
 20
9.855729166666666
 10
754.5055392795139
 20
9.855729166666666
 10
755.4067762586804
 20
9.689675564236109
 10
756.1860568576388
 20
9.358946397569443
 10
756.9646484374999
 20
9.027528211805554
 10
757.6019911024304
 20
8.550037977430553
 10
758.0980848524305
 20
7.925786675347221
 10
758.5934895833332
 20
7.301535373263888
 10
758.9841634114582
 20
6.542236328124999
 10
759.2707953559027
 20
5.64651150173611
 10
759.5567382812499
 20
4.750786675347221
 10
759.7000542534721
 20
3.542936197916666
 10
759.7000542534721
 20
2.022960069444444
 10
759.7000542534721
 20
0.2246202256944444
 10
759.4699218749999
 20
-1.230588107638888
 10
759.0103461371527
 20
-2.34128689236111
 10
758.5507703993055
 20
-3.451985677083333
 10
757.8638183593749
 20
-4.306369357638888
 10
756.9488009982637
 20
-4.903059895833332
 10
756.0337836371527
 20
-5.500439453124999
 10
754.8782986111111
 20
-5.798784722222221
 10
753.4823459201389
 20
-5.798784722222221
 10
751.6440429687499
 20
-5.798784722222221
 10
750.1998589409721
 20
-5.275130208333332
 10
749.1504828559027
 20
-4.227132161458333
 10
747.8930230034722
 20
-2.940044487847222
 10
747.2646375868055
 20
-0.8564507378472221
 10
747.2646375868055
 20
2.022960069444444
 97
        0
 75
     2
 76
     1
 98
        1
 10
0.0
 20
0.0
  0
HATCH
  5
2C
330
29
100
AcDbEntity
  8
LAYER_2
 62
     3
100
AcDbHatch
 10
0.0
 20
0.0
 30
0.0
210
0.0
220
0.0
230
1.0
  2
SOLID
 70
     1
 71
     0
 91
        2
 92
       16
 93
        1
 72
     4
 94
        3
 73
     0
 74
     0
 95
       29
 96
       25
 40
0.0
 40
0.0
 40
0.0
 40
0.0
 40
1.0
 40
1.0
 40
1.0
 40
2.0
 40
2.0
 40
2.0
 40
3.0
 40
3.0
 40
3.0
 40
4.0
 40
4.0
 40
4.0
 40
5.0
 40
5.0
 40
5.0
 40
6.0
 40
6.0
 40
6.0
 40
7.0
 40
7.0
 40
7.0
 40
8.0
 40
8.0
 40
8.0
 40
8.0
 10
779.428738064236
 20
4.792127821180555
 10
779.428738064236
 20
5.871131727430555
 10
779.0759602864582
 20
6.727582465277777
 10
778.3710937499998
 20
7.361480034722221
 10
777.6662272135415
 20
7.995377604166665
 10
776.8063313802082
 20
8.312326388888887
 10
775.7907172309026
 20
8.312326388888887
 10
774.7399631076388
 20
8.312326388888887
 10
773.8339029947916
 20
7.970572916666665
 10
773.0732259114582
 20
7.288444010416665
 10
772.3125488281249
 20
6.606315104166665
 10
771.9322102864582
 20
5.721614583333332
 10
771.9322102864582
 20
4.63572048611111
 10
771.9322102864582
 20
3.660069444444443
 10
772.2932562934027
 20
2.867697482638888
 10
773.0153483072915
 20
2.258604600694444
 10
773.7374403211804
 20
1.649511718749999
 10
774.6407443576388
 20
1.344965277777777
 10
775.7259494357638
 20
1.344965277777777
 10
776.8049533420138
 20
1.344965277777777
 10
777.6917209201387
 20
1.649511718749999
 10
778.3862521701388
 20
2.258604600694444
 10
779.0807834201388
 20
2.867697482638888
 10
779.428738064236
 20
3.712434895833332
 10
779.428738064236
 20
4.792127821180555
 97
        0
 92
        1
 93
        1
 72
     4
 94
        3
 73
     0
 74
     0
 95
       71
 96
       67
 40
0.0
 40
0.0
 40
0.0
 40
0.0
 40
1.0
 40
1.0
 40
1.0
 40
2.0
 40
2.0
 40
2.0
 40
3.0
 40
3.0
 40
3.0
 40
4.0
 40
4.0
 40
4.0
 40
5.0
 40
5.0
 40
5.0
 40
6.0
 40
6.0
 40
6.0
 40
7.0
 40
7.0
 40
7.0
 40
8.0
 40
8.0
 40
8.0
 40
9.0
 40
9.0
 40
9.0
 40
10.0
 40
10.0
 40
10.0
 40
11.0
 40
11.0
 40
11.0
 40
12.0
 40
12.0
 40
12.0
 40
13.0
 40
13.0
 40
13.0
 40
14.0
 40
14.0
 40
14.0
 40
15.0
 40
15.0
 40
15.0
 40
16.0
 40
16.0
 40
16.0
 40
17.0
 40
17.0
 40
17.0
 40
18.0
 40
18.0
 40
18.0
 40
19.0
 40
19.0
 40
19.0
 40
20.0
 40
20.0
 40
20.0
 40
21.0
 40
21.0
 40
21.0
 40
22.0
 40
22.0
 40
22.0
 40
22.0
 10
769.8155436197915
 20
-2.00642361111111
 10
769.8155436197915
 20
-2.00642361111111
 10
772.0645019531249
 20
-1.874131944444444
 10
772.0645019531249
 20
-1.874131944444444
 10
772.2560492621527
 20
-2.709223090277777
 10
772.6212293836804
 20
-3.31487087673611
 10
773.1614203559026
 20
-3.691075303819443
 10
773.7016113281249
 20
-4.067279730902777
 10
774.3940755208332
 20
-4.255381944444444
 10
775.2388129340276
 20
-4.255381944444444
 10
775.9615939670139
 20
-4.255381944444444
 10
776.5989366319444
 20
-4.123090277777777
 10
777.1501519097221
 20
-3.857128906249999
 10
777.7013671874999
 20
-3.591167534722222
 10
778.1478515624999
 20
-3.236322699652777
 10
778.4889160156248
 20
-2.791905381944444
 10
778.8299804687499
 20
-2.34748806423611
 10
779.1179904513888
 20
-1.748041449652777
 10
779.3529459635416
 20
-0.9935655381944442
 10
779.5879014756943
 20
-0.2390896267361111
 10
779.7057237413193
 20
0.527099609375
 10
779.7057237413193
 20
1.30569118923611
 10
779.7057237413193
 20
1.388373480902777
 10
779.7015896267359
 20
1.513774956597222
 10
779.6933213975693
 20
1.680517578124999
 10
779.2254774305554
 20
1.083138020833333
 10
778.5867567274305
 20
0.5987575954861111
 10
777.7764702690971
 20
0.2266872829861111
 10
776.9661838107638
 20
-0.1453830295138889
 10
776.0897515190971
 20
-0.3307291666666666
 10
775.1457953559026
 20
-0.3307291666666666
 10
773.5693196614582
 20
-0.3307291666666666
 10
772.2353786892361
 20
0.1288465711805555
 10
771.1439724392359
 20
1.047998046874999
 10
770.052566189236
 20
1.967149522569444
 10
769.5068630642361
 20
3.179134114583332
 10
769.5068630642361
 20
4.683951822916665
 10
769.5068630642361
 20
6.237000868055554
 10
770.0759928385417
 20
7.487570529513888
 10
771.2149414062499
 20
8.434971788194443
 10
772.3538899739582
 20
9.381684027777776
 10
773.7808485243054
 20
9.855729166666666
 10
775.4958170572916
 20
9.855729166666666
 10
776.733984375
 20
9.855729166666666
 10
777.866042751736
 20
9.587011718749998
 10
778.892681206597
 20
9.050265842013887
 10
779.9193196614583
 20
8.513519965277776
 10
780.6986002604165
 20
7.74870876736111
 10
781.2312120225693
 20
6.755143229166666
 10
781.7638237847221
 20
5.761577690972221
 10
782.0304741753472
 20
4.323594835069443
 10
782.0304741753472
 20
2.441194661458333
 10
782.0304741753472
 20
0.4823133680555556
 10
781.7652018229166
 20
-1.077625868055555
 10
781.2353461371527
 20
-2.237934027777777
 10
780.7048014322916
 20
-3.398931206597221
 10
779.9165635850694
 20
-4.282942708333332
 10
778.8692545572915
 20
-4.889279513888888
 10
777.8219455295138
 20
-5.495616319444444
 10
776.5941134982638
 20
-5.798784722222221
 10
775.1864474826389
 20
-5.798784722222221
 10
773.6912760416665
 20
-5.798784722222221
 10
772.4703342013888
 20
-5.467366536458333
 10
771.5229329427082
 20
-4.803841145833333
 10
770.5755316840277
 20
-4.141004774305555
 10
770.0064019097221
 20
-3.208072916666666
 10
769.8155436197915
 20
-2.00642361111111
 97
        0
 75
     2
 76
     1
 98
        1
 10
0.0
 20
0.0
  0
ENDBLK
  5
68
330
29
100
AcDbEntity
  8
LAYER_2
100
AcDbBlockEnd
  0
BLOCK
  5
6B
330
69
100
AcDbEntity
  8
LAYER_2
 62
     7
100
AcDbBlockBegin
  2
AI9-BLK2
 70
     0
 10
0.0
 20
0.0
 30
0.0
  3
AI9-BLK2
  1

  0
INSERT
  5
ED
330
69
100
AcDbEntity
  8
LAYER_2
 62
     7
370
     0
100
AcDbBlockReference
  2
AI9-BLK7
 10
-0.6119350857204861
 20
-4.71013454861111
 30
0.0
1001
AcDbBlockRepETag
1070
     1
1071
        0
1005
ED
  0
ENDBLK
  5
CC
330
69
100
AcDbEntity
  8
LAYER_2
100
AcDbBlockEnd
  0
BLOCK
  5
6E
330
6C
100
AcDbEntity
  8
LAYER_2
 62
     7
100
AcDbBlockBegin
  2
AI9-BLK3
 70
     0
 10
0.0
 20
0.0
 30
0.0
  3
AI9-BLK3
  1

  0
INSERT
  5
70
330
6C
100
AcDbEntity
  8
LAYER_2
 62
     7
100
AcDbBlockReference
  2
AI9-BLK4
 10
0.3445095486111111
 20
0.933620876736111
 30
0.0
  0
ENDBLK
  5
79
330
6C
100
AcDbEntity
  8
LAYER_2
100
AcDbBlockEnd
  0
BLOCK
  5
71
330
6F
100
AcDbEntity
  8
LAYER_2
 62
     7
100
AcDbBlockBegin
  2
AI9-BLK4
 70
     0
 10
0.0
 20
0.0
 30
0.0
  3
AI9-BLK4
  1

  0
HATCH
  5
77
330
6F
100
AcDbEntity
  8
LAYER_2
 62
     3
100
AcDbHatch
 10
0.0
 20
0.0
 30
0.0
210
0.0
220
0.0
230
1.0
  2
SOLID
 70
     1
 71
     0
 91
        1
 92
        1
 93
        1
 72
     4
 94
        3
 73
     0
 74
     0
 95
       26
 96
       22
 40
0.0
 40
0.0
 40
0.0
 40
0.0
 40
1.0
 40
1.0
 40
1.0
 40
2.0
 40
2.0
 40
2.0
 40
3.0
 40
3.0
 40
3.0
 40
4.0
 40
4.0
 40
4.0
 40
5.0
 40
5.0
 40
5.0
 40
6.0
 40
6.0
 40
6.0
 40
7.0
 40
7.0
 40
7.0
 40
7.0
 10
-21.635888671875
 20
-7.978668891059027
 10
-21.635888671875
 20
-7.978668891059027
 10
-23.72499457465278
 20
-7.978668891059027
 10
-23.72499457465278
 20
-7.978668891059027
 10
-23.72499457465278
 20
-7.978668891059027
 10
-23.72499457465278
 20
3.111437988281249
 10
-23.72499457465278
 20
3.111437988281249
 10
-23.72499457465278
 20
3.111437988281249
 10
-27.36990559895833
 20
3.111437988281249
 10
-27.36990559895833
 20
3.111437988281249
 10
-27.36990559895833
 20
3.111437988281249
 10
-27.36990559895833
 20
4.667243109809027
 10
-27.36990559895833
 20
4.667243109809027
 10
-24.83638237847222
 20
4.84501003689236
 10
-23.79182942708333
 20
5.089611816406249
 10
-23.16964518229166
 20
7.645528157552083
 10
-23.16964518229166
 20
7.645528157552083
 10
-21.635888671875
 20
7.645528157552083
 10
-21.635888671875
 20
7.645528157552083
 10
-21.635888671875
 20
7.645528157552083
 10
-21.635888671875
 20
-7.978668891059027
 10
-21.635888671875
 20
-7.978668891059027
 97
        0
 75
     2
 76
     1
 98
        1
 10
0.0
 20
0.0
  0
HATCH
  5
76
330
6F
100
AcDbEntity
  8
LAYER_2
 62
     3
100
AcDbHatch
 10
0.0
 20
0.0
 30
0.0
210
0.0
220
0.0
230
1.0
  2
SOLID
 70
     1
 71
     0
 91
        1
 92
        1
 93
        1
 72
     4
 94
        3
 73
     0
 74
     0
 95
       17
 96
       13
 40
0.0
 40
0.0
 40
0.0
 40
0.0
 40
1.0
 40
1.0
 40
1.0
 40
2.0
 40
2.0
 40
2.0
 40
3.0
 40
3.0
 40
3.0
 40
4.0
 40
4.0
 40
4.0
 40
4.0
 10
-10.83448079427083
 20
-2.822394476996527
 10
-10.83448079427083
 20
-2.822394476996527
 10
-16.27979871961805
 20
-2.822394476996527
 10
-16.27979871961805
 20
-2.822394476996527
 10
-16.27979871961805
 20
-2.822394476996527
 10
-16.27979871961805
 20
-0.8221720377604166
 10
-16.27979871961805
 20
-0.8221720377604166
 10
-16.27979871961805
 20
-0.8221720377604166
 10
-10.83448079427083
 20
-0.8221720377604166
 10
-10.83448079427083
 20
-0.8221720377604166
 10
-10.83448079427083
 20
-0.8221720377604166
 10
-10.83448079427083
 20
-2.822394476996527
 10
-10.83448079427083
 20
-2.822394476996527
 97
        0
 75
     2
 76
     1
 98
        1
 10
0.0
 20
0.0
  0
HATCH
  5
75
330
6F
100
AcDbEntity
  8
LAYER_2
 62
     3
100
AcDbHatch
 10
0.0
 20
0.0
 30
0.0
210
0.0
220
0.0
230
1.0
  2
SOLID
 70
     1
 71
     0
 91
        1
 92
        1
 93
        1
 72
     4
 94
        3
 73
     0
 74
     0
 95
       26
 96
       22
 40
0.0
 40
0.0
 40
0.0
 40
0.0
 40
1.0
 40
1.0
 40
1.0
 40
2.0
 40
2.0
 40
2.0
 40
3.0
 40
3.0
 40
3.0
 40
4.0
 40
4.0
 40
4.0
 40
5.0
 40
5.0
 40
5.0
 40
6.0
 40
6.0
 40
6.0
 40
7.0
 40
7.0
 40
7.0
 40
7.0
 10
-1.878266059027777
 20
-7.978668891059027
 10
-1.878266059027777
 20
-7.978668891059027
 10
-3.967371961805555
 20
-7.978668891059027
 10
-3.967371961805555
 20
-7.978668891059027
 10
-3.967371961805555
 20
-7.978668891059027
 10
-3.967371961805555
 20
3.111437988281249
 10
-3.967371961805555
 20
3.111437988281249
 10
-3.967371961805555
 20
3.111437988281249
 10
-7.61228298611111
 20
3.111437988281249
 10
-7.61228298611111
 20
3.111437988281249
 10
-7.61228298611111
 20
3.111437988281249
 10
-7.61228298611111
 20
4.667243109809027
 10
-7.61228298611111
 20
4.667243109809027
 10
-5.078415256076388
 20
4.84501003689236
 10
-4.033862304687499
 20
5.089611816406249
 10
-3.411678059895832
 20
7.645528157552083
 10
-3.411678059895832
 20
7.645528157552083
 10
-1.878266059027777
 20
7.645528157552083
 10
-1.878266059027777
 20
7.645528157552083
 10
-1.878266059027777
 20
7.645528157552083
 10
-1.878266059027777
 20
-7.978668891059027
 10
-1.878266059027777
 20
-7.978668891059027
 97
        0
 75
     2
 76
     1
 98
        1
 10
0.0
 20
0.0
  0
HATCH
  5
74
330
6F
100
AcDbEntity
  8
LAYER_2
 62
     3
100
AcDbHatch
 10
0.0
 20
0.0
 30
0.0
210
0.0
220
0.0
230
1.0
  2
SOLID
 70
     1
 71
     0
 91
        1
 92
        1
 93
        1
 72
     4
 94
        3
 73
     0
 74
     0
 95
       17
 96
       13
 40
0.0
 40
0.0
 40
0.0
 40
0.0
 40
1.0
 40
1.0
 40
1.0
 40
2.0
 40
2.0
 40
2.0
 40
3.0
 40
3.0
 40
3.0
 40
4.0
 40
4.0
 40
4.0
 40
4.0
 10
3.611493598090277
 20
-8.401037597656248
 10
3.611493598090277
 20
-8.401037597656248
 10
2.122523328993055
 20
-8.401037597656248
 10
2.122523328993055
 20
-8.401037597656248
 10
2.122523328993055
 20
-8.401037597656248
 10
7.589545355902776
 20
8.401037597656248
 10
7.589545355902776
 20
8.401037597656248
 10
7.589545355902776
 20
8.401037597656248
 10
9.056467013888887
 20
8.401037597656248
 10
9.056467013888887
 20
8.401037597656248
 10
9.056467013888887
 20
8.401037597656248
 10
3.611493598090277
 20
-8.401037597656248
 10
3.611493598090277
 20
-8.401037597656248
 97
        0
 75
     2
 76
     1
 98
        1
 10
0.0
 20
0.0
  0
HATCH
  5
73
330
6F
100
AcDbEntity
  8
LAYER_2
 62
     3
100
AcDbHatch
 10
0.0
 20
0.0
 30
0.0
210
0.0
220
0.0
230
1.0
  2
SOLID
 70
     1
 71
     0
 91
        1
 92
        1
 93
        1
 72
     4
 94
        3
 73
     0
 74
     0
 95
       47
 96
       43
 40
0.0
 40
0.0
 40
0.0
 40
0.0
 40
1.0
 40
1.0
 40
1.0
 40
2.0
 40
2.0
 40
2.0
 40
3.0
 40
3.0
 40
3.0
 40
4.0
 40
4.0
 40
4.0
 40
5.0
 40
5.0
 40
5.0
 40
6.0
 40
6.0
 40
6.0
 40
7.0
 40
7.0
 40
7.0
 40
8.0
 40
8.0
 40
8.0
 40
9.0
 40
9.0
 40
9.0
 40
10.0
 40
10.0
 40
10.0
 40
11.0
 40
11.0
 40
11.0
 40
12.0
 40
12.0
 40
12.0
 40
13.0
 40
13.0
 40
13.0
 40
14.0
 40
14.0
 40
14.0
 40
14.0
 10
9.656602647569442
 20
2.044836425781249
 10
9.656602647569442
 20
7.134275987413193
 10
13.36834852430555
 20
7.645528157552083
 10
15.05747884114583
 20
7.645528157552083
 10
17.76876898871527
 20
7.645528157552083
 10
19.94675835503472
 20
5.889562988281249
 10
19.94675835503472
 20
2.978112792968749
 10
19.94675835503472
 20
0.1779391818576389
 10
18.10225423177083
 20
-0.9999389648437498
 10
15.76854654947916
 20
-2.244651963975694
 10
15.76854654947916
 20
-2.244651963975694
 10
14.14625108506944
 20
-3.13348659939236
 10
14.14625108506944
 20
-3.13348659939236
 10
12.01235894097222
 20
-4.311709255642361
 10
11.54589301215277
 20
-5.534029134114582
 10
11.45700954861111
 20
-6.134164767795138
 10
11.45700954861111
 20
-6.134164767795138
 10
19.94675835503472
 20
-6.134164767795138
 10
19.94675835503472
 20
-6.134164767795138
 10
19.94675835503472
 20
-6.134164767795138
 10
19.94675835503472
 20
-7.978668891059027
 10
19.94675835503472
 20
-7.978668891059027
 10
19.94675835503472
 20
-7.978668891059027
 10
9.256627061631943
 20
-7.978668891059027
 10
9.256627061631943
 20
-7.978668891059027
 10
9.367903645833331
 20
-4.733733452690971
 10
10.83448079427083
 20
-3.00016140407986
 10
12.92358669704861
 20
-1.777841525607638
 10
12.92358669704861
 20
-1.777841525607638
 10
14.99064398871527
 20
-0.5779147677951389
 10
14.99064398871527
 20
-0.5779147677951389
 10
16.65738118489583
 20
0.3777547200520833
 10
17.85765245225694
 20
1.022332085503472
 10
17.85765245225694
 20
3.066996256510416
 10
17.85765245225694
 20
4.311709255642361
 10
17.05770128038194
 20
5.889562988281249
 10
14.76843532986111
 20
5.889562988281249
 10
11.81254340277777
 20
5.889562988281249
 10
11.67921820746528
 20
3.133831108940972
 10
11.61238335503472
 20
2.044836425781249
 10
11.61238335503472
 20
2.044836425781249
 10
9.656602647569442
 20
2.044836425781249
 10
9.656602647569442
 20
2.044836425781249
 97
        0
 75
     2
 76
     1
 98
        1
 10
0.0
 20
0.0
  0
HATCH
  5
72
330
6F
100
AcDbEntity
  8
LAYER_2
 62
     3
100
AcDbHatch
 10
0.0
 20
0.0
 30
0.0
210
0.0
220
0.0
230
1.0
  2
SOLID
 70
     1
 71
     0
 91
        2
 92
        1
 93
        1
 72
     4
 94
        3
 73
     0
 74
     0
 95
       17
 96
       13
 40
0.0
 40
0.0
 40
0.0
 40
0.0
 40
1.0
 40
1.0
 40
1.0
 40
2.0
 40
2.0
 40
2.0
 40
3.0
 40
3.0
 40
3.0
 40
4.0
 40
4.0
 40
4.0
 40
4.0
 10
25.74761013454861
 20
7.978668891059027
 10
25.74761013454861
 20
7.978668891059027
 10
27.36990559895833
 20
7.978668891059027
 10
27.36990559895833
 20
7.978668891059027
 10
27.36990559895833
 20
7.978668891059027
 10
27.36990559895833
 20
2.311486816406249
 10
27.36990559895833
 20
2.311486816406249
 10
27.36990559895833
 20
2.311486816406249
 10
25.74761013454861
 20
2.311486816406249
 10
25.74761013454861
 20
2.311486816406249
 10
25.74761013454861
 20
2.311486816406249
 10
25.74761013454861
 20
7.978668891059027
 10
25.74761013454861
 20
7.978668891059027
 97
        0
 92
        1
 93
        1
 72
     4
 94
        3
 73
     0
 74
     0
 95
       17
 96
       13
 40
0.0
 40
0.0
 40
0.0
 40
0.0
 40
1.0
 40
1.0
 40
1.0
 40
2.0
 40
2.0
 40
2.0
 40
3.0
 40
3.0
 40
3.0
 40
4.0
 40
4.0
 40
4.0
 40
4.0
 10
22.59155815972222
 20
7.978668891059027
 10
22.59155815972222
 20
7.978668891059027
 10
24.21385362413194
 20
7.978668891059027
 10
24.21385362413194
 20
7.978668891059027
 10
24.21385362413194
 20
7.978668891059027
 10
24.21385362413194
 20
2.311486816406249
 10
24.21385362413194
 20
2.311486816406249
 10
24.21385362413194
 20
2.311486816406249
 10
22.59155815972222
 20
2.311486816406249
 10
22.59155815972222
 20
2.311486816406249
 10
22.59155815972222
 20
2.311486816406249
 10
22.59155815972222
 20
7.978668891059027
 10
22.59155815972222
 20
7.978668891059027
 97
        0
 75
     2
 76
     1
 98
        1
 10
0.0
 20
0.0
  0
ENDBLK
  5
78
330
6F
100
AcDbEntity
  8
LAYER_2
100
AcDbBlockEnd
  0
BLOCK
  5
84
330
82
100
AcDbEntity
  8
LAYER_2
 62
     7
100
AcDbBlockBegin
  2
AI9-BLK5
 70
     0
 10
0.0
 20
0.0
 30
0.0
  3
AI9-BLK5
  1

  0
INSERT
  5
86
330
82
100
AcDbEntity
  8
LAYER_2
 62
     7
100
AcDbBlockReference
  2
AI9-BLK6
 10
-0.5000556098090278
 20
0.7224365234375
 30
0.0
  0
ENDBLK
  5
8C
330
82
100
AcDbEntity
  8
LAYER_2
100
AcDbBlockEnd
  0
BLOCK
  5
87
330
85
100
AcDbEntity
  8
LAYER_2
 62
     7
100
AcDbBlockBegin
  2
AI9-BLK6
 70
     0
 10
0.0
 20
0.0
 30
0.0
  3
AI9-BLK6
  1

  0
HATCH
  5
8A
330
85
100
AcDbEntity
  8
LAYER_2
 62
     3
100
AcDbHatch
 10
0.0
 20
0.0
 30
0.0
210
0.0
220
0.0
230
1.0
  2
SOLID
 70
     1
 71
     0
 91
        2
 92
       16
 93
        1
 72
     4
 94
        3
 73
     0
 74
     0
 95
       17
 96
       13
 40
0.0
 40
0.0
 40
0.0
 40
0.0
 40
1.0
 40
1.0
 40
1.0
 40
2.0
 40
2.0
 40
2.0
 40
3.0
 40
3.0
 40
3.0
 40
4.0
 40
4.0
 40
4.0
 40
4.0
 10
-13.44620768229166
 20
-2.278069390190971
 10
-13.44620768229166
 20
-2.278069390190971
 10
-8.423258463541666
 20
-2.278069390190971
 10
-8.423258463541666
 20
-2.278069390190971
 10
-8.423258463541666
 20
-2.278069390190971
 10
-8.423258463541666
 20
4.811592610677083
 10
-8.423258463541666
 20
4.811592610677083
 10
-8.423258463541666
 20
4.811592610677083
 10
-8.467700195312499
 20
4.811592610677083
 10
-8.467700195312499
 20
4.811592610677083
 10
-8.467700195312499
 20
4.811592610677083
 10
-13.44620768229166
 20
-2.278069390190971
 10
-13.44620768229166
 20
-2.278069390190971
 97
        0
 92
        1
 93
        1
 72
     4
 94
        3
 73
     0
 74
     0
 95
       38
 96
       34
 40
0.0
 40
0.0
 40
0.0
 40
0.0
 40
1.0
 40
1.0
 40
1.0
 40
2.0
 40
2.0
 40
2.0
 40
3.0
 40
3.0
 40
3.0
 40
4.0
 40
4.0
 40
4.0
 40
5.0
 40
5.0
 40
5.0
 40
6.0
 40
6.0
 40
6.0
 40
7.0
 40
7.0
 40
7.0
 40
8.0
 40
8.0
 40
8.0
 40
9.0
 40
9.0
 40
9.0
 40
10.0
 40
10.0
 40
10.0
 40
11.0
 40
11.0
 40
11.0
 40
11.0
 10
-6.467477756076387
 20
-3.967199707031249
 10
-6.467477756076387
 20
-3.967199707031249
 10
-6.467477756076387
 20
-7.767656792534721
 10
-6.467477756076387
 20
-7.767656792534721
 10
-6.467477756076387
 20
-7.767656792534721
 10
-8.423258463541666
 20
-7.767656792534721
 10
-8.423258463541666
 20
-7.767656792534721
 10
-8.423258463541666
 20
-7.767656792534721
 10
-8.423258463541666
 20
-3.967199707031249
 10
-8.423258463541666
 20
-3.967199707031249
 10
-8.423258463541666
 20
-3.967199707031249
 10
-15.24627007378472
 20
-3.967199707031249
 10
-15.24627007378472
 20
-3.967199707031249
 10
-15.24627007378472
 20
-3.967199707031249
 10
-15.24627007378472
 20
-2.055860731336805
 10
-15.24627007378472
 20
-2.055860731336805
 10
-15.24627007378472
 20
-2.055860731336805
 10
-8.089945475260416
 20
7.856540256076388
 10
-8.089945475260416
 20
7.856540256076388
 10
-8.089945475260416
 20
7.856540256076388
 10
-6.467477756076387
 20
7.856540256076388
 10
-6.467477756076387
 20
7.856540256076388
 10
-6.467477756076387
 20
7.856540256076388
 10
-6.467477756076387
 20
-2.278069390190971
 10
-6.467477756076387
 20
-2.278069390190971
 10
-6.467477756076387
 20
-2.278069390190971
 10
-4.17838406032986
 20
-2.278069390190971
 10
-4.17838406032986
 20
-2.278069390190971
 10
-4.17838406032986
 20
-2.278069390190971
 10
-4.17838406032986
 20
-3.967199707031249
 10
-4.17838406032986
 20
-3.967199707031249
 10
-4.17838406032986
 20
-3.967199707031249
 10
-6.467477756076387
 20
-3.967199707031249
 10
-6.467477756076387
 20
-3.967199707031249
 97
        0
 75
     2
 76
     1
 98
        1
 10
0.0
 20
0.0
  0
HATCH
  5
89
330
85
100
AcDbEntity
  8
LAYER_2
 62
     3
100
AcDbHatch
 10
0.0
 20
0.0
 30
0.0
210
0.0
220
0.0
230
1.0
  2
SOLID
 70
     1
 71
     0
 91
        2
 92
       16
 93
        1
 72
     4
 94
        3
 73
     0
 74
     0
 95
       17
 96
       13
 40
0.0
 40
0.0
 40
0.0
 40
0.0
 40
1.0
 40
1.0
 40
1.0
 40
2.0
 40
2.0
 40
2.0
 40
3.0
 40
3.0
 40
3.0
 40
4.0
 40
4.0
 40
4.0
 40
4.0
 10
2.733683268229166
 20
6.10074734157986
 10
0.4888590494791666
 20
6.10074734157986
 10
-0.5334730360243056
 20
3.744818793402777
 10
-0.5334730360243056
 20
-0.1667426215277778
 10
-0.5334730360243056
 20
-4.078304036458333
 10
0.4888590494791666
 20
-6.434232584635416
 10
2.733683268229166
 20
-6.434232584635416
 10
4.978335232204861
 20
-6.434232584635416
 10
6.000667317708332
 20
-4.078304036458333
 10
6.000667317708332
 20
-0.1667426215277778
 10
6.000667317708332
 20
3.744818793402777
 10
4.978335232204861
 20
6.10074734157986
 10
2.733683268229166
 20
6.10074734157986
 97
        0
 92
        1
 93
        1
 72
     4
 94
        3
 73
     0
 74
     0
 95
       17
 96
       13
 40
0.0
 40
0.0
 40
0.0
 40
0.0
 40
1.0
 40
1.0
 40
1.0
 40
2.0
 40
2.0
 40
2.0
 40
3.0
 40
3.0
 40
3.0
 40
4.0
 40
4.0
 40
4.0
 40
4.0
 10
2.733683268229166
 20
-8.189853244357637
 10
-1.755792914496527
 20
-8.189853244357637
 10
-2.622578938802083
 20
-3.411505805121527
 10
-2.622578938802083
 20
-0.1667426215277778
 10
-2.622578938802083
 20
3.078020562065971
 10
-1.755792914496527
 20
7.856540256076388
 10
2.733683268229166
 20
7.856540256076388
 10
7.22315945095486
 20
7.856540256076388
 10
8.08977322048611
 20
3.078020562065971
 10
8.08977322048611
 20
-0.1667426215277778
 10
8.08977322048611
 20
-3.411505805121527
 10
7.22315945095486
 20
-8.189853244357637
 10
2.733683268229166
 20
-8.189853244357637
 97
        0
 75
     2
 76
     1
 98
        1
 10
0.0
 20
0.0
  0
HATCH
  5
88
330
85
100
AcDbEntity
  8
LAYER_2
 62
     3
100
AcDbHatch
 10
0.0
 20
0.0
 30
0.0
210
0.0
220
0.0
230
1.0
  2
SOLID
 70
     1
 71
     0
 91
        2
 92
        1
 93
        1
 72
     4
 94
        3
 73
     0
 74
     0
 95
       17
 96
       13
 40
0.0
 40
0.0
 40
0.0
 40
0.0
 40
1.0
 40
1.0
 40
1.0
 40
2.0
 40
2.0
 40
2.0
 40
3.0
 40
3.0
 40
3.0
 40
4.0
 40
4.0
 40
4.0
 40
4.0
 10
13.623974609375
 20
8.189853244357637
 10
13.623974609375
 20
8.189853244357637
 10
15.24627007378472
 20
8.189853244357637
 10
15.24627007378472
 20
8.189853244357637
 10
15.24627007378472
 20
8.189853244357637
 10
15.24627007378472
 20
2.522498914930555
 10
15.24627007378472
 20
2.522498914930555
 10
15.24627007378472
 20
2.522498914930555
 10
13.623974609375
 20
2.522498914930555
 10
13.623974609375
 20
2.522498914930555
 10
13.623974609375
 20
2.522498914930555
 10
13.623974609375
 20
8.189853244357637
 10
13.623974609375
 20
8.189853244357637
 97
        0
 92
        1
 93
        1
 72
     4
 94
        3
 73
     0
 74
     0
 95
       17
 96
       13
 40
0.0
 40
0.0
 40
0.0
 40
0.0
 40
1.0
 40
1.0
 40
1.0
 40
2.0
 40
2.0
 40
2.0
 40
3.0
 40
3.0
 40
3.0
 40
4.0
 40
4.0
 40
4.0
 40
4.0
 10
10.46792263454861
 20
8.189853244357637
 10
10.46792263454861
 20
8.189853244357637
 10
12.09039035373264
 20
8.189853244357637
 10
12.09039035373264
 20
8.189853244357637
 10
12.09039035373264
 20
8.189853244357637
 10
12.09039035373264
 20
2.522498914930555
 10
12.09039035373264
 20
2.522498914930555
 10
12.09039035373264
 20
2.522498914930555
 10
10.46792263454861
 20
2.522498914930555
 10
10.46792263454861
 20
2.522498914930555
 10
10.46792263454861
 20
2.522498914930555
 10
10.46792263454861
 20
8.189853244357637
 10
10.46792263454861
 20
8.189853244357637
 97
        0
 75
     2
 76
     1
 98
        1
 10
0.0
 20
0.0
  0
ENDBLK
  5
8B
330
85
100
AcDbEntity
  8
LAYER_2
100
AcDbBlockEnd
  0
BLOCK
  5
8F
330
8D
100
AcDbEntity
  8
LAYER_2
 62
     7
100
AcDbBlockBegin
  2
AI9-BLK7
 70
     0
 10
0.0
 20
0.0
 30
0.0
  3
AI9-BLK7
  1

  0
INSERT
  5
C2
330
8D
100
AcDbEntity
  8
LAYER_2
 62
     7
100
AcDbBlockReference
  2
AI9-BLK12
 10
-0.0817348904079861
 20
-519.9531894259981
 30
0.0
  0
INSERT
  5
91
330
8D
100
AcDbEntity
  8
LAYER_2
 62
     7
100
AcDbBlockReference
  2
AI9-BLK8
 10
0.0
 20
30.96072862413195
 30
0.0
  0
ENDBLK
  5
CB
330
8D
100
AcDbEntity
  8
LAYER_2
100
AcDbBlockEnd
  0
BLOCK
  5
92
330
90
100
AcDbEntity
  8
LAYER_2
 62
     7
100
AcDbBlockBegin
  2
AI9-BLK8
 70
     0
 10
0.0
 20
0.0
 30
0.0
  3
AI9-BLK8
  1

  0
POLYLINE
  5
BA
330
90
100
AcDbEntity
  8
LAYER_2
 62
     7
100
AcDb2dPolyline
 66
     1
 10
0.0
 20
0.0
 30
0.0
 70
     1
  0
VERTEX
  5
BB
330
BA
100
AcDbEntity
  8
LAYER_2
 62
     7
100
AcDbVertex
100
AcDb2dVertex
 10
-19.11416490342882
 20
-298.6895202636718
 30
0.0
  0
VERTEX
  5
BC
330
BA
100
AcDbEntity
  8
LAYER_2
 62
     7
100
AcDbVertex
100
AcDb2dVertex
 10
18.84527520073784
 20
-298.6895202636718
 30
0.0
  0
VERTEX
  5
BD
330
BA
100
AcDbEntity
  8
LAYER_2
 62
     7
100
AcDbVertex
100
AcDb2dVertex
 10
18.98583509657118
 20
-508.0424608018662
 30
0.0
  0
VERTEX
  5
BE
330
BA
100
AcDbEntity
  8
LAYER_2
 62
     7
100
AcDbVertex
100
AcDb2dVertex
 10
-18.97377726236979
 20
-508.0424608018662
 30
0.0
  0
SEQEND
  5
BF
330
BA
100
AcDbEntity
  8
LAYER_2
 62
     7
  0
POLYLINE
  5
B4
330
90
100
AcDbEntity
  8
LAYER_2
 62
     7
100
AcDb2dPolyline
 66
     1
 10
0.0
 20
0.0
 30
0.0
 70
     1
  0
VERTEX
  5
B5
330
B4
100
AcDbEntity
  8
LAYER_2
 62
     7
100
AcDbVertex
100
AcDb2dVertex
 10
-19.0671393500434
 20
508.0424608018662
 30
0.0
  0
VERTEX
  5
B6
330
B4
100
AcDbEntity
  8
LAYER_2
 62
     7
100
AcDbVertex
100
AcDb2dVertex
 10
19.03268839518229
 20
508.0424608018662
 30
0.0
  0
VERTEX
  5
B7
330
B4
100
AcDbEntity
  8
LAYER_2
 62
     7
100
AcDbVertex
100
AcDb2dVertex
 10
19.03268839518229
 20
400.1045186360676
 30
0.0
  0
VERTEX
  5
B8
330
B4
100
AcDbEntity
  8
LAYER_2
 62
     7
100
AcDbVertex
100
AcDb2dVertex
 10
-19.0671393500434
 20
400.1045186360676
 30
0.0
  0
SEQEND
  5
B9
330
B4
100
AcDbEntity
  8
LAYER_2
 62
     7
  0
INSERT
  5
A2
330
90
100
AcDbEntity
  8
LAYER_2
 62
     7
100
AcDbBlockReference
  2
AI9-BLK11
 10
0.1737189398871528
 20
46.27848442925347
 30
0.0
  0
INSERT
  5
9B
330
90
100
AcDbEntity
  8
LAYER_2
 62
     7
100
AcDbBlockReference
  2
AI9-BLK10
 10
0.1107598198784722
 20
384.9532470703124
 30
0.0
  0
INSERT
  5
94
330
90
100
AcDbEntity
  8
LAYER_2
 62
     7
100
AcDbBlockReference
  2
AI9-BLK9
 10
-0.1107598198784722
 20
-283.6275627983941
 30
0.0
  0
ENDBLK
  5
C0
330
90
100
AcDbEntity
  8
LAYER_2
100
AcDbBlockEnd
  0
BLOCK
  5
95
330
93
100
AcDbEntity
  8
LAYER_2
 62
     7
100
AcDbBlockBegin
  2
AI9-BLK9
 70
     0
 10
0.0
 20
0.0
 30
0.0
  3
AI9-BLK9
  1

  0
SPLINE
  5
98
330
93
100
AcDbEntity
  8
LAYER_2
 62
     7
100
AcDbSpline
210
0.0
220
0.0
230
1.0
 70
     9
 71
     3
 72
    47
 73
    43
 74
     0
 42
0.0000000001
 43
0.0000000001
 40
0.0
 40
0.0
 40
0.0
 40
0.0
 40
1.0
 40
1.0
 40
1.0
 40
2.0
 40
2.0
 40
2.0
 40
3.0
 40
3.0
 40
3.0
 40
4.0
 40
4.0
 40
4.0
 40
5.0
 40
5.0
 40
5.0
 40
6.0
 40
6.0
 40
6.0
 40
7.0
 40
7.0
 40
7.0
 40
8.0
 40
8.0
 40
8.0
 40
9.0
 40
9.0
 40
9.0
 40
10.0
 40
10.0
 40
10.0
 40
11.0
 40
11.0
 40
11.0
 40
12.0
 40
12.0
 40
12.0
 40
13.0
 40
13.0
 40
13.0
 40
14.0
 40
14.0
 40
14.0
 40
14.0
 10
-18.99186401367187
 20
-15.12396918402777
 30
0.0
 10
-14.21816745334201
 20
-15.12396918402777
 30
0.0
 10
-12.99033542209201
 20
-11.25168185763889
 30
0.0
 10
-12.99033542209201
 20
-6.475401475694443
 30
0.0
 10
-12.99033542209201
 20
-1.699810112847222
 30
0.0
 10
-15.75399102105034
 20
2.17041015625
 30
0.0
 10
-20.52975463867187
 20
2.17041015625
 30
0.0
 10
-20.52975463867187
 20
2.17041015625
 30
0.0
 10
-20.52975463867187
 20
3.591856553819444
 30
0.0
 10
-20.52975463867187
 20
3.591856553819444
 30
0.0
 10
-20.52975463867187
 20
7.143749999999998
 30
0.0
 10
-19.30536770290798
 20
10.40901150173611
 30
0.0
 10
-17.26001451280382
 20
12.98938802083333
 30
0.0
 10
-17.26001451280382
 20
12.98938802083333
 30
0.0
 10
-17.27896253797743
 20
12.97974175347222
 30
0.0
 10
-17.27896253797743
 20
12.97974175347222
 30
0.0
 10
-17.27896253797743
 20
12.97974175347222
 30
0.0
 10
-17.27896253797743
 20
15.12396918402777
 30
0.0
 10
-17.27896253797743
 20
15.12396918402777
 30
0.0
 10
-17.27896253797743
 20
15.12396918402777
 30
0.0
 10
17.2782735188802
 20
15.12396918402777
 30
0.0
 10
17.2782735188802
 20
15.12396918402777
 30
0.0
 10
17.2782735188802
 20
15.12396918402777
 30
0.0
 10
17.2782735188802
 20
12.97974175347222
 30
0.0
 10
17.2782735188802
 20
12.97974175347222
 30
0.0
 10
17.2782735188802
 20
12.97974175347222
 30
0.0
 10
17.2596700032552
 20
12.98938802083333
 30
0.0
 10
17.2596700032552
 20
12.98938802083333
 30
0.0
 10
19.30467868381076
 20
10.40901150173611
 30
0.0
 10
20.52975463867187
 20
7.143749999999998
 30
0.0
 10
20.52975463867187
 20
3.591856553819444
 30
0.0
 10
20.52975463867187
 20
3.591856553819444
 30
0.0
 10
20.52975463867187
 20
2.17041015625
 30
0.0
 10
20.52975463867187
 20
2.17041015625
 30
0.0
 10
15.75347425672743
 20
2.17041015625
 30
0.0
 10
12.99050767686632
 20
-1.699810112847222
 30
0.0
 10
12.99050767686632
 20
-6.475401475694443
 30
0.0
 10
12.99050767686632
 20
-11.25168185763889
 30
0.0
 10
14.38094821506076
 20
-15.12396918402777
 30
0.0
 10
19.15447252061631
 20
-15.12396918402777
 30
0.0
 10
19.15447252061631
 20
-15.12396918402777
 30
0.0
 10
-18.99186401367187
 20
-15.12396918402777
 30
0.0
 10
-18.99186401367187
 20
-15.12396918402777
 30
0.0
  0
LINE
  5
97
330
93
100
AcDbEntity
  8
LAYER_2
 62
     7
100
AcDbLine
 10
17.06743367513021
 20
13.30220269097222
 30
0.0
 11
-17.43089124891493
 21
13.30220269097222
 31
0.0
  0
LINE
  5
96
330
93
100
AcDbEntity
  8
LAYER_2
 62
     7
100
AcDbLine
 10
20.27206149631076
 20
2.287543402777777
 30
0.0
 11
-20.65618964301215
 21
2.287543402777777
 31
0.0
  0
ENDBLK
  5
99
330
93
100
AcDbEntity
  8
LAYER_2
100
AcDbBlockEnd
  0
BLOCK
  5
9C
330
9A
100
AcDbEntity
  8
LAYER_2
 62
     7
100
AcDbBlockBegin
  2
AI9-BLK10
 70
     0
 10
0.0
 20
0.0
 30
0.0
  3
AI9-BLK10
  1

  0
SPLINE
  5
9F
330
9A
100
AcDbEntity
  8
LAYER_2
 62
     7
100
AcDbSpline
210
0.0
220
0.0
230
1.0
 70
     9
 71
     3
 72
    47
 73
    43
 74
     0
 42
0.0000000001
 43
0.0000000001
 40
0.0
 40
0.0
 40
0.0
 40
0.0
 40
1.0
 40
1.0
 40
1.0
 40
2.0
 40
2.0
 40
2.0
 40
3.0
 40
3.0
 40
3.0
 40
4.0
 40
4.0
 40
4.0
 40
5.0
 40
5.0
 40
5.0
 40
6.0
 40
6.0
 40
6.0
 40
7.0
 40
7.0
 40
7.0
 40
8.0
 40
8.0
 40
8.0
 40
9.0
 40
9.0
 40
9.0
 40
10.0
 40
10.0
 40
10.0
 40
11.0
 40
11.0
 40
11.0
 40
12.0
 40
12.0
 40
12.0
 40
13.0
 40
13.0
 40
13.0
 40
14.0
 40
14.0
 40
14.0
 40
14.0
 10
18.99151950412326
 20
15.12405531141493
 30
0.0
 10
14.2179951985677
 20
15.12405531141493
 30
0.0
 10
12.99050767686632
 20
11.25159573025173
 30
0.0
 10
12.99050767686632
 20
6.475487603081596
 30
0.0
 10
12.99050767686632
 20
1.699551730685763
 30
0.0
 10
15.75381876627604
 20
-2.170840793185763
 30
0.0
 10
20.52975463867187
 20
-2.170840793185763
 30
0.0
 10
20.52975463867187
 20
-2.170840793185763
 30
0.0
 10
20.52975463867187
 20
-3.592114935980902
 30
0.0
 10
20.52975463867187
 20
-3.592114935980902
 30
0.0
 10
20.52975463867187
 20
-7.143663872612846
 30
0.0
 10
19.30536770290798
 20
-10.40892537434896
 30
0.0
 10
17.26001451280382
 20
-12.98930189344618
 30
0.0
 10
17.26001451280382
 20
-12.98930189344618
 30
0.0
 10
17.27861802842881
 20
-12.97982788085937
 30
0.0
 10
17.27861802842881
 20
-12.97982788085937
 30
0.0
 10
17.27861802842881
 20
-12.97982788085937
 30
0.0
 10
17.27861802842881
 20
-15.12405531141493
 30
0.0
 10
17.27861802842881
 20
-15.12405531141493
 30
0.0
 10
17.27861802842881
 20
-15.12405531141493
 30
0.0
 10
-17.27844577365451
 20
-15.12405531141493
 30
0.0
 10
-17.27844577365451
 20
-15.12405531141493
 30
0.0
 10
-17.27844577365451
 20
-15.12405531141493
 30
0.0
 10
-17.27844577365451
 20
-12.97982788085937
 30
0.0
 10
-17.27844577365451
 20
-12.97982788085937
 30
0.0
 10
-17.27844577365451
 20
-12.97982788085937
 30
0.0
 10
-17.2596700032552
 20
-12.98930189344618
 30
0.0
 10
-17.2596700032552
 20
-12.98930189344618
 30
0.0
 10
-19.30502319335937
 20
-10.40892537434896
 30
0.0
 10
-20.52975463867187
 20
-7.143663872612846
 30
0.0
 10
-20.52975463867187
 20
-3.592114935980902
 30
0.0
 10
-20.52975463867187
 20
-3.592114935980902
 30
0.0
 10
-20.52975463867187
 20
-2.170840793185763
 30
0.0
 10
-20.52975463867187
 20
-2.170840793185763
 30
0.0
 10
-15.75364651150173
 20
-2.170840793185763
 30
0.0
 10
-12.99067993164062
 20
1.699551730685763
 30
0.0
 10
-12.99067993164062
 20
6.475487603081596
 30
0.0
 10
-12.99067993164062
 20
11.25159573025173
 30
0.0
 10
-14.38112046983507
 20
15.12405531141493
 30
0.0
 10
-19.15481703016492
 20
15.12405531141493
 30
0.0
 10
-19.15481703016492
 20
15.12405531141493
 30
0.0
 10
18.99151950412326
 20
15.12405531141493
 30
0.0
 10
18.99151950412326
 20
15.12405531141493
 30
0.0
  0
LINE
  5
9E
330
9A
100
AcDbEntity
  8
LAYER_2
 62
     7
100
AcDbLine
 10
-17.06760592990451
 20
-13.30246107313368
 30
0.0
 11
17.43089124891493
 21
-13.30246107313368
 31
0.0
  0
LINE
  5
9D
330
9A
100
AcDbEntity
  8
LAYER_2
 62
     7
100
AcDbLine
 10
-20.27206149631076
 20
-2.287974039713541
 30
0.0
 11
20.65618964301215
 21
-2.287974039713541
 31
0.0
  0
ENDBLK
  5
A0
330
9A
100
AcDbEntity
  8
LAYER_2
100
AcDbBlockEnd
  0
BLOCK
  5
A3
330
A1
100
AcDbEntity
  8
LAYER_2
 62
     7
100
AcDbBlockBegin
  2
AI9-BLK11
 70
     0
 10
0.0
 20
0.0
 30
0.0
  3
AI9-BLK11
  1

  0
POLYLINE
  5
AD
330
A1
100
AcDbEntity
  8
LAYER_2
 62
     7
100
AcDb2dPolyline
 66
     1
 10
0.0
 20
0.0
 30
0.0
 70
     1
  0
VERTEX
  5
AE
330
AD
100
AcDbEntity
  8
LAYER_2
 62
     7
100
AcDbVertex
100
AcDb2dVertex
 10
16.40192735460069
 20
-327.0411058213976
 30
0.0
  0
VERTEX
  5
AF
330
AD
100
AcDbEntity
  8
LAYER_2
 62
     7
100
AcDbVertex
100
AcDb2dVertex
 10
16.40192735460069
 20
327.0411058213976
 30
0.0
  0
VERTEX
  5
B0
330
AD
100
AcDbEntity
  8
LAYER_2
 62
     7
100
AcDbVertex
100
AcDb2dVertex
 10
-16.40192735460069
 20
327.0411058213976
 30
0.0
  0
VERTEX
  5
B1
330
AD
100
AcDbEntity
  8
LAYER_2
 62
     7
100
AcDbVertex
100
AcDb2dVertex
 10
-16.40192735460069
 20
-327.0411058213976
 30
0.0
  0
SEQEND
  5
B2
330
AD
100
AcDbEntity
  8
LAYER_2
 62
     7
  0
LINE
  5
AC
330
A1
100
AcDbEntity
  8
LAYER_2
 62
     7
100
AcDbLine
 10
-15.39527045355902
 20
327.0411058213976
 30
0.0
 11
-15.39527045355902
 21
-327.0411058213976
 31
0.0
  0
LINE
  5
AB
330
A1
100
AcDbEntity
  8
LAYER_2
 62
     7
100
AcDbLine
 10
-14.03514675564236
 20
327.0411058213976
 30
0.0
 11
-14.03514675564236
 21
-327.0411058213976
 31
0.0
  0
LINE
  5
AA
330
A1
100
AcDbEntity
  8
LAYER_2
 62
     7
100
AcDbLine
 10
-10.63793809678819
 20
327.0411058213976
 30
0.0
 11
-10.63793809678819
 21
-327.0411058213976
 31
0.0
  0
LINE
  5
A9
330
A1
100
AcDbEntity
  8
LAYER_2
 62
     7
100
AcDbLine
 10
-5.575714789496527
 20
327.0411058213976
 30
0.0
 11
-5.575714789496527
 21
-327.0411058213976
 31
0.0
  0
LINE
  5
A8
330
A1
100
AcDbEntity
  8
LAYER_2
 62
     7
100
AcDbLine
 10
-0.3305569118923611
 20
327.0411058213976
 30
0.0
 11
-0.3305569118923611
 21
-327.0411058213976
 31
0.0
  0
LINE
  5
A7
330
A1
100
AcDbEntity
  8
LAYER_2
 62
     7
100
AcDbLine
 10
5.619122992621527
 20
327.0411058213976
 30
0.0
 11
5.619122992621527
 21
-327.0411058213976
 31
0.0
  0
LINE
  5
A6
330
A1
100
AcDbEntity
  8
LAYER_2
 62
     7
100
AcDbLine
 10
10.43226589626736
 20
327.0411058213976
 30
0.0
 11
10.43226589626736
 21
-327.0411058213976
 31
0.0
  0
LINE
  5
A5
330
A1
100
AcDbEntity
  8
LAYER_2
 62
     7
100
AcDbLine
 10
13.46532796223958
 20
327.0411058213976
 30
0.0
 11
13.46532796223958
 21
-327.0411058213976
 31
0.0
  0
LINE
  5
A4
330
A1
100
AcDbEntity
  8
LAYER_2
 62
     7
100
AcDbLine
 10
15.4534925672743
 20
327.0411058213976
 30
0.0
 11
15.4534925672743
 21
-327.0411058213976
 31
0.0
  0
ENDBLK
  5
B3
330
A1
100
AcDbEntity
  8
LAYER_2
100
AcDbBlockEnd
  0
BLOCK
  5
C3
330
C1
100
AcDbEntity
  8
LAYER_2
 62
     7
100
AcDbBlockBegin
  2
AI9-BLK12
 70
     0
 10
0.0
 20
0.0
 30
0.0
  3
AI9-BLK12
  1

  0
POLYLINE
  5
C4
330
C1
100
AcDbEntity
  8
LAYER_2
 62
     7
100
AcDb2dPolyline
 66
     1
 10
0.0
 20
0.0
 30
0.0
 70
     1
  0
VERTEX
  5
C5
330
C4
100
AcDbEntity
  8
LAYER_2
 62
     7
100
AcDbVertex
100
AcDb2dVertex
 10
19.05
 20
-19.05
 30
0.0
  0
VERTEX
  5
C6
330
C4
100
AcDbEntity
  8
LAYER_2
 62
     7
100
AcDbVertex
100
AcDb2dVertex
 10
19.05
 20
19.05
 30
0.0
  0
VERTEX
  5
C7
330
C4
100
AcDbEntity
  8
LAYER_2
 62
     7
100
AcDbVertex
100
AcDb2dVertex
 10
-19.05
 20
19.05
 30
0.0
  0
VERTEX
  5
C8
330
C4
100
AcDbEntity
  8
LAYER_2
 62
     7
100
AcDbVertex
100
AcDb2dVertex
 10
-19.05
 20
-19.05
 30
0.0
  0
SEQEND
  5
C9
330
C4
100
AcDbEntity
  8
LAYER_2
 62
     7
  0
ENDBLK
  5
CA
330
C1
100
AcDbEntity
  8
LAYER_2
100
AcDbBlockEnd
  0
BLOCK
  5
101
330
100
100
AcDbEntity
  8
0
100
AcDbBlockBegin
  2
*D13
 70
     1
 10
0.0
 20
0.0
 30
0.0
  3
*D13
  1

  0
LINE
  5
102
330
100
100
AcDbEntity
  8
ADPDIM
 62
     0
370
    -2
100
AcDbLine
 10
9.420846667388484
 20
3.436137965926227
 30
0.0
 11
8.008839172041442
 21
3.436137965926227
 31
0.0
  0
LINE
  5
103
330
100
100
AcDbEntity
  8
ADPDIM
 62
     0
370
    -2
100
AcDbLine
 10
9.420846667388484
 20
43.43613796592622
 30
0.0
 11
8.008839172041451
 21
43.43613796592622
 31
0.0
  0
LINE
  5
104
330
100
100
AcDbEntity
  8
ADPDIM
 62
     0
370
    -2
100
AcDbLine
 10
8.188839172041442
 20
3.436137965926227
 30
0.0
 11
8.188839172041447
 21
22.93613796592622
 31
0.0
  0
LINE
  5
105
330
100
100
AcDbEntity
  8
ADPDIM
 62
     0
370
    -2
100
AcDbLine
 10
8.188839172041451
 20
43.43613796592622
 30
0.0
 11
8.188839172041447
 21
23.93613796592622
 31
0.0
  0
LINE
  5
106
330
100
100
AcDbEntity
  8
ADPDIM
 62
     0
370
    -2
100
AcDbLine
 10
8.313839172041451
 20
43.31113796592622
 30
0.0
 11
8.063839172041451
 21
43.56113796592622
 31
0.0
  0
LINE
  5
107
330
100
100
AcDbEntity
  8
ADPDIM
 62
     0
370
    -2
100
AcDbLine
 10
8.313839172041442
 20
3.311137965926227
 30
0.0
 11
8.063839172041442
 21
3.561137965926227
 31
0.0
  0
MTEXT
  5
108
330
100
100
AcDbEntity
  8
ADPDIM
 62
     0
100
AcDbMText
 10
8.188839172041442
 20
23.43613796592622
 30
0.0
 40
0.5
 41
0.0
 71
     5
 72
     1
  1
\A1;40
 11
0.0000000000000001
 21
1.0
 31
0.0
 73
     1
 44
1.0
1001
ACAD
1000
MTEXTBEGIN
1070
    73
1070
     1
1070
    44
1040
1.0
1070
    74
1070
     0
1000
MTEXTEND
  0
POINT
  5
109
330
100
100
AcDbEntity
  8
DEFPOINTS
 62
     0
100
AcDbPoint
 10
9.483346667388484
 20
3.436137965926227
 30
0.0
  0
POINT
  5
10A
330
100
100
AcDbEntity
  8
DEFPOINTS
 62
     0
100
AcDbPoint
 10
9.483346667388484
 20
43.43613796592622
 30
0.0
  0
POINT
  5
10B
330
100
100
AcDbEntity
  8
DEFPOINTS
 62
     0
100
AcDbPoint
 10
8.188839172041451
 20
43.43613796592622
 30
0.0
  0
ENDBLK
  5
10C
330
100
100
AcDbEntity
  8
0
100
AcDbBlockEnd
  0
BLOCK
  5
126
330
11B
100
AcDbEntity
  8
0
370
     0
100
AcDbBlockBegin
  2
*D15
 70
     1
 10
0.0
 20
0.0
 30
0.0
  3
*D15
  1

  0
LINE
  5
17E
330
11B
100
AcDbEntity
  8
ADPDIM
 62
     0
370
    -2
100
AcDbLine
 10
-196.8231361835778
 20
42.34885326120609
 30
0.0
 11
-198.2351436789249
 21
42.34885326120609
 31
0.0
  0
LINE
  5
17F
330
11B
100
AcDbEntity
  8
ADPDIM
 62
     0
370
    -2
100
AcDbLine
 10
-196.8231361835778
 20
82.34885326120609
 30
0.0
 11
-198.2351436789249
 21
82.34885326120609
 31
0.0
  0
LINE
  5
180
330
11B
100
AcDbEntity
  8
ADPDIM
 62
     0
370
    -2
100
AcDbLine
 10
-198.0551436789249
 20
42.34885326120609
 30
0.0
 11
-198.0551436789249
 21
61.84885326120609
 31
0.0
  0
LINE
  5
181
330
11B
100
AcDbEntity
  8
ADPDIM
 62
     0
370
    -2
100
AcDbLine
 10
-198.0551436789248
 20
82.34885326120609
 30
0.0
 11
-198.0551436789249
 21
62.84885326120608
 31
0.0
  0
LINE
  5
182
330
11B
100
AcDbEntity
  8
ADPDIM
 62
     0
370
    -2
100
AcDbLine
 10
-197.9301436789248
 20
82.22385326120608
 30
0.0
 11
-198.1801436789249
 21
82.47385326120609
 31
0.0
  0
LINE
  5
183
330
11B
100
AcDbEntity
  8
ADPDIM
 62
     0
370
    -2
100
AcDbLine
 10
-197.9301436789249
 20
42.22385326120609
 30
0.0
 11
-198.1801436789249
 21
42.4738532612061
 31
0.0
  0
MTEXT
  5
184
330
11B
100
AcDbEntity
  8
ADPDIM
 62
     0
100
AcDbMText
 10
-198.0551436789249
 20
62.34885326120606
 30
0.0
 40
0.5
 41
0.0
 71
     5
 72
     1
  1
\A1;40
 11
0.0000000000000001
 21
1.0
 31
0.0
 73
     1
 44
1.0
1001
ACAD
1000
MTEXTBEGIN
1070
    73
1070
     1
1070
    44
1040
1.0
1070
    74
1070
     0
1000
MTEXTEND
  0
POINT
  5
185
330
11B
100
AcDbEntity
  8
DEFPOINTS
 62
     0
370
     0
100
AcDbPoint
 10
-196.7606361835778
 20
42.34885326120609
 30
0.0
  0
POINT
  5
186
330
11B
100
AcDbEntity
  8
DEFPOINTS
 62
     0
370
     0
100
AcDbPoint
 10
-196.7606361835778
 20
82.34885326120609
 30
0.0
  0
POINT
  5
187
330
11B
100
AcDbEntity
  8
DEFPOINTS
 62
     0
370
     0
100
AcDbPoint
 10
-198.0551436789248
 20
82.34885326120609
 30
0.0
  0
ENDBLK
  5
127
330
11B
100
AcDbEntity
  8
0
370
     0
100
AcDbBlockEnd
  0
BLOCK
  5
140
330
135
100
AcDbEntity
  8
0
 62
     3
370
     0
100
AcDbBlockBegin
  2
*D16
 70
     1
 10
0.0
 20
0.0
 30
0.0
  3
*D16
  1

  0
LINE
  5
188
330
135
100
AcDbEntity
  8
ADPDIM
  6
Continuous
 62
     0
370
     0
100
AcDbLine
 10
-196.7679482591255
 20
41.46246204124955
 30
0.0
 11
-196.7679482591255
 21
42.07242031035383
 31
0.0
  0
LINE
  5
189
330
135
100
AcDbEntity
  8
ADPDIM
  6
Continuous
 62
     0
370
     0
100
AcDbLine
 10
-195.2676761299266
 20
41.46246204124955
 30
0.0
 11
-195.2676761299266
 21
42.07242031035383
 31
0.0
  0
LINE
  5
18A
330
135
100
AcDbEntity
  8
ADPDIM
  6
Continuous
 62
     0
370
     0
100
AcDbLine
 10
-196.5879482591255
 20
41.89242031035383
 30
0.0
 11
-195.4476761299266
 21
41.89242031035383
 31
0.0
  0
LINE
  5
18B
330
135
100
AcDbEntity
  8
ADPDIM
  6
Continuous
 62
     0
370
     0
100
AcDbLine
 10
-195.2676761299266
 20
41.89242031035383
 30
0.0
 11
-194.0876761299266
 21
41.89242031035383
 31
0.0
  0
SOLID
  5
18C
330
135
100
AcDbEntity
  8
ADPDIM
  6
Continuous
 62
     0
370
     0
100
AcDbTrace
 10
-196.5879482591255
 20
41.92242031035383
 30
0.0
 11
-196.5879482591255
 21
41.86242031035383
 31
0.0
 12
-196.7679482591255
 22
41.89242031035383
 32
0.0
 13
-196.7679482591255
 23
41.89242031035383
 33
0.0
  0
SOLID
  5
18D
330
135
100
AcDbEntity
  8
ADPDIM
  6
Continuous
 62
     0
370
     0
100
AcDbTrace
 10
-195.4476761299266
 20
41.92242031035383
 30
0.0
 11
-195.4476761299266
 21
41.86242031035383
 31
0.0
 12
-195.2676761299266
 22
41.89242031035383
 32
0.0
 13
-195.2676761299266
 23
41.89242031035383
 33
0.0
  0
MTEXT
  5
18E
330
135
100
AcDbEntity
  8
ADPDIM
  6
Continuous
 62
     0
370
     0
100
AcDbMText
 10
-192.9976761299266
 20
41.89242031035383
 30
0.0
 40
0.5
 41
0.0
 71
     5
 72
     1
  1
\A1;1 1/2
 73
     1
 44
1.0
1001
ACAD
1000
MTEXTBEGIN
1070
    73
1070
     1
1070
    44
1040
1.0
1070
    74
1070
     0
1000
MTEXTEND
  0
POINT
  5
18F
330
135
100
AcDbEntity
  8
DEFPOINTS
  6
Continuous
 62
     0
370
     0
100
AcDbPoint
 10
-196.7679482591255
 20
41.39996204124956
 30
0.0
  0
POINT
  5
190
330
135
100
AcDbEntity
  8
DEFPOINTS
  6
Continuous
 62
     0
370
     0
100
AcDbPoint
 10
-195.2676761299266
 20
41.39996204124956
 30
0.0
  0
POINT
  5
191
330
135
100
AcDbEntity
  8
DEFPOINTS
  6
Continuous
 62
     0
370
     0
100
AcDbPoint
 10
-195.2676761299266
 20
41.89242031035383
 30
0.0
  0
ENDBLK
  5
141
330
135
100
AcDbEntity
  8
0
 62
     3
370
     0
100
AcDbBlockEnd
  0
ENDSEC
  0
SECTION
  2
ENTITIES
  0
INSERT
  5
6A
330
A
100
AcDbEntity
  8
LAYER_2
 62
     7
100
AcDbBlockReference
  2
AI9-BLK2
 10
-195.9904973984093
 20
61.30960976067036
 30
0.0
 41
0.0393772212388162
 42
0.0393772212387754
 43
0.0393772212388132
  0
DIMENSION
  5
119
330
A
100
AcDbEntity
  8
ADPDIM
100
AcDbDimension
  2
*D15
 10
-198.0551436789248
 20
82.34885326120609
 30
0.0
 11
-198.0551436789249
 21
62.34885326120606
 31
0.0
 70
    32
 71
     5
 42
40.0
  3
Standard
100
AcDbAlignedDimension
 13
-196.7606361835778
 23
42.34885326120609
 33
0.0
 14
-196.7606361835778
 24
82.34885326120609
 34
0.0
 50
90.0
100
AcDbRotatedDimension
1001
ACAD
1000
DSTYLE
1002
{
1070
    41
1040
0.125
1070
    73
1070
     0
1070
    74
1070
     0
1070
    78
1070
     3
1070
   140
1040
0.5
1070
   141
1040
0.1875
1070
   142
1040
0.125
1070
   147
1040
0.125
1070
   171
1070
     1
1070
   273
1070
     5
1070
   274
1070
     1
1070
   277
1070
     5
1070
   279
1070
     2
1070
   284
1070
     3
1070
   285
1070
     3
1070
   286
1070
     3
1002
}
  0
TEXT
  5
11A
330
A
100
AcDbEntity
  8
ADPDIM
100
AcDbText
 10
-234.8861243130883
 20
36.11702161694624
 30
0.0
 40
0.75
  1
J U L I U S  B L U M  &  C O . ,  I N C .      ( 8 0 0 )  5 2 6 - 6 2 9 3        W W W . J U L I U S B L U M . C O M        P A R T  N O .  2 0 9
 41
1.25
  7
ARIAL_WIDE
 72
     1
 11
-196.1327136718877
 21
36.86702161694624
 31
0.0
100
AcDbText
 73
     3
  0
DIMENSION
  5
134
330
A
100
AcDbEntity
  8
ADPDIM
  6
Continuous
 62
     3
370
     0
100
AcDbDimension
  2
*D16
 10
-195.2676761299266
 20
41.89242031035383
 30
0.0
 11
-192.9976761299266
 21
41.89242031035383
 31
0.0
 70
   160
 71
     5
 42
1.50027212919889
  3
Standard
100
AcDbAlignedDimension
 13
-196.7679482591255
 23
41.39996204124956
 33
0.0
 14
-195.2676761299266
 24
41.39996204124956
 34
0.0
100
AcDbRotatedDimension
1001
ACAD
1000
DSTYLE
1002
{
1070
   140
1040
0.5
1070
   276
1070
     2
1070
   277
1070
     5
1070
   278
1070
     0
1070
   289
1070
     3
1070
   371
1070
     0
1070
   372
1070
     0
1002
}
  0
ENDSEC
  0
SECTION
  2
OBJECTS
  0
DICTIONARY
  5
19
330
0
100
AcDbDictionary
281
     1
  3
ACAD_COLOR
350
E4
  3
ACAD_GROUP
350
1A
  3
ACAD_LAYOUT
350
1E
  3
ACAD_MATERIAL
350
CF
  3
ACAD_MLINESTYLE
350
1B
  3
ACAD_PLOTSETTINGS
350
22
  3
ACAD_PLOTSTYLENAME
350
1F
  3
ACAD_TABLESTYLE
350
E5
  3
ACAD_VISUALSTYLE
350
D3
  3
ACAD_WIPEOUT_VARS
350
23
  3
AcDbVariableDictionary
350
132
  3
DWGPROPS
350
1B4
  0
DICTIONARY
  5
F9
330
69
100
AcDbDictionary
280
     1
281
     1
  0
DICTIONARY
  5
E4
102
{ACAD_REACTORS
330
19
102
}
330
19
100
AcDbDictionary
281
     1
  0
DICTIONARY
  5
1A
102
{ACAD_REACTORS
330
19
102
}
330
19
100
AcDbDictionary
281
     1
  0
DICTIONARY
  5
1E
102
{ACAD_REACTORS
330
19
102
}
330
19
100
AcDbDictionary
281
     1
  3
Layout1
350
21
  3
Model
350
20
  0
DICTIONARY
  5
CF
102
{ACAD_REACTORS
330
19
102
}
330
19
100
AcDbDictionary
281
     1
  3
ByBlock
350
D1
  3
ByLayer
350
D0
  3
Global
350
D2
  0
DICTIONARY
  5
1B
102
{ACAD_REACTORS
330
19
102
}
330
19
100
AcDbDictionary
281
     1
  3
Standard
350
1C
  0
DICTIONARY
  5
22
102
{ACAD_REACTORS
330
19
102
}
330
19
100
AcDbDictionary
281
     1
  0
ACDBDICTIONARYWDFLT
  5
1F
102
{ACAD_REACTORS
330
19
102
}
330
19
100
AcDbDictionary
281
     1
  3
Normal
350
1D
100
AcDbDictionaryWithDefault
340
1D
  0
DICTIONARY
  5
E5
102
{ACAD_REACTORS
330
19
102
}
330
19
100
AcDbDictionary
281
     1
  3
Standard
350
E6
  0
DICTIONARY
  5
D3
102
{ACAD_REACTORS
330
19
102
}
330
19
100
AcDbDictionary
281
     1
  3
2dWireframe
350
D9
  3
3D Hidden
350
DB
  3
3dWireframe
350
DA
  3
Basic
350
D8
  3
Brighten
350
DF
  3
ColorChange
350
E3
  3
Conceptual
350
DC
  3
Dim
350
DE
  3
Facepattern
350
E2
  3
Flat
350
D4
  3
FlatWithEdges
350
D5
  3
Gouraud
350
D6
  3
GouraudWithEdges
350
D7
  3
Linepattern
350
E1
  3
Realistic
350
DD
  3
Thicken
350
E0
  0
WIPEOUTVARIABLES
  5
23
330
19
100
AcDbWipeoutVariables
 70
     1
  0
DICTIONARY
  5
132
102
{ACAD_REACTORS
330
19
102
}
330
19
100
AcDbDictionary
281
     1
  3
CTABLESTYLE
350
133
  3
DIMASSOC
350
1B3
  3
INDEXCTL
350
1B2
  3
SORTENTS
350
1B1
  0
XRECORD
  5
1B4
102
{ACAD_REACTORS
330
19
102
}
330
19
100
AcDbXrecord
280
     1
  1
DWGPROPS COOKIE
  2

  3

  4

  6

  7

  8
Yu Hu
  9

300
=
301
=
302
=
303
=
304
=
305
=
306
=
307
=
308
=
309
=
 40
0.0091594675925926
 41
2453947.922205255
 42
2453947.931280232
  1

 90
        0
  0
LAYOUT
  5
21
102
{ACAD_XDICTIONARY
360
1B7
102
}
102
{ACAD_REACTORS
330
1E
102
}
330
1E
100
AcDbPlotSettings
  1

  2

  4

  6

 40
0.0
 41
0.0
 42
0.0
 43
0.0
 44
0.0
 45
0.0
 46
0.0
 47
0.0
 48
0.0
 49
0.0
140
0.0
141
0.0
142
1.0
143
1.0
 70
     0
 72
     0
 73
     0
 74
     0
  7

 75
     0
147
1.0
148
0.0
149
0.0
100
AcDbLayout
  1
Layout1
 70
     0
 71
     1
 10
0.0
 20
0.0
 11
12.0
 21
9.0
 12
0.0
 22
0.0
 32
0.0
 14
1.000000000000000E+20
 24
1.000000000000000E+20
 34
1.000000000000000E+20
 15
-1.000000000000000E+20
 25
-1.000000000000000E+20
 35
-1.000000000000000E+20
146
0.0
 13
0.0
 23
0.0
 33
0.0
 16
1.0
 26
0.0
 36
0.0
 17
0.0
 27
1.0
 37
0.0
 76
     0
330
B
  0
LAYOUT
  5
20
102
{ACAD_XDICTIONARY
360
1B5
102
}
102
{ACAD_REACTORS
330
1E
102
}
330
1E
100
AcDbPlotSettings
  1

  2

  4

  6

 40
0.0
 41
0.0
 42
0.0
 43
0.0
 44
0.0
 45
0.0
 46
0.0
 47
0.0
 48
0.0
 49
0.0
140
0.0
141
0.0
142
1.0
143
1.0
 70
  1024
 72
     0
 73
     0
 74
     0
  7

 75
     0
147
1.0
148
0.0
149
0.0
100
AcDbLayout
  1
Model
 70
     0
 71
     0
 10
0.0
 20
0.0
 11
0.0
 21
0.0
 12
0.0
 22
0.0
 32
0.0
 14
0.0
 24
0.0
 34
0.0
 15
0.0
 25
0.0
 35
0.0
146
0.0
 13
0.0
 23
0.0
 33
0.0
 16
0.0
 26
0.0
 36
0.0
 17
0.0
 27
0.0
 37
0.0
 76
     0
330
A
331
15
  0
MATERIAL
  5
D1
102
{ACAD_XDICTIONARY
360
1BB
102
}
102
{ACAD_REACTORS
330
CF
102
}
330
CF
100
AcDbMaterial
  1
ByBlock
  0
MATERIAL
  5
D0
102
{ACAD_XDICTIONARY
360
1B9
102
}
102
{ACAD_REACTORS
330
CF
102
}
330
CF
100
AcDbMaterial
  1
ByLayer
  0
MATERIAL
  5
D2
102
{ACAD_XDICTIONARY
360
1BD
102
}
102
{ACAD_REACTORS
330
CF
102
}
330
CF
100
AcDbMaterial
  1
Global
  0
MLINESTYLE
  5
1C
102
{ACAD_REACTORS
330
1B
102
}
330
1B
100
AcDbMlineStyle
  2
STANDARD
 70
     0
  3

 62
     0
 51
90.0
 52
90.0
 71
     2
 49
0.5
 62
   256
  6
BYLAYER
 49
-0.5
 62
   256
  6
BYLAYER
  0
ACDBPLACEHOLDER
  5
1D
102
{ACAD_REACTORS
330
1F
102
}
330
1F
  0
TABLESTYLE
  5
E6
102
{ACAD_XDICTIONARY
360
1BF
102
}
102
{ACAD_REACTORS
330
E5
102
}
330
E5
100
AcDbTableStyle
  3
Standard
 70
     0
 71
     0
 40
1.5
 41
1.5
280
     0
281
     0
  7
Standard
140
4.5
170
     2
 62
     0
 63
     7
283
     0
274
    -2
284
     1
 64
     0
275
    -2
285
     1
 65
     0
276
    -2
286
     1
 66
     0
277
    -2
287
     1
 67
     0
278
    -2
288
     1
 68
     0
279
    -2
289
     1
 69
     0
  7
Standard
140
6.0
170
     5
 62
     0
 63
     7
283
     0
274
    -2
284
     1
 64
     0
275
    -2
285
     1
 65
     0
276
    -2
286
     1
 66
     0
277
    -2
287
     1
 67
     0
278
    -2
288
     1
 68
     0
279
    -2
289
     1
 69
     0
  7
Standard
140
4.5
170
     5
 62
     0
 63
     7
283
     0
274
    -2
284
     1
 64
     0
275
    -2
285
     1
 65
     0
276
    -2
286
     1
 66
     0
277
    -2
287
     1
 67
     0
278
    -2
288
     1
 68
     0
279
    -2
289
     1
 69
     0
  0
VISUALSTYLE
  5
D9
102
{ACAD_REACTORS
330
D3
102
}
330
D3
100
AcDbVisualStyle
  2
2dWireframe
 70
     4
 71
     0
 72
     2
 73
     0
 90
        0
 40
-0.6
 41
-30.0
 62
     5
 63
     7
 74
     1
 91
        4
 64
     7
 65
   257
 75
     1
175
     1
 42
1.0
 92
        0
 66
   257
 43
1.0
 76
     1
 77
     6
 78
     2
 67
     7
 79
     5
170
     0
171
     0
290
     0
174
     0
 93
        1
 44
0.0
173
     0
291
     0
 45
0.0
1001
ACAD
1000
AcDbSavedByObjectVersion
1070
     0
  0
VISUALSTYLE
  5
DB
102
{ACAD_REACTORS
330
D3
102
}
330
D3
100
AcDbVisualStyle
  2
3D Hidden
 70
     6
 71
     1
 72
     2
 73
     2
 90
        0
 40
-0.6
 41
-30.0
 62
     5
 63
     7
 74
     2
 91
        2
 64
     7
 65
   257
 75
     2
175
     1
 42
40.0
 92
        0
 66
   257
 43
1.0
 76
     1
 77
     6
 78
     2
 67
     7
 79
     3
170
     0
171
     0
290
     0
174
     0
 93
        1
 44
0.0
173
     0
291
     0
 45
0.0
1001
ACAD
1000
AcDbSavedByObjectVersion
1070
     0
  0
VISUALSTYLE
  5
DA
102
{ACAD_REACTORS
330
D3
102
}
330
D3
100
AcDbVisualStyle
  2
3dWireframe
 70
     5
 71
     0
 72
     2
 73
     0
 90
        0
 40
-0.6
 41
-30.0
 62
     5
 63
     7
 74
     1
 91
        4
 64
     7
 65
   257
 75
     1
175
     1
 42
1.0
 92
        0
 66
   257
 43
1.0
 76
     1
 77
     6
 78
     2
 67
     7
 79
     5
170
     0
171
     0
290
     0
174
     0
 93
        1
 44
0.0
173
     0
291
     0
 45
0.0
1001
ACAD
1000
AcDbSavedByObjectVersion
1070
     0
  0
VISUALSTYLE
  5
D8
102
{ACAD_REACTORS
330
D3
102
}
330
D3
100
AcDbVisualStyle
  2
Basic
 70
     7
 71
     1
 72
     0
 73
     1
 90
        0
 40
-0.6
 41
-30.0
 62
     5
 63
     7
 74
     0
 91
        4
 64
     7
 65
   257
 75
     1
175
     1
 42
1.0
 92
        8
 66
     7
 43
1.0
 76
     1
 77
     6
 78
     2
 67
     7
 79
     5
170
     0
171
     0
290
     0
174
     0
 93
        1
 44
0.0
173
     0
291
     1
 45
0.0
1001
ACAD
1000
AcDbSavedByObjectVersion
1070
     0
  0
VISUALSTYLE
  5
DF
102
{ACAD_REACTORS
330
D3
102
}
330
D3
100
AcDbVisualStyle
  2
Brighten
 70
    12
 71
     2
 72
     2
 73
     0
 90
        0
 40
-0.6
 41
-30.0
 62
     5
 63
     7
 74
     1
 91
        4
 64
     7
 65
   257
 75
     1
175
     1
 42
1.0
 92
        8
 66
     7
 43
1.0
 76
     1
 77
     6
 78
     2
 67
     7
 79
     5
170
     0
171
     0
290
     0
174
     0
 93
        1
 44
50.0
173
     0
291
     1
 45
0.0
1001
ACAD
1000
AcDbSavedByObjectVersion
1070
     0
  0
VISUALSTYLE
  5
E3
102
{ACAD_REACTORS
330
D3
102
}
330
D3
100
AcDbVisualStyle
  2
ColorChange
 70
    16
 71
     2
 72
     2
 73
     3
 90
        0
 40
-0.6
 41
-30.0
 62
     5
 63
     8
 74
     1
 91
        4
 64
     7
 65
   257
 75
     1
175
     1
 42
1.0
 92
        8
 66
     8
 43
1.0
 76
     1
 77
     6
 78
     2
 67
     7
 79
     5
170
     0
171
     0
290
     0
174
     0
 93
        1
 44
0.0
173
     0
291
     1
 45
0.0
1001
ACAD
1000
AcDbSavedByObjectVersion
1070
     0
  0
VISUALSTYLE
  5
DC
102
{ACAD_REACTORS
330
D3
102
}
330
D3
100
AcDbVisualStyle
  2
Conceptual
 70
     9
 71
     3
 72
     2
 73
     0
 90
        0
 40
-0.6
 41
-30.0
 62
     5
 63
     7
 74
     2
 91
        2
 64
     7
 65
   257
 75
     1
175
     1
 42
40.0
 92
        8
 66
     7
 43
1.0
 76
     1
 77
     6
 78
     2
 67
     7
 79
     3
170
     0
171
     0
290
     0
174
     0
 93
        1
 44
0.0
173
     0
291
     0
 45
0.0
1001
ACAD
1000
AcDbSavedByObjectVersion
1070
     0
  0
VISUALSTYLE
  5
DE
102
{ACAD_REACTORS
330
D3
102
}
330
D3
100
AcDbVisualStyle
  2
Dim
 70
    11
 71
     2
 72
     2
 73
     0
 90
        0
 40
-0.6
 41
-30.0
 62
     5
 63
     7
 74
     1
 91
        4
 64
     7
 65
   257
 75
     1
175
     1
 42
1.0
 92
        8
 66
     7
 43
1.0
 76
     1
 77
     6
 78
     2
 67
     7
 79
     5
170
     0
171
     0
290
     0
174
     0
 93
        1
 44
-50.0
173
     0
291
     1
 45
0.0
1001
ACAD
1000
AcDbSavedByObjectVersion
1070
     0
  0
VISUALSTYLE
  5
E2
102
{ACAD_REACTORS
330
D3
102
}
330
D3
100
AcDbVisualStyle
  2
Facepattern
 70
    15
 71
     2
 72
     2
 73
     0
 90
        0
 40
-0.6
 41
-30.0
 62
     5
 63
     7
 74
     1
 91
        4
 64
     7
 65
   257
 75
     1
175
     1
 42
1.0
 92
        8
 66
     7
 43
1.0
 76
     1
 77
     6
 78
     2
 67
     7
 79
     5
170
     0
171
     0
290
     0
174
     0
 93
        1
 44
0.0
173
     0
291
     1
 45
0.0
1001
ACAD
1000
AcDbSavedByObjectVersion
1070
     0
  0
VISUALSTYLE
  5
D4
102
{ACAD_REACTORS
330
D3
102
}
330
D3
100
AcDbVisualStyle
  2
Flat
 70
     0
 71
     2
 72
     1
 73
     1
 90
        2
 40
-0.6
 41
30.0
 62
     5
 63
     7
 74
     0
 91
        4
 64
     7
 65
   257
 75
     1
175
     1
 42
1.0
 92
        8
 66
     7
 43
1.0
 76
     1
 77
     6
 78
     2
 67
     7
 79
     5
170
     0
171
     0
290
     0
174
     0
 93
       13
 44
0.0
173
     0
291
     1
 45
0.0
1001
ACAD
1000
AcDbSavedByObjectVersion
1070
     0
  0
VISUALSTYLE
  5
D5
102
{ACAD_REACTORS
330
D3
102
}
330
D3
100
AcDbVisualStyle
  2
FlatWithEdges
 70
     1
 71
     2
 72
     1
 73
     1
 90
        2
 40
-0.6
 41
30.0
 62
     5
 63
     7
 74
     1
 91
        4
 64
     7
 65
   257
 75
     1
175
     1
 42
1.0
 92
        0
 66
   257
 43
1.0
 76
     1
 77
     6
 78
     2
 67
     7
 79
     5
170
     0
171
     0
290
     0
174
     0
 93
       13
 44
0.0
173
     0
291
     1
 45
0.0
1001
ACAD
1000
AcDbSavedByObjectVersion
1070
     0
  0
VISUALSTYLE
  5
D6
102
{ACAD_REACTORS
330
D3
102
}
330
D3
100
AcDbVisualStyle
  2
Gouraud
 70
     2
 71
     2
 72
     2
 73
     1
 90
        2
 40
-0.6
 41
30.0
 62
     5
 63
     7
 74
     0
 91
        4
 64
     7
 65
   257
 75
     1
175
     1
 42
1.0
 92
        0
 66
     7
 43
1.0
 76
     1
 77
     6
 78
     2
 67
     7
 79
     5
170
     0
171
     0
290
     0
174
     0
 93
       13
 44
0.0
173
     0
291
     1
 45
0.0
1001
ACAD
1000
AcDbSavedByObjectVersion
1070
     0
  0
VISUALSTYLE
  5
D7
102
{ACAD_REACTORS
330
D3
102
}
330
D3
100
AcDbVisualStyle
  2
GouraudWithEdges
 70
     3
 71
     2
 72
     2
 73
     1
 90
        2
 40
-0.6
 41
30.0
 62
     5
 63
     7
 74
     1
 91
        4
 64
     7
 65
   257
 75
     1
175
     1
 42
1.0
 92
        0
 66
   257
 43
1.0
 76
     1
 77
     6
 78
     2
 67
     7
 79
     5
170
     0
171
     0
290
     0
174
     0
 93
       13
 44
0.0
173
     0
291
     1
 45
0.0
1001
ACAD
1000
AcDbSavedByObjectVersion
1070
     0
  0
VISUALSTYLE
  5
E1
102
{ACAD_REACTORS
330
D3
102
}
330
D3
100
AcDbVisualStyle
  2
Linepattern
 70
    14
 71
     2
 72
     2
 73
     0
 90
        0
 40
-0.6
 41
-30.0
 62
     5
 63
     7
 74
     1
 91
        4
 64
     7
 65
   257
 75
     7
175
     7
 42
1.0
 92
        8
 66
     7
 43
1.0
 76
     1
 77
     6
 78
     2
 67
     7
 79
     5
170
     0
171
     0
290
     0
174
     0
 93
        1
 44
0.0
173
     0
291
     1
 45
0.0
1001
ACAD
1000
AcDbSavedByObjectVersion
1070
     0
  0
VISUALSTYLE
  5
DD
102
{ACAD_REACTORS
330
D3
102
}
330
D3
100
AcDbVisualStyle
  2
Realistic
 70
     8
 71
     2
 72
     2
 73
     0
 90
        0
 40
-0.6
 41
-30.0
 62
     5
 63
     7
 74
     1
 91
        0
 64
     7
 65
   257
 75
     1
175
     1
 42
1.0
 92
        8
 66
     8
 43
1.0
 76
     1
 77
     6
 78
     2
 67
     7
 79
     5
170
     0
171
     0
290
     0
174
     0
 93
       13
 44
0.0
173
     0
291
     0
 45
0.0
1001
ACAD
1000
AcDbSavedByObjectVersion
1070
     0
  0
VISUALSTYLE
  5
E0
102
{ACAD_REACTORS
330
D3
102
}
330
D3
100
AcDbVisualStyle
  2
Thicken
 70
    13
 71
     2
 72
     2
 73
     0
 90
        0
 40
-0.6
 41
-30.0
 62
     5
 63
     7
 74
     1
 91
        4
 64
     7
 65
   257
 75
     1
175
     1
 42
1.0
 92
       12
 66
     7
 43
1.0
 76
     1
 77
     6
 78
     2
 67
     7
 79
     5
170
     0
171
     0
290
     0
174
     0
 93
        1
 44
0.0
173
     0
291
     1
 45
0.0
1001
ACAD
1000
AcDbSavedByObjectVersion
1070
     0
  0
DICTIONARYVAR
  5
133
102
{ACAD_REACTORS
330
132
102
}
330
132
100
DictionaryVariables
280
     0
  1
STANDARD
  0
DICTIONARYVAR
  5
1B3
102
{ACAD_REACTORS
330
132
102
}
330
132
100
DictionaryVariables
280
     0
  1
1
  0
DICTIONARYVAR
  5
1B2
102
{ACAD_REACTORS
330
132
102
}
330
132
100
DictionaryVariables
280
     0
  1
0
  0
DICTIONARYVAR
  5
1B1
102
{ACAD_REACTORS
330
132
102
}
330
132
100
DictionaryVariables
280
     0
  1
127
  0
DICTIONARY
  5
1B7
330
21
100
AcDbDictionary
280
     1
281
     1
  3
ACAD_XREC_ROUNDTRIP
360
1B8
  0
DICTIONARY
  5
1B5
330
20
100
AcDbDictionary
280
     1
281
     1
  3
ACAD_XREC_ROUNDTRIP
360
1B6
  0
DICTIONARY
  5
1BB
330
D1
100
AcDbDictionary
280
     1
281
     1
  3
ACAD_XREC_ROUNDTRIP
360
1BC
  0
DICTIONARY
  5
1B9
330
D0
100
AcDbDictionary
280
     1
281
     1
  3
ACAD_XREC_ROUNDTRIP
360
1BA
  0
DICTIONARY
  5
1BD
330
D2
100
AcDbDictionary
280
     1
281
     1
  3
ACAD_XREC_ROUNDTRIP
360
1BE
  0
DICTIONARY
  5
1BF
330
E6
100
AcDbDictionary
280
     1
281
     1
  3
ACAD_XREC_ROUNDTRIP
360
1C0
  0
XRECORD
  5
1B8
102
{ACAD_REACTORS
330
1B7
102
}
330
1B7
100
AcDbXrecord
280
     1
102
SHADEPLOT
 70
     0
102
SHADEPLOTRESLEVEL
 70
     2
102
SHADEPLOTCUSTOMDPI
 70
   300
  0
XRECORD
  5
1B6
102
{ACAD_REACTORS
330
1B5
102
}
330
1B5
100
AcDbXrecord
280
     1
102
SHADEPLOT
 70
     0
102
SHADEPLOTRESLEVEL
 70
     2
102
SHADEPLOTCUSTOMDPI
 70
   300
  0
XRECORD
  5
1BC
102
{ACAD_REACTORS
330
1BB
102
}
330
1BB
100
AcDbXrecord
280
     1
102
MATERIAL
148
0.0
149
0.0
149
0.0
 93
        0
 94
       63
282
     0
 72
     1
 77
     1
171
     1
175
     1
179
     1
273
     0
  0
XRECORD
  5
1BA
102
{ACAD_REACTORS
330
1B9
102
}
330
1B9
100
AcDbXrecord
280
     1
102
MATERIAL
148
0.0
149
0.0
149
0.0
 93
        0
 94
       63
282
     0
 72
     1
 77
     1
171
     1
175
     1
179
     1
273
     0
  0
XRECORD
  5
1BE
102
{ACAD_REACTORS
330
1BD
102
}
330
1BD
100
AcDbXrecord
280
     1
102
MATERIAL
148
0.0
149
0.0
149
0.0
 93
        0
 94
       63
282
     0
 72
     1
 77
     1
171
     1
175
     1
179
     1
273
     0
  0
XRECORD
  5
1C0
102
{ACAD_REACTORS
330
1BF
102
}
330
1BF
100
AcDbXrecord
280
     1
102
ACAD_ROUNDTRIP_PRE2007_TABLESTYLE
 90
      512
 91
        0
  1

 92
      512
 93
        0
  2

 94
      512
 95
        0
  3

  0
ENDSEC
  0
EOF
