  0
SECTION
  2
HEADER
  9
$ACADVER
  1
AC1014
  9
$ACADMAINTVER
 70
     9
  9
$DWGCODEPAGE
  3
ANSI_1252
  9
$INSBASE
 10
4.807324548984563
 20
2.248234144347673
 30
0.0
  9
$EXTMIN
 10
-2.11278950231002
 20
1.789134583201281
 30
0.0
  9
$EXTMAX
 10
10.93866854680321
 20
7.373234144347673
 30
0.0
  9
$LIMMIN
 10
0.0
 20
0.0
  9
$LIMMAX
 10
36.0
 20
36.0
  9
$ORTHOMODE
 70
     1
  9
$REGENMODE
 70
     1
  9
$FILLMODE
 70
     1
  9
$QTEXTMODE
 70
     0
  9
$MIRRTEXT
 70
     1
  9
$DRAGMODE
 70
     0
  9
$LTSCALE
 40
1.0
  9
$OSMODE
 70
    37
  9
$ATTMODE
 70
     1
  9
$TEXTSIZE
 40
0.2
  9
$TRACEWID
 40
0.05
  9
$TEXTSTYLE
  7
STANDARD
  9
$CLAYER
  8
ADPDIM
  9
$CELTYPE
  6
BYLAYER
  9
$CECOLOR
 62
   256
  9
$CELTSCALE
 40
1.0
  9
$DELOBJ
 70
     1
  9
$DISPSILH
 70
     0
  9
$DIMSCALE
 40
1.0
  9
$DIMASZ
 40
0.125
  9
$DIMEXO
 40
0.0625
  9
$DIMDLI
 40
0.38
  9
$DIMRND
 40
0.0
  9
$DIMDLE
 40
0.0
  9
$DIMEXE
 40
0.18
  9
$DIMTP
 40
0.0
  9
$DIMTM
 40
0.0
  9
$DIMTXT
 40
0.125
  9
$DIMCEN
 40
0.1875
  9
$DIMTSZ
 40
0.125
  9
$DIMTOL
 70
     0
  9
$DIMLIM
 70
     0
  9
$DIMTIH
 70
     0
  9
$DIMTOH
 70
     0
  9
$DIMSE1
 70
     0
  9
$DIMSE2
 70
     0
  9
$DIMTAD
 70
     0
  9
$DIMZIN
 70
     3
  9
$DIMBLK
  1

  9
$DIMASO
 70
     1
  9
$DIMSHO
 70
     1
  9
$DIMPOST
  1

  9
$DIMAPOST
  1

  9
$DIMALT
 70
     0
  9
$DIMALTD
 70
     1
  9
$DIMALTF
 40
25.4
  9
$DIMLFAC
 40
1.0
  9
$DIMTOFL
 70
     0
  9
$DIMTVP
 40
0.0
  9
$DIMTIX
 70
     0
  9
$DIMSOXD
 70
     0
  9
$DIMSAH
 70
     0
  9
$DIMBLK1
  1

  9
$DIMBLK2
  1

  9
$DIMSTYLE
  2
STANDARD
  9
$DIMCLRD
 70
     0
  9
$DIMCLRE
 70
     0
  9
$DIMCLRT
 70
     0
  9
$DIMTFAC
 40
1.0
  9
$DIMGAP
 40
0.125
  9
$DIMJUST
 70
     0
  9
$DIMSD1
 70
     0
  9
$DIMSD2
 70
     0
  9
$DIMTOLJ
 70
     1
  9
$DIMTZIN
 70
     0
  9
$DIMALTZ
 70
     0
  9
$DIMALTTZ
 70
     0
  9
$DIMFIT
 70
     3
  9
$DIMUPT
 70
     0
  9
$DIMUNIT
 70
     2
  9
$DIMDEC
 70
     4
  9
$DIMTDEC
 70
     4
  9
$DIMALTU
 70
     2
  9
$DIMALTTD
 70
     2
  9
$DIMTXSTY
  7
STANDARD
  9
$DIMAUNIT
 70
     0
  9
$LUNITS
 70
     5
  9
$LUPREC
 70
     4
  9
$SKETCHINC
 40
0.1
  9
$FILLETRAD
 40
0.01
  9
$AUNITS
 70
     0
  9
$AUPREC
 70
     0
  9
$MENU
  1
acad
  9
$ELEVATION
 40
0.0
  9
$PELEVATION
 40
0.0
  9
$THICKNESS
 40
0.0
  9
$LIMCHECK
 70
     0
  9
$BLIPMODE
 70
     0
  9
$CHAMFERA
 40
0.0
  9
$CHAMFERB
 40
0.0
  9
$CHAMFERC
 40
0.0
  9
$CHAMFERD
 40
0.0
  9
$SKPOLY
 70
     0
  9
$TDCREATE
 40
2450366.546201389
  9
$TDUPDATE
 40
2452297.083232060
  9
$TDINDWG
 40
0.0197672454
  9
$TDUSRTIMER
 40
0.0197672454
  9
$USRTIMER
 70
     1
  9
$ANGBASE
 50
0.0
  9
$ANGDIR
 70
     0
  9
$PDMODE
 70
     0
  9
$PDSIZE
 40
0.0
  9
$PLINEWID
 40
0.0
  9
$COORDS
 70
     2
  9
$SPLFRAME
 70
     0
  9
$SPLINETYPE
 70
     6
  9
$SPLINESEGS
 70
     8
  9
$ATTDIA
 70
     0
  9
$ATTREQ
 70
     1
  9
$HANDLING
 70
 22529
  9
$HANDSEED
  5
24E
  9
$SURFTAB1
 70
     6
  9
$SURFTAB2
 70
     6
  9
$SURFTYPE
 70
     6
  9
$SURFU
 70
     6
  9
$SURFV
 70
     6
  9
$UCSNAME
  2

  9
$UCSORG
 10
0.0
 20
0.0
 30
0.0
  9
$UCSXDIR
 10
1.0
 20
0.0
 30
0.0
  9
$UCSYDIR
 10
0.0
 20
1.0
 30
0.0
  9
$PUCSNAME
  2

  9
$PUCSORG
 10
0.0
 20
0.0
 30
0.0
  9
$PUCSXDIR
 10
1.0
 20
0.0
 30
0.0
  9
$PUCSYDIR
 10
0.0
 20
1.0
 30
0.0
  9
$USERI1
 70
     0
  9
$USERI2
 70
     0
  9
$USERI3
 70
     0
  9
$USERI4
 70
     0
  9
$USERI5
 70
     0
  9
$USERR1
 40
0.0
  9
$USERR2
 40
0.0
  9
$USERR3
 40
0.0
  9
$USERR4
 40
0.0
  9
$USERR5
 40
0.0
  9
$WORLDVIEW
 70
     1
  9
$SHADEDGE
 70
     3
  9
$SHADEDIF
 70
    70
  9
$TILEMODE
 70
     1
  9
$MAXACTVP
 70
    15
  9
$PINSBASE
 10
0.1250013113021854
 20
0.0
 30
0.0
  9
$PLIMCHECK
 70
     0
  9
$PEXTMIN
 10
1.000000000000000E+20
 20
1.000000000000000E+20
 30
1.000000000000000E+20
  9
$PEXTMAX
 10
-1.000000000000000E+20
 20
-1.000000000000000E+20
 30
-1.000000000000000E+20
  9
$PLIMMIN
 10
0.0
 20
0.0
  9
$PLIMMAX
 10
12.0
 20
9.0
  9
$UNITMODE
 70
     0
  9
$VISRETAIN
 70
     0
  9
$PLINEGEN
 70
     0
  9
$PSLTSCALE
 70
     1
  9
$TREEDEPTH
 70
  3020
  9
$PICKSTYLE
 70
     1
  9
$CMLSTYLE
  2
STANDARD
  9
$CMLJUST
 70
     0
  9
$CMLSCALE
 40
1.0
  9
$PROXYGRAPHICS
 70
     1
  9
$MEASUREMENT
 70
     0
  0
ENDSEC
  0
SECTION
  2
CLASSES
  0
CLASS
  1
ACDBDICTIONARYWDFLT
  2
AcDbDictionaryWithDefault
  3
AutoCAD 2000
 90
        0
280
     0
281
     0
  0
CLASS
  1
ACDBPLACEHOLDER
  2
AcDbPlaceHolder
  3
AutoCAD 2000
 90
        0
280
     0
281
     0
  0
CLASS
  1
LAYOUT
  2
AcDbLayout
  3
AutoCAD 2000
 90
        0
280
     0
281
     0
  0
CLASS
  1
DICTIONARYVAR
  2
AcDbDictionaryVar
  3
AutoCAD 2000
 90
        0
280
     0
281
     0
  0
CLASS
  1
LONG_TRANSACTION
  2
AcDbLongTransaction
  3
AutoCAD 2000
 90
        0
280
     0
281
     0
  0
CLASS
  1
LWPOLYLINE
  2
AcDbPolyline
  3
AutoCAD 2000
 90
        0
280
     0
281
     1
  0
CLASS
  1
HATCH
  2
AcDbHatch
  3
AutoCAD 2000
 90
        0
280
     0
281
     1
  0
CLASS
  1
XRECORD
  2
AcDbXrecord
  3
AutoCAD 2000
 90
        0
280
     0
281
     0
  0
CLASS
  1
LONG_TRANSACTION
  2
AcDbLongTransaction
  3
AutoCAD 2000
 90
        0
280
     0
281
     0
  0
CLASS
  1
LWPOLYLINE
  2
AcDbPolyline
  3
AutoCAD 2000
 90
        0
280
     0
281
     1
  0
CLASS
  1
HATCH
  2
AcDbHatch
  3
AutoCAD 2000
 90
        0
280
     0
281
     1
  0
CLASS
  1
XRECORD
  2
AcDbXrecord
  3
AutoCAD 2000
 90
        0
280
     0
281
     0
  0
CLASS
  1
LONG_TRANSACTION
  2
AcDbLongTransaction
  3
AutoCAD 2000
 90
        0
280
     0
281
     0
  0
CLASS
  1
LWPOLYLINE
  2
AcDbPolyline
  3
AutoCAD 2000
 90
        0
280
     0
281
     1
  0
CLASS
  1
HATCH
  2
AcDbHatch
  3
AutoCAD 2000
 90
        0
280
     0
281
     1
  0
CLASS
  1
XRECORD
  2
AcDbXrecord
  3
AutoCAD 2000
 90
        0
280
     0
281
     0
  0
CLASS
  1
LONG_TRANSACTION
  2
AcDbLongTransaction
  3
AutoCAD 2000
 90
        0
280
     0
281
     0
  0
CLASS
  1
LWPOLYLINE
  2
AcDbPolyline
  3
AutoCAD 2000
 90
        0
280
     0
281
     1
  0
CLASS
  1
HATCH
  2
AcDbHatch
  3
AutoCAD 2000
 90
        0
280
     0
281
     1
  0
CLASS
  1
XRECORD
  2
AcDbXrecord
  3
AutoCAD 2000
 90
        0
280
     0
281
     0
  0
CLASS
  1
LONG_TRANSACTION
  2
AcDbLongTransaction
  3
AutoCAD 2000
 90
        0
280
     0
281
     0
  0
CLASS
  1
LWPOLYLINE
  2
AcDbPolyline
  3
AutoCAD 2000
 90
        0
280
     0
281
     1
  0
CLASS
  1
HATCH
  2
AcDbHatch
  3
AutoCAD 2000
 90
        0
280
     0
281
     1
  0
CLASS
  1
XRECORD
  2
AcDbXrecord
  3
AutoCAD 2000
 90
        0
280
     0
281
     0
  0
CLASS
  1
LONG_TRANSACTION
  2
AcDbLongTransaction
  3
AutoCAD 2000
 90
        0
280
     0
281
     0
  0
CLASS
  1
LWPOLYLINE
  2
AcDbPolyline
  3
AutoCAD 2000
 90
        0
280
     0
281
     1
  0
CLASS
  1
HATCH
  2
AcDbHatch
  3
AutoCAD 2000
 90
        0
280
     0
281
     1
  0
CLASS
  1
XRECORD
  2
AcDbXrecord
  3
AutoCAD 2000
 90
        0
280
     0
281
     0
  0
ENDSEC
  0
SECTION
  2
TABLES
  0
TABLE
  2
VPORT
  5
8
330
0
100
AcDbSymbolTable
 70
     2
  0
VPORT
  5
22B
330
8
100
AcDbSymbolTableRecord
100
AcDbViewportTableRecord
  2
*ACTIVE
 70
     0
 10
0.0
 20
0.0
 11
1.0
 21
1.0
 12
4.422920230914821
 22
4.580200263508832
 13
0.0
 23
0.0
 14
0.5740882589684922
 24
0.5740882589684922
 15
0.5
 25
0.5
 16
0.0
 26
0.0
 36
1.0
 17
0.0
 27
0.0
 37
0.0
 40
8.36534555728336
 41
1.570528967254408
 42
50.0
 43
0.0
 44
0.0
 50
0.0
 51
0.0
 71
     0
 72
   100
 73
     1
 74
     1
 75
     0
 76
     0
 77
     0
 78
     0
  0
ENDTAB
  0
TABLE
  2
LTYPE
  5
5
330
0
100
AcDbSymbolTable
 70
     1
  0
LTYPE
  5
12
330
5
100
AcDbSymbolTableRecord
100
AcDbLinetypeTableRecord
  2
BYBLOCK
 70
     0
  3

 72
    65
 73
     0
 40
0.0
  0
LTYPE
  5
13
330
5
100
AcDbSymbolTableRecord
100
AcDbLinetypeTableRecord
  2
BYLAYER
 70
     0
  3

 72
    65
 73
     0
 40
0.0
  0
LTYPE
  5
14
330
5
100
AcDbSymbolTableRecord
100
AcDbLinetypeTableRecord
  2
CONTINUOUS
 70
     0
  3
Solid line
 72
    65
 73
     0
 40
0.0
  0
ENDTAB
  0
TABLE
  2
LAYER
  5
2
330
0
100
AcDbSymbolTable
 70
     4
  0
LAYER
  5
F
330
2
100
AcDbSymbolTableRecord
100
AcDbLayerTableRecord
  2
0
 70
     0
 62
     7
  6
CONTINUOUS
  0
LAYER
  5
38
330
2
100
AcDbSymbolTableRecord
100
AcDbLayerTableRecord
  2
ADPDIM
 70
     0
 62
     3
  6
CONTINUOUS
  0
LAYER
  5
3A
330
2
100
AcDbSymbolTableRecord
100
AcDbLayerTableRecord
  2
ADP1DETAIL
 70
     0
 62
     7
  6
CONTINUOUS
  0
LAYER
  5
3C
330
2
100
AcDbSymbolTableRecord
100
AcDbLayerTableRecord
  2
DEFPOINTS
 70
     0
 62
     7
  6
CONTINUOUS
  0
ENDTAB
  0
TABLE
  2
STYLE
  5
3
330
0
100
AcDbSymbolTable
 70
     2
  0
STYLE
  5
10
330
3
100
AcDbSymbolTableRecord
100
AcDbTextStyleTableRecord
  2
STANDARD
 70
     0
 40
0.0
 41
1.0
 50
0.0
 71
     0
 42
0.2
  3
txt
  4

  0
STYLE
  5
B8
330
3
100
AcDbSymbolTableRecord
100
AcDbTextStyleTableRecord
  2
ARIAL_WIDE
 70
     0
 40
0.0
 41
1.25
 50
0.0
 71
     0
 42
0.2
  3
ARIAL.TTF
  4

1001
ACAD
1000
Arial
1071
       34
  0
ENDTAB
  0
TABLE
  2
VIEW
  5
6
330
0
100
AcDbSymbolTable
 70
     0
  0
ENDTAB
  0
TABLE
  2
UCS
  5
7
330
0
100
AcDbSymbolTable
 70
     0
  0
ENDTAB
  0
TABLE
  2
APPID
  5
9
330
0
100
AcDbSymbolTable
 70
     1
  0
APPID
  5
11
330
9
100
AcDbSymbolTableRecord
100
AcDbRegAppTableRecord
  2
ACAD
 70
     0
  0
ENDTAB
  0
TABLE
  2
DIMSTYLE
  5
A
330
0
100
AcDbSymbolTable
 70
     1
  0
DIMSTYLE
105
AC
330
A
100
AcDbSymbolTableRecord
100
AcDbDimStyleTableRecord
  2
STANDARD
 70
     0
  3

  4

  5

  6

  7

 40
1.0
 41
0.18
 42
0.0625
 43
0.38
 44
0.18
 45
0.0
 46
0.0
 47
0.0
 48
0.0
140
0.18
141
0.09
142
0.0
143
25.4
144
1.0
145
0.0
146
1.0
147
0.09
 71
     0
 72
     0
 73
     1
 74
     1
 75
     0
 76
     0
 77
     0
 78
     0
170
     0
171
     2
172
     0
173
     0
174
     0
175
     0
176
     0
177
     0
178
     0
270
     2
271
     4
272
     4
273
     2
274
     2
340
10
275
     0
280
     0
281
     0
282
     0
283
     1
284
     0
285
     0
286
     0
287
     3
288
     0
  0
ENDTAB
  0
TABLE
  2
BLOCK_RECORD
  5
1
330
0
100
AcDbSymbolTable
 70
     1
  0
BLOCK_RECORD
  5
18
102
{ACAD_XDICTIONARY
360
10D
102
}
330
1
100
AcDbSymbolTableRecord
100
AcDbBlockTableRecord
  2
*MODEL_SPACE
  0
BLOCK_RECORD
  5
15
102
{ACAD_XDICTIONARY
360
10B
102
}
330
1
100
AcDbSymbolTableRecord
100
AcDbBlockTableRecord
  2
*PAPER_SPACE
  0
BLOCK_RECORD
  5
36
330
1
100
AcDbSymbolTableRecord
100
AcDbBlockTableRecord
  2
*D0
  0
ENDTAB
  0
ENDSEC
  0
SECTION
  2
BLOCKS
  0
BLOCK
  5
3F
330
18
100
AcDbEntity
  8
0
100
AcDbBlockBegin
  2
*MODEL_SPACE
 70
     0
 10
0.0
 20
0.0
 30
0.0
  3
*MODEL_SPACE
  1

  0
ENDBLK
  5
40
330
18
100
AcDbEntity
  8
0
100
AcDbBlockEnd
  0
BLOCK
  5
3D
330
15
100
AcDbEntity
 67
     1
  8
0
100
AcDbBlockBegin
  2
*PAPER_SPACE
 70
     0
 10
0.0
 20
0.0
 30
0.0
  3
*PAPER_SPACE
  1

  0
ENDBLK
  5
3E
330
15
100
AcDbEntity
 67
     1
  8
0
100
AcDbBlockEnd
  0
BLOCK
  5
42
330
36
100
AcDbEntity
  8
0
100
AcDbBlockBegin
  2
*D0
 70
     1
 10
0.0
 20
0.0
 30
0.0
  3
*D0
  1
*U
  0
LINE
  5
43
330
36
100
AcDbEntity
  8
0
  6
BYBLOCK
 62
     0
100
AcDbLine
 10
4.869824548984563
 20
2.248234144347673
 30
0.0
 11
5.763844918755531
 21
2.248234144347673
 31
0.0
  0
LINE
  5
44
330
36
100
AcDbEntity
  8
0
  6
BYBLOCK
 62
     0
100
AcDbLine
 10
4.475439522246595
 20
7.248234144347673
 30
0.0
 11
5.763844918755531
 21
7.248234144347673
 31
0.0
  0
LINE
  5
45
330
36
100
AcDbEntity
  8
0
  6
BYBLOCK
 62
     0
100
AcDbLine
 10
5.583844918755532
 20
2.248234144347673
 30
0.0
 11
5.583844918755532
 21
4.581567477681006
 31
0.0
  0
LINE
  5
46
330
36
100
AcDbEntity
  8
0
  6
BYBLOCK
 62
     0
100
AcDbLine
 10
5.583844918755532
 20
7.248234144347673
 30
0.0
 11
5.583844918755532
 21
4.91490081101434
 31
0.0
  0
LINE
  5
47
330
36
100
AcDbEntity
  8
0
  6
BYBLOCK
 62
     0
100
AcDbLine
 10
5.708844918755532
 20
2.123234144347673
 30
0.0
 11
5.458844918755532
 21
2.373234144347673
 31
0.0
  0
LINE
  5
48
330
36
100
AcDbEntity
  8
0
  6
BYBLOCK
 62
     0
100
AcDbLine
 10
5.708844918755532
 20
7.123234144347673
 30
0.0
 11
5.458844918755533
 21
7.373234144347673
 31
0.0
  0
TEXT
  5
49
330
36
100
AcDbEntity
  8
0
  6
BYBLOCK
 62
     0
100
AcDbText
 10
5.646344918755532
 20
4.706567477681006
 30
0.0
 40
0.125
  1
5
 50
90.0
 72
     1
 11
5.583844918755532
 21
4.748234144347673
 31
0.0
100
AcDbText
 73
     2
  0
POINT
  5
4A
330
36
100
AcDbEntity
  8
DEFPOINTS
  6
BYBLOCK
 62
     0
100
AcDbPoint
 10
4.807324548984563
 20
2.248234144347673
 30
0.0
  0
POINT
  5
4B
330
36
100
AcDbEntity
  8
DEFPOINTS
  6
BYBLOCK
 62
     0
100
AcDbPoint
 10
4.412939522246595
 20
7.248234144347673
 30
0.0
  0
POINT
  5
4C
330
36
100
AcDbEntity
  8
DEFPOINTS
  6
BYBLOCK
 62
     0
100
AcDbPoint
 10
5.583844918755532
 20
7.248234144347673
 30
0.0
  0
ENDBLK
  5
4D
330
36
100
AcDbEntity
  8
0
100
AcDbBlockEnd
  0
ENDSEC
  0
SECTION
  2
ENTITIES
  0
DIMENSION
  5
4E
330
18
100
AcDbEntity
  8
ADPDIM
100
AcDbDimension
  2
*D0
 10
5.583844918755532
 20
7.248234144347673
 30
0.0
 11
5.583844918755532
 21
4.748234144347673
 31
0.0
100
AcDbAlignedDimension
 13
4.807324548984563
 23
2.248234144347673
 33
0.0
 14
4.412939522246595
 24
7.248234144347673
 34
0.0
 50
90.0
100
AcDbRotatedDimension
  0
LWPOLYLINE
  5
4F
330
18
100
AcDbEntity
  8
ADP1DETAIL
100
AcDbPolyline
 90
       20
 70
     0
 43
0.0
 10
4.807324548984563
 20
2.248234144347673
 42
0.0764732189829515
 10
4.834062516899002
 20
2.468822379641789
 42
-0.2655644370746336
 10
4.914276420642317
 20
2.65598815504286
 42
0.1958872249296808
 10
5.061335244171728
 20
2.950105802101685
 42
0.3699240762154777
 10
4.981121340428413
 20
3.150640561459974
 42
0.2701910149300496
 10
5.021228292300072
 20
3.692084411727354
 42
-0.0727204403435312
 10
5.128180163957824
 20
3.932726122957297
 42
0.3363886112001726
 10
5.047966260214511
 20
4.066415962529488
 42
0.1779561330682423
 10
5.342083907273335
 20
4.480854465203288
 42
0.4018060990082287
 10
5.074704228128949
 20
4.708127192476018
 42
0.9999999999999998
 10
5.047966260214511
 20
4.761603128304892
 42
-0.8827822185373067
 10
4.981121340428414
 20
4.815079064133771
 42
-0.1764304490790945
 10
5.241816527594189
 20
5.0423517914065
 42
0.4527290600686613
 10
5.355452891230555
 20
5.209464090871738
 42
-0.317220139090474
 10
5.382190859144991
 20
5.456790294080294
 42
0.1282881080015714
 10
5.408928827059431
 20
5.617218101566924
 42
-0.016662039607251
 10
5.449035778931088
 20
5.764276925096338
 42
0.3956457070919372
 10
5.301976955401676
 20
5.904651256647138
 42
0.0498756211208841
 10
5.088073212086168
 20
5.911335748625747
 42
0.5489458918550935
 10
4.941014388556757
 20
5.911335748625747
 42
-0.0505760489342777
  0
LINE
  5
65
330
18
100
AcDbEntity
  8
ADP1DETAIL
100
AcDbLine
 10
4.473099950054081
 20
2.274972112262113
 30
0.0
 11
4.446361982139645
 21
7.23486516039046
 31
0.0
  0
LINE
  5
66
330
18
100
AcDbEntity
  8
ADP1DETAIL
100
AcDbLine
 10
4.352779094439111
 20
2.274972112262113
 30
0.0
 11
4.379517062353547
 21
7.23486516039046
 31
0.0
  0
LWPOLYLINE
  5
67
330
18
100
AcDbEntity
  8
ADP1DETAIL
100
AcDbPolyline
 90
       20
 70
     0
 43
0.0
 10
4.018554495508628
 20
2.248234144347673
 42
-0.0764732189829515
 10
3.99181652759419
 20
2.468822379641789
 42
0.2655644370746336
 10
3.911602623850875
 20
2.65598815504286
 42
-0.1958872249296808
 10
3.764543800321463
 20
2.950105802101685
 42
-0.3699240762154777
 10
3.844757704064779
 20
3.150640561459974
 42
-0.2701910149300496
 10
3.804650752193119
 20
3.692084411727354
 42
0.0727204403435312
 10
3.697698880535368
 20
3.932726122957297
 42
-0.3363886112001726
 10
3.777912784278682
 20
4.066415962529488
 42
-0.1779561330682423
 10
3.483795137219857
 20
4.480854465203288
 42
-0.4018060990082287
 10
3.751174816364244
 20
4.708127192476018
 42
-0.9999999999999998
 10
3.777912784278682
 20
4.761603128304892
 42
0.8827822185373067
 10
3.844757704064778
 20
4.815079064133771
 42
0.1764304490790945
 10
3.584062516899003
 20
5.0423517914065
 42
-0.4527290600686613
 10
3.470426153262637
 20
5.209464090871738
 42
0.317220139090474
 10
3.443688185348201
 20
5.456790294080294
 42
-0.1282881080015714
 10
3.416950217433761
 20
5.617218101566924
 42
0.016662039607251
 10
3.376843265562103
 20
5.764276925096338
 42
-0.3956457070919372
 10
3.523902089091516
 20
5.904651256647138
 42
-0.0498756211208841
 10
3.737805832407024
 20
5.911335748625747
 42
-0.5489458918550935
 10
3.884864655936435
 20
5.911335748625747
 42
0.0505760489342777
  0
LINE
  5
7D
330
18
100
AcDbEntity
  8
ADP1DETAIL
100
AcDbLine
 10
4.018554495508628
 20
2.248234144347673
 30
0.0
 11
4.807324548984563
 21
2.248234144347673
 31
0.0
  0
ARC
  5
7E
330
18
100
AcDbEntity
  8
ADP1DETAIL
100
AcDbCircle
 10
3.482296889017745
 20
4.831329294633483
 30
0.0
 40
0.7370509881649187
100
AcDbArc
 50
15.55528310510494
 51
77.30890926322455
  0
ARC
  5
7F
330
18
100
AcDbEntity
  8
ADP1DETAIL
100
AcDbCircle
 10
2.616693626745207
 20
4.648147899311334
 30
0.0
 40
1.641058576871906
100
AcDbArc
 50
14.2400971037683
 51
50.33051511638656
  0
ARC
  5
80
330
18
100
AcDbEntity
  8
ADP1DETAIL
100
AcDbCircle
 10
6.209185417747985
 20
4.648147899311334
 30
0.0
 40
1.641058576871906
100
AcDbArc
 50
129.6694848836134
 51
165.7599028962317
  0
ARC
  5
81
330
18
100
AcDbEntity
  8
ADP1DETAIL
100
AcDbCircle
 10
5.343582155475447
 20
4.831329294633483
 30
0.0
 40
0.7370509881649187
100
AcDbArc
 50
102.6910907367754
 51
164.444716894895
  0
ARC
  5
82
330
18
100
AcDbEntity
  8
ADP1DETAIL
100
AcDbCircle
 10
1.121495671979083
 20
1.930720775363528
 30
0.0
 40
4.247037152741891
100
AcDbArc
 50
48.45183473417429
 51
54.22854875764592
  0
ARC
  5
83
330
18
100
AcDbEntity
  8
ADP1DETAIL
100
AcDbCircle
 10
3.535985593822078
 20
5.338783301073295
 30
0.0
 40
0.0779106466776514
100
AcDbArc
 50
29.01787604032005
 51
132.0574795436275
  0
ARC
  5
84
330
18
100
AcDbEntity
  8
ADP1DETAIL
100
AcDbCircle
 10
5.602313371637309
 20
3.159270131022529
 30
0.0
 40
1.063115365124242
100
AcDbArc
 50
121.4286557347431
 51
152.3896491312495
  0
ARC
  5
85
330
18
100
AcDbEntity
  8
ADP1DETAIL
100
AcDbCircle
 10
3.223565672855883
 20
3.159270131022529
 30
0.0
 40
1.063115365124242
100
AcDbArc
 50
27.61035086875045
 51
58.57134426525689
  0
ARC
  5
86
330
18
100
AcDbEntity
  8
ADP1DETAIL
100
AcDbCircle
 10
6.060939472385584
 20
3.4280236062227
 30
0.0
 40
1.615959513277653
100
AcDbArc
 50
127.6118763190205
 51
163.2913895689569
  0
ARC
  5
87
330
18
100
AcDbEntity
  8
ADP1DETAIL
100
AcDbCircle
 10
2.764939572107608
 20
3.4280236062227
 30
0.0
 40
1.615959513277653
100
AcDbArc
 50
16.70861043104305
 51
52.38812368097945
  0
ARC
  5
88
330
18
100
AcDbEntity
  8
ADP1DETAIL
100
AcDbCircle
 10
5.844332327302528
 20
2.67786467424557
 30
0.0
 40
1.306193679488208
100
AcDbArc
 50
129.0615340493136
 51
183.0134880015298
  0
ARC
  5
89
330
18
100
AcDbEntity
  8
ADP1DETAIL
100
AcDbCircle
 10
2.981546717190663
 20
2.67786467424557
 30
0.0
 40
1.306193679488208
100
AcDbArc
 50
356.9865119984702
 51
50.93846595068633
  0
ARC
  5
8A
330
18
100
AcDbEntity
  8
ADP1DETAIL
100
AcDbCircle
 10
3.733508658992186
 20
2.751640052165325
 30
0.0
 40
0.4142194544525321
100
AcDbArc
 50
31.8397012544873
 51
74.42050345382437
  0
ARC
  5
8B
330
18
100
AcDbEntity
  8
ADP1DETAIL
100
AcDbCircle
 10
5.092370385501006
 20
2.751640052165325
 30
0.0
 40
0.4142194544525321
100
AcDbArc
 50
105.5794965461756
 51
148.1602987455127
  0
ARC
  5
8C
330
18
100
AcDbEntity
  8
ADP1DETAIL
100
AcDbCircle
 10
7.704383372514109
 20
1.930720775363528
 30
0.0
 40
4.247037152741891
100
AcDbArc
 50
125.771451242354
 51
131.5481652658257
  0
ARC
  5
8D
330
18
100
AcDbEntity
  8
ADP1DETAIL
100
AcDbCircle
 10
5.289893450671113
 20
5.338783301073295
 30
0.0
 40
0.0779106466776514
100
AcDbArc
 50
47.9425204563724
 51
150.9821239596799
  0
LWPOLYLINE
  5
8E
330
18
100
AcDbEntity
  8
ADP1DETAIL
100
AcDbPolyline
 90
       12
 70
     0
 43
0.0
 10
4.941014388556757
 20
5.911335748625747
 10
4.88085396074927
 20
5.851175320818263
 42
-0.0901699437494747
 10
4.793955565027345
 20
5.791014893010778
 42
-0.3204650534085313
 10
4.760533105134297
 20
5.931389224561579
 42
-0.198450869506177
 10
4.86748497679205
 20
6.218822379641792
 42
0.3182871964532545
 10
4.941014388556757
 20
6.59315393044393
 42
0.4142135623730951
 10
4.860800484813442
 20
6.61989189835837
 42
0.1958872249296699
 10
4.847431500856221
 20
6.82042665771666
 42
-0.2499999999999964
 10
4.713741661284029
 20
6.873902593545535
 42
0.2521175800333358
 10
4.606789789626277
 20
7.074437352903824
 42
0.1411956312961722
 10
4.526575885882959
 20
7.201442700497408
 42
0.1697715493855661
 10
4.412939522246595
 20
7.248234144347673
 42
3.040442657500248
  0
LWPOLYLINE
  5
9C
330
18
100
AcDbEntity
  8
ADP1DETAIL
100
AcDbPolyline
 90
       12
 70
     0
 43
0.0
 10
3.884864655936435
 20
5.911335748625747
 10
3.945025083743922
 20
5.851175320818263
 42
0.0901699437494747
 10
4.031923479465847
 20
5.791014893010778
 42
0.3204650534085313
 10
4.065345939358895
 20
5.931389224561579
 42
0.198450869506177
 10
3.958394067701142
 20
6.218822379641792
 42
-0.3182871964532545
 10
3.884864655936435
 20
6.59315393044393
 42
-0.4142135623730951
 10
3.965078559679751
 20
6.61989189835837
 42
-0.1958872249296699
 10
3.978447543636971
 20
6.82042665771666
 42
0.2499999999999964
 10
4.112137383209163
 20
6.873902593545535
 42
-0.2521175800333358
 10
4.219089254866915
 20
7.074437352903824
 42
-0.1411956312961722
 10
4.299303158610233
 20
7.201442700497408
 42
-0.1697715493855661
 10
4.412939522246596
 20
7.248234144347673
 42
-3.040442657500248
  0
ARC
  5
AA
330
18
100
AcDbEntity
  8
ADP1DETAIL
100
AcDbCircle
 10
3.742633521058254
 20
6.239061535910373
 30
0.0
 40
0.441036914747045
100
AcDbArc
 50
26.04723484509615
 51
59.71057236158076
  0
ARC
  5
AB
330
18
100
AcDbEntity
  8
ADP1DETAIL
100
AcDbCircle
 10
5.083245523434937
 20
6.239061535910373
 30
0.0
 40
0.441036914747045
100
AcDbArc
 50
120.2894276384192
 51
153.9527651549038
  0
TEXT
  5
B9
330
18
100
AcDbEntity
  8
ADPDIM
100
AcDbText
 10
-2.11278950231002
 20
1.826140040227202
 30
0.0
 40
0.125
  1
J U L I U S  B L U M  &  C O . ,  I N C .      ( 8 0 0 )  5 2 6 - 6 2 9 3        W W W . J U L I U S B L U M . C O M        P A R T  N o .  2 0 2 3
 41
1.25
  7
ARIAL_WIDE
 72
     1
 11
4.412939522246595
 21
1.951140040227202
 31
0.0
100
AcDbText
 73
     3
  0
ENDSEC
  0
SECTION
  2
OBJECTS
  0
DICTIONARY
  5
C
330
0
100
AcDbDictionary
  3
ACAD_GROUP
350
D
  3
ACAD_LAYOUT
350
B2
  3
ACAD_MLINESTYLE
350
E
  3
ACAD_PLOTSETTINGS
350
B3
  3
ACAD_PLOTSTYLENAME
350
B0
  3
ACDBHEADERROUNDTRIPXREC
350
22C
  3
ACDBVARIABLEDICTIONARY
350
113
  0
DICTIONARY
  5
10D
330
18
100
AcDbDictionary
280
     1
  3
ACAD_LAYOUTSELFREF
360
24D
  0
DICTIONARY
  5
10B
330
15
100
AcDbDictionary
280
     1
  3
ACAD_LAYOUTSELFREF
360
24C
  0
DICTIONARY
  5
D
102
{ACAD_REACTORS
330
C
102
}
330
C
100
AcDbDictionary
  0
DICTIONARY
  5
B2
102
{ACAD_REACTORS
330
C
102
}
330
C
100
AcDbDictionary
  0
DICTIONARY
  5
E
102
{ACAD_REACTORS
330
C
102
}
330
C
100
AcDbDictionary
  3
STANDARD
350
1B
  0
DICTIONARY
  5
B3
102
{ACAD_REACTORS
330
C
102
}
330
C
100
AcDbDictionary
  0
ACDBDICTIONARYWDFLT
  5
B0
102
{ACAD_REACTORS
330
C
102
}
330
C
100
AcDbDictionary
281
     1
  3
Normal
350
B1
100
AcDbDictionaryWithDefault
340
B1
  0
DICTIONARY
  5
22C
102
{ACAD_REACTORS
330
C
102
}
330
C
100
AcDbDictionary
  3
CEPSNTYPE
350
236
  3
FINGERPRINTGUID
350
237
  3
HYPERLINKBASE
350
22F
  3
INSUNITS
350
235
  3
LAYOUTDICT
350
231
  3
LWETCUNION
350
234
  3
PLOTSETDICT
350
232
  3
PLOTSTYLNAMDICT
350
233
  3
PSVPSCALE
350
239
  3
PUCSBASE
350
23C
  3
PUCSORGBACK
350
242
  3
PUCSORGBOTTOM
350
23E
  3
PUCSORGFRONT
350
241
  3
PUCSORGLEFT
350
23F
  3
PUCSORGRIGHT
350
240
  3
PUCSORGTOP
350
23D
  3
PUCSORTHOREF
350
23A
  3
PUCSORTHOVIEW
350
23B
  3
STYLESHEET
350
230
  3
TSTACKALIGN
350
22D
  3
TSTACKSIZE
350
22E
  3
UCSBASE
350
245
  3
UCSORGBACK
350
24B
  3
UCSORGBOTTOM
350
247
  3
UCSORGFRONT
350
24A
  3
UCSORGLEFT
350
248
  3
UCSORGRIGHT
350
249
  3
UCSORGTOP
350
246
  3
UCSORTHOREF
350
243
  3
UCSORTHOVIEW
350
244
  3
VERSIONGUID
350
238
  0
DICTIONARY
  5
113
102
{ACAD_REACTORS
330
C
102
}
330
C
100
AcDbDictionary
  3
DIMASSOC
350
114
  0
XRECORD
  5
24D
102
{ACAD_REACTORS
330
10D
102
}
330
10D
100
AcDbXrecord
340
18
  0
XRECORD
  5
24C
102
{ACAD_REACTORS
330
10B
102
}
330
10B
100
AcDbXrecord
340
15
  0
MLINESTYLE
  5
1B
102
{ACAD_REACTORS
330
E
102
}
330
E
100
AcDbMlineStyle
  2
STANDARD
 70
     0
  3

 62
     0
 51
90.0
 52
90.0
 71
     2
 49
0.5
 62
   256
  6
BYLAYER
 49
-0.5
 62
   256
  6
BYLAYER
  0
ACDBPLACEHOLDER
  5
B1
102
{ACAD_REACTORS
330
B0
102
}
330
B0
100
AcDbPlaceHolder
280
     0
  0
XRECORD
  5
236
102
{ACAD_REACTORS
330
22C
102
}
330
22C
100
AcDbXrecord
 90
        0
  0
XRECORD
  5
237
102
{ACAD_REACTORS
330
22C
102
}
330
22C
100
AcDbXrecord
  1
{EAEFA72B-D3EF-40EE-BD11-F95A92E50C30}
  0
XRECORD
  5
22F
102
{ACAD_REACTORS
330
22C
102
}
330
22C
100
AcDbXrecord
  1

  0
XRECORD
  5
235
102
{ACAD_REACTORS
330
22C
102
}
330
22C
100
AcDbXrecord
 90
        0
  0
XRECORD
  5
231
102
{ACAD_REACTORS
330
22C
102
}
330
22C
100
AcDbXrecord
340
B2
  0
XRECORD
  5
234
102
{ACAD_REACTORS
330
22C
102
}
330
22C
100
AcDbXrecord
 90
    14877
  0
XRECORD
  5
232
102
{ACAD_REACTORS
330
22C
102
}
330
22C
100
AcDbXrecord
340
B3
  0
XRECORD
  5
233
102
{ACAD_REACTORS
330
22C
102
}
330
22C
100
AcDbXrecord
340
B0
  0
XRECORD
  5
239
102
{ACAD_REACTORS
330
22C
102
}
330
22C
100
AcDbXrecord
 40
0.0
  0
XRECORD
  5
23C
102
{ACAD_REACTORS
330
22C
102
}
330
22C
100
AcDbXrecord
340
0
  0
XRECORD
  5
242
102
{ACAD_REACTORS
330
22C
102
}
330
22C
100
AcDbXrecord
 10
0.0
 20
0.0
 30
0.0
  0
XRECORD
  5
23E
102
{ACAD_REACTORS
330
22C
102
}
330
22C
100
AcDbXrecord
 10
0.0
 20
0.0
 30
0.0
  0
XRECORD
  5
241
102
{ACAD_REACTORS
330
22C
102
}
330
22C
100
AcDbXrecord
 10
0.0
 20
0.0
 30
0.0
  0
XRECORD
  5
23F
102
{ACAD_REACTORS
330
22C
102
}
330
22C
100
AcDbXrecord
 10
0.0
 20
0.0
 30
0.0
  0
XRECORD
  5
240
102
{ACAD_REACTORS
330
22C
102
}
330
22C
100
AcDbXrecord
 10
0.0
 20
0.0
 30
0.0
  0
XRECORD
  5
23D
102
{ACAD_REACTORS
330
22C
102
}
330
22C
100
AcDbXrecord
 10
0.0
 20
0.0
 30
0.0
  0
XRECORD
  5
23A
102
{ACAD_REACTORS
330
22C
102
}
330
22C
100
AcDbXrecord
340
0
  0
XRECORD
  5
23B
102
{ACAD_REACTORS
330
22C
102
}
330
22C
100
AcDbXrecord
 70
     0
  0
XRECORD
  5
230
102
{ACAD_REACTORS
330
22C
102
}
330
22C
100
AcDbXrecord
  1

  0
XRECORD
  5
22D
102
{ACAD_REACTORS
330
22C
102
}
330
22C
100
AcDbXrecord
 90
        1
  0
XRECORD
  5
22E
102
{ACAD_REACTORS
330
22C
102
}
330
22C
100
AcDbXrecord
 90
       70
  0
XRECORD
  5
245
102
{ACAD_REACTORS
330
22C
102
}
330
22C
100
AcDbXrecord
340
0
  0
XRECORD
  5
24B
102
{ACAD_REACTORS
330
22C
102
}
330
22C
100
AcDbXrecord
 10
0.0
 20
0.0
 30
0.0
  0
XRECORD
  5
247
102
{ACAD_REACTORS
330
22C
102
}
330
22C
100
AcDbXrecord
 10
0.0
 20
0.0
 30
0.0
  0
XRECORD
  5
24A
102
{ACAD_REACTORS
330
22C
102
}
330
22C
100
AcDbXrecord
 10
0.0
 20
0.0
 30
0.0
  0
XRECORD
  5
248
102
{ACAD_REACTORS
330
22C
102
}
330
22C
100
AcDbXrecord
 10
0.0
 20
0.0
 30
0.0
  0
XRECORD
  5
249
102
{ACAD_REACTORS
330
22C
102
}
330
22C
100
AcDbXrecord
 10
0.0
 20
0.0
 30
0.0
  0
XRECORD
  5
246
102
{ACAD_REACTORS
330
22C
102
}
330
22C
100
AcDbXrecord
 10
0.0
 20
0.0
 30
0.0
  0
XRECORD
  5
243
102
{ACAD_REACTORS
330
22C
102
}
330
22C
100
AcDbXrecord
340
0
  0
XRECORD
  5
244
102
{ACAD_REACTORS
330
22C
102
}
330
22C
100
AcDbXrecord
 70
     0
  0
XRECORD
  5
238
102
{ACAD_REACTORS
330
22C
102
}
330
22C
100
AcDbXrecord
  1
{2AF4C25C-89A6-4B09-89F0-28E39EBC2796}
  0
DICTIONARYVAR
  5
114
102
{ACAD_REACTORS
330
113
102
}
330
113
100
DictionaryVariables
280
     0
  1
1
  0
ENDSEC
  0
EOF
