  0
SECTION
  2
HEADER
  9
$ACADVER
  1
AC1015
  9
$ACADMAINTVER
 70
    20
  9
$DWGCODEPAGE
  3
ANSI_1252
  9
$INSBASE
 10
20.97514061331112
 20
5.18503407923086
 30
0.0
  9
$EXTMIN
 10
22.25720225816733
 20
4.170959561330917
 30
-0.0015258207003583
  9
$EXTMAX
 10
29.78558357267825
 20
8.645141653536285
 30
0.0000000349246037
  9
$LIMMIN
 10
0.0
 20
0.0
  9
$LIMMAX
 10
36.0
 20
36.0
  9
$ORTHOMODE
 70
     1
  9
$REGENMODE
 70
     1
  9
$FILLMODE
 70
     1
  9
$QTEXTMODE
 70
     0
  9
$MIRRTEXT
 70
     1
  9
$LTSCALE
 40
1.0
  9
$ATTMODE
 70
     1
  9
$TEXTSIZE
 40
0.2
  9
$TRACEWID
 40
0.05
  9
$TEXTSTYLE
  7
STANDARD
  9
$CLAYER
  8
ADPDIM
  9
$CELTYPE
  6
CONTINUOUS
  9
$CECOLOR
 62
   256
  9
$CELTSCALE
 40
1.0
  9
$DISPSILH
 70
     0
  9
$DIMSCALE
 40
1.0
  9
$DIMASZ
 40
0.25
  9
$DIMEXO
 40
0.0625
  9
$DIMDLI
 40
0.38
  9
$DIMRND
 40
0.0
  9
$DIMDLE
 40
0.0
  9
$DIMEXE
 40
0.18
  9
$DIMTP
 40
0.0
  9
$DIMTM
 40
0.0
  9
$DIMTXT
 40
0.125
  9
$DIMCEN
 40
0.1875
  9
$DIMTSZ
 40
0.0
  9
$DIMTOL
 70
     0
  9
$DIMLIM
 70
     0
  9
$DIMTIH
 70
     0
  9
$DIMTOH
 70
     0
  9
$DIMSE1
 70
     0
  9
$DIMSE2
 70
     0
  9
$DIMTAD
 70
     0
  9
$DIMZIN
 70
     3
  9
$DIMBLK
  1

  9
$DIMASO
 70
     1
  9
$DIMSHO
 70
     1
  9
$DIMPOST
  1

  9
$DIMAPOST
  1

  9
$DIMALT
 70
     0
  9
$DIMALTD
 70
     1
  9
$DIMALTF
 40
25.4
  9
$DIMLFAC
 40
1.0
  9
$DIMTOFL
 70
     0
  9
$DIMTVP
 40
0.0
  9
$DIMTIX
 70
     0
  9
$DIMSOXD
 70
     0
  9
$DIMSAH
 70
     1
  9
$DIMBLK1
  1
Oblique
  9
$DIMBLK2
  1
Oblique
  9
$DIMSTYLE
  2
STANDARD
  9
$DIMCLRD
 70
     0
  9
$DIMCLRE
 70
     0
  9
$DIMCLRT
 70
     0
  9
$DIMTFAC
 40
1.0
  9
$DIMGAP
 40
0.125
  9
$DIMJUST
 70
     0
  9
$DIMSD1
 70
     0
  9
$DIMSD2
 70
     0
  9
$DIMTOLJ
 70
     1
  9
$DIMTZIN
 70
     0
  9
$DIMALTZ
 70
     0
  9
$DIMALTTZ
 70
     0
  9
$DIMUPT
 70
     0
  9
$DIMDEC
 70
     4
  9
$DIMTDEC
 70
     4
  9
$DIMALTU
 70
     2
  9
$DIMALTTD
 70
     1
  9
$DIMTXSTY
  7
STANDARD
  9
$DIMAUNIT
 70
     0
  9
$DIMADEC
 70
     0
  9
$DIMALTRND
 40
0.0
  9
$DIMAZIN
 70
     0
  9
$DIMDSEP
 70
    46
  9
$DIMATFIT
 70
     3
  9
$DIMFRAC
 70
     2
  9
$DIMLDRBLK
  1

  9
$DIMLUNIT
 70
     5
  9
$DIMLWD
 70
    -2
  9
$DIMLWE
 70
    -2
  9
$DIMTMOVE
 70
     0
  9
$LUNITS
 70
     5
  9
$LUPREC
 70
     4
  9
$SKETCHINC
 40
0.1
  9
$FILLETRAD
 40
0.0
  9
$AUNITS
 70
     0
  9
$AUPREC
 70
     0
  9
$MENU
  1
acad
  9
$ELEVATION
 40
0.0
  9
$PELEVATION
 40
0.0
  9
$THICKNESS
 40
0.0
  9
$LIMCHECK
 70
     0
  9
$CHAMFERA
 40
0.0
  9
$CHAMFERB
 40
0.0
  9
$CHAMFERC
 40
0.0
  9
$CHAMFERD
 40
0.0
  9
$SKPOLY
 70
     0
  9
$TDCREATE
 40
2450382.686217396
  9
$TDUCREATE
 40
2450382.852884063
  9
$TDUPDATE
 40
2456037.294932986
  9
$TDUUPDATE
 40
2456037.461599653
  9
$TDINDWG
 40
0.1288676389
  9
$TDUSRTIMER
 40
0.1288676389
  9
$USRTIMER
 70
     1
  9
$ANGBASE
 50
0.0
  9
$ANGDIR
 70
     0
  9
$PDMODE
 70
     0
  9
$PDSIZE
 40
0.0
  9
$PLINEWID
 40
0.0
  9
$SPLFRAME
 70
     0
  9
$SPLINETYPE
 70
     6
  9
$SPLINESEGS
 70
     8
  9
$HANDSEED
  5
6EB
  9
$SURFTAB1
 70
     6
  9
$SURFTAB2
 70
     6
  9
$SURFTYPE
 70
     6
  9
$SURFU
 70
     6
  9
$SURFV
 70
     6
  9
$UCSBASE
  2

  9
$UCSNAME
  2

  9
$UCSORG
 10
0.0
 20
0.0
 30
0.0
  9
$UCSXDIR
 10
1.0
 20
0.0
 30
0.0
  9
$UCSYDIR
 10
0.0
 20
1.0
 30
0.0
  9
$UCSORTHOREF
  2

  9
$UCSORTHOVIEW
 70
     0
  9
$UCSORGTOP
 10
0.0
 20
0.0
 30
0.0
  9
$UCSORGBOTTOM
 10
0.0
 20
0.0
 30
0.0
  9
$UCSORGLEFT
 10
0.0
 20
0.0
 30
0.0
  9
$UCSORGRIGHT
 10
0.0
 20
0.0
 30
0.0
  9
$UCSORGFRONT
 10
0.0
 20
0.0
 30
0.0
  9
$UCSORGBACK
 10
0.0
 20
0.0
 30
0.0
  9
$PUCSBASE
  2

  9
$PUCSNAME
  2

  9
$PUCSORG
 10
0.0
 20
0.0
 30
0.0
  9
$PUCSXDIR
 10
1.0
 20
0.0
 30
0.0
  9
$PUCSYDIR
 10
0.0
 20
1.0
 30
0.0
  9
$PUCSORTHOREF
  2

  9
$PUCSORTHOVIEW
 70
     0
  9
$PUCSORGTOP
 10
0.0
 20
0.0
 30
0.0
  9
$PUCSORGBOTTOM
 10
0.0
 20
0.0
 30
0.0
  9
$PUCSORGLEFT
 10
0.0
 20
0.0
 30
0.0
  9
$PUCSORGRIGHT
 10
0.0
 20
0.0
 30
0.0
  9
$PUCSORGFRONT
 10
0.0
 20
0.0
 30
0.0
  9
$PUCSORGBACK
 10
0.0
 20
0.0
 30
0.0
  9
$USERI1
 70
     0
  9
$USERI2
 70
     0
  9
$USERI3
 70
     0
  9
$USERI4
 70
     0
  9
$USERI5
 70
     0
  9
$USERR1
 40
0.0
  9
$USERR2
 40
0.0
  9
$USERR3
 40
0.0
  9
$USERR4
 40
0.0
  9
$USERR5
 40
0.0
  9
$WORLDVIEW
 70
     1
  9
$SHADEDGE
 70
     3
  9
$SHADEDIF
 70
    70
  9
$TILEMODE
 70
     1
  9
$MAXACTVP
 70
    15
  9
$PINSBASE
 10
0.0
 20
0.0
 30
0.0
  9
$PLIMCHECK
 70
     0
  9
$PEXTMIN
 10
1.000000000000000E+20
 20
1.000000000000000E+20
 30
1.000000000000000E+20
  9
$PEXTMAX
 10
-1.000000000000000E+20
 20
-1.000000000000000E+20
 30
-1.000000000000000E+20
  9
$PLIMMIN
 10
0.0
 20
0.0
  9
$PLIMMAX
 10
12.0
 20
9.0
  9
$UNITMODE
 70
     0
  9
$VISRETAIN
 70
     0
  9
$PLINEGEN
 70
     0
  9
$PSLTSCALE
 70
     1
  9
$TREEDEPTH
 70
  3020
  9
$CMLSTYLE
  2
STANDARD
  9
$CMLJUST
 70
     0
  9
$CMLSCALE
 40
1.0
  9
$PROXYGRAPHICS
 70
     1
  9
$MEASUREMENT
 70
     0
  9
$CELWEIGHT
370
    -1
  9
$ENDCAPS
280
     0
  9
$JOINSTYLE
280
     0
  9
$LWDISPLAY
290
     0
  9
$INSUNITS
 70
     0
  9
$HYPERLINKBASE
  1

  9
$STYLESHEET
  1
HP-DR.ctb
  9
$XEDIT
290
     1
  9
$CEPSNTYPE
380
     0
  9
$PSTYLEMODE
290
     1
  9
$FINGERPRINTGUID
  2
{38A508F5-02C0-4BB5-9AF6-CCEFFDF6C003}
  9
$VERSIONGUID
  2
{238EA573-6B06-41C0-8BDA-9B0F8F2E542E}
  9
$EXTNAMES
290
     1
  9
$PSVPSCALE
 40
0.0
  9
$OLESTARTUP
290
     0
  0
ENDSEC
  0
SECTION
  2
CLASSES
  0
CLASS
  1
ACDBDICTIONARYWDFLT
  2
AcDbDictionaryWithDefault
  3
ObjectDBX Classes
 90
        0
280
     0
281
     0
  0
CLASS
  1
ACDBPLACEHOLDER
  2
AcDbPlaceHolder
  3
ObjectDBX Classes
 90
        0
280
     0
281
     0
  0
CLASS
  1
LAYOUT
  2
AcDbLayout
  3
ObjectDBX Classes
 90
        0
280
     0
281
     0
  0
CLASS
  1
DICTIONARYVAR
  2
AcDbDictionaryVar
  3
ObjectDBX Classes
 90
        0
280
     0
281
     0
  0
CLASS
  1
TABLESTYLE
  2
AcDbTableStyle
  3
ObjectDBX Classes
 90
     2047
280
     0
281
     0
  0
CLASS
  1
SORTENTSTABLE
  2
AcDbSortentsTable
  3
ObjectDBX Classes
 90
        0
280
     0
281
     0
  0
ENDSEC
  0
SECTION
  2
TABLES
  0
TABLE
  2
VPORT
  5
13
330
0
100
AcDbSymbolTable
 70
     5
  0
VPORT
  5
6E5
330
13
100
AcDbSymbolTableRecord
100
AcDbViewportTableRecord
  2
*Active
 70
     0
 10
0.0
 20
0.0
 11
1.0
 21
1.0
 12
26.02139291542279
 22
6.408050607433601
 13
0.0
 23
0.0
 14
0.5740882589684922
 24
0.5740882589684922
 15
0.5
 25
0.5
 16
0.0
 26
0.0
 36
1.0
 17
0.0
 27
0.0
 37
0.0
 40
4.510508333820026
 41
1.796747967479674
 42
50.0
 43
0.0
 44
0.0
 50
0.0
 51
0.0
 71
     0
 72
   100
 73
     1
 74
     0
 75
     0
 76
     0
 77
     0
 78
     0
281
     0
 65
     1
110
0.0
120
0.0
130
0.0
111
1.0
121
0.0
131
0.0
112
0.0
122
1.0
132
0.0
 79
     0
146
0.0
  0
ENDTAB
  0
TABLE
  2
LTYPE
  5
F
330
0
100
AcDbSymbolTable
 70
     3
  0
LTYPE
  5
10
330
F
100
AcDbSymbolTableRecord
100
AcDbLinetypeTableRecord
  2
BYBLOCK
 70
     0
  3

 72
    65
 73
     0
 40
0.0
  0
LTYPE
  5
6
330
F
100
AcDbSymbolTableRecord
100
AcDbLinetypeTableRecord
  2
BYLAYER
 70
     0
  3

 72
    65
 73
     0
 40
0.0
  0
LTYPE
  5
5
330
F
100
AcDbSymbolTableRecord
100
AcDbLinetypeTableRecord
  2
CONTINUOUS
 70
     0
  3
Solid line
 72
    65
 73
     0
 40
0.0
  0
LTYPE
  5
23
330
F
100
AcDbSymbolTableRecord
100
AcDbLinetypeTableRecord
  2
HIDDEN2
 70
     0
  3
_ _ _ _ _ _ _ _ _ _ _ _ _ _ _ _ _ _ _ _ _ _ _ _
 72
    65
 73
     2
 40
0.1875
 49
0.125
 74
     0
 49
-0.0625
 74
     0
  0
LTYPE
  5
2BA
330
F
100
AcDbSymbolTableRecord
100
AcDbLinetypeTableRecord
  2
CENTER
 70
     0
  3
Center ____ _ ____ _ ____ _ ____ _ ____ _ ____
 72
    65
 73
     4
 40
2.0
 49
1.25
 74
     0
 49
-0.25
 74
     0
 49
0.25
 74
     0
 49
-0.25
 74
     0
  0
ENDTAB
  0
TABLE
  2
LAYER
  5
B
330
0
100
AcDbSymbolTable
 70
     5
  0
LAYER
  5
C
330
B
100
AcDbSymbolTableRecord
100
AcDbLayerTableRecord
  2
0
 70
     0
 62
     7
  6
CONTINUOUS
370
    -3
390
B5
  0
LAYER
  5
4
330
B
100
AcDbSymbolTableRecord
100
AcDbLayerTableRecord
  2
ADP1DETAIL
 70
     0
 62
     7
  6
CONTINUOUS
370
    -3
390
B5
  0
LAYER
  5
2F
330
B
100
AcDbSymbolTableRecord
100
AcDbLayerTableRecord
  2
DEFPOINTS
 70
     0
 62
     7
  6
CONTINUOUS
290
     0
370
    -3
390
B5
  0
LAYER
  5
27
330
B
100
AcDbSymbolTableRecord
100
AcDbLayerTableRecord
  2
ADPDIM
 70
     0
 62
     3
  6
CONTINUOUS
370
    -3
390
B5
  0
LAYER
  5
22
330
B
100
AcDbSymbolTableRecord
100
AcDbLayerTableRecord
  2
ADP2DETAIL
 70
     0
 62
     5
  6
CONTINUOUS
370
    -3
390
B5
  0
ENDTAB
  0
TABLE
  2
STYLE
  5
D
330
0
100
AcDbSymbolTable
 70
     5
  0
STYLE
  5
E
330
D
100
AcDbSymbolTableRecord
100
AcDbTextStyleTableRecord
  2
STANDARD
 70
     0
 40
0.0
 41
1.0
 50
0.0
 71
     0
 42
0.2
  3
txt
  4

  0
STYLE
  5
BC
330
D
100
AcDbSymbolTableRecord
100
AcDbTextStyleTableRecord
  2
ARIAL_WIDE
 70
     0
 40
0.0
 41
1.25
 50
0.0
 71
     0
 42
0.2
  3
arial.ttf
  4

1001
ACAD
1000
Arial
1071
       34
  0
STYLE
  5
2B9
330
D
100
AcDbSymbolTableRecord
100
AcDbTextStyleTableRecord
  2

 70
     1
 40
0.0
 41
1.0
 50
0.0
 71
     0
 42
0.2
  3
ltypeshp.shx
  4

  0
ENDTAB
  0
TABLE
  2
VIEW
  5
11
330
0
100
AcDbSymbolTable
 70
     0
  0
ENDTAB
  0
TABLE
  2
UCS
  5
12
330
0
100
AcDbSymbolTable
 70
     0
  0
ENDTAB
  0
TABLE
  2
APPID
  5
15
330
0
100
AcDbSymbolTable
 70
    12
  0
APPID
  5
16
330
15
100
AcDbSymbolTableRecord
100
AcDbRegAppTableRecord
  2
ACAD
 70
     0
  0
APPID
  5
28D
330
15
100
AcDbSymbolTableRecord
100
AcDbRegAppTableRecord
  2
ACAD_EXEMPT_FROM_CAD_STANDARDS
 70
     0
  0
APPID
  5
2E6
330
15
100
AcDbSymbolTableRecord
100
AcDbRegAppTableRecord
  2
ACAD_DSTYLE_DIMTEXT_FILL
 70
     0
  0
APPID
  5
2E7
330
15
100
AcDbSymbolTableRecord
100
AcDbRegAppTableRecord
  2
ACAD_DSTYLE_DIMEXT_LENGTH
 70
     0
  0
APPID
  5
2E8
330
15
100
AcDbSymbolTableRecord
100
AcDbRegAppTableRecord
  2
ACAD_DSTYLE_DIMEXT_ENABLED
 70
     0
  0
APPID
  5
2E9
330
15
100
AcDbSymbolTableRecord
100
AcDbRegAppTableRecord
  2
ACAD_DSTYLE_DIM_LINETYPE
 70
     0
  0
APPID
  5
2EA
330
15
100
AcDbSymbolTableRecord
100
AcDbRegAppTableRecord
  2
ACAD_DSTYLE_DIM_EXT1_LINETYPE
 70
     0
  0
APPID
  5
2EB
330
15
100
AcDbSymbolTableRecord
100
AcDbRegAppTableRecord
  2
ACAD_DSTYLE_DIM_EXT2_LINETYPE
 70
     0
  0
APPID
  5
3AB
330
15
100
AcDbSymbolTableRecord
100
AcDbRegAppTableRecord
  2
ACAD_DSTYLE_DIMJOGGED_JOGANGLE_SYMBOL
 70
     0
  0
APPID
  5
40F
330
15
100
AcDbSymbolTableRecord
100
AcDbRegAppTableRecord
  2
ACAD_DSTYLE_DIMARC_LENGTH_SYMBOL
 70
     0
  0
APPID
  5
659
330
15
100
AcDbSymbolTableRecord
100
AcDbRegAppTableRecord
  2
DCO15
 70
     0
  0
APPID
  5
686
330
15
100
AcDbSymbolTableRecord
100
AcDbRegAppTableRecord
  2
ACAD_PSEXT
 70
     0
  0
ENDTAB
  0
TABLE
  2
DIMSTYLE
  5
17
330
0
100
AcDbSymbolTable
 70
     3
100
AcDbDimStyleTable
 71
     1
340
1D
  0
DIMSTYLE
105
1D
102
{ACAD_REACTORS
330
45C
330
44E
330
2C4
330
61D
330
62B
330
639
330
647
102
}
330
17
100
AcDbSymbolTableRecord
100
AcDbDimStyleTableRecord
  2
STANDARD
 70
     0
340
E
  0
ENDTAB
  0
TABLE
  2
BLOCK_RECORD
  5
1
330
0
100
AcDbSymbolTable
 70
    10
  0
BLOCK_RECORD
  5
2
102
{ACAD_XDICTIONARY
360
10F
102
}
330
1
100
AcDbSymbolTableRecord
100
AcDbBlockTableRecord
  2
*MODEL_SPACE
340
B8
  0
BLOCK_RECORD
  5
8
102
{ACAD_XDICTIONARY
360
111
102
}
330
1
100
AcDbSymbolTableRecord
100
AcDbBlockTableRecord
  2
*PAPER_SPACE
340
B9
  0
BLOCK_RECORD
  5
2C5
330
1
100
AcDbSymbolTableRecord
100
AcDbBlockTableRecord
  2
*D0
340
0
  0
BLOCK_RECORD
  5
3A7
330
1
100
AcDbSymbolTableRecord
100
AcDbBlockTableRecord
  2
_Oblique
340
0
102
{BLKREFS
331
5F9
331
5FA
331
60D
331
60E
331
617
331
618
331
623
331
624
331
631
331
632
331
63F
331
640
331
64D
331
64E
102
}
  0
BLOCK_RECORD
  5
44F
330
1
100
AcDbSymbolTableRecord
100
AcDbBlockTableRecord
  2
*D2
340
0
  0
BLOCK_RECORD
  5
45D
330
1
100
AcDbSymbolTableRecord
100
AcDbBlockTableRecord
  2
*D3
340
0
  0
BLOCK_RECORD
  5
61E
330
1
100
AcDbSymbolTableRecord
100
AcDbBlockTableRecord
  2
*D4
340
0
  0
BLOCK_RECORD
  5
62C
330
1
100
AcDbSymbolTableRecord
100
AcDbBlockTableRecord
  2
*D5
340
0
  0
BLOCK_RECORD
  5
63A
330
1
100
AcDbSymbolTableRecord
100
AcDbBlockTableRecord
  2
*D6
340
0
  0
BLOCK_RECORD
  5
648
330
1
100
AcDbSymbolTableRecord
100
AcDbBlockTableRecord
  2
*D7
340
0
  0
ENDTAB
  0
ENDSEC
  0
SECTION
  2
BLOCKS
  0
BLOCK
  5
3
330
2
100
AcDbEntity
  8
0
100
AcDbBlockBegin
  2
*MODEL_SPACE
 70
     0
 10
0.0
 20
0.0
 30
0.0
  3
*MODEL_SPACE
  1

  0
ENDBLK
  5
7
330
2
100
AcDbEntity
  8
0
100
AcDbBlockEnd
  0
BLOCK
  5
9
330
8
100
AcDbEntity
 67
     1
  8
0
100
AcDbBlockBegin
  2
*PAPER_SPACE
 70
     0
 10
0.0
 20
0.0
 30
0.0
  3
*PAPER_SPACE
  1

  0
ENDBLK
  5
A
330
8
100
AcDbEntity
 67
     1
  8
0
100
AcDbBlockEnd
  0
BLOCK
  5
2D0
330
2C5
100
AcDbEntity
  8
0
100
AcDbBlockBegin
  2
*D0
 70
     1
 10
0.0
 20
0.0
 30
0.0
  3
*D0
  1

  0
LINE
  5
5F5
330
2C5
100
AcDbEntity
  8
ADPDIM
  6
Continuous
 62
     0
370
    -2
100
AcDbLine
 10
23.75761391231199
 20
6.910398261410145
 30
0.0
 11
23.75761391231199
 21
5.60055936761044
 31
0.0
  0
LINE
  5
5F6
330
2C5
100
AcDbEntity
  8
ADPDIM
  6
Continuous
 62
     0
370
    -2
100
AcDbLine
 10
24.50761391231199
 20
6.910398261410142
 30
0.0
 11
24.50761391231199
 21
5.60055936761044
 31
0.0
  0
LINE
  5
5F7
330
2C5
100
AcDbEntity
  8
ADPDIM
  6
Continuous
 62
     0
370
    -2
100
AcDbLine
 10
24.50761391231199
 20
5.78055936761044
 30
0.0
 11
23.75761391231199
 21
5.78055936761044
 31
0.0
  0
LINE
  5
5F8
330
2C5
100
AcDbEntity
  8
ADPDIM
  6
Continuous
 62
     0
370
    -2
100
AcDbLine
 10
23.75761391231199
 20
5.78055936761044
 30
0.0
 11
23.50761391231199
 21
5.78055936761044
 31
0.0
  0
INSERT
  5
5F9
330
2C5
100
AcDbEntity
  8
ADPDIM
  6
Continuous
 62
     0
370
    -2
100
AcDbBlockReference
  2
_Oblique
 10
24.50761391231199
 20
5.78055936761044
 30
0.0
 41
0.25
 42
0.25
 43
0.25
  0
INSERT
  5
5FA
330
2C5
100
AcDbEntity
  8
ADPDIM
  6
Continuous
 62
     0
370
    -2
100
AcDbBlockReference
  2
_Oblique
 10
23.75761391231199
 20
5.78055936761044
 30
0.0
 41
0.25
 42
0.25
 43
0.25
 50
180.0
  0
MTEXT
  5
5FB
330
2C5
100
AcDbEntity
  8
ADPDIM
  6
Continuous
 62
     0
100
AcDbMText
 10
23.21594724564532
 20
5.78055936761044
 30
0.0
 40
0.125
 41
0.0
 71
     5
 72
     1
  1
\A1;3/4
 73
     1
 44
1.0
1001
ACAD
1000
MTEXTBEGIN
1070
    73
1070
     1
1070
    44
1040
1.0
1070
    74
1070
     0
1000
MTEXTEND
  0
POINT
  5
5FC
330
2C5
100
AcDbEntity
  8
DEFPOINTS
  6
Continuous
 62
     0
100
AcDbPoint
 10
23.75761391231199
 20
6.972898261410145
 30
0.0
  0
POINT
  5
5FD
330
2C5
100
AcDbEntity
  8
DEFPOINTS
  6
Continuous
 62
     0
100
AcDbPoint
 10
24.50761391231199
 20
6.972898261410142
 30
0.0
  0
POINT
  5
5FE
330
2C5
100
AcDbEntity
  8
DEFPOINTS
  6
Continuous
 62
     0
100
AcDbPoint
 10
24.50761391231199
 20
5.78055936761044
 30
0.0
  0
ENDBLK
  5
2D1
330
2C5
100
AcDbEntity
  8
0
100
AcDbBlockEnd
  0
BLOCK
  5
3A9
330
3A7
100
AcDbEntity
  8
0
100
AcDbBlockBegin
  2
_Oblique
 70
     0
 10
0.0
 20
0.0
 30
0.0
  3
_Oblique
  1

  0
LINE
  5
3A8
330
3A7
100
AcDbEntity
  8
0
  6
ByBlock
 62
     0
370
    -2
100
AcDbLine
 10
-0.5
 20
-0.5
 30
0.0
 11
0.5
 21
0.5
 31
0.0
  0
ENDBLK
  5
3AA
330
3A7
100
AcDbEntity
  8
0
100
AcDbBlockEnd
  0
BLOCK
  5
45A
330
44F
100
AcDbEntity
  8
0
100
AcDbBlockBegin
  2
*D2
 70
     1
 10
0.0
 20
0.0
 30
0.0
  3
*D2
  1

  0
LINE
  5
609
330
44F
100
AcDbEntity
  8
ADPDIM
  6
Continuous
 62
     0
370
    -2
100
AcDbLine
 10
24.07011391231199
 20
6.929986694366117
 30
0.0
 11
22.25896016537067
 21
6.929986694366117
 31
0.0
  0
LINE
  5
60A
330
44F
100
AcDbEntity
  8
ADPDIM
  6
Continuous
 62
     0
370
    -2
100
AcDbLine
 10
23.69511391231199
 20
7.769986694366117
 30
0.0
 11
22.25896016537067
 21
7.769986694366117
 31
0.0
  0
LINE
  5
60B
330
44F
100
AcDbEntity
  8
ADPDIM
  6
Continuous
 62
     0
370
    -2
100
AcDbLine
 10
22.43896016537067
 20
6.929986694366117
 30
0.0
 11
22.43896016537067
 21
7.769986694366117
 31
0.0
  0
LINE
  5
60C
330
44F
100
AcDbEntity
  8
ADPDIM
  6
Continuous
 62
     0
370
    -2
100
AcDbLine
 10
22.43896016537067
 20
7.769986694366117
 30
0.0
 11
22.43896016537068
 21
8.019986694366117
 31
0.0
  0
INSERT
  5
60D
330
44F
100
AcDbEntity
  8
ADPDIM
  6
Continuous
 62
     0
370
    -2
100
AcDbBlockReference
  2
_Oblique
 10
22.43896016537067
 20
6.929986694366117
 30
0.0
 41
0.25
 42
0.25
 43
0.25
 50
270.0
  0
INSERT
  5
60E
330
44F
100
AcDbEntity
  8
ADPDIM
  6
Continuous
 62
     0
370
    -2
100
AcDbBlockReference
  2
_Oblique
 10
22.43896016537067
 20
7.769986694366117
 30
0.0
 41
0.25
 42
0.25
 43
0.25
 50
90.0
  0
MTEXT
  5
60F
330
44F
100
AcDbEntity
  8
ADPDIM
  6
Continuous
 62
     0
100
AcDbMText
 10
22.43896016537067
 20
8.394986694366121
 30
0.0
 40
0.125
 41
0.0
 71
     5
 72
     1
  1
\A1;13/16
 11
0.0000000000000001
 21
1.0
 31
0.0
 73
     1
 44
1.0
1001
ACAD
1000
MTEXTBEGIN
1070
    73
1070
     1
1070
    44
1040
1.0
1070
    74
1070
     0
1000
MTEXTEND
  0
POINT
  5
610
330
44F
100
AcDbEntity
  8
DEFPOINTS
  6
Continuous
 62
     0
100
AcDbPoint
 10
24.13261391231199
 20
6.929986694366117
 30
0.0
  0
POINT
  5
611
330
44F
100
AcDbEntity
  8
DEFPOINTS
  6
Continuous
 62
     0
100
AcDbPoint
 10
23.75761391231199
 20
7.769986694366117
 30
0.0
  0
POINT
  5
612
330
44F
100
AcDbEntity
  8
DEFPOINTS
  6
Continuous
 62
     0
100
AcDbPoint
 10
22.43896016537067
 20
7.769986694366117
 30
0.0
  0
ENDBLK
  5
45B
330
44F
100
AcDbEntity
  8
0
100
AcDbBlockEnd
  0
BLOCK
  5
468
330
45D
100
AcDbEntity
  8
0
100
AcDbBlockBegin
  2
*D3
 70
     1
 10
0.0
 20
0.0
 30
0.0
  3
*D3
  1

  0
LINE
  5
613
330
45D
100
AcDbEntity
  8
ADPDIM
  6
Continuous
 62
     0
370
    -2
100
AcDbLine
 10
24.07011391231199
 20
7.680442634986489
 30
0.0
 11
22.817390163916
 21
7.680442634986489
 31
0.0
  0
LINE
  5
614
330
45D
100
AcDbEntity
  8
ADPDIM
  6
Continuous
 62
     0
370
    -2
100
AcDbLine
 10
24.07011391231199
 20
6.929986694366117
 30
0.0
 11
22.817390163916
 21
6.929986694366117
 31
0.0
  0
LINE
  5
615
330
45D
100
AcDbEntity
  8
ADPDIM
  6
Continuous
 62
     0
370
    -2
100
AcDbLine
 10
22.997390163916
 20
7.680442634986489
 30
0.0
 11
22.997390163916
 21
7.596881331342967
 31
0.0
  0
LINE
  5
616
330
45D
100
AcDbEntity
  8
ADPDIM
  6
Continuous
 62
     0
370
    -2
100
AcDbLine
 10
22.997390163916
 20
6.929986694366117
 30
0.0
 11
22.997390163916
 21
7.013547998009633
 31
0.0
  0
INSERT
  5
617
330
45D
100
AcDbEntity
  8
ADPDIM
  6
Continuous
 62
     0
370
    -2
100
AcDbBlockReference
  2
_Oblique
 10
22.997390163916
 20
7.680442634986489
 30
0.0
 41
0.25
 42
0.25
 43
0.25
 50
90.0
  0
INSERT
  5
618
330
45D
100
AcDbEntity
  8
ADPDIM
  6
Continuous
 62
     0
370
    -2
100
AcDbBlockReference
  2
_Oblique
 10
22.997390163916
 20
6.929986694366117
 30
0.0
 41
0.25
 42
0.25
 43
0.25
 50
270.0
  0
MTEXT
  5
619
330
45D
100
AcDbEntity
  8
ADPDIM
  6
Continuous
 62
     0
100
AcDbMText
 10
22.997390163916
 20
7.305214664676303
 30
0.0
 40
0.125
 41
0.0
 71
     5
 72
     1
  1
\A1;3/4
 11
0.0000000000000001
 21
1.0
 31
0.0
 73
     1
 44
1.0
1001
ACAD
1000
MTEXTBEGIN
1070
    73
1070
     1
1070
    44
1040
1.0
1070
    74
1070
     0
1000
MTEXTEND
  0
POINT
  5
61A
330
45D
100
AcDbEntity
  8
DEFPOINTS
  6
Continuous
 62
     0
100
AcDbPoint
 10
24.13261391231199
 20
7.680442634986489
 30
0.0
  0
POINT
  5
61B
330
45D
100
AcDbEntity
  8
DEFPOINTS
  6
Continuous
 62
     0
100
AcDbPoint
 10
24.13261391231199
 20
6.929986694366117
 30
0.0
  0
POINT
  5
61C
330
45D
100
AcDbEntity
  8
DEFPOINTS
  6
Continuous
 62
     0
100
AcDbPoint
 10
22.997390163916
 20
6.929986694366117
 30
0.0
  0
ENDBLK
  5
469
330
45D
100
AcDbEntity
  8
0
100
AcDbBlockEnd
  0
BLOCK
  5
629
330
61E
100
AcDbEntity
  8
0
100
AcDbBlockBegin
  2
*D4
 70
     1
 10
0.0
 20
0.0
 30
0.0
  3
*D4
  1

  0
LINE
  5
61F
330
61E
100
AcDbEntity
  8
ADPDIM
  6
Continuous
 62
     0
370
    -2
100
AcDbLine
 10
26.73020974145713
 20
6.617486694366117
 30
0.0
 11
26.73020974145713
 21
6.043297327651483
 31
0.0
  0
LINE
  5
620
330
61E
100
AcDbEntity
  8
ADPDIM
  6
Continuous
 62
     0
370
    -2
100
AcDbLine
 10
26.28670974145713
 20
6.867486694366117
 30
0.0
 11
26.28670974145713
 21
6.043297327651483
 31
0.0
  0
LINE
  5
621
330
61E
100
AcDbEntity
  8
ADPDIM
  6
Continuous
 62
     0
370
    -2
100
AcDbLine
 10
26.73020974145713
 20
6.223297327651483
 30
0.0
 11
26.28670974145713
 21
6.223297327651483
 31
0.0
  0
LINE
  5
622
330
61E
100
AcDbEntity
  8
ADPDIM
  6
Continuous
 62
     0
370
    -2
100
AcDbLine
 10
26.28670974145713
 20
6.223297327651483
 30
0.0
 11
26.03670974145714
 21
6.223297327651483
 31
0.0
  0
INSERT
  5
623
330
61E
100
AcDbEntity
  8
ADPDIM
  6
Continuous
 62
     0
370
    -2
100
AcDbBlockReference
  2
_Oblique
 10
26.73020974145713
 20
6.223297327651483
 30
0.0
 41
0.25
 42
0.25
 43
0.25
  0
INSERT
  5
624
330
61E
100
AcDbEntity
  8
ADPDIM
  6
Continuous
 62
     0
370
    -2
100
AcDbBlockReference
  2
_Oblique
 10
26.28670974145713
 20
6.223297327651483
 30
0.0
 41
0.25
 42
0.25
 43
0.25
 50
180.0
  0
MTEXT
  5
625
330
61E
100
AcDbEntity
  8
ADPDIM
  6
Continuous
 62
     0
100
AcDbMText
 10
25.7033764081238
 20
6.223297327651483
 30
0.0
 40
0.125
 41
0.0
 71
     5
 72
     1
  1
\A1;7/16
 73
     1
 44
1.0
1001
ACAD
1000
MTEXTBEGIN
1070
    73
1070
     1
1070
    44
1040
1.0
1070
    74
1070
     0
1000
MTEXTEND
  0
POINT
  5
626
330
61E
100
AcDbEntity
  8
DEFPOINTS
  6
Continuous
 62
     0
100
AcDbPoint
 10
26.73020974145713
 20
6.679986694366117
 30
0.0
  0
POINT
  5
627
330
61E
100
AcDbEntity
  8
DEFPOINTS
  6
Continuous
 62
     0
100
AcDbPoint
 10
26.28670974145713
 20
6.929986694366117
 30
0.0
  0
POINT
  5
628
330
61E
100
AcDbEntity
  8
DEFPOINTS
  6
Continuous
 62
     0
100
AcDbPoint
 10
26.28670974145713
 20
6.223297327651483
 30
0.0
  0
ENDBLK
  5
62A
330
61E
100
AcDbEntity
  8
0
100
AcDbBlockEnd
  0
BLOCK
  5
637
330
62C
100
AcDbEntity
  8
0
100
AcDbBlockBegin
  2
*D5
 70
     1
 10
0.0
 20
0.0
 30
0.0
  3
*D5
  1

  0
LINE
  5
62D
330
62C
100
AcDbEntity
  8
ADPDIM
  6
Continuous
 62
     0
370
    -2
100
AcDbLine
 10
26.28670974145713
 20
6.867486694366117
 30
0.0
 11
26.28670974145713
 21
5.60055936761044
 31
0.0
  0
LINE
  5
62E
330
62C
100
AcDbEntity
  8
ADPDIM
  6
Continuous
 62
     0
370
    -2
100
AcDbLine
 10
28.99270974145713
 20
6.867486694366117
 30
0.0
 11
28.99270974145713
 21
5.60055936761044
 31
0.0
  0
LINE
  5
62F
330
62C
100
AcDbEntity
  8
ADPDIM
  6
Continuous
 62
     0
370
    -2
100
AcDbLine
 10
26.28670974145713
 20
5.78055936761044
 30
0.0
 11
27.16054307479046
 21
5.78055936761044
 31
0.0
  0
LINE
  5
630
330
62C
100
AcDbEntity
  8
ADPDIM
  6
Continuous
 62
     0
370
    -2
100
AcDbLine
 10
28.99270974145713
 20
5.78055936761044
 30
0.0
 11
28.1188764081238
 21
5.78055936761044
 31
0.0
  0
INSERT
  5
631
330
62C
100
AcDbEntity
  8
ADPDIM
  6
Continuous
 62
     0
370
    -2
100
AcDbBlockReference
  2
_Oblique
 10
26.28670974145713
 20
5.78055936761044
 30
0.0
 41
0.25
 42
0.25
 43
0.25
 50
180.0
  0
INSERT
  5
632
330
62C
100
AcDbEntity
  8
ADPDIM
  6
Continuous
 62
     0
370
    -2
100
AcDbBlockReference
  2
_Oblique
 10
28.99270974145713
 20
5.78055936761044
 30
0.0
 41
0.25
 42
0.25
 43
0.25
  0
MTEXT
  5
633
330
62C
100
AcDbEntity
  8
ADPDIM
  6
Continuous
 62
     0
100
AcDbMText
 10
27.63970974145713
 20
5.78055936761044
 30
0.0
 40
0.125
 41
0.0
 71
     5
 72
     1
  1
\A1;2 11/16
 73
     1
 44
1.0
1001
ACAD
1000
MTEXTBEGIN
1070
    73
1070
     1
1070
    44
1040
1.0
1070
    74
1070
     0
1000
MTEXTEND
  0
POINT
  5
634
330
62C
100
AcDbEntity
  8
DEFPOINTS
  6
Continuous
 62
     0
100
AcDbPoint
 10
26.28670974145713
 20
6.929986694366117
 30
0.0
  0
POINT
  5
635
330
62C
100
AcDbEntity
  8
DEFPOINTS
  6
Continuous
 62
     0
100
AcDbPoint
 10
28.99270974145713
 20
6.929986694366117
 30
0.0
  0
POINT
  5
636
330
62C
100
AcDbEntity
  8
DEFPOINTS
  6
Continuous
 62
     0
100
AcDbPoint
 10
28.99270974145713
 20
5.78055936761044
 30
0.0
  0
ENDBLK
  5
638
330
62C
100
AcDbEntity
  8
0
100
AcDbBlockEnd
  0
BLOCK
  5
645
330
63A
100
AcDbEntity
  8
0
100
AcDbBlockBegin
  2
*D6
 70
     1
 10
0.0
 20
0.0
 30
0.0
  3
*D6
  1

  0
LINE
  5
63B
330
63A
100
AcDbEntity
  8
ADPDIM
  6
Continuous
 62
     0
370
    -2
100
AcDbLine
 10
26.73020974145713
 20
6.617486694366117
 30
0.0
 11
26.73020974145713
 21
6.043297327651483
 31
0.0
  0
LINE
  5
63C
330
63A
100
AcDbEntity
  8
ADPDIM
  6
Continuous
 62
     0
370
    -2
100
AcDbLine
 10
28.54920974145713
 20
6.617486694366108
 30
0.0
 11
28.54920974145713
 21
6.043297327651483
 31
0.0
  0
LINE
  5
63D
330
63A
100
AcDbEntity
  8
ADPDIM
  6
Continuous
 62
     0
370
    -2
100
AcDbLine
 10
26.73020974145713
 20
6.223297327651483
 30
0.0
 11
27.16054307479046
 21
6.223297327651483
 31
0.0
  0
LINE
  5
63E
330
63A
100
AcDbEntity
  8
ADPDIM
  6
Continuous
 62
     0
370
    -2
100
AcDbLine
 10
28.54920974145713
 20
6.223297327651483
 30
0.0
 11
28.1188764081238
 21
6.223297327651483
 31
0.0
  0
INSERT
  5
63F
330
63A
100
AcDbEntity
  8
ADPDIM
  6
Continuous
 62
     0
370
    -2
100
AcDbBlockReference
  2
_Oblique
 10
26.73020974145713
 20
6.223297327651483
 30
0.0
 41
0.25
 42
0.25
 43
0.25
 50
180.0
  0
INSERT
  5
640
330
63A
100
AcDbEntity
  8
ADPDIM
  6
Continuous
 62
     0
370
    -2
100
AcDbBlockReference
  2
_Oblique
 10
28.54920974145713
 20
6.223297327651483
 30
0.0
 41
0.25
 42
0.25
 43
0.25
  0
MTEXT
  5
641
330
63A
100
AcDbEntity
  8
ADPDIM
  6
Continuous
 62
     0
100
AcDbMText
 10
27.63970974145713
 20
6.223297327651483
 30
0.0
 40
0.125
 41
0.0
 71
     5
 72
     1
  1
\A1;1 13/16
 73
     1
 44
1.0
1001
ACAD
1000
MTEXTBEGIN
1070
    73
1070
     1
1070
    44
1040
1.0
1070
    74
1070
     0
1000
MTEXTEND
  0
POINT
  5
642
330
63A
100
AcDbEntity
  8
DEFPOINTS
  6
Continuous
 62
     0
100
AcDbPoint
 10
26.73020974145713
 20
6.679986694366117
 30
0.0
  0
POINT
  5
643
330
63A
100
AcDbEntity
  8
DEFPOINTS
  6
Continuous
 62
     0
100
AcDbPoint
 10
28.54920974145713
 20
6.679986694366108
 30
0.0
  0
POINT
  5
644
330
63A
100
AcDbEntity
  8
DEFPOINTS
  6
Continuous
 62
     0
100
AcDbPoint
 10
28.54920974145713
 20
6.223297327651483
 30
0.0
  0
ENDBLK
  5
646
330
63A
100
AcDbEntity
  8
0
100
AcDbBlockEnd
  0
BLOCK
  5
653
330
648
100
AcDbEntity
  8
0
100
AcDbBlockBegin
  2
*D7
 70
     1
 10
0.0
 20
0.0
 30
0.0
  3
*D7
  1

  0
LINE
  5
649
330
648
100
AcDbEntity
  8
ADPDIM
  6
Continuous
 62
     0
370
    -2
100
AcDbLine
 10
28.54920974145713
 20
6.617486694366117
 30
0.0
 11
28.54920974145713
 21
6.043297327651483
 31
0.0
  0
LINE
  5
64A
330
648
100
AcDbEntity
  8
ADPDIM
  6
Continuous
 62
     0
370
    -2
100
AcDbLine
 10
28.99270974145713
 20
6.867486694366117
 30
0.0
 11
28.99270974145713
 21
6.043297327651483
 31
0.0
  0
LINE
  5
64B
330
648
100
AcDbEntity
  8
ADPDIM
  6
Continuous
 62
     0
370
    -2
100
AcDbLine
 10
28.54920974145713
 20
6.223297327651483
 30
0.0
 11
28.99270974145713
 21
6.223297327651483
 31
0.0
  0
LINE
  5
64C
330
648
100
AcDbEntity
  8
ADPDIM
  6
Continuous
 62
     0
370
    -2
100
AcDbLine
 10
28.99270974145713
 20
6.223297327651483
 30
0.0
 11
29.24270974145713
 21
6.223297327651483
 31
0.0
  0
INSERT
  5
64D
330
648
100
AcDbEntity
  8
ADPDIM
  6
Continuous
 62
     0
370
    -2
100
AcDbBlockReference
  2
_Oblique
 10
28.54920974145713
 20
6.223297327651483
 30
0.0
 41
0.25
 42
0.25
 43
0.25
 50
180.0
  0
INSERT
  5
64E
330
648
100
AcDbEntity
  8
ADPDIM
  6
Continuous
 62
     0
370
    -2
100
AcDbBlockReference
  2
_Oblique
 10
28.99270974145713
 20
6.223297327651483
 30
0.0
 41
0.25
 42
0.25
 43
0.25
  0
MTEXT
  5
64F
330
648
100
AcDbEntity
  8
ADPDIM
  6
Continuous
 62
     0
100
AcDbMText
 10
29.57604307479046
 20
6.223297327651483
 30
0.0
 40
0.125
 41
0.0
 71
     5
 72
     1
  1
\A1;7/16
 73
     1
 44
1.0
1001
ACAD
1000
MTEXTBEGIN
1070
    73
1070
     1
1070
    44
1040
1.0
1070
    74
1070
     0
1000
MTEXTEND
  0
POINT
  5
650
330
648
100
AcDbEntity
  8
DEFPOINTS
  6
Continuous
 62
     0
100
AcDbPoint
 10
28.54920974145713
 20
6.679986694366117
 30
0.0
  0
POINT
  5
651
330
648
100
AcDbEntity
  8
DEFPOINTS
  6
Continuous
 62
     0
100
AcDbPoint
 10
28.99270974145713
 20
6.929986694366117
 30
0.0
  0
POINT
  5
652
330
648
100
AcDbEntity
  8
DEFPOINTS
  6
Continuous
 62
     0
100
AcDbPoint
 10
28.99270974145713
 20
6.223297327651483
 30
0.0
  0
ENDBLK
  5
654
330
648
100
AcDbEntity
  8
0
100
AcDbBlockEnd
  0
ENDSEC
  0
SECTION
  2
ENTITIES
  0
TEXT
  5
BD
330
2
100
AcDbEntity
  8
ADPDIM
100
AcDbText
 10
22.56189779447803
 20
4.552266212370389
 30
0.0
 40
0.125
  1
J U L I U S  B L U M  &  C O . ,  I N C .      ( 8 0 0 )  5 2 6 - 6 2 9 3
 41
1.25
  7
ARIAL_WIDE
 72
     1
 11
25.7158349534139
 21
4.677266212370389
 31
0.0
100
AcDbText
 73
     3
  0
LINE
  5
26E
330
2
100
AcDbEntity
  8
ADP1DETAIL
  6
Continuous
100
AcDbLine
 10
26.28670974145713
 20
6.929986694366117
 30
0.0
 11
26.28670974145713
 21
7.769986694366117
 31
0.0
  0
LINE
  5
26F
330
2
100
AcDbEntity
  8
ADP1DETAIL
  6
Continuous
100
AcDbLine
 10
28.99270974145713
 20
6.929986694366117
 30
0.0
 11
28.99270974145713
 21
7.769986694366117
 31
0.0
  0
LINE
  5
272
330
2
100
AcDbEntity
  8
ADP1DETAIL
  6
Continuous
100
AcDbLine
 10
24.50761391231199
 20
6.972898261410145
 30
0.0
 11
24.50761391231199
 21
7.769986694366117
 31
0.0
  0
LINE
  5
274
330
2
100
AcDbEntity
  8
ADP1DETAIL
  6
Continuous
100
AcDbLine
 10
23.75761391231199
 20
7.769986694366117
 30
0.0
 11
23.75761391231199
 21
6.972898261410145
 31
0.0
  0
ARC
  5
28B
330
2
100
AcDbEntity
  8
ADP1DETAIL
  6
Continuous
100
AcDbCircle
 10
24.13261391231199
 20
8.589986694366118
 30
0.0
 40
1.659999999999999
100
AcDbArc
 50
256.9439803772421
 51
283.0560196227582
  0
ARC
  5
295
330
2
100
AcDbEntity
  8
ADP1DETAIL
  6
Continuous
100
AcDbCircle
 10
24.13261391231199
 20
8.510442634986489
 30
0.0
 40
0.8299999999999998
100
AcDbArc
 50
243.1403068697964
 51
296.8596931302043
  0
LINE
  5
299
330
2
100
AcDbEntity
  8
ADP2DETAIL
  6
HIDDEN2
100
AcDbLine
 10
23.93261391231199
 20
6.942078929956956
 30
0.0
 11
23.93261391231199
 21
7.269986694366117
 31
0.0
  0
LINE
  5
29A
330
2
100
AcDbEntity
  8
ADP2DETAIL
  6
HIDDEN2
100
AcDbLine
 10
24.33261391231199
 20
6.942078929956957
 30
0.0
 11
24.33261391231199
 21
7.269986694366117
 31
0.0
  0
LINE
  5
29D
330
2
100
AcDbEntity
  8
ADP2DETAIL
  6
HIDDEN2
100
AcDbLine
 10
23.93261391231199
 20
7.269986694366117
 30
0.0
 11
24.33261391231199
 21
7.269986694366117
 31
0.0
  0
LINE
  5
2A0
330
2
100
AcDbEntity
  8
ADP2DETAIL
  6
HIDDEN2
100
AcDbLine
 10
24.00261391231199
 20
7.269986694366117
 30
0.0
 11
24.00261391231199
 21
7.69068657370972
 31
0.0
  0
LINE
  5
2A1
330
2
100
AcDbEntity
  8
ADP2DETAIL
  6
HIDDEN2
100
AcDbLine
 10
24.26261391231199
 20
7.269986694366117
 30
0.0
 11
24.26261391231199
 21
7.690686573709721
 31
0.0
  0
LINE
  5
2A6
330
2
100
AcDbEntity
  8
ADP1DETAIL
  6
Continuous
100
AcDbLine
 10
26.28670974145713
 20
7.76998669436612
 30
0.0
 11
28.99270974145713
 21
7.76998669436612
 31
0.0
  0
LINE
  5
2A7
330
2
100
AcDbEntity
  8
ADP1DETAIL
  6
Continuous
100
AcDbLine
 10
26.28670974145713
 20
6.929986694366117
 30
0.0
 11
28.99270974145713
 21
6.929986694366117
 31
0.0
  0
LINE
  5
2A8
330
2
100
AcDbEntity
  8
ADP1DETAIL
  6
Continuous
100
AcDbLine
 10
26.28670974145713
 20
6.972898261410147
 30
0.0
 11
28.99270974145713
 21
6.972898261410147
 31
0.0
  0
LINE
  5
2A9
330
2
100
AcDbEntity
  8
ADP2DETAIL
  6
HIDDEN2
100
AcDbLine
 10
26.28670974145714
 20
7.680442634986489
 30
0.0
 11
28.99270974145713
 21
7.680442634986488
 31
0.0
  0
LINE
  5
2AB
330
2
100
AcDbEntity
  8
ADP2DETAIL
  6
HIDDEN2
100
AcDbLine
 10
26.93020974145714
 20
6.931834991233726
 30
0.0
 11
26.93020974145714
 21
7.269986694366117
 31
0.0
  0
LINE
  5
2AC
330
2
100
AcDbEntity
  8
ADP2DETAIL
  6
HIDDEN2
100
AcDbLine
 10
26.53020974145714
 20
6.931834991233725
 30
0.0
 11
26.53020974145714
 21
7.269986694366117
 31
0.0
  0
LINE
  5
2AD
330
2
100
AcDbEntity
  8
ADP2DETAIL
  6
HIDDEN2
100
AcDbLine
 10
26.53020974145714
 20
7.269986694366117
 30
0.0
 11
26.93020974145713
 21
7.269986694366117
 31
0.0
  0
LINE
  5
2AE
330
2
100
AcDbEntity
  8
ADP2DETAIL
  6
HIDDEN2
100
AcDbLine
 10
26.86020974145713
 20
7.269986694366117
 30
0.0
 11
26.86020974145713
 21
7.680442634986491
 31
0.0
  0
LINE
  5
2AF
330
2
100
AcDbEntity
  8
ADP2DETAIL
  6
HIDDEN2
100
AcDbLine
 10
26.60020974145714
 20
7.269986694366117
 30
0.0
 11
26.60020974145714
 21
7.68044263498649
 31
0.0
  0
LINE
  5
2B2
330
2
100
AcDbEntity
  8
ADP2DETAIL
  6
HIDDEN2
100
AcDbLine
 10
28.34920974145713
 20
6.931834991233726
 30
0.0
 11
28.34920974145713
 21
7.269986694366117
 31
0.0
  0
LINE
  5
2B3
330
2
100
AcDbEntity
  8
ADP2DETAIL
  6
HIDDEN2
100
AcDbLine
 10
28.74920974145713
 20
6.931834991233725
 30
0.0
 11
28.74920974145713
 21
7.269986694366117
 31
0.0
  0
LINE
  5
2B4
330
2
100
AcDbEntity
  8
ADP2DETAIL
  6
HIDDEN2
100
AcDbLine
 10
28.74920974145713
 20
7.269986694366117
 30
0.0
 11
28.34920974145714
 21
7.269986694366117
 31
0.0
  0
LINE
  5
2B5
330
2
100
AcDbEntity
  8
ADP2DETAIL
  6
HIDDEN2
100
AcDbLine
 10
28.41920974145713
 20
7.269986694366117
 30
0.0
 11
28.41920974145713
 21
7.680442634986491
 31
0.0
  0
LINE
  5
2B6
330
2
100
AcDbEntity
  8
ADP2DETAIL
  6
HIDDEN2
100
AcDbLine
 10
28.67920974145713
 20
7.269986694366117
 30
0.0
 11
28.67920974145713
 21
7.68044263498649
 31
0.0
  0
LINE
  5
2B7
330
2
100
AcDbEntity
  8
ADPDIM
  6
CENTER
 48
0.5
100
AcDbLine
 10
24.13261391231199
 20
6.679986694366117
 30
0.0
 11
24.132613912312
 21
7.930442634986489
 31
0.0
  0
LINE
  5
2BB
330
2
100
AcDbEntity
  8
ADPDIM
  6
CENTER
 48
0.5
100
AcDbLine
 10
26.73020974145713
 20
6.679986694366117
 30
0.0
 11
26.73020974145714
 21
7.930442634986489
 31
0.0
  0
LINE
  5
2BC
330
2
100
AcDbEntity
  8
ADPDIM
  6
CENTER
 48
0.5
100
AcDbLine
 10
28.54920974145713
 20
6.679986694366117
 30
0.0
 11
28.54920974145714
 21
7.930442634986489
 31
0.0
  0
DIMENSION
  5
2C4
330
2
100
AcDbEntity
  8
ADPDIM
  6
Continuous
100
AcDbDimension
  2
*D0
 10
24.50761391231199
 20
5.78055936761044
 30
0.0
 11
23.21594724564532
 21
5.78055936761044
 31
0.0
 70
   160
  1
<>
 71
     5
 42
0.7499999999999965
  3
STANDARD
100
AcDbAlignedDimension
 13
23.75761391231199
 23
6.972898261410145
 33
0.0
 14
24.50761391231199
 24
6.972898261410142
 34
0.0
100
AcDbRotatedDimension
1001
ACAD
1000
DSTYLE
1002
{
1070
    41
1040
0.25
1070
    73
1070
     0
1070
    74
1070
     0
1070
    78
1070
     3
1070
   140
1040
0.125
1070
   141
1040
0.1875
1070
   147
1040
0.125
1070
   171
1070
     1
1070
   173
1070
     1
1070
   274
1070
     1
1070
   276
1070
     2
1070
   277
1070
     5
1070
   343
1005
3A7
1070
   344
1005
3A7
1002
}
  0
DIMENSION
  5
44E
330
2
100
AcDbEntity
  8
ADPDIM
  6
Continuous
100
AcDbDimension
  2
*D2
 10
22.43896016537067
 20
7.769986694366117
 30
0.0
 11
22.43896016537067
 21
8.394986694366121
 31
0.0
 70
   160
 71
     5
 42
0.8399999999999998
  3
STANDARD
100
AcDbAlignedDimension
 13
24.13261391231199
 23
6.929986694366117
 33
0.0
 14
23.75761391231199
 24
7.769986694366117
 34
0.0
 50
90.0
100
AcDbRotatedDimension
1001
ACAD
1000
DSTYLE
1002
{
1070
    41
1040
0.25
1070
    73
1070
     0
1070
    74
1070
     0
1070
    78
1070
     3
1070
   140
1040
0.125
1070
   141
1040
0.1875
1070
   147
1040
0.125
1070
   171
1070
     1
1070
   173
1070
     1
1070
   274
1070
     1
1070
   276
1070
     2
1070
   277
1070
     5
1070
   343
1005
3A7
1070
   344
1005
3A7
1002
}
  0
DIMENSION
  5
45C
330
2
100
AcDbEntity
  8
ADPDIM
  6
Continuous
100
AcDbDimension
  2
*D3
 10
22.997390163916
 20
6.929986694366117
 30
0.0
 11
22.997390163916
 21
7.305214664676303
 31
0.0
 70
   160
 71
     5
 42
0.7504559406203715
  3
STANDARD
100
AcDbAlignedDimension
 13
24.13261391231199
 23
7.680442634986489
 33
0.0
 14
24.13261391231199
 24
6.929986694366117
 34
0.0
 50
90.0
100
AcDbRotatedDimension
1001
ACAD
1000
DSTYLE
1002
{
1070
    41
1040
0.25
1070
    73
1070
     0
1070
    74
1070
     0
1070
    78
1070
     3
1070
   140
1040
0.125
1070
   141
1040
0.1875
1070
   147
1040
0.125
1070
   171
1070
     1
1070
   173
1070
     1
1070
   274
1070
     1
1070
   276
1070
     2
1070
   277
1070
     5
1070
   343
1005
3A7
1070
   344
1005
3A7
1002
}
  0
DIMENSION
  5
61D
330
2
100
AcDbEntity
  8
ADPDIM
  6
Continuous
100
AcDbDimension
  2
*D4
 10
26.28670974145713
 20
6.223297327651483
 30
0.0
 11
25.7033764081238
 21
6.223297327651483
 31
0.0
 70
    32
 71
     5
 42
0.4434999999999967
  3
STANDARD
100
AcDbAlignedDimension
 13
26.73020974145713
 23
6.679986694366117
 33
0.0
 14
26.28670974145713
 24
6.929986694366117
 34
0.0
100
AcDbRotatedDimension
1001
ACAD
1000
DSTYLE
1002
{
1070
    41
1040
0.25
1070
    73
1070
     0
1070
    74
1070
     0
1070
    78
1070
     3
1070
   140
1040
0.125
1070
   141
1040
0.1875
1070
   147
1040
0.125
1070
   171
1070
     1
1070
   173
1070
     1
1070
   274
1070
     1
1070
   276
1070
     2
1070
   277
1070
     5
1070
   343
1005
3A7
1070
   344
1005
3A7
1002
}
  0
DIMENSION
  5
62B
330
2
100
AcDbEntity
  8
ADPDIM
  6
Continuous
100
AcDbDimension
  2
*D5
 10
28.99270974145713
 20
5.78055936761044
 30
0.0
 11
27.63970974145713
 21
5.78055936761044
 31
0.0
 70
    32
 71
     5
 42
2.705999999999999
  3
STANDARD
100
AcDbAlignedDimension
 13
26.28670974145713
 23
6.929986694366117
 33
0.0
 14
28.99270974145713
 24
6.929986694366117
 34
0.0
100
AcDbRotatedDimension
1001
ACAD
1000
DSTYLE
1002
{
1070
    41
1040
0.25
1070
    73
1070
     0
1070
    74
1070
     0
1070
    78
1070
     3
1070
   140
1040
0.125
1070
   141
1040
0.1875
1070
   147
1040
0.125
1070
   171
1070
     1
1070
   173
1070
     1
1070
   274
1070
     1
1070
   276
1070
     2
1070
   277
1070
     5
1070
   343
1005
3A7
1070
   344
1005
3A7
1002
}
  0
DIMENSION
  5
639
330
2
100
AcDbEntity
  8
ADPDIM
  6
Continuous
100
AcDbDimension
  2
*D6
 10
28.54920974145713
 20
6.223297327651483
 30
0.0
 11
27.63970974145713
 21
6.223297327651483
 31
0.0
 70
    32
 71
     5
 42
1.818999999999999
  3
STANDARD
100
AcDbAlignedDimension
 13
26.73020974145713
 23
6.679986694366117
 33
0.0
 14
28.54920974145713
 24
6.679986694366108
 34
0.0
100
AcDbRotatedDimension
1001
ACAD
1000
DSTYLE
1002
{
1070
    41
1040
0.25
1070
    73
1070
     0
1070
    74
1070
     0
1070
    78
1070
     3
1070
   140
1040
0.125
1070
   141
1040
0.1875
1070
   147
1040
0.125
1070
   171
1070
     1
1070
   173
1070
     1
1070
   274
1070
     1
1070
   276
1070
     2
1070
   277
1070
     5
1070
   343
1005
3A7
1070
   344
1005
3A7
1002
}
  0
DIMENSION
  5
647
330
2
100
AcDbEntity
  8
ADPDIM
  6
Continuous
100
AcDbDimension
  2
*D7
 10
28.99270974145713
 20
6.223297327651483
 30
0.0
 11
29.57604307479046
 21
6.223297327651483
 31
0.0
 70
    32
 71
     5
 42
0.4435000000000038
  3
STANDARD
100
AcDbAlignedDimension
 13
28.54920974145713
 23
6.679986694366117
 33
0.0
 14
28.99270974145713
 24
6.929986694366117
 34
0.0
100
AcDbRotatedDimension
1001
ACAD
1000
DSTYLE
1002
{
1070
    41
1040
0.25
1070
    73
1070
     0
1070
    74
1070
     0
1070
    78
1070
     3
1070
   140
1040
0.125
1070
   141
1040
0.1875
1070
   147
1040
0.125
1070
   171
1070
     1
1070
   173
1070
     1
1070
   274
1070
     1
1070
   276
1070
     2
1070
   277
1070
     5
1070
   343
1005
3A7
1070
   344
1005
3A7
1002
}
  0
TEXT
  5
6AA
330
2
100
AcDbEntity
  8
ADPDIM
100
AcDbText
 10
22.70796916214514
 20
4.210254119622469
 30
0.0
 40
0.125
  1
 W W W . J U L I U S B L U M . C O M        P A R T  N o .  200
 41
1.25
  7
ARIAL_WIDE
 72
     1
 11
25.7158349534139
 21
4.335254119622469
 31
0.0
100
AcDbText
 73
     3
  0
ENDSEC
  0
SECTION
  2
OBJECTS
  0
DICTIONARY
  5
1B
330
0
100
AcDbDictionary
281
     1
  3
ACAD_COLOR
350
25C
  3
ACAD_GROUP
350
19
  3
ACAD_LAYOUT
350
B6
  3
ACAD_MATERIAL
350
25B
  3
ACAD_MLINESTYLE
350
1A
  3
ACAD_PLOTSETTINGS
350
B7
  3
ACAD_PLOTSTYLENAME
350
B4
  3
ACAD_TABLESTYLE
350
25D
  3
ACDBHEADERROUNDTRIPXREC
350
6E6
  3
AcDbVariableDictionary
350
117
  3
ASE_INDEX_DICTIONARY
350
658
  0
DICTIONARY
  5
10F
330
2
100
AcDbDictionary
280
     1
281
     1
  3
ACAD_LAYOUTSELFREF
360
252
  3
ACAD_SORTENTS
360
275
  0
DICTIONARY
  5
111
330
8
100
AcDbDictionary
280
     1
281
     1
  3
ACAD_LAYOUTSELFREF
360
253
  0
DICTIONARY
  5
25C
102
{ACAD_REACTORS
330
1B
102
}
330
1B
100
AcDbDictionary
281
     1
  0
DICTIONARY
  5
19
102
{ACAD_REACTORS
330
1B
102
}
330
1B
100
AcDbDictionary
281
     1
  0
DICTIONARY
  5
B6
102
{ACAD_REACTORS
330
1B
102
}
330
1B
100
AcDbDictionary
281
     1
  3
Layout1
350
B9
  3
Model
350
B8
  0
DICTIONARY
  5
25B
102
{ACAD_REACTORS
330
1B
102
}
330
1B
100
AcDbDictionary
281
     1
  0
DICTIONARY
  5
1A
102
{ACAD_REACTORS
330
1B
102
}
330
1B
100
AcDbDictionary
281
     1
  3
STANDARD
350
1C
  0
DICTIONARY
  5
B7
102
{ACAD_REACTORS
330
1B
102
}
330
1B
100
AcDbDictionary
281
     1
  0
ACDBDICTIONARYWDFLT
  5
B4
102
{ACAD_REACTORS
330
1B
102
}
330
1B
100
AcDbDictionary
281
     1
  3
Normal
350
B5
100
AcDbDictionaryWithDefault
340
B5
  0
DICTIONARY
  5
25D
102
{ACAD_REACTORS
330
1B
102
}
330
1B
100
AcDbDictionary
281
     1
  3
Standard
350
25E
  0
DICTIONARY
  5
6E6
102
{ACAD_REACTORS
330
1B
102
}
330
1B
100
AcDbDictionary
281
     1
  0
DICTIONARY
  5
117
102
{ACAD_REACTORS
330
1B
102
}
330
1B
100
AcDbDictionary
281
     1
  3
CTABLESTYLE
350
263
  3
DIMASSOC
350
118
  3
PROJECTNAME
350
66F
  0
DICTIONARY
  5
658
102
{ACAD_REACTORS
330
1B
102
}
330
1B
100
AcDbDictionary
281
     1
  3
ASEBlockHierarchyIndexRecord
350
65A
1001
DCO15
1040
1748168699.083
  0
XRECORD
  5
252
102
{ACAD_REACTORS
330
10F
102
}
330
10F
100
AcDbXrecord
280
     1
340
2
  0
SORTENTSTABLE
  5
275
102
{ACAD_REACTORS
330
10F
102
}
330
10F
100
AcDbSortentsTable
330
2
331
28B
  5
295
331
2A9
  5
2AA
331
2A7
  5
2A8
331
26E
  5
274
331
BD
  5
BD
331
2A1
  5
2A3
331
29D
  5
2A1
331
299
  5
29D
331
2A8
  5
2A9
331
26F
  5
276
331
274
  5
271
331
2A6
  5
2A7
331
295
  5
299
331
272
  5
26D
331
2A0
  5
2A6
  0
XRECORD
  5
253
102
{ACAD_REACTORS
330
111
102
}
330
111
100
AcDbXrecord
280
     1
340
8
  0
LAYOUT
  5
B9
102
{ACAD_XDICTIONARY
360
6E9
102
}
102
{ACAD_REACTORS
330
B6
102
}
330
B6
100
AcDbPlotSettings
  1

  2
Fax
  4

  6

 40
0.0
 41
0.0
 42
0.0
 43
0.0
 44
0.0
 45
0.0
 46
0.0
 47
0.0
 48
0.0
 49
0.0
140
0.0
141
0.0
142
1.0
143
1.0
 70
   688
 72
     0
 73
     0
 74
     5
  7
Default R14 pen assignments.ctb
 75
    16
147
1.0
148
0.0
149
0.0
100
AcDbLayout
  1
Layout1
 70
     1
 71
     1
 10
0.0
 20
0.0
 11
12.0
 21
9.0
 12
0.0
 22
0.0
 32
0.0
 14
1.000000000000000E+20
 24
1.000000000000000E+20
 34
1.000000000000000E+20
 15
-1.000000000000000E+20
 25
-1.000000000000000E+20
 35
-1.000000000000000E+20
146
0.0
 13
0.0
 23
0.0
 33
0.0
 16
1.0
 26
0.0
 36
0.0
 17
0.0
 27
1.0
 37
0.0
 76
     0
330
8
  0
LAYOUT
  5
B8
102
{ACAD_XDICTIONARY
360
6E7
102
}
102
{ACAD_REACTORS
330
B6
102
}
330
B6
100
AcDbPlotSettings
  1

  2
\\2008SERVER\Xerox 6204 Wide Format with FreeFlow Accxes
  4
User267
  6

 40
5.873749732971191
 41
5.873747825622558
 42
5.87371826171875
 43
5.873779296875
 44
609.5999755859375
 45
914.3999633789062
 46
0.0
 47
0.0
 48
18.96595952827954
 49
0.7749031635205981
140
23.27174083796817
141
2.999355501387306
142
1.0
143
1.0
 70
 28336
 72
     0
 73
     1
 74
     2
  7
HP-DR.ctb
 75
    16
147
1.0
148
0.0
149
0.0
100
AcDbLayout
  1
Model
 70
     1
 71
     0
 10
0.0
 20
0.0
 11
12.0
 21
9.0
 12
0.0
 22
0.0
 32
0.0
 14
0.0
 24
0.0
 34
0.0
 15
0.0
 25
0.0
 35
0.0
146
0.0
 13
0.0
 23
0.0
 33
0.0
 16
1.0
 26
0.0
 36
0.0
 17
0.0
 27
1.0
 37
0.0
 76
     0
330
2
1001
ACAD_PSEXT
1000
\\2008SERVER\Xerox 6204 Wide Format with FreeFlow Accxes
1000
Xerox 6204 Wide Format with FreeFlow Accxes
1000
\\2008SERVER
1000

1070
     0
  0
MLINESTYLE
  5
1C
102
{ACAD_REACTORS
330
1A
102
}
330
1A
100
AcDbMlineStyle
  2
STANDARD
 70
     0
  3

 62
     0
 51
90.0
 52
90.0
 71
     2
 49
0.5
 62
   256
  6
BYLAYER
 49
-0.5
 62
   256
  6
BYLAYER
  0
ACDBPLACEHOLDER
  5
B5
102
{ACAD_REACTORS
330
B4
102
}
330
B4
  0
TABLESTYLE
  5
25E
102
{ACAD_REACTORS
330
25D
102
}
330
25D
100
AcDbTableStyle
  3
Standard
 70
     0
 71
     0
 40
0.06
 41
0.06
280
     0
281
     0
  7
STANDARD
140
0.18
170
     2
 62
     0
 63
     7
283
     0
274
    -2
284
     1
 64
     0
275
    -2
285
     1
 65
     0
276
    -2
286
     1
 66
     0
277
    -2
287
     1
 67
     0
278
    -2
288
     1
 68
     0
279
    -2
289
     1
 69
     0
  7
STANDARD
140
0.25
170
     5
 62
     0
 63
     7
283
     0
274
    -2
284
     1
 64
     0
275
    -2
285
     1
 65
     0
276
    -2
286
     1
 66
     0
277
    -2
287
     1
 67
     0
278
    -2
288
     1
 68
     0
279
    -2
289
     1
 69
     0
  7
STANDARD
140
0.18
170
     5
 62
     0
 63
     7
283
     0
274
    -2
284
     1
 64
     0
275
    -2
285
     1
 65
     0
276
    -2
286
     1
 66
     0
277
    -2
287
     1
 67
     0
278
    -2
288
     1
 68
     0
279
    -2
289
     1
 69
     0
  0
DICTIONARYVAR
  5
263
102
{ACAD_REACTORS
330
117
102
}
330
117
100
DictionaryVariables
280
     0
  1
STANDARD
  0
DICTIONARYVAR
  5
118
102
{ACAD_REACTORS
330
117
102
}
330
117
100
DictionaryVariables
280
     0
  1
1
  0
DICTIONARYVAR
  5
66F
102
{ACAD_REACTORS
330
117
102
}
330
117
100
DictionaryVariables
280
     0
  1

  0
XRECORD
  5
65A
102
{ACAD_REACTORS
330
658
102
}
330
658
100
AcDbXrecord
280
     1
330
5F9
330
5FA
330
60D
330
60E
330
617
330
618
330
623
330
624
330
631
330
632
330
63F
330
640
330
64D
330
64E
  0
DICTIONARY
  5
6E9
330
B9
100
AcDbDictionary
280
     1
281
     1
  3
ACAD_XREC_ROUNDTRIP
360
6EA
  0
DICTIONARY
  5
6E7
330
B8
100
AcDbDictionary
280
     1
281
     1
  3
ACAD_XREC_ROUNDTRIP
360
6E8
  0
XRECORD
  5
6EA
102
{ACAD_REACTORS
330
6E9
102
}
330
6E9
100
AcDbXrecord
280
     1
102
SHADEPLOT
 70
     0
102
SHADEPLOTRESLEVEL
 70
     2
102
SHADEPLOTCUSTOMDPI
 70
   300
  0
XRECORD
  5
6E8
102
{ACAD_REACTORS
330
6E7
102
}
330
6E7
100
AcDbXrecord
280
     1
102
SHADEPLOT
 70
     1
102
SHADEPLOTRESLEVEL
 70
     2
102
SHADEPLOTCUSTOMDPI
 70
   300
  0
ENDSEC
  0
EOF
