  0
SECTION
  2
HEADER
  9
$ACADVER
  1
AC1014
  9
$ACADMAINTVER
 70
     9
  9
$DWGCODEPAGE
  3
ANSI_1252
  9
$INSBASE
 10
20.87577179815349
 20
14.29699630959494
 30
0.0
  9
$EXTMIN
 10
18.73874839218226
 20
12.92304558834663
 30
0.0
  9
$EXTMAX
 10
28.4271010524824
 20
16.68607240583087
 30
0.0
  9
$LIMMIN
 10
0.0
 20
0.0
  9
$LIMMAX
 10
36.0
 20
36.0
  9
$ORTHOMODE
 70
     1
  9
$REGENMODE
 70
     1
  9
$FILLMODE
 70
     1
  9
$QTEXTMODE
 70
     0
  9
$MIRRTEXT
 70
     1
  9
$DRAGMODE
 70
     0
  9
$LTSCALE
 40
1.0
  9
$OSMODE
 70
    37
  9
$ATTMODE
 70
     1
  9
$TEXTSIZE
 40
0.2
  9
$TRACEWID
 40
0.05
  9
$TEXTSTYLE
  7
STANDARD
  9
$CLAYER
  8
ADPDIM
  9
$CELTYPE
  6
BYLAYER
  9
$CECOLOR
 62
   256
  9
$CELTSCALE
 40
1.0
  9
$DELOBJ
 70
     1
  9
$DISPSILH
 70
     0
  9
$DIMSCALE
 40
1.0
  9
$DIMASZ
 40
0.125
  9
$DIMEXO
 40
0.0625
  9
$DIMDLI
 40
0.38
  9
$DIMRND
 40
0.0
  9
$DIMDLE
 40
0.0
  9
$DIMEXE
 40
0.18
  9
$DIMTP
 40
0.0
  9
$DIMTM
 40
0.0
  9
$DIMTXT
 40
0.125
  9
$DIMCEN
 40
0.1875
  9
$DIMTSZ
 40
0.125
  9
$DIMTOL
 70
     0
  9
$DIMLIM
 70
     0
  9
$DIMTIH
 70
     0
  9
$DIMTOH
 70
     0
  9
$DIMSE1
 70
     0
  9
$DIMSE2
 70
     0
  9
$DIMTAD
 70
     0
  9
$DIMZIN
 70
     2
  9
$DIMBLK
  1

  9
$DIMASO
 70
     1
  9
$DIMSHO
 70
     1
  9
$DIMPOST
  1

  9
$DIMAPOST
  1

  9
$DIMALT
 70
     0
  9
$DIMALTD
 70
     1
  9
$DIMALTF
 40
25.4
  9
$DIMLFAC
 40
1.0
  9
$DIMTOFL
 70
     0
  9
$DIMTVP
 40
0.0
  9
$DIMTIX
 70
     0
  9
$DIMSOXD
 70
     0
  9
$DIMSAH
 70
     0
  9
$DIMBLK1
  1

  9
$DIMBLK2
  1

  9
$DIMSTYLE
  2
STANDARD
  9
$DIMCLRD
 70
     0
  9
$DIMCLRE
 70
     0
  9
$DIMCLRT
 70
     0
  9
$DIMTFAC
 40
1.0
  9
$DIMGAP
 40
0.125
  9
$DIMJUST
 70
     0
  9
$DIMSD1
 70
     0
  9
$DIMSD2
 70
     0
  9
$DIMTOLJ
 70
     1
  9
$DIMTZIN
 70
     0
  9
$DIMALTZ
 70
     0
  9
$DIMALTTZ
 70
     0
  9
$DIMFIT
 70
     3
  9
$DIMUPT
 70
     0
  9
$DIMUNIT
 70
     7
  9
$DIMDEC
 70
     4
  9
$DIMTDEC
 70
     4
  9
$DIMALTU
 70
     2
  9
$DIMALTTD
 70
     2
  9
$DIMTXSTY
  7
STANDARD
  9
$DIMAUNIT
 70
     0
  9
$LUNITS
 70
     5
  9
$LUPREC
 70
     4
  9
$SKETCHINC
 40
0.1
  9
$FILLETRAD
 40
0.062
  9
$AUNITS
 70
     0
  9
$AUPREC
 70
     0
  9
$MENU
  1
acad
  9
$ELEVATION
 40
0.0
  9
$PELEVATION
 40
0.0
  9
$THICKNESS
 40
0.0
  9
$LIMCHECK
 70
     0
  9
$BLIPMODE
 70
     0
  9
$CHAMFERA
 40
0.0
  9
$CHAMFERB
 40
0.0
  9
$CHAMFERC
 40
0.0
  9
$CHAMFERD
 40
0.0
  9
$SKPOLY
 70
     0
  9
$TDCREATE
 40
2450386.504063460
  9
$TDUPDATE
 40
2452297.064578264
  9
$TDINDWG
 40
0.0148890741
  9
$TDUSRTIMER
 40
0.0148890741
  9
$USRTIMER
 70
     1
  9
$ANGBASE
 50
0.0
  9
$ANGDIR
 70
     0
  9
$PDMODE
 70
     0
  9
$PDSIZE
 40
0.0
  9
$PLINEWID
 40
0.0
  9
$COORDS
 70
     2
  9
$SPLFRAME
 70
     0
  9
$SPLINETYPE
 70
     6
  9
$SPLINESEGS
 70
     8
  9
$ATTDIA
 70
     0
  9
$ATTREQ
 70
     1
  9
$HANDLING
 70
 22529
  9
$HANDSEED
  5
2F6
  9
$SURFTAB1
 70
     6
  9
$SURFTAB2
 70
     6
  9
$SURFTYPE
 70
     6
  9
$SURFU
 70
     6
  9
$SURFV
 70
     6
  9
$UCSNAME
  2

  9
$UCSORG
 10
0.0
 20
0.0
 30
0.0
  9
$UCSXDIR
 10
1.0
 20
0.0
 30
0.0
  9
$UCSYDIR
 10
0.0
 20
1.0
 30
0.0
  9
$PUCSNAME
  2

  9
$PUCSORG
 10
0.0
 20
0.0
 30
0.0
  9
$PUCSXDIR
 10
1.0
 20
0.0
 30
0.0
  9
$PUCSYDIR
 10
0.0
 20
1.0
 30
0.0
  9
$USERI1
 70
     0
  9
$USERI2
 70
     0
  9
$USERI3
 70
     0
  9
$USERI4
 70
     0
  9
$USERI5
 70
     0
  9
$USERR1
 40
0.0
  9
$USERR2
 40
0.0
  9
$USERR3
 40
0.0
  9
$USERR4
 40
0.0
  9
$USERR5
 40
0.0
  9
$WORLDVIEW
 70
     1
  9
$SHADEDGE
 70
     3
  9
$SHADEDIF
 70
    70
  9
$TILEMODE
 70
     1
  9
$MAXACTVP
 70
    15
  9
$PINSBASE
 10
4.403525741743744E+99
 20
7.061986388769092E+99
 30
0.0
  9
$PLIMCHECK
 70
     0
  9
$PEXTMIN
 10
1.000000000000000E+20
 20
1.000000000000000E+20
 30
1.000000000000000E+20
  9
$PEXTMAX
 10
-1.000000000000000E+20
 20
-1.000000000000000E+20
 30
-1.000000000000000E+20
  9
$PLIMMIN
 10
0.0
 20
0.0
  9
$PLIMMAX
 10
12.0
 20
9.0
  9
$UNITMODE
 70
     0
  9
$VISRETAIN
 70
     0
  9
$PLINEGEN
 70
     0
  9
$PSLTSCALE
 70
     1
  9
$TREEDEPTH
 70
  3020
  9
$PICKSTYLE
 70
     1
  9
$CMLSTYLE
  2
STANDARD
  9
$CMLJUST
 70
     0
  9
$CMLSCALE
 40
1.0
  9
$PROXYGRAPHICS
 70
     1
  9
$MEASUREMENT
 70
     0
  0
ENDSEC
  0
SECTION
  2
CLASSES
  0
CLASS
  1
LWPOLYLINE
  2
AcDbPolyline
  3
AutoCAD 2000
 90
        0
280
     0
281
     1
  0
CLASS
  1
ACDBDICTIONARYWDFLT
  2
AcDbDictionaryWithDefault
  3
AutoCAD 2000
 90
        0
280
     0
281
     0
  0
CLASS
  1
ACDBPLACEHOLDER
  2
AcDbPlaceHolder
  3
AutoCAD 2000
 90
        0
280
     0
281
     0
  0
CLASS
  1
LAYOUT
  2
AcDbLayout
  3
AutoCAD 2000
 90
        0
280
     0
281
     0
  0
CLASS
  1
DICTIONARYVAR
  2
AcDbDictionaryVar
  3
AutoCAD 2000
 90
        0
280
     0
281
     0
  0
CLASS
  1
LONG_TRANSACTION
  2
AcDbLongTransaction
  3
AutoCAD 2000
 90
        0
280
     0
281
     0
  0
CLASS
  1
LWPOLYLINE
  2
AcDbPolyline
  3
AutoCAD 2000
 90
        0
280
     0
281
     1
  0
CLASS
  1
HATCH
  2
AcDbHatch
  3
AutoCAD 2000
 90
        0
280
     0
281
     1
  0
CLASS
  1
XRECORD
  2
AcDbXrecord
  3
AutoCAD 2000
 90
        0
280
     0
281
     0
  0
CLASS
  1
LONG_TRANSACTION
  2
AcDbLongTransaction
  3
AutoCAD 2000
 90
        0
280
     0
281
     0
  0
CLASS
  1
LWPOLYLINE
  2
AcDbPolyline
  3
AutoCAD 2000
 90
        0
280
     0
281
     1
  0
CLASS
  1
HATCH
  2
AcDbHatch
  3
AutoCAD 2000
 90
        0
280
     0
281
     1
  0
CLASS
  1
XRECORD
  2
AcDbXrecord
  3
AutoCAD 2000
 90
        0
280
     0
281
     0
  0
CLASS
  1
LONG_TRANSACTION
  2
AcDbLongTransaction
  3
AutoCAD 2000
 90
        0
280
     0
281
     0
  0
CLASS
  1
LWPOLYLINE
  2
AcDbPolyline
  3
AutoCAD 2000
 90
        0
280
     0
281
     1
  0
CLASS
  1
HATCH
  2
AcDbHatch
  3
AutoCAD 2000
 90
        0
280
     0
281
     1
  0
CLASS
  1
XRECORD
  2
AcDbXrecord
  3
AutoCAD 2000
 90
        0
280
     0
281
     0
  0
CLASS
  1
LONG_TRANSACTION
  2
AcDbLongTransaction
  3
AutoCAD 2000
 90
        0
280
     0
281
     0
  0
CLASS
  1
LWPOLYLINE
  2
AcDbPolyline
  3
AutoCAD 2000
 90
        0
280
     0
281
     1
  0
CLASS
  1
HATCH
  2
AcDbHatch
  3
AutoCAD 2000
 90
        0
280
     0
281
     1
  0
CLASS
  1
XRECORD
  2
AcDbXrecord
  3
AutoCAD 2000
 90
        0
280
     0
281
     0
  0
CLASS
  1
LONG_TRANSACTION
  2
AcDbLongTransaction
  3
AutoCAD 2000
 90
        0
280
     0
281
     0
  0
CLASS
  1
LWPOLYLINE
  2
AcDbPolyline
  3
AutoCAD 2000
 90
        0
280
     0
281
     1
  0
CLASS
  1
HATCH
  2
AcDbHatch
  3
AutoCAD 2000
 90
        0
280
     0
281
     1
  0
CLASS
  1
XRECORD
  2
AcDbXrecord
  3
AutoCAD 2000
 90
        0
280
     0
281
     0
  0
CLASS
  1
LONG_TRANSACTION
  2
AcDbLongTransaction
  3
AutoCAD 2000
 90
        0
280
     0
281
     0
  0
CLASS
  1
LWPOLYLINE
  2
AcDbPolyline
  3
AutoCAD 2000
 90
        0
280
     0
281
     1
  0
CLASS
  1
HATCH
  2
AcDbHatch
  3
AutoCAD 2000
 90
        0
280
     0
281
     1
  0
CLASS
  1
XRECORD
  2
AcDbXrecord
  3
AutoCAD 2000
 90
        0
280
     0
281
     0
  0
ENDSEC
  0
SECTION
  2
TABLES
  0
TABLE
  2
VPORT
  5
12
330
0
100
AcDbSymbolTable
 70
     2
  0
VPORT
  5
2B4
330
12
100
AcDbSymbolTableRecord
100
AcDbViewportTableRecord
  2
*ACTIVE
 70
     0
 10
0.0
 20
0.0
 11
1.0
 21
1.0
 12
23.58242806883346
 22
14.80435188673943
 13
0.0
 23
0.0
 14
0.5740882589684922
 24
0.5740882589684922
 15
0.5
 25
0.5
 16
0.0
 26
0.0
 36
1.0
 17
0.0
 27
0.0
 37
0.0
 40
6.201264878668126
 41
1.570528967254408
 42
50.0
 43
0.0
 44
0.0
 50
0.0
 51
0.0
 71
     0
 72
   100
 73
     1
 74
     0
 75
     0
 76
     0
 77
     0
 78
     1
  0
ENDTAB
  0
TABLE
  2
LTYPE
  5
E
330
0
100
AcDbSymbolTable
 70
     2
  0
LTYPE
  5
F
330
E
100
AcDbSymbolTableRecord
100
AcDbLinetypeTableRecord
  2
BYBLOCK
 70
     0
  3

 72
    65
 73
     0
 40
0.0
  0
LTYPE
  5
6
330
E
100
AcDbSymbolTableRecord
100
AcDbLinetypeTableRecord
  2
BYLAYER
 70
     0
  3

 72
    65
 73
     0
 40
0.0
  0
LTYPE
  5
5
330
E
100
AcDbSymbolTableRecord
100
AcDbLinetypeTableRecord
  2
CONTINUOUS
 70
     0
  3
Solid line
 72
    65
 73
     0
 40
0.0
  0
LTYPE
  5
40
330
E
100
AcDbSymbolTableRecord
100
AcDbLinetypeTableRecord
  2
HIDDEN2
 70
     0
  3
_ _ _ _ _ _ _ _ _ _ _ _ _ _ _ _ _ _ _ _ _ _ _ _
 72
    65
 73
     2
 40
0.1875
 49
0.125
 74
     0
 49
-0.0625
 74
     0
  0
ENDTAB
  0
TABLE
  2
LAYER
  5
B
330
0
100
AcDbSymbolTable
 70
     5
  0
LAYER
  5
4
330
B
100
AcDbSymbolTableRecord
100
AcDbLayerTableRecord
  2
0
 70
     0
 62
     7
  6
CONTINUOUS
  0
LAYER
  5
2E
330
B
100
AcDbSymbolTableRecord
100
AcDbLayerTableRecord
  2
ADP1DETAIL
 70
     0
 62
     7
  6
CONTINUOUS
  0
LAYER
  5
28
330
B
100
AcDbSymbolTableRecord
100
AcDbLayerTableRecord
  2
DEFPOINTS
 70
     0
 62
     7
  6
CONTINUOUS
  0
LAYER
  5
1B
330
B
100
AcDbSymbolTableRecord
100
AcDbLayerTableRecord
  2
ADPDIM
 70
     0
 62
     3
  6
CONTINUOUS
  0
LAYER
  5
3F
330
B
100
AcDbSymbolTableRecord
100
AcDbLayerTableRecord
  2
ADP2DETAIL
 70
     0
 62
     5
  6
CONTINUOUS
  0
ENDTAB
  0
TABLE
  2
STYLE
  5
C
330
0
100
AcDbSymbolTable
 70
     2
  0
STYLE
  5
D
330
C
100
AcDbSymbolTableRecord
100
AcDbTextStyleTableRecord
  2
STANDARD
 70
     0
 40
0.0
 41
1.0
 50
0.0
 71
     0
 42
0.2
  3
txt
  4

  0
STYLE
  5
C6
330
C
100
AcDbSymbolTableRecord
100
AcDbTextStyleTableRecord
  2
ARIAL_WIDE
 70
     0
 40
0.0
 41
1.25
 50
0.0
 71
     0
 42
0.2
  3
ARIAL.TTF
  4

1001
ACAD
1000
Arial
1071
       34
  0
ENDTAB
  0
TABLE
  2
VIEW
  5
10
330
0
100
AcDbSymbolTable
 70
     0
  0
ENDTAB
  0
TABLE
  2
UCS
  5
11
330
0
100
AcDbSymbolTable
 70
     0
  0
ENDTAB
  0
TABLE
  2
APPID
  5
14
330
0
100
AcDbSymbolTable
 70
     1
  0
APPID
  5
15
330
14
100
AcDbSymbolTableRecord
100
AcDbRegAppTableRecord
  2
ACAD
 70
     0
  0
ENDTAB
  0
TABLE
  2
DIMSTYLE
  5
16
330
0
100
AcDbSymbolTable
 70
     1
  0
DIMSTYLE
105
1D
102
{ACAD_REACTORS
330
1E
330
4E
330
A4
102
}
330
16
100
AcDbSymbolTableRecord
100
AcDbDimStyleTableRecord
  2
STANDARD
 70
     0
  3

  4

  5

  6

  7

 40
1.0
 41
0.18
 42
0.0625
 43
0.38
 44
0.18
 45
0.0
 46
0.0
 47
0.0
 48
0.0
140
0.18
141
0.09
142
0.0
143
25.4
144
1.0
145
0.0
146
1.0
147
0.09
 71
     0
 72
     0
 73
     1
 74
     1
 75
     0
 76
     0
 77
     0
 78
     0
170
     0
171
     2
172
     0
173
     0
174
     0
175
     0
176
     0
177
     0
178
     0
270
     2
271
     4
272
     4
273
     2
274
     2
340
D
275
     0
280
     0
281
     0
282
     0
283
     1
284
     0
285
     0
286
     0
287
     3
288
     0
  0
ENDTAB
  0
TABLE
  2
BLOCK_RECORD
  5
1
330
0
100
AcDbSymbolTable
 70
     3
  0
BLOCK_RECORD
  5
2
102
{ACAD_XDICTIONARY
360
FD
102
}
330
1
100
AcDbSymbolTableRecord
100
AcDbBlockTableRecord
  2
*MODEL_SPACE
  0
BLOCK_RECORD
  5
8
102
{ACAD_XDICTIONARY
360
FF
102
}
330
1
100
AcDbSymbolTableRecord
100
AcDbBlockTableRecord
  2
*PAPER_SPACE
  0
BLOCK_RECORD
  5
101
330
1
100
AcDbSymbolTableRecord
100
AcDbBlockTableRecord
  2
*D0
  0
BLOCK_RECORD
  5
110
330
1
100
AcDbSymbolTableRecord
100
AcDbBlockTableRecord
  2
*D1
  0
BLOCK_RECORD
  5
11D
330
1
100
AcDbSymbolTableRecord
100
AcDbBlockTableRecord
  2
*D2
  0
ENDTAB
  0
ENDSEC
  0
SECTION
  2
BLOCKS
  0
BLOCK
  5
3
330
2
100
AcDbEntity
  8
0
100
AcDbBlockBegin
  2
*MODEL_SPACE
 70
     0
 10
0.0
 20
0.0
 30
0.0
  3
*MODEL_SPACE
  1

  0
ENDBLK
  5
7
330
2
100
AcDbEntity
  8
0
100
AcDbBlockEnd
  0
BLOCK
  5
9
330
8
100
AcDbEntity
 67
     1
  8
0
100
AcDbBlockBegin
  2
*PAPER_SPACE
 70
     0
 10
0.0
 20
0.0
 30
0.0
  3
*PAPER_SPACE
  1

  0
ENDBLK
  5
A
330
8
100
AcDbEntity
 67
     1
  8
0
100
AcDbBlockEnd
  0
BLOCK
  5
10C
330
101
100
AcDbEntity
  8
0
100
AcDbBlockBegin
  2
*D0
 70
     1
 10
0.0
 20
0.0
 30
0.0
  3
*D0
  1

  0
LINE
  5
2D8
330
101
100
AcDbEntity
  8
ADPDIM
 62
     0
100
AcDbLine
 10
25.37293819642157
 20
16.3090098378851
 30
0.0
 11
25.37293819642157
 21
16.6765098378851
 31
0.0
  0
LINE
  5
2D9
330
101
100
AcDbEntity
  8
ADPDIM
 62
     0
100
AcDbLine
 10
26.37293819642157
 20
16.3090098378851
 30
0.0
 11
26.37293819642157
 21
16.6765098378851
 31
0.0
  0
LINE
  5
2DA
330
101
100
AcDbEntity
  8
ADPDIM
 62
     0
100
AcDbLine
 10
25.37293819642157
 20
16.4965098378851
 30
0.0
 11
25.72710486308824
 21
16.4965098378851
 31
0.0
  0
LINE
  5
2DB
330
101
100
AcDbEntity
  8
ADPDIM
 62
     0
100
AcDbLine
 10
26.37293819642157
 20
16.4965098378851
 30
0.0
 11
26.0187715297549
 21
16.4965098378851
 31
0.0
  0
LINE
  5
2DC
330
101
100
AcDbEntity
  8
ADPDIM
 62
     0
100
AcDbLine
 10
26.24793819642157
 20
16.3715098378851
 30
0.0
 11
26.49793819642157
 21
16.6215098378851
 31
0.0
  0
LINE
  5
2DD
330
101
100
AcDbEntity
  8
ADPDIM
 62
     0
100
AcDbLine
 10
25.24793819642157
 20
16.3715098378851
 30
0.0
 11
25.49793819642157
 21
16.6215098378851
 31
0.0
  0
MTEXT
  5
2DE
330
101
100
AcDbEntity
  8
ADPDIM
 62
     0
100
AcDbMText
 10
25.87293819642157
 20
16.4965098378851
 30
0.0
 40
0.125
 41
0.0
 71
     5
 72
     1
  1
\A1;1
  0
POINT
  5
2DF
330
101
100
AcDbEntity
  8
DEFPOINTS
 62
     0
100
AcDbPoint
 10
25.37293819642157
 20
16.2465098378851
 30
0.0
  0
POINT
  5
2E0
330
101
100
AcDbEntity
  8
DEFPOINTS
 62
     0
100
AcDbPoint
 10
26.37293819642157
 20
16.2465098378851
 30
0.0
  0
POINT
  5
2E1
330
101
100
AcDbEntity
  8
DEFPOINTS
 62
     0
100
AcDbPoint
 10
26.37293819642157
 20
16.4965098378851
 30
0.0
  0
ENDBLK
  5
10D
330
101
100
AcDbEntity
  8
0
100
AcDbBlockEnd
  0
BLOCK
  5
11B
330
110
100
AcDbEntity
  8
0
100
AcDbBlockBegin
  2
*D1
 70
     1
 10
0.0
 20
0.0
 30
0.0
  3
*D1
  1

  0
LINE
  5
2E2
330
110
100
AcDbEntity
  8
ADPDIM
 62
     0
100
AcDbLine
 10
25.74793819642157
 20
14.7465098378851
 30
0.0
 11
24.75543819642157
 21
14.7465098378851
 31
0.0
  0
LINE
  5
2E3
330
110
100
AcDbEntity
  8
ADPDIM
 62
     0
100
AcDbLine
 10
25.24793819642157
 20
16.2465098378851
 30
0.0
 11
24.75543819642157
 21
16.2465098378851
 31
0.0
  0
LINE
  5
2E4
330
110
100
AcDbEntity
  8
ADPDIM
 62
     0
100
AcDbLine
 10
24.93543819642157
 20
14.7465098378851
 30
0.0
 11
24.93543819642157
 21
15.1215098378851
 31
0.0
  0
LINE
  5
2E5
330
110
100
AcDbEntity
  8
ADPDIM
 62
     0
100
AcDbLine
 10
24.93543819642157
 20
16.2465098378851
 30
0.0
 11
24.93543819642157
 21
15.8715098378851
 31
0.0
  0
LINE
  5
2E6
330
110
100
AcDbEntity
  8
ADPDIM
 62
     0
100
AcDbLine
 10
25.06043819642157
 20
16.1215098378851
 30
0.0
 11
24.81043819642157
 21
16.3715098378851
 31
0.0
  0
LINE
  5
2E7
330
110
100
AcDbEntity
  8
ADPDIM
 62
     0
100
AcDbLine
 10
25.06043819642157
 20
14.6215098378851
 30
0.0
 11
24.81043819642157
 21
14.8715098378851
 31
0.0
  0
MTEXT
  5
2E8
330
110
100
AcDbEntity
  8
ADPDIM
 62
     0
100
AcDbMText
 10
24.93543819642157
 20
15.4965098378851
 30
0.0
 40
0.125
 41
0.0
 71
     5
 72
     1
  1
\A1;1 1/2
 11
0.0000000000000001
 21
1.0
 31
0.0
  0
POINT
  5
2E9
330
110
100
AcDbEntity
  8
DEFPOINTS
 62
     0
100
AcDbPoint
 10
25.81043819642157
 20
14.7465098378851
 30
0.0
  0
POINT
  5
2EA
330
110
100
AcDbEntity
  8
DEFPOINTS
 62
     0
100
AcDbPoint
 10
25.31043819642157
 20
16.2465098378851
 30
0.0
  0
POINT
  5
2EB
330
110
100
AcDbEntity
  8
DEFPOINTS
 62
     0
100
AcDbPoint
 10
24.93543819642157
 20
16.2465098378851
 30
0.0
  0
ENDBLK
  5
11C
330
110
100
AcDbEntity
  8
0
100
AcDbBlockEnd
  0
BLOCK
  5
128
330
11D
100
AcDbEntity
  8
0
100
AcDbBlockBegin
  2
*D2
 70
     1
 10
0.0
 20
0.0
 30
0.0
  3
*D2
  1

  0
LINE
  5
2EC
330
11D
100
AcDbEntity
  8
ADPDIM
 62
     0
100
AcDbLine
 10
20.87577179815349
 20
15.23449630959494
 30
0.0
 11
20.87577179815349
 21
16.68607240583087
 31
0.0
  0
LINE
  5
2ED
330
11D
100
AcDbEntity
  8
ADPDIM
 62
     0
100
AcDbLine
 10
23.62577179815348
 20
16.29851537337268
 30
0.0
 11
23.62577179815348
 21
16.68607240583087
 31
0.0
  0
LINE
  5
2EE
330
11D
100
AcDbEntity
  8
ADPDIM
 62
     0
100
AcDbLine
 10
20.87577179815349
 20
16.50607240583087
 30
0.0
 11
21.83410513148682
 21
16.50607240583087
 31
0.0
  0
LINE
  5
2EF
330
11D
100
AcDbEntity
  8
ADPDIM
 62
     0
100
AcDbLine
 10
23.62577179815348
 20
16.50607240583087
 30
0.0
 11
22.66743846482015
 21
16.50607240583087
 31
0.0
  0
LINE
  5
2F0
330
11D
100
AcDbEntity
  8
ADPDIM
 62
     0
100
AcDbLine
 10
23.50077179815348
 20
16.38107240583087
 30
0.0
 11
23.75077179815348
 21
16.63107240583087
 31
0.0
  0
LINE
  5
2F1
330
11D
100
AcDbEntity
  8
ADPDIM
 62
     0
100
AcDbLine
 10
20.75077179815349
 20
16.38107240583087
 30
0.0
 11
21.00077179815349
 21
16.63107240583087
 31
0.0
  0
MTEXT
  5
2F2
330
11D
100
AcDbEntity
  8
ADPDIM
 62
     0
100
AcDbMText
 10
22.25077179815349
 20
16.50607240583087
 30
0.0
 40
0.125
 41
0.0
 71
     5
 72
     1
  1
\A1;2 3/4
  0
POINT
  5
2F3
330
11D
100
AcDbEntity
  8
DEFPOINTS
 62
     0
100
AcDbPoint
 10
20.87577179815349
 20
15.17199630959494
 30
0.0
  0
POINT
  5
2F4
330
11D
100
AcDbEntity
  8
DEFPOINTS
 62
     0
100
AcDbPoint
 10
23.62577179815348
 20
16.23601537337268
 30
0.0
  0
POINT
  5
2F5
330
11D
100
AcDbEntity
  8
DEFPOINTS
 62
     0
100
AcDbPoint
 10
23.62577179815348
 20
16.50607240583087
 30
0.0
  0
ENDBLK
  5
129
330
11D
100
AcDbEntity
  8
0
100
AcDbBlockEnd
  0
ENDSEC
  0
SECTION
  2
ENTITIES
  0
DIMENSION
  5
1E
330
2
100
AcDbEntity
  8
ADPDIM
100
AcDbDimension
  2
*D0
 10
26.37293819642157
 20
16.4965098378851
 30
0.0
 11
25.87293819642157
 21
16.4965098378851
 31
0.0
 70
    32
  3
STANDARD
100
AcDbAlignedDimension
 13
25.37293819642157
 23
16.2465098378851
 33
0.0
 14
26.37293819642157
 24
16.2465098378851
 34
0.0
100
AcDbRotatedDimension
1001
ACAD
1000
DSTYLE
1002
{
1070
   270
1070
     7
1070
   270
1070
     7
1070
   270
1070
     7
1070
   270
1070
     7
1070
   270
1070
     7
1070
   270
1070
     7
1070
    41
1040
0.125
1070
    73
1070
     0
1070
    74
1070
     0
1070
    78
1070
     2
1070
   140
1040
0.125
1070
   141
1040
0.1875
1070
   142
1040
0.125
1070
   147
1040
0.125
1070
   171
1070
     1
1070
   276
1070
     2
1070
   277
1070
     5
1002
}
  0
LINE
  5
2D
330
2
100
AcDbEntity
  8
ADP1DETAIL
100
AcDbLine
 10
25.38009451404086
 20
16.25607240583087
 30
0.0
 11
26.38009451404086
 21
16.25607240583087
 31
0.0
  0
LINE
  5
2F
330
2
100
AcDbEntity
  8
ADP1DETAIL
100
AcDbLine
 10
25.38009451404086
 20
16.21525782767421
 30
0.0
 11
26.38009451404086
 21
16.21525782767421
 31
0.0
  0
LINE
  5
30
330
2
100
AcDbEntity
  8
ADP1DETAIL
100
AcDbLine
 10
25.38009451404086
 20
16.03980838691212
 30
0.0
 11
26.38009451404086
 21
16.03980838691212
 31
0.0
  0
LINE
  5
31
330
2
100
AcDbEntity
  8
ADP1DETAIL
100
AcDbLine
 10
25.39604781155121
 20
16.00081964566526
 30
0.0
 11
26.36414121653051
 21
16.00081964566526
 31
0.0
  0
LINE
  5
32
330
2
100
AcDbEntity
  8
ADP1DETAIL
100
AcDbLine
 10
25.48560013465483
 20
14.56798247600737
 30
0.0
 11
25.61215620298836
 21
14.56798247600737
 31
0.0
  0
LINE
  5
33
330
2
100
AcDbEntity
  8
ADP1DETAIL
100
AcDbLine
 10
25.46245055420496
 20
14.93837576320539
 30
0.0
 11
25.65549555045658
 21
14.93837576320539
 31
0.0
  0
CIRCLE
  5
34
330
2
100
AcDbEntity
  8
ADP1DETAIL
100
AcDbCircle
 10
25.87033878503939
 20
15.47403483711449
 30
0.0
 40
0.094
  0
CIRCLE
  5
35
330
2
100
AcDbEntity
  8
ADP1DETAIL
100
AcDbCircle
 10
25.88290315235787
 20
14.72403483711449
 30
0.0
 40
0.2859512779740925
  0
LINE
  5
36
330
2
100
AcDbEntity
  8
ADP1DETAIL
100
AcDbLine
 10
25.40396740728426
 20
15.87410611393654
 30
0.0
 11
26.35622162079747
 21
15.87410611393654
 31
0.0
  0
LINE
  5
37
330
2
100
AcDbEntity
  8
ADP1DETAIL
100
AcDbLine
 10
24.13077179815349
 20
16.1746423518229
 30
0.0
 11
24.13077179815349
 21
16.0404638872713
 31
0.0
  0
LINE
  5
38
330
2
100
AcDbEntity
  8
ADP1DETAIL
100
AcDbLine
 10
23.99631090214433
 20
15.98479773460441
 30
0.0
 11
24.1067361637451
 21
16.01025631186535
 31
0.0
  0
ARC
  5
39
330
2
100
AcDbEntity
  8
ADP1DETAIL
100
AcDbCircle
 10
24.09977179815348
 20
16.0404638872713
 30
0.0
 40
0.031
100
AcDbArc
 50
282.9827066843664
 51
0.0
  0
LINE
  5
3A
330
2
100
AcDbEntity
  8
ADP1DETAIL
100
AcDbLine
 10
23.99631090214433
 20
15.98479773460441
 30
0.0
 11
23.86397545468236
 21
15.98479773460441
 31
0.0
  0
ARC
  5
3B
330
2
100
AcDbEntity
  8
ADP1DETAIL
100
AcDbCircle
 10
24.09977179815348
 20
16.1746423518229
 30
0.0
 40
0.031
100
AcDbArc
 50
0.0
 51
86.48724123885873
  0
LINE
  5
3C
330
2
100
AcDbEntity
  8
ADP1DETAIL
100
AcDbLine
 10
23.86397545468236
 20
15.85449630959494
 30
0.0
 11
23.99577179815348
 21
15.85449630959494
 31
0.0
  0
LINE
  5
3D
330
2
100
AcDbEntity
  8
ADP1DETAIL
100
AcDbLine
 10
24.00577179815349
 20
15.04699630959494
 30
0.0
 11
24.12651252643962
 21
15.01464392895712
 31
0.0
  0
ARC
  5
3E
330
2
100
AcDbEntity
  8
ADP2DETAIL
  6
HIDDEN2
100
AcDbCircle
 10
24.82723225633125
 20
14.73449630959494
 30
0.0
 40
0.75
100
AcDbArc
 50
180.0
 51
201.7802251253252
  0
ARC
  5
41
330
2
100
AcDbEntity
  8
ADP2DETAIL
  6
HIDDEN2
100
AcDbCircle
 10
24.82723225633125
 20
14.73449630959494
 30
0.0
 40
0.75
100
AcDbArc
 50
158.2197748746747
 51
180.0
  0
LINE
  5
42
330
2
100
AcDbEntity
  8
ADP1DETAIL
100
AcDbLine
 10
24.12651252643962
 20
15.01464392895712
 30
0.0
 11
24.12651252643962
 21
15.01464392895712
 31
0.0
  0
LINE
  5
43
330
2
100
AcDbEntity
  8
ADP1DETAIL
100
AcDbLine
 10
24.12651252643962
 20
14.45434869023275
 30
0.0
 11
24.12651252643962
 21
14.45434869023275
 31
0.0
  0
LINE
  5
44
330
2
100
AcDbEntity
  8
ADP1DETAIL
100
AcDbLine
 10
24.13077179815349
 20
14.45621079039778
 30
0.0
 11
24.13077179815349
 21
14.73449630959494
 31
0.0
  0
LINE
  5
45
330
2
100
AcDbEntity
  8
ADP1DETAIL
100
AcDbLine
 10
24.13077179815349
 20
15.01278182879209
 30
0.0
 11
24.13077179815349
 21
14.73449630959494
 31
0.0
  0
LINE
  5
46
330
2
100
AcDbEntity
  8
ADP1DETAIL
100
AcDbLine
 10
24.13077179815349
 20
15.01601041106269
 30
0.0
 11
24.13077179815349
 21
14.73772489186553
 31
0.0
  0
ARC
  5
47
330
2
100
AcDbEntity
  8
ADP1DETAIL
100
AcDbCircle
 10
24.82723225633124
 20
14.73772489186553
 30
0.0
 40
0.75
100
AcDbArc
 50
158.2197748746747
 51
180.0
  0
ARC
  5
48
330
2
100
AcDbEntity
  8
ADP1DETAIL
100
AcDbCircle
 10
24.82723225633124
 20
14.73772489186553
 30
0.0
 40
0.75
100
AcDbArc
 50
180.0
 51
201.7802251253252
  0
LINE
  5
49
330
2
100
AcDbEntity
  8
ADP1DETAIL
100
AcDbLine
 10
24.13077179815349
 20
14.45943937266838
 30
0.0
 11
24.13077179815349
 21
14.73772489186553
 31
0.0
  0
LINE
  5
4A
330
2
100
AcDbEntity
  8
ADP1DETAIL
100
AcDbLine
 10
24.12651252643962
 20
14.45757727250335
 30
0.0
 11
24.12651252643962
 21
14.45757727250335
 31
0.0
  0
LINE
  5
4B
330
2
100
AcDbEntity
  8
ADP1DETAIL
100
AcDbLine
 10
24.12651252643962
 20
15.01787251122772
 30
0.0
 11
24.12651252643962
 21
15.01787251122772
 31
0.0
  0
LINE
  5
4C
330
2
100
AcDbEntity
  8
ADP1DETAIL
100
AcDbLine
 10
24.00577179815349
 20
15.05022489186553
 30
0.0
 11
24.12651252643962
 21
15.01787251122772
 31
0.0
  0
LINE
  5
4D
330
2
100
AcDbEntity
  8
ADP1DETAIL
100
AcDbLine
 10
23.86077179815348
 20
15.98949630959494
 30
0.0
 11
23.86077179815348
 21
15.85449630959494
 31
0.0
  0
DIMENSION
  5
4E
330
2
100
AcDbEntity
  8
ADPDIM
100
AcDbDimension
  2
*D1
 10
24.93543819642157
 20
16.2465098378851
 30
0.0
 11
24.93543819642157
 21
15.4965098378851
 31
0.0
 70
    32
  3
STANDARD
100
AcDbAlignedDimension
 13
25.81043819642157
 23
14.7465098378851
 33
0.0
 14
25.31043819642157
 24
16.2465098378851
 34
0.0
 50
90.0
100
AcDbRotatedDimension
1001
ACAD
1000
DSTYLE
1002
{
1070
   270
1070
     7
1070
   270
1070
     7
1070
   270
1070
     7
1070
   270
1070
     7
1070
   270
1070
     7
1070
   270
1070
     7
1070
    41
1040
0.125
1070
    73
1070
     0
1070
    74
1070
     0
1070
    78
1070
     2
1070
   140
1040
0.125
1070
   141
1040
0.1875
1070
   142
1040
0.125
1070
   147
1040
0.125
1070
   171
1070
     1
1070
   276
1070
     2
1070
   277
1070
     5
1002
}
  0
LINE
  5
5C
330
2
100
AcDbEntity
  8
ADP1DETAIL
100
AcDbLine
 10
26.25057719821335
 20
14.23889540409043
 30
0.0
 11
25.50057719821335
 21
14.23889540409043
 31
0.0
  0
CIRCLE
  5
5D
330
2
100
AcDbEntity
  8
ADP1DETAIL
100
AcDbCircle
 10
25.88290315235787
 20
14.72403483711449
 30
0.0
 40
0.3125
  0
LINE
  5
5E
330
2
100
AcDbEntity
  8
ADP1DETAIL
100
AcDbLine
 10
25.50509451404086
 20
14.25607240583087
 30
0.0
 11
25.38009451404086
 21
16.25607240583087
 31
0.0
  0
LINE
  5
5F
330
2
100
AcDbEntity
  8
ADP1DETAIL
100
AcDbLine
 10
26.38009451404086
 20
16.25607240583087
 30
0.0
 11
26.25509451404086
 21
14.25607240583087
 31
0.0
  0
LINE
  5
60
330
2
100
AcDbEntity
  8
ADP1DETAIL
100
AcDbLine
 10
24.00577179815349
 20
14.42199630959494
 30
0.0
 11
24.12651252643962
 21
14.45434869023275
 31
0.0
  0
LINE
  5
61
330
2
100
AcDbEntity
  8
ADP1DETAIL
100
AcDbLine
 10
24.00577179815349
 20
14.42522489186553
 30
0.0
 11
24.12651252643962
 21
14.45757727250335
 31
0.0
  0
LINE
  5
62
330
2
100
AcDbEntity
  8
ADP1DETAIL
100
AcDbLine
 10
23.99577179815348
 20
15.85449630959494
 30
0.0
 11
23.99577179815348
 21
14.23949630959494
 31
0.0
  0
LINE
  5
63
330
2
100
AcDbEntity
  8
ADP1DETAIL
100
AcDbLine
 10
23.25523269416263
 20
15.98479773460441
 30
0.0
 11
23.38756803526556
 21
15.98479773460441
 31
0.0
  0
LINE
  5
64
330
2
100
AcDbEntity
  8
ADP1DETAIL
100
AcDbLine
 10
23.12077179815348
 20
16.1746423518229
 30
0.0
 11
23.12077179815348
 21
16.0404638872713
 31
0.0
  0
ARC
  5
65
330
2
100
AcDbEntity
  8
ADP1DETAIL
100
AcDbCircle
 10
23.15177179815348
 20
16.0404638872713
 30
0.0
 40
0.031
100
AcDbArc
 50
180.0
 51
257.0172933156335
  0
ARC
  5
66
330
2
100
AcDbEntity
  8
ADP1DETAIL
100
AcDbCircle
 10
23.15177179815348
 20
16.1746423518229
 30
0.0
 40
0.031
100
AcDbArc
 50
93.51275876114126
 51
180.0
  0
LINE
  5
67
330
2
100
AcDbEntity
  8
ADP1DETAIL
100
AcDbLine
 10
23.25523269416263
 20
15.98479773460441
 30
0.0
 11
23.14480743256186
 21
16.01025631186535
 31
0.0
  0
LINE
  5
68
330
2
100
AcDbEntity
  8
ADP1DETAIL
100
AcDbLine
 10
23.62577179815348
 20
16.23479773460441
 30
0.0
 11
23.14987240319655
 21
16.20558410837933
 31
0.0
  0
LINE
  5
69
330
2
100
AcDbEntity
  8
ADP1DETAIL
100
AcDbLine
 10
23.38756803526556
 20
15.85449630959494
 30
0.0
 11
23.25577179815348
 21
15.85449630959494
 31
0.0
  0
LINE
  5
6A
330
2
100
AcDbEntity
  8
ADP1DETAIL
100
AcDbLine
 10
22.49673403101522
 20
14.4853291261564
 30
0.0
 11
22.49673403101522
 21
14.98366349303347
 31
0.0
  0
LINE
  5
6B
330
2
100
AcDbEntity
  8
ADP1DETAIL
100
AcDbLine
 10
22.50077179815349
 20
14.98449630959494
 30
0.0
 11
23.25577179815348
 21
15.04699630959494
 31
0.0
  0
LINE
  5
6C
330
2
100
AcDbEntity
  8
ADP1DETAIL
100
AcDbLine
 10
23.39077179815348
 20
15.98949630959494
 30
0.0
 11
23.39077179815348
 21
15.85449630959494
 31
0.0
  0
LINE
  5
6D
330
2
100
AcDbEntity
  8
ADP1DETAIL
100
AcDbLine
 10
23.62577179815348
 20
14.92149630959494
 30
0.0
 11
23.62577179815348
 21
16.23601537337268
 31
0.0
  0
LINE
  5
6E
330
2
100
AcDbEntity
  8
ADP1DETAIL
100
AcDbLine
 10
21.00067220420012
 20
15.13799385238251
 30
0.0
 11
21.00077179815349
 21
14.73449630959494
 31
0.0
  0
LINE
  5
6F
330
2
100
AcDbEntity
  8
ADP1DETAIL
100
AcDbLine
 10
21.00077179815349
 20
15.10949630959494
 30
0.0
 11
22.50077179815349
 21
14.98449630959494
 31
0.0
  0
LINE
  5
70
330
2
100
AcDbEntity
  8
ADP1DETAIL
100
AcDbLine
 10
20.84477179815349
 20
14.92249630959494
 30
0.0
 11
20.81377179815349
 21
14.98449630959494
 31
0.0
  0
LINE
  5
71
330
2
100
AcDbEntity
  8
ADP1DETAIL
100
AcDbLine
 10
20.87577179815349
 20
14.98449630959494
 30
0.0
 11
20.84477179815349
 21
14.92249630959494
 31
0.0
  0
LINE
  5
72
330
2
100
AcDbEntity
  8
ADP1DETAIL
100
AcDbLine
 10
20.75177179815349
 20
14.98449630959494
 30
0.0
 11
20.72077179815349
 21
14.92249630959494
 31
0.0
  0
LINE
  5
73
330
2
100
AcDbEntity
  8
ADP1DETAIL
100
AcDbLine
 10
20.72077179815349
 20
14.92249630959494
 30
0.0
 11
20.68977179815349
 21
14.98449630959494
 31
0.0
  0
LINE
  5
74
330
2
100
AcDbEntity
  8
ADP1DETAIL
100
AcDbLine
 10
20.78277179815349
 20
14.92249630959494
 30
0.0
 11
20.75177179815349
 21
14.98449630959494
 31
0.0
  0
LINE
  5
75
330
2
100
AcDbEntity
  8
ADP1DETAIL
100
AcDbLine
 10
20.81377179815349
 20
14.98449630959494
 30
0.0
 11
20.78277179815349
 21
14.92249630959494
 31
0.0
  0
LINE
  5
76
330
2
100
AcDbEntity
  8
ADP1DETAIL
100
AcDbLine
 10
20.84404690618623
 20
14.48449630959494
 30
0.0
 11
20.81304690618623
 21
14.54649630959494
 31
0.0
  0
LINE
  5
77
330
2
100
AcDbEntity
  8
ADP1DETAIL
100
AcDbLine
 10
20.87504690618623
 20
14.54649630959494
 30
0.0
 11
20.84404690618623
 21
14.48449630959494
 31
0.0
  0
LINE
  5
78
330
2
100
AcDbEntity
  8
ADP1DETAIL
100
AcDbLine
 10
20.75104690618623
 20
14.54649630959494
 30
0.0
 11
20.72004690618623
 21
14.48449630959494
 31
0.0
  0
LINE
  5
79
330
2
100
AcDbEntity
  8
ADP1DETAIL
100
AcDbLine
 10
20.72057659640358
 20
14.48449630959494
 30
0.0
 11
20.68957659640358
 21
14.54649630959494
 31
0.0
  0
LINE
  5
7A
330
2
100
AcDbEntity
  8
ADP1DETAIL
100
AcDbLine
 10
20.78204690618623
 20
14.48449630959494
 30
0.0
 11
20.75104690618623
 21
14.54649630959494
 31
0.0
  0
LINE
  5
7B
330
2
100
AcDbEntity
  8
ADP1DETAIL
100
AcDbLine
 10
20.81304690618623
 20
14.54649630959494
 30
0.0
 11
20.78204690618623
 21
14.48449630959494
 31
0.0
  0
LINE
  5
7C
330
2
100
AcDbEntity
  8
ADP1DETAIL
100
AcDbLine
 10
20.72077179815349
 20
14.92249630959494
 30
0.0
 11
20.75104690618623
 21
14.54649630959494
 31
0.0
  0
LINE
  5
7D
330
2
100
AcDbEntity
  8
ADP1DETAIL
100
AcDbLine
 10
20.78277179815349
 20
14.92249630959494
 30
0.0
 11
20.81304690618623
 21
14.54649630959494
 31
0.0
  0
LINE
  5
7E
330
2
100
AcDbEntity
  8
ADP1DETAIL
100
AcDbLine
 10
20.84477179815349
 20
14.92249630959494
 30
0.0
 11
20.87504690618623
 21
14.54649630959494
 31
0.0
  0
LINE
  5
7F
330
2
100
AcDbEntity
  8
ADP1DETAIL
100
AcDbLine
 10
20.87577179815349
 20
14.73449630959494
 30
0.0
 11
20.87577179815349
 21
15.17199630959494
 31
0.0
  0
LINE
  5
80
330
2
100
AcDbEntity
  8
ADP1DETAIL
100
AcDbLine
 10
20.65930148837085
 20
14.92249630959494
 30
0.0
 11
20.62830148837085
 21
14.98449630959494
 31
0.0
  0
LINE
  5
81
330
2
100
AcDbEntity
  8
ADP1DETAIL
100
AcDbLine
 10
20.65707035610359
 20
14.48449630959494
 30
0.0
 11
20.62607035610359
 21
14.54649630959494
 31
0.0
  0
LINE
  5
82
330
2
100
AcDbEntity
  8
ADP1DETAIL
100
AcDbLine
 10
20.69030148837085
 20
14.98449630959494
 30
0.0
 11
20.65930148837085
 21
14.92249630959494
 31
0.0
  0
LINE
  5
83
330
2
100
AcDbEntity
  8
ADP1DETAIL
100
AcDbLine
 10
20.68957659640358
 20
14.54649630959494
 30
0.0
 11
20.65857659640359
 21
14.48449630959494
 31
0.0
  0
LINE
  5
84
330
2
100
AcDbEntity
  8
ADP1DETAIL
100
AcDbLine
 10
20.65930148837085
 20
14.92249630959494
 30
0.0
 11
20.68957659640358
 21
14.54649630959494
 31
0.0
  0
LINE
  5
85
330
2
100
AcDbEntity
  8
ADP1DETAIL
100
AcDbLine
 10
20.59356411580361
 20
14.48449630959494
 30
0.0
 11
20.5625641158036
 21
14.54649630959494
 31
0.0
  0
LINE
  5
86
330
2
100
AcDbEntity
  8
ADP1DETAIL
100
AcDbLine
 10
20.56328900777086
 20
14.98449630959494
 30
0.0
 11
20.53228900777086
 21
14.92249630959494
 31
0.0
  0
LINE
  5
87
330
2
100
AcDbEntity
  8
ADP1DETAIL
100
AcDbLine
 10
20.46878276747087
 20
14.92249630959494
 30
0.0
 11
20.43778276747087
 21
14.98449630959494
 31
0.0
  0
LINE
  5
88
330
2
100
AcDbEntity
  8
ADP1DETAIL
100
AcDbLine
 10
20.49978276747087
 20
14.98449630959494
 30
0.0
 11
20.46878276747087
 21
14.92249630959494
 31
0.0
  0
LINE
  5
89
330
2
100
AcDbEntity
  8
ADP1DETAIL
100
AcDbLine
 10
20.53228900777086
 20
14.92249630959494
 30
0.0
 11
20.50128900777086
 21
14.98449630959494
 31
0.0
  0
LINE
  5
8A
330
2
100
AcDbEntity
  8
ADP1DETAIL
100
AcDbLine
 10
20.37427648035563
 20
14.98449630959494
 30
0.0
 11
20.34754354314023
 21
14.92249630959494
 31
0.0
  0
LINE
  5
8B
330
2
100
AcDbEntity
  8
ADP1DETAIL
100
AcDbLine
 10
20.40527648035563
 20
14.92249630959494
 30
0.0
 11
20.37427648035563
 21
14.98449630959494
 31
0.0
  0
LINE
  5
8C
330
2
100
AcDbEntity
  8
ADP1DETAIL
100
AcDbLine
 10
20.43627648035563
 20
14.98449630959494
 30
0.0
 11
20.40527648035563
 21
14.92249630959494
 31
0.0
  0
LINE
  5
8D
330
2
100
AcDbEntity
  8
ADP1DETAIL
100
AcDbLine
 10
20.34754354314023
 20
14.92249630959494
 30
0.0
 11
20.31654354314023
 21
14.98449630959494
 31
0.0
  0
LINE
  5
8E
330
2
100
AcDbEntity
  8
ADP1DETAIL
100
AcDbLine
 10
20.46655158838837
 20
14.48449630959494
 30
0.0
 11
20.43555158838838
 21
14.54649630959494
 31
0.0
  0
LINE
  5
8F
330
2
100
AcDbEntity
  8
ADP1DETAIL
100
AcDbLine
 10
20.49905787550361
 20
14.54649630959494
 30
0.0
 11
20.46805787550361
 21
14.48449630959494
 31
0.0
  0
LINE
  5
90
330
2
100
AcDbEntity
  8
ADP1DETAIL
100
AcDbLine
 10
20.53005787550361
 20
14.48449630959494
 30
0.0
 11
20.49905787550361
 21
14.54649630959494
 31
0.0
  0
LINE
  5
91
330
2
100
AcDbEntity
  8
ADP1DETAIL
100
AcDbLine
 10
20.37781865117297
 20
14.54649630959494
 30
0.0
 11
20.34681865117297
 21
14.48449630959494
 31
0.0
  0
LINE
  5
92
330
2
100
AcDbEntity
  8
ADP1DETAIL
100
AcDbLine
 10
20.34531241087298
 20
14.48449630959494
 30
0.0
 11
20.31431241087298
 21
14.54649630959494
 31
0.0
  0
LINE
  5
93
330
2
100
AcDbEntity
  8
ADP1DETAIL
100
AcDbLine
 10
20.40455158838838
 20
14.48449630959494
 30
0.0
 11
20.37781865117297
 21
14.54649630959494
 31
0.0
  0
LINE
  5
94
330
2
100
AcDbEntity
  8
ADP1DETAIL
100
AcDbLine
 10
20.43555158838838
 20
14.54649630959494
 30
0.0
 11
20.40455158838838
 21
14.48449630959494
 31
0.0
  0
LINE
  5
95
330
2
100
AcDbEntity
  8
ADP1DETAIL
100
AcDbLine
 10
20.34754354314023
 20
14.92249630959494
 30
0.0
 11
20.37781865117297
 21
14.54649630959494
 31
0.0
  0
LINE
  5
96
330
2
100
AcDbEntity
  8
ADP1DETAIL
100
AcDbLine
 10
20.40527648035563
 20
14.92249630959494
 30
0.0
 11
20.43555158838838
 21
14.54649630959494
 31
0.0
  0
LINE
  5
97
330
2
100
AcDbEntity
  8
ADP1DETAIL
100
AcDbLine
 10
20.46878276747087
 20
14.92249630959494
 30
0.0
 11
20.49905787550361
 21
14.54649630959494
 31
0.0
  0
LINE
  5
98
330
2
100
AcDbEntity
  8
ADP1DETAIL
100
AcDbLine
 10
20.53228900777086
 20
14.92249630959494
 30
0.0
 11
20.5625641158036
 21
14.54649630959494
 31
0.0
  0
LINE
  5
99
330
2
100
AcDbEntity
  8
ADP1DETAIL
100
AcDbLine
 10
20.5625641158036
 20
14.54649630959494
 30
0.0
 11
20.5315641158036
 21
14.48449630959494
 31
0.0
  0
LINE
  5
9A
330
2
100
AcDbEntity
  8
ADP1DETAIL
100
AcDbLine
 10
20.59579524807085
 20
14.92249630959494
 30
0.0
 11
20.56479524807085
 21
14.98449630959494
 31
0.0
  0
LINE
  5
9B
330
2
100
AcDbEntity
  8
ADP1DETAIL
100
AcDbLine
 10
20.31503730284024
 20
14.98449630959494
 30
0.0
 11
20.28403730284023
 21
14.92249630959494
 31
0.0
  0
LINE
  5
9C
330
2
100
AcDbEntity
  8
ADP1DETAIL
100
AcDbLine
 10
20.31431241087298
 20
14.54649630959494
 30
0.0
 11
20.28331241087298
 21
14.48449630959494
 31
0.0
  0
LINE
  5
9D
330
2
100
AcDbEntity
  8
ADP1DETAIL
100
AcDbLine
 10
20.28403730284023
 20
14.92249630959494
 30
0.0
 11
20.31431241087298
 21
14.54649630959494
 31
0.0
  0
LINE
  5
9E
330
2
100
AcDbEntity
  8
ADP1DETAIL
100
AcDbLine
 10
20.62679524807085
 20
14.98449630959494
 30
0.0
 11
20.59579524807085
 21
14.92249630959494
 31
0.0
  0
LINE
  5
9F
330
2
100
AcDbEntity
  8
ADP1DETAIL
100
AcDbLine
 10
20.62607035610359
 20
14.54649630959494
 30
0.0
 11
20.59507035610359
 21
14.48449630959494
 31
0.0
  0
LINE
  5
A0
330
2
100
AcDbEntity
  8
ADP1DETAIL
100
AcDbLine
 10
20.59579524807085
 20
14.92249630959494
 30
0.0
 11
20.62607035610359
 21
14.54649630959494
 31
0.0
  0
LINE
  5
A1
330
2
100
AcDbEntity
  8
ADP1DETAIL
100
AcDbLine
 10
20.25077179815349
 20
14.98449630959494
 30
0.0
 11
20.25077179815349
 21
14.54548639508265
 31
0.0
  0
LINE
  5
A2
330
2
100
AcDbEntity
  8
ADP1DETAIL
100
AcDbLine
 10
20.28403730284023
 20
14.92249630959494
 30
0.0
 11
20.25303730284023
 21
14.98449630959494
 31
0.0
  0
LINE
  5
A3
330
2
100
AcDbEntity
  8
ADP1DETAIL
100
AcDbLine
 10
20.25077179815349
 20
14.54548639508265
 30
0.0
 11
20.28331241087298
 21
14.48449630959494
 31
0.0
  0
DIMENSION
  5
A4
330
2
100
AcDbEntity
  8
ADPDIM
100
AcDbDimension
  2
*D2
 10
23.62577179815348
 20
16.50607240583087
 30
0.0
 11
22.25077179815349
 21
16.50607240583087
 31
0.0
 70
    32
  3
STANDARD
100
AcDbAlignedDimension
 13
20.87577179815349
 23
15.17199630959494
 33
0.0
 14
23.62577179815348
 24
16.23601537337268
 34
0.0
100
AcDbRotatedDimension
1001
ACAD
1000
DSTYLE
1002
{
1070
   270
1070
     7
1070
   270
1070
     7
1070
   270
1070
     7
1070
   270
1070
     7
1070
   270
1070
     7
1070
   270
1070
     7
1070
    41
1040
0.125
1070
    73
1070
     0
1070
    74
1070
     0
1070
    78
1070
     2
1070
   140
1040
0.125
1070
   141
1040
0.1875
1070
   142
1040
0.125
1070
   147
1040
0.125
1070
   171
1070
     1
1070
   276
1070
     2
1070
   277
1070
     5
1002
}
  0
LINE
  5
B2
330
2
100
AcDbEntity
  8
ADP1DETAIL
100
AcDbLine
 10
20.87577179815349
 20
15.17199630959494
 30
0.0
 11
21.00067220420012
 21
15.13799385238251
 31
0.0
  0
LINE
  5
B3
330
2
100
AcDbEntity
  8
ADP1DETAIL
100
AcDbLine
 10
23.25577179815348
 20
14.23949630959494
 30
0.0
 11
23.62577179815348
 21
14.23949630959494
 31
0.0
  0
LINE
  5
B4
330
2
100
AcDbEntity
  8
ADP1DETAIL
100
AcDbLine
 10
20.87577179815349
 20
14.29699630959494
 30
0.0
 11
21.00067220420012
 21
14.33099876680736
 31
0.0
  0
LINE
  5
B5
330
2
100
AcDbEntity
  8
ADP1DETAIL
100
AcDbLine
 10
23.25577179815348
 20
14.42199630959494
 30
0.0
 11
22.50077179815349
 21
14.48449630959494
 31
0.0
  0
LINE
  5
B6
330
2
100
AcDbEntity
  8
ADP1DETAIL
100
AcDbLine
 10
23.62577179815348
 20
14.23949630959494
 30
0.0
 11
23.62577179815348
 21
14.55149630959494
 31
0.0
  0
LINE
  5
B7
330
2
100
AcDbEntity
  8
ADP1DETAIL
100
AcDbLine
 10
23.25577179815348
 20
15.85449630959494
 30
0.0
 11
23.25577179815348
 21
14.23949630959494
 31
0.0
  0
LINE
  5
B8
330
2
100
AcDbEntity
  8
ADP1DETAIL
100
AcDbLine
 10
20.87577179815349
 20
14.73449630959494
 30
0.0
 11
20.87577179815349
 21
14.29699630959494
 31
0.0
  0
LINE
  5
B9
330
2
100
AcDbEntity
  8
ADP1DETAIL
100
AcDbLine
 10
21.00067220420012
 20
14.33099876680736
 30
0.0
 11
21.00077179815349
 21
14.73449630959494
 31
0.0
  0
LINE
  5
BA
330
2
100
AcDbEntity
  8
ADP1DETAIL
100
AcDbLine
 10
22.50077179815349
 20
14.48449630959494
 30
0.0
 11
21.00077179815349
 21
14.35949630959494
 31
0.0
  0
LINE
  5
BB
330
2
100
AcDbEntity
  8
ADP1DETAIL
100
AcDbLine
 10
23.62577179815348
 20
16.23479773460441
 30
0.0
 11
24.10167119311041
 21
16.20558410837933
 31
0.0
  0
LWPOLYLINE
  5
BC
330
2
100
AcDbEntity
  8
ADP1DETAIL
100
AcDbPolyline
 90
        4
 70
     0
 43
0.0
 10
23.62577179815348
 20
14.92149630959494
 10
23.99577179815348
 20
14.92149630959494
 10
23.99577179815348
 20
14.55149630959494
 10
23.62577179815348
 20
14.55149630959494
  0
LINE
  5
C2
330
2
100
AcDbEntity
  8
ADP1DETAIL
100
AcDbLine
 10
23.99577179815348
 20
14.23949630959494
 30
0.0
 11
23.62577179815348
 21
14.23949630959494
 31
0.0
  0
TEXT
  5
CD
330
2
100
AcDbEntity
  8
ADPDIM
100
AcDbText
 10
18.73874839218226
 20
12.95079968111607
 30
0.0
 40
0.09375
  1
J U L I U S  B L U M  &  C O . ,  I N C .      ( 8 0 0 )  5 2 6 - 6 2 9 3        W W W . J U L I U S B L U M . C O M        P A R T  N O .  1 7 2
 41
1.25
  7
ARIAL_WIDE
 72
     1
 11
23.58292472233233
 21
13.04454968111607
 31
0.0
100
AcDbText
 73
     3
  0
ENDSEC
  0
SECTION
  2
OBJECTS
  0
DICTIONARY
  5
1A
330
0
100
AcDbDictionary
  3
ACAD_GROUP
350
18
  3
ACAD_LAYOUT
350
D2
  3
ACAD_MLINESTYLE
350
19
  3
ACAD_PLOTSETTINGS
350
D3
  3
ACAD_PLOTSTYLENAME
350
D0
  3
ACDBHEADERROUNDTRIPXREC
350
2B5
  3
ACDBVARIABLEDICTIONARY
350
12C
  0
DICTIONARY
  5
FD
330
2
100
AcDbDictionary
280
     1
  3
ACAD_LAYOUTSELFREF
360
2D6
  0
DICTIONARY
  5
FF
330
8
100
AcDbDictionary
280
     1
  3
ACAD_LAYOUTSELFREF
360
2D7
  0
DICTIONARY
  5
18
102
{ACAD_REACTORS
330
1A
102
}
330
1A
100
AcDbDictionary
  0
DICTIONARY
  5
D2
102
{ACAD_REACTORS
330
1A
102
}
330
1A
100
AcDbDictionary
  0
DICTIONARY
  5
19
102
{ACAD_REACTORS
330
1A
102
}
330
1A
100
AcDbDictionary
  3
STANDARD
350
1C
  0
DICTIONARY
  5
D3
102
{ACAD_REACTORS
330
1A
102
}
330
1A
100
AcDbDictionary
  0
ACDBDICTIONARYWDFLT
  5
D0
102
{ACAD_REACTORS
330
1A
102
}
330
1A
100
AcDbDictionary
281
     1
  3
Normal
350
D1
100
AcDbDictionaryWithDefault
340
D1
  0
DICTIONARY
  5
2B5
102
{ACAD_REACTORS
330
1A
102
}
330
1A
100
AcDbDictionary
  3
CEPSNTYPE
350
2BF
  3
DIMSTYLEDATA
350
2C3
  3
FINGERPRINTGUID
350
2C0
  3
HYPERLINKBASE
350
2B8
  3
INSUNITS
350
2BE
  3
LAYOUTDICT
350
2BA
  3
LWETCUNION
350
2BD
  3
PLOTSETDICT
350
2BB
  3
PLOTSTYLNAMDICT
350
2BC
  3
PSVPSCALE
350
2C2
  3
PUCSBASE
350
2C6
  3
PUCSORGBACK
350
2CC
  3
PUCSORGBOTTOM
350
2C8
  3
PUCSORGFRONT
350
2CB
  3
PUCSORGLEFT
350
2C9
  3
PUCSORGRIGHT
350
2CA
  3
PUCSORGTOP
350
2C7
  3
PUCSORTHOREF
350
2C4
  3
PUCSORTHOVIEW
350
2C5
  3
STYLESHEET
350
2B9
  3
TSTACKALIGN
350
2B6
  3
TSTACKSIZE
350
2B7
  3
UCSBASE
350
2CF
  3
UCSORGBACK
350
2D5
  3
UCSORGBOTTOM
350
2D1
  3
UCSORGFRONT
350
2D4
  3
UCSORGLEFT
350
2D2
  3
UCSORGRIGHT
350
2D3
  3
UCSORGTOP
350
2D0
  3
UCSORTHOREF
350
2CD
  3
UCSORTHOVIEW
350
2CE
  3
VERSIONGUID
350
2C1
  0
DICTIONARY
  5
12C
102
{ACAD_REACTORS
330
1A
102
}
330
1A
100
AcDbDictionary
  3
DIMASSOC
350
12D
  0
XRECORD
  5
2D6
102
{ACAD_REACTORS
330
FD
102
}
330
FD
100
AcDbXrecord
340
2
  0
XRECORD
  5
2D7
102
{ACAD_REACTORS
330
FF
102
}
330
FF
100
AcDbXrecord
340
8
  0
MLINESTYLE
  5
1C
102
{ACAD_REACTORS
330
19
102
}
330
19
100
AcDbMlineStyle
  2
STANDARD
 70
     0
  3

 62
     0
 51
90.0
 52
90.0
 71
     2
 49
0.5
 62
   256
  6
BYLAYER
 49
-0.5
 62
   256
  6
BYLAYER
  0
ACDBPLACEHOLDER
  5
D1
102
{ACAD_REACTORS
330
D0
102
}
330
D0
100
AcDbPlaceHolder
280
     0
  0
XRECORD
  5
2BF
102
{ACAD_REACTORS
330
2B5
102
}
330
2B5
100
AcDbXrecord
 90
        0
  0
XRECORD
  5
2C3
102
{ACAD_REACTORS
330
2B5
102
}
330
2B5
100
AcDbXrecord
1000
DSTYLE
1002
{
1070
   276
 70
     2
1070
   277
 70
     5
1002
}
  0
XRECORD
  5
2C0
102
{ACAD_REACTORS
330
2B5
102
}
330
2B5
100
AcDbXrecord
  1
{FA92DAA7-9F01-4586-9D6F-6C853657C5D0}
  0
XRECORD
  5
2B8
102
{ACAD_REACTORS
330
2B5
102
}
330
2B5
100
AcDbXrecord
  1

  0
XRECORD
  5
2BE
102
{ACAD_REACTORS
330
2B5
102
}
330
2B5
100
AcDbXrecord
 90
        0
  0
XRECORD
  5
2BA
102
{ACAD_REACTORS
330
2B5
102
}
330
2B5
100
AcDbXrecord
340
D2
  0
XRECORD
  5
2BD
102
{ACAD_REACTORS
330
2B5
102
}
330
2B5
100
AcDbXrecord
 90
    14877
  0
XRECORD
  5
2BB
102
{ACAD_REACTORS
330
2B5
102
}
330
2B5
100
AcDbXrecord
340
D3
  0
XRECORD
  5
2BC
102
{ACAD_REACTORS
330
2B5
102
}
330
2B5
100
AcDbXrecord
340
D0
  0
XRECORD
  5
2C2
102
{ACAD_REACTORS
330
2B5
102
}
330
2B5
100
AcDbXrecord
 40
0.0
  0
XRECORD
  5
2C6
102
{ACAD_REACTORS
330
2B5
102
}
330
2B5
100
AcDbXrecord
340
0
  0
XRECORD
  5
2CC
102
{ACAD_REACTORS
330
2B5
102
}
330
2B5
100
AcDbXrecord
 10
0.0
 20
0.0
 30
0.0
  0
XRECORD
  5
2C8
102
{ACAD_REACTORS
330
2B5
102
}
330
2B5
100
AcDbXrecord
 10
0.0
 20
0.0
 30
0.0
  0
XRECORD
  5
2CB
102
{ACAD_REACTORS
330
2B5
102
}
330
2B5
100
AcDbXrecord
 10
0.0
 20
0.0
 30
0.0
  0
XRECORD
  5
2C9
102
{ACAD_REACTORS
330
2B5
102
}
330
2B5
100
AcDbXrecord
 10
0.0
 20
0.0
 30
0.0
  0
XRECORD
  5
2CA
102
{ACAD_REACTORS
330
2B5
102
}
330
2B5
100
AcDbXrecord
 10
0.0
 20
0.0
 30
0.0
  0
XRECORD
  5
2C7
102
{ACAD_REACTORS
330
2B5
102
}
330
2B5
100
AcDbXrecord
 10
0.0
 20
0.0
 30
0.0
  0
XRECORD
  5
2C4
102
{ACAD_REACTORS
330
2B5
102
}
330
2B5
100
AcDbXrecord
340
0
  0
XRECORD
  5
2C5
102
{ACAD_REACTORS
330
2B5
102
}
330
2B5
100
AcDbXrecord
 70
     0
  0
XRECORD
  5
2B9
102
{ACAD_REACTORS
330
2B5
102
}
330
2B5
100
AcDbXrecord
  1

  0
XRECORD
  5
2B6
102
{ACAD_REACTORS
330
2B5
102
}
330
2B5
100
AcDbXrecord
 90
        1
  0
XRECORD
  5
2B7
102
{ACAD_REACTORS
330
2B5
102
}
330
2B5
100
AcDbXrecord
 90
       70
  0
XRECORD
  5
2CF
102
{ACAD_REACTORS
330
2B5
102
}
330
2B5
100
AcDbXrecord
340
0
  0
XRECORD
  5
2D5
102
{ACAD_REACTORS
330
2B5
102
}
330
2B5
100
AcDbXrecord
 10
0.0
 20
0.0
 30
0.0
  0
XRECORD
  5
2D1
102
{ACAD_REACTORS
330
2B5
102
}
330
2B5
100
AcDbXrecord
 10
0.0
 20
0.0
 30
0.0
  0
XRECORD
  5
2D4
102
{ACAD_REACTORS
330
2B5
102
}
330
2B5
100
AcDbXrecord
 10
0.0
 20
0.0
 30
0.0
  0
XRECORD
  5
2D2
102
{ACAD_REACTORS
330
2B5
102
}
330
2B5
100
AcDbXrecord
 10
0.0
 20
0.0
 30
0.0
  0
XRECORD
  5
2D3
102
{ACAD_REACTORS
330
2B5
102
}
330
2B5
100
AcDbXrecord
 10
0.0
 20
0.0
 30
0.0
  0
XRECORD
  5
2D0
102
{ACAD_REACTORS
330
2B5
102
}
330
2B5
100
AcDbXrecord
 10
0.0
 20
0.0
 30
0.0
  0
XRECORD
  5
2CD
102
{ACAD_REACTORS
330
2B5
102
}
330
2B5
100
AcDbXrecord
340
0
  0
XRECORD
  5
2CE
102
{ACAD_REACTORS
330
2B5
102
}
330
2B5
100
AcDbXrecord
 70
     0
  0
XRECORD
  5
2C1
102
{ACAD_REACTORS
330
2B5
102
}
330
2B5
100
AcDbXrecord
  1
{E2C0B535-4D6B-42F3-89D8-36B9659DC30D}
  0
DICTIONARYVAR
  5
12D
102
{ACAD_REACTORS
330
12C
102
}
330
12C
100
DictionaryVariables
280
     0
  1
1
  0
ENDSEC
  0
EOF
