  0
SECTION
  2
HEADER
  9
$ACADVER
  1
AC1014
  9
$ACADMAINTVER
 70
     9
  9
$DWGCODEPAGE
  3
ANSI_1252
  9
$INSBASE
 10
31.43024339608392
 20
-9.260041192833888
 30
0.0
  9
$EXTMIN
 10
-1.114265471583198
 20
-13.09566623960805
 30
0.0
  9
$EXTMAX
 10
63.47475226375104
 20
26.86495880716611
 30
0.0
  9
$LIMMIN
 10
0.0
 20
0.0
  9
$LIMMAX
 10
36.0
 20
36.0
  9
$ORTHOMODE
 70
     1
  9
$REGENMODE
 70
     1
  9
$FILLMODE
 70
     1
  9
$QTEXTMODE
 70
     0
  9
$MIRRTEXT
 70
     1
  9
$DRAGMODE
 70
     0
  9
$LTSCALE
 40
1.0
  9
$OSMODE
 70
    37
  9
$ATTMODE
 70
     1
  9
$TEXTSIZE
 40
0.2
  9
$TRACEWID
 40
0.05
  9
$TEXTSTYLE
  7
STANDARD
  9
$CLAYER
  8
ADPDIM
  9
$CELTYPE
  6
BYLAYER
  9
$CECOLOR
 62
   256
  9
$CELTSCALE
 40
1.0
  9
$DELOBJ
 70
     1
  9
$DISPSILH
 70
     0
  9
$DIMSCALE
 40
1.0
  9
$DIMASZ
 40
0.125
  9
$DIMEXO
 40
0.0625
  9
$DIMDLI
 40
0.38
  9
$DIMRND
 40
0.0
  9
$DIMDLE
 40
0.0
  9
$DIMEXE
 40
0.18
  9
$DIMTP
 40
0.0
  9
$DIMTM
 40
0.0
  9
$DIMTXT
 40
0.125
  9
$DIMCEN
 40
0.1875
  9
$DIMTSZ
 40
0.125
  9
$DIMTOL
 70
     0
  9
$DIMLIM
 70
     0
  9
$DIMTIH
 70
     0
  9
$DIMTOH
 70
     0
  9
$DIMSE1
 70
     0
  9
$DIMSE2
 70
     0
  9
$DIMTAD
 70
     0
  9
$DIMZIN
 70
     3
  9
$DIMBLK
  1

  9
$DIMASO
 70
     1
  9
$DIMSHO
 70
     1
  9
$DIMPOST
  1

  9
$DIMAPOST
  1

  9
$DIMALT
 70
     0
  9
$DIMALTD
 70
     1
  9
$DIMALTF
 40
25.4
  9
$DIMLFAC
 40
1.0
  9
$DIMTOFL
 70
     0
  9
$DIMTVP
 40
0.0
  9
$DIMTIX
 70
     0
  9
$DIMSOXD
 70
     0
  9
$DIMSAH
 70
     0
  9
$DIMBLK1
  1

  9
$DIMBLK2
  1

  9
$DIMSTYLE
  2
STANDARD
  9
$DIMCLRD
 70
     0
  9
$DIMCLRE
 70
     0
  9
$DIMCLRT
 70
     0
  9
$DIMTFAC
 40
1.0
  9
$DIMGAP
 40
0.125
  9
$DIMJUST
 70
     0
  9
$DIMSD1
 70
     0
  9
$DIMSD2
 70
     0
  9
$DIMTOLJ
 70
     1
  9
$DIMTZIN
 70
     3
  9
$DIMALTZ
 70
     3
  9
$DIMALTTZ
 70
     3
  9
$DIMFIT
 70
     5
  9
$DIMUPT
 70
     0
  9
$DIMUNIT
 70
     5
  9
$DIMDEC
 70
     4
  9
$DIMTDEC
 70
     4
  9
$DIMALTU
 70
     5
  9
$DIMALTTD
 70
     1
  9
$DIMTXSTY
  7
STANDARD
  9
$DIMAUNIT
 70
     0
  9
$LUNITS
 70
     5
  9
$LUPREC
 70
     4
  9
$SKETCHINC
 40
0.1
  9
$FILLETRAD
 40
0.062
  9
$AUNITS
 70
     0
  9
$AUPREC
 70
     0
  9
$MENU
  1
acad
  9
$ELEVATION
 40
0.0
  9
$PELEVATION
 40
0.0
  9
$THICKNESS
 40
0.0
  9
$LIMCHECK
 70
     0
  9
$BLIPMODE
 70
     0
  9
$CHAMFERA
 40
0.0
  9
$CHAMFERB
 40
0.0
  9
$CHAMFERC
 40
0.0
  9
$CHAMFERD
 40
0.0
  9
$SKPOLY
 70
     0
  9
$TDCREATE
 40
2450373.690183055
  9
$TDUPDATE
 40
2452297.064244247
  9
$TDINDWG
 40
0.0066195139
  9
$TDUSRTIMER
 40
0.0066195139
  9
$USRTIMER
 70
     1
  9
$ANGBASE
 50
0.0
  9
$ANGDIR
 70
     0
  9
$PDMODE
 70
     0
  9
$PDSIZE
 40
0.0
  9
$PLINEWID
 40
0.0
  9
$COORDS
 70
     2
  9
$SPLFRAME
 70
     0
  9
$SPLINETYPE
 70
     6
  9
$SPLINESEGS
 70
     8
  9
$ATTDIA
 70
     0
  9
$ATTREQ
 70
     1
  9
$HANDLING
 70
 22529
  9
$HANDSEED
  5
27F
  9
$SURFTAB1
 70
     6
  9
$SURFTAB2
 70
     6
  9
$SURFTYPE
 70
     6
  9
$SURFU
 70
     6
  9
$SURFV
 70
     6
  9
$UCSNAME
  2

  9
$UCSORG
 10
0.0
 20
0.0
 30
0.0
  9
$UCSXDIR
 10
1.0
 20
0.0
 30
0.0
  9
$UCSYDIR
 10
0.0
 20
1.0
 30
0.0
  9
$PUCSNAME
  2

  9
$PUCSORG
 10
0.0
 20
0.0
 30
0.0
  9
$PUCSXDIR
 10
1.0
 20
0.0
 30
0.0
  9
$PUCSYDIR
 10
0.0
 20
1.0
 30
0.0
  9
$USERI1
 70
     0
  9
$USERI2
 70
     0
  9
$USERI3
 70
     0
  9
$USERI4
 70
     0
  9
$USERI5
 70
     0
  9
$USERR1
 40
0.0
  9
$USERR2
 40
0.0
  9
$USERR3
 40
0.0
  9
$USERR4
 40
0.0
  9
$USERR5
 40
0.0
  9
$WORLDVIEW
 70
     1
  9
$SHADEDGE
 70
     3
  9
$SHADEDIF
 70
    70
  9
$TILEMODE
 70
     1
  9
$MAXACTVP
 70
    15
  9
$PINSBASE
 10
1.667196317885514E+99
 20
2.439420651286265E+99
 30
0.0
  9
$PLIMCHECK
 70
     0
  9
$PEXTMIN
 10
1.000000000000000E+20
 20
1.000000000000000E+20
 30
1.000000000000000E+20
  9
$PEXTMAX
 10
-1.000000000000000E+20
 20
-1.000000000000000E+20
 30
-1.000000000000000E+20
  9
$PLIMMIN
 10
0.0
 20
0.0
  9
$PLIMMAX
 10
12.0
 20
9.0
  9
$UNITMODE
 70
     0
  9
$VISRETAIN
 70
     0
  9
$PLINEGEN
 70
     0
  9
$PSLTSCALE
 70
     1
  9
$TREEDEPTH
 70
  3020
  9
$PICKSTYLE
 70
     1
  9
$CMLSTYLE
  2
STANDARD
  9
$CMLJUST
 70
     0
  9
$CMLSCALE
 40
1.0
  9
$PROXYGRAPHICS
 70
     1
  9
$MEASUREMENT
 70
     0
  0
ENDSEC
  0
SECTION
  2
CLASSES
  0
CLASS
  1
DICTIONARYVAR
  2
AcDbDictionaryVar
  3
AutoCAD 2000
 90
        0
280
     0
281
     0
  0
CLASS
  1
LWPOLYLINE
  2
AcDbPolyline
  3
AutoCAD 2000
 90
        0
280
     0
281
     1
  0
CLASS
  1
ACDBDICTIONARYWDFLT
  2
AcDbDictionaryWithDefault
  3
AutoCAD 2000
 90
        0
280
     0
281
     0
  0
CLASS
  1
ACDBPLACEHOLDER
  2
AcDbPlaceHolder
  3
AutoCAD 2000
 90
        0
280
     0
281
     0
  0
CLASS
  1
LAYOUT
  2
AcDbLayout
  3
AutoCAD 2000
 90
        0
280
     0
281
     0
  0
CLASS
  1
LONG_TRANSACTION
  2
AcDbLongTransaction
  3
AutoCAD 2000
 90
        0
280
     0
281
     0
  0
CLASS
  1
LWPOLYLINE
  2
AcDbPolyline
  3
AutoCAD 2000
 90
        0
280
     0
281
     1
  0
CLASS
  1
HATCH
  2
AcDbHatch
  3
AutoCAD 2000
 90
        0
280
     0
281
     1
  0
CLASS
  1
XRECORD
  2
AcDbXrecord
  3
AutoCAD 2000
 90
        0
280
     0
281
     0
  0
CLASS
  1
LONG_TRANSACTION
  2
AcDbLongTransaction
  3
AutoCAD 2000
 90
        0
280
     0
281
     0
  0
CLASS
  1
LWPOLYLINE
  2
AcDbPolyline
  3
AutoCAD 2000
 90
        0
280
     0
281
     1
  0
CLASS
  1
HATCH
  2
AcDbHatch
  3
AutoCAD 2000
 90
        0
280
     0
281
     1
  0
CLASS
  1
XRECORD
  2
AcDbXrecord
  3
AutoCAD 2000
 90
        0
280
     0
281
     0
  0
CLASS
  1
LONG_TRANSACTION
  2
AcDbLongTransaction
  3
AutoCAD 2000
 90
        0
280
     0
281
     0
  0
CLASS
  1
LWPOLYLINE
  2
AcDbPolyline
  3
AutoCAD 2000
 90
        0
280
     0
281
     1
  0
CLASS
  1
HATCH
  2
AcDbHatch
  3
AutoCAD 2000
 90
        0
280
     0
281
     1
  0
CLASS
  1
XRECORD
  2
AcDbXrecord
  3
AutoCAD 2000
 90
        0
280
     0
281
     0
  0
CLASS
  1
LONG_TRANSACTION
  2
AcDbLongTransaction
  3
AutoCAD 2000
 90
        0
280
     0
281
     0
  0
CLASS
  1
LWPOLYLINE
  2
AcDbPolyline
  3
AutoCAD 2000
 90
        0
280
     0
281
     1
  0
CLASS
  1
HATCH
  2
AcDbHatch
  3
AutoCAD 2000
 90
        0
280
     0
281
     1
  0
CLASS
  1
XRECORD
  2
AcDbXrecord
  3
AutoCAD 2000
 90
        0
280
     0
281
     0
  0
CLASS
  1
LONG_TRANSACTION
  2
AcDbLongTransaction
  3
AutoCAD 2000
 90
        0
280
     0
281
     0
  0
CLASS
  1
LWPOLYLINE
  2
AcDbPolyline
  3
AutoCAD 2000
 90
        0
280
     0
281
     1
  0
CLASS
  1
HATCH
  2
AcDbHatch
  3
AutoCAD 2000
 90
        0
280
     0
281
     1
  0
CLASS
  1
XRECORD
  2
AcDbXrecord
  3
AutoCAD 2000
 90
        0
280
     0
281
     0
  0
ENDSEC
  0
SECTION
  2
TABLES
  0
TABLE
  2
VPORT
  5
8
330
0
100
AcDbSymbolTable
 70
     2
  0
VPORT
  5
25B
330
8
100
AcDbSymbolTableRecord
100
AcDbViewportTableRecord
  2
*ACTIVE
 70
     0
 10
0.0
 20
0.0
 11
1.0
 21
1.0
 12
31.18045921051756
 22
6.885630851927487
 13
0.0
 23
0.0
 14
0.5740882589684922
 24
0.5740882589684922
 15
0.5
 25
0.5
 16
0.0
 26
0.0
 36
1.0
 17
0.0
 27
0.0
 37
0.0
 40
41.3277109210357
 41
1.570528967254408
 42
50.0
 43
0.0
 44
0.0
 50
0.0
 51
0.0
 71
     0
 72
   100
 73
     1
 74
     0
 75
     0
 76
     0
 77
     0
 78
     0
  0
ENDTAB
  0
TABLE
  2
LTYPE
  5
5
330
0
100
AcDbSymbolTable
 70
     1
  0
LTYPE
  5
11
330
5
100
AcDbSymbolTableRecord
100
AcDbLinetypeTableRecord
  2
BYBLOCK
 70
     0
  3

 72
    65
 73
     0
 40
0.0
  0
LTYPE
  5
12
330
5
100
AcDbSymbolTableRecord
100
AcDbLinetypeTableRecord
  2
BYLAYER
 70
     0
  3

 72
    65
 73
     0
 40
0.0
  0
LTYPE
  5
13
330
5
100
AcDbSymbolTableRecord
100
AcDbLinetypeTableRecord
  2
CONTINUOUS
 70
     0
  3
Solid line
 72
    65
 73
     0
 40
0.0
  0
ENDTAB
  0
TABLE
  2
LAYER
  5
2
330
0
100
AcDbSymbolTable
 70
     4
  0
LAYER
  5
E
330
2
100
AcDbSymbolTableRecord
100
AcDbLayerTableRecord
  2
0
 70
     0
 62
     7
  6
CONTINUOUS
  0
LAYER
  5
1F
330
2
100
AcDbSymbolTableRecord
100
AcDbLayerTableRecord
  2
ADPDIM
 70
     0
 62
     3
  6
CONTINUOUS
  0
LAYER
  5
20
330
2
100
AcDbSymbolTableRecord
100
AcDbLayerTableRecord
  2
ADP1DETAIL
 70
     0
 62
     7
  6
CONTINUOUS
  0
LAYER
  5
21
330
2
100
AcDbSymbolTableRecord
100
AcDbLayerTableRecord
  2
DEFPOINTS
 70
     0
 62
     7
  6
CONTINUOUS
  0
ENDTAB
  0
TABLE
  2
STYLE
  5
3
330
0
100
AcDbSymbolTable
 70
     2
  0
STYLE
  5
F
330
3
100
AcDbSymbolTableRecord
100
AcDbTextStyleTableRecord
  2
STANDARD
 70
     0
 40
0.0
 41
1.0
 50
0.0
 71
     0
 42
0.2
  3
txt
  4

  0
STYLE
  5
163
330
3
100
AcDbSymbolTableRecord
100
AcDbTextStyleTableRecord
  2
ARIAL_WIDE
 70
     0
 40
0.0
 41
1.25
 50
0.0
 71
     0
 42
0.2
  3
ARIAL.TTF
  4

1001
ACAD
1000
Arial
1071
       34
  0
ENDTAB
  0
TABLE
  2
VIEW
  5
6
330
0
100
AcDbSymbolTable
 70
     0
  0
ENDTAB
  0
TABLE
  2
UCS
  5
7
330
0
100
AcDbSymbolTable
 70
     0
  0
ENDTAB
  0
TABLE
  2
APPID
  5
9
330
0
100
AcDbSymbolTable
 70
     1
  0
APPID
  5
10
330
9
100
AcDbSymbolTableRecord
100
AcDbRegAppTableRecord
  2
ACAD
 70
     0
  0
ENDTAB
  0
TABLE
  2
DIMSTYLE
  5
A
330
0
100
AcDbSymbolTable
 70
     1
  0
DIMSTYLE
105
161
330
A
100
AcDbSymbolTableRecord
100
AcDbDimStyleTableRecord
  2
STANDARD
 70
     0
  3

  4

  5

  6

  7

 40
1.0
 41
0.18
 42
0.0625
 43
0.38
 44
0.18
 45
0.0
 46
0.0
 47
0.0
 48
0.0
140
0.18
141
0.09
142
0.0
143
25.4
144
1.0
145
0.0
146
1.0
147
0.09
 71
     0
 72
     0
 73
     1
 74
     1
 75
     0
 76
     0
 77
     0
 78
     0
170
     0
171
     2
172
     0
173
     0
174
     0
175
     0
176
     0
177
     0
178
     0
270
     2
271
     4
272
     4
273
     2
274
     2
340
F
275
     0
280
     0
281
     0
282
     0
283
     1
284
     0
285
     0
286
     0
287
     3
288
     0
  0
ENDTAB
  0
TABLE
  2
BLOCK_RECORD
  5
1
330
0
100
AcDbSymbolTable
 70
     2
  0
BLOCK_RECORD
  5
17
102
{ACAD_XDICTIONARY
360
19C
102
}
330
1
100
AcDbSymbolTableRecord
100
AcDbBlockTableRecord
  2
*MODEL_SPACE
  0
BLOCK_RECORD
  5
14
102
{ACAD_XDICTIONARY
360
19A
102
}
330
1
100
AcDbSymbolTableRecord
100
AcDbBlockTableRecord
  2
*PAPER_SPACE
  0
BLOCK_RECORD
  5
1C
330
1
100
AcDbSymbolTableRecord
100
AcDbBlockTableRecord
  2
*D0
  0
BLOCK_RECORD
  5
1D
330
1
100
AcDbSymbolTableRecord
100
AcDbBlockTableRecord
  2
*D1
  0
ENDTAB
  0
ENDSEC
  0
SECTION
  2
BLOCKS
  0
BLOCK
  5
24
330
17
100
AcDbEntity
  8
0
100
AcDbBlockBegin
  2
*MODEL_SPACE
 70
     0
 10
0.0
 20
0.0
 30
0.0
  3
*MODEL_SPACE
  1

  0
ENDBLK
  5
25
330
17
100
AcDbEntity
  8
0
100
AcDbBlockEnd
  0
BLOCK
  5
22
330
14
100
AcDbEntity
 67
     1
  8
0
100
AcDbBlockBegin
  2
*PAPER_SPACE
 70
     0
 10
0.0
 20
0.0
 30
0.0
  3
*PAPER_SPACE
  1

  0
ENDBLK
  5
23
330
14
100
AcDbEntity
 67
     1
  8
0
100
AcDbBlockEnd
  0
BLOCK
  5
28
330
1C
100
AcDbEntity
  8
0
100
AcDbBlockBegin
  2
*D0
 70
     1
 10
0.0
 20
0.0
 30
0.0
  3
*D0
  1

  0
LINE
  5
29
330
1C
100
AcDbEntity
  8
0
  6
BYBLOCK
 62
     0
100
AcDbLine
 10
30.86774339608392
 20
26.73995880716611
 30
0.0
 11
27.19039550306135
 21
26.73995880716611
 31
0.0
  0
LINE
  5
2A
330
1C
100
AcDbEntity
  8
0
  6
BYBLOCK
 62
     0
100
AcDbLine
 10
30.86774339608392
 20
-9.260041192833888
 30
0.0
 11
27.19039550306135
 21
-9.260041192833888
 31
0.0
  0
LINE
  5
2B
330
1C
100
AcDbEntity
  8
0
  6
BYBLOCK
 62
     0
100
AcDbLine
 10
27.37039550306135
 20
26.73995880716611
 30
0.0
 11
27.37039550306135
 21
8.969125473832779
 31
0.0
  0
LINE
  5
2C
330
1C
100
AcDbEntity
  8
0
  6
BYBLOCK
 62
     0
100
AcDbLine
 10
27.37039550306135
 20
-9.260041192833888
 30
0.0
 11
27.37039550306135
 21
8.510792140499447
 31
0.0
  0
LINE
  5
2D
330
1C
100
AcDbEntity
  8
0
  6
BYBLOCK
 62
     0
100
AcDbLine
 10
27.49539550306135
 20
26.61495880716611
 30
0.0
 11
27.24539550306134
 21
26.86495880716611
 31
0.0
  0
LINE
  5
2E
330
1C
100
AcDbEntity
  8
0
  6
BYBLOCK
 62
     0
100
AcDbLine
 10
27.49539550306135
 20
-9.385041192833888
 30
0.0
 11
27.24539550306134
 21
-9.135041192833888
 31
0.0
  0
TEXT
  5
2F
330
1C
100
AcDbEntity
  8
0
  6
BYBLOCK
 62
     0
100
AcDbText
 10
27.43289550306135
 20
8.635792140499447
 30
0.0
 40
0.125
  1
36
 50
90.0
 72
     1
 11
27.37039550306135
 21
8.739958807166113
 31
0.0
100
AcDbText
 73
     2
  0
POINT
  5
31
330
1C
100
AcDbEntity
  8
DEFPOINTS
  6
BYBLOCK
 62
     0
100
AcDbPoint
 10
30.93024339608392
 20
26.73995880716611
 30
0.0
  0
POINT
  5
32
330
1C
100
AcDbEntity
  8
DEFPOINTS
  6
BYBLOCK
 62
     0
100
AcDbPoint
 10
30.93024339608392
 20
-9.260041192833888
 30
0.0
  0
POINT
  5
33
330
1C
100
AcDbEntity
  8
DEFPOINTS
  6
BYBLOCK
 62
     0
100
AcDbPoint
 10
27.37039550306135
 20
-9.260041192833888
 30
0.0
  0
ENDBLK
  5
34
330
1C
100
AcDbEntity
  8
0
100
AcDbBlockEnd
  0
BLOCK
  5
35
330
1D
100
AcDbEntity
  8
0
100
AcDbBlockBegin
  2
*D1
 70
     1
 10
0.0
 20
0.0
 30
0.0
  3
*D1
  1

  0
LINE
  5
36
330
1D
100
AcDbEntity
  8
0
  6
BYBLOCK
 62
     0
100
AcDbLine
 10
42.67629146893054
 20
-9.331175606917119
 30
0.0
 11
42.67629146893054
 21
-9.752751182333195
 31
0.0
  0
LINE
  5
37
330
1D
100
AcDbEntity
  8
0
  6
BYBLOCK
 62
     0
100
AcDbLine
 10
43.17629146893054
 20
-9.331175606917119
 30
0.0
 11
43.17629146893054
 21
-9.752751182333195
 31
0.0
  0
LINE
  5
38
330
1D
100
AcDbEntity
  8
0
  6
BYBLOCK
 62
     0
100
AcDbLine
 10
42.67629146893054
 20
-9.572751182333195
 30
0.0
 11
42.42629146893054
 21
-9.572751182333195
 31
0.0
  0
LINE
  5
39
330
1D
100
AcDbEntity
  8
0
  6
BYBLOCK
 62
     0
100
AcDbLine
 10
43.17629146893054
 20
-9.572751182333195
 30
0.0
 11
43.42629146893054
 21
-9.572751182333195
 31
0.0
  0
LINE
  5
3A
330
1D
100
AcDbEntity
  8
0
  6
BYBLOCK
 62
     0
100
AcDbLine
 10
42.55129146893054
 20
-9.697751182333195
 30
0.0
 11
42.80129146893054
 21
-9.447751182333195
 31
0.0
  0
LINE
  5
3B
330
1D
100
AcDbEntity
  8
0
  6
BYBLOCK
 62
     0
100
AcDbLine
 10
43.05129146893054
 20
-9.697751182333195
 30
0.0
 11
43.30129146893054
 21
-9.447751182333195
 31
0.0
  0
TEXT
  5
3C
330
1D
100
AcDbEntity
  8
0
  6
BYBLOCK
 62
     0
100
AcDbText
 10
43.55129146893054
 20
-9.635251182333195
 30
0.0
 40
0.125
  1
1/2
 72
     1
 11
43.69712480226388
 21
-9.572751182333195
 31
0.0
100
AcDbText
 73
     2
  0
POINT
  5
3D
330
1D
100
AcDbEntity
  8
DEFPOINTS
  6
BYBLOCK
 62
     0
100
AcDbPoint
 10
42.67629146893054
 20
-9.268675606917119
 30
0.0
  0
POINT
  5
3E
330
1D
100
AcDbEntity
  8
DEFPOINTS
  6
BYBLOCK
 62
     0
100
AcDbPoint
 10
43.17629146893054
 20
-9.268675606917119
 30
0.0
  0
POINT
  5
3F
330
1D
100
AcDbEntity
  8
DEFPOINTS
  6
BYBLOCK
 62
     0
100
AcDbPoint
 10
43.17629146893054
 20
-9.572751182333195
 30
0.0
  0
ENDBLK
  5
40
330
1D
100
AcDbEntity
  8
0
100
AcDbBlockEnd
  0
ENDSEC
  0
SECTION
  2
ENTITIES
  0
LWPOLYLINE
  5
41
330
17
100
AcDbEntity
  8
0
100
AcDbPolyline
 90
        5
 70
     0
 43
0.0
 10
31.17163156918395
 20
21.37321294755252
 42
-0.1274820394234388
 10
30.94239995130797
 20
20.73070715466582
 42
0.0891271652685308
 10
30.45507413897535
 20
19.63507197958211
 42
0.1144386721493587
 10
30.96502797105442
 20
18.95085744460939
 10
31.14510234614
 20
18.88346407074338
 42
1.000000001162713
  0
LWPOLYLINE
  5
48
330
17
100
AcDbEntity
  8
0
100
AcDbPolyline
 90
        3
 70
     0
 43
0.0
 10
27.84908583819334
 20
18.44916986541678
 10
27.84908583819334
 20
18.88983686643034
 42
0.3735374977692907
 10
30.96691540507146
 20
21.59679146059005
 42
-1.050286423446176
  0
LWPOLYLINE
  5
4D
330
17
100
AcDbEntity
  8
0
100
AcDbPolyline
 90
        5
 70
     0
 43
0.0
 10
31.18736815233053
 20
21.37299552683603
 42
0.1274820394234388
 10
31.39876160617763
 20
20.72440194361337
 42
-0.0891271652685308
 10
31.8556320220046
 20
19.61572150841644
 42
-0.1144386721493587
 10
31.32696987917167
 20
18.9458567612806
 10
31.14510234614
 20
18.88346407074338
 42
-1.000000001162713
  0
LWPOLYLINE
  5
54
330
17
100
AcDbEntity
  8
0
100
AcDbPolyline
 90
        3
 70
     0
 43
0.0
 10
34.49415695212381
 20
18.44916986541678
 10
34.49415695212381
 20
18.88983686643034
 42
-0.3735374977692907
 10
31.37632738524569
 20
21.59679146059005
 42
1.050286423446176
  0
DIMENSION
  5
59
330
17
100
AcDbEntity
  8
ADPDIM
100
AcDbDimension
  2
*D0
 10
27.37039550306135
 20
-9.260041192833888
 30
0.0
 11
27.37039550306135
 21
8.739958807166113
 31
0.0
100
AcDbAlignedDimension
 13
30.93024339608392
 23
26.73995880716611
 33
0.0
 14
30.93024339608392
 24
-9.260041192833888
 34
0.0
 50
90.0
100
AcDbRotatedDimension
  0
LINE
  5
5A
330
17
100
AcDbEntity
  8
0
100
AcDbLine
 10
30.93024339608392
 20
-9.260041192833888
 30
0.0
 11
30.93024339608392
 21
-2.216284195734544
 31
0.0
  0
LINE
  5
5B
330
17
100
AcDbEntity
  8
0
100
AcDbLine
 10
31.43024339608392
 20
-2.251469090349258
 30
0.0
 11
31.43024339608392
 21
-9.260041192833888
 31
0.0
  0
DIMENSION
  5
5C
330
17
100
AcDbEntity
  8
ADPDIM
100
AcDbDimension
  2
*D1
 10
31.43024339608392
 20
-10.86819234366604
 30
0.0
 11
31.95107672941725
 21
-10.86819234366604
 31
0.0
 12
-11.74604807284662
 22
-1.295441161332846
 32
0.0
100
AcDbAlignedDimension
 13
30.93024339608392
 23
-10.56411676824996
 33
0.0
 14
31.43024339608392
 24
-10.56411676824996
 34
0.0
100
AcDbRotatedDimension
  0
LWPOLYLINE
  5
5D
330
17
100
AcDbEntity
  8
ADP1DETAIL
100
AcDbPolyline
 90
        4
 70
     1
 43
0.0
 10
30.93024339608392
 20
-10.56411676824996
 10
30.93024339608392
 20
-10.06411676824996
 10
31.43024339608392
 20
-10.06411676824996
 10
31.43024339608392
 20
-10.56411676824996
  0
LINE
  5
63
330
17
100
AcDbEntity
  8
0
100
AcDbLine
 10
31.43024339608392
 20
-9.260041192833888
 30
0.0
 11
30.93024339608392
 21
-9.260041192833888
 31
0.0
  0
LWPOLYLINE
  5
64
330
17
100
AcDbEntity
  8
0
100
AcDbPolyline
 90
        5
 70
     0
 43
0.0
 10
28.47895038031181
 20
18.66950342789771
 42
-0.1274820394234388
 10
29.12456167960224
 20
18.44916986541679
 42
0.0891271652685308
 10
30.22682467463828
 20
17.97702669431234
 42
0.1144386721493587
 10
30.90392893232813
 20
18.49638424450136
 10
30.96882815791806
 20
18.67737247042042
 42
1.000000001162713
  0
LWPOLYLINE
  5
6B
330
17
100
AcDbEntity
  8
0
100
AcDbPolyline
 90
        5
 70
     0
 43
0.0
 10
28.47895038031181
 20
18.68524151294313
 42
0.1274820394234388
 10
29.12456167960224
 20
18.90557507542406
 42
-0.0891271652685308
 10
30.22682467463828
 20
19.37771824652849
 42
-0.1144386721493587
 10
30.90392893232813
 20
18.85836069633947
 10
30.96882815791806
 20
18.67737247042042
 42
-1.000000001162713
  0
LWPOLYLINE
  5
72
330
17
100
AcDbEntity
  8
0
100
AcDbPolyline
 90
        3
 70
     0
 43
0.0
 10
27.84908583819334
 20
18.88983686643035
 10
27.84908583819334
 20
18.44916986541679
 42
-0.3735374977692907
 10
30.96691540507146
 20
15.74221527125707
 42
1.050286423446176
  0
LWPOLYLINE
  5
77
330
17
100
AcDbEntity
  8
0
100
AcDbPolyline
 90
        5
 70
     0
 43
0.0
 10
28.47895038031181
 20
1.625484655486042
 42
-0.1274820394234388
 10
29.12456167960224
 20
1.405151093005118
 42
0.0891271652685308
 10
30.22682467463828
 20
0.9330079219006801
 42
0.1144386721493587
 10
30.90392893232813
 20
1.452365472089702
 10
30.96882815791806
 20
1.633353698008756
 42
1.000000001162713
  0
LWPOLYLINE
  5
7E
330
17
100
AcDbEntity
  8
0
100
AcDbPolyline
 90
        5
 70
     0
 43
0.0
 10
28.47895038031181
 20
1.641222740531468
 42
0.1274820394234388
 10
29.12456167960224
 20
1.861556303012392
 42
-0.0891271652685308
 10
30.22682467463828
 20
2.33369947411683
 42
-0.1144386721493587
 10
30.90392893232813
 20
1.814341923927809
 10
30.96882815791806
 20
1.633353698008756
 42
-1.000000001162713
  0
LWPOLYLINE
  5
85
330
17
100
AcDbEntity
  8
0
100
AcDbPolyline
 90
        3
 70
     0
 43
0.0
 10
27.84908583819334
 20
1.845818094018685
 10
27.84908583819334
 20
1.405151093005118
 42
-0.3735374977692907
 10
30.96691540507146
 20
-1.301803501154587
 42
1.050286423446176
  0
LWPOLYLINE
  5
8A
330
17
100
AcDbEntity
  8
0
100
AcDbPolyline
 90
        3
 70
     0
 43
0.0
 10
27.84908583819334
 20
1.405151093005112
 10
27.84908583819334
 20
1.84581809401868
 42
0.3735374977692907
 10
30.96691540507146
 20
4.552772688178388
 42
-1.050286423446176
  0
LINE
  5
8F
330
17
100
AcDbEntity
  8
0
100
AcDbLine
 10
31.43024339608392
 20
14.79254968206241
 30
0.0
 11
31.43024339608392
 21
5.502438277373059
 31
0.0
  0
LINE
  5
90
330
17
100
AcDbEntity
  8
0
100
AcDbLine
 10
30.93024339608392
 20
5.467253382758345
 30
0.0
 11
30.93024339608392
 21
14.82773457667712
 31
0.0
  0
LWPOLYLINE
  5
91
330
17
100
AcDbEntity
  8
0
100
AcDbPolyline
 90
        5
 70
     0
 43
0.0
 10
31.1716303108707
 20
-1.021892283940212
 42
0.1274820394234388
 10
30.95489214178078
 20
-0.3750651087329846
 42
-0.0891271652685308
 10
30.48888893136886
 20
0.729807685814949
 42
-0.1144386721493587
 10
31.01200564356682
 20
1.404011917586938
 10
31.19335214762694
 20
1.467903175742289
 42
-1.000000001162713
  0
LWPOLYLINE
  5
98
330
17
100
AcDbEntity
  8
0
100
AcDbPolyline
 90
        5
 70
     0
 43
0.0
 10
31.18736815233053
 20
-1.021979845816748
 42
-0.1274820394234388
 10
31.41129028779435
 20
-0.3776044072901552
 42
0.0891271652685308
 10
31.88955880443654
 20
0.7220146677695852
 42
0.1144386721493587
 10
31.37397649292862
 20
1.401997991668192
 10
31.19335214762694
 20
1.467903175742289
 42
1.000000001162713
  0
LWPOLYLINE
  5
9F
330
17
100
AcDbEntity
  8
0
100
AcDbPolyline
 90
        3
 70
     0
 43
0.0
 10
34.49415695212381
 20
1.845818094018685
 10
34.49415695212381
 20
1.405151093005118
 42
0.3735374977692907
 10
31.37632738524569
 20
-1.301803501154587
 42
-1.050286423446176
  0
LWPOLYLINE
  5
A4
330
17
100
AcDbEntity
  8
0
100
AcDbPolyline
 90
        3
 70
     0
 43
0.0
 10
30.35279762012494
 20
-2.588865962831322
 42
0.3189501920491757
 10
30.95116883321433
 20
-2.163937046863187
 42
0.210066328157394
 10
31.17162139515857
 20
-2.588865962831322
 42
2.144473513379494
  0
LWPOLYLINE
  5
A9
330
17
100
AcDbEntity
  8
0
100
AcDbPolyline
 90
        2
 70
     0
 43
0.0
 10
30.96691540507146
 20
-1.660317581719597
 42
-0.2943005500646925
 10
30.36854419198206
 20
-2.588865962831322
 42
4.624546280249882
  0
LWPOLYLINE
  5
AD
330
17
100
AcDbEntity
  8
0
100
AcDbPolyline
 90
        4
 70
     0
 43
0.0
 10
31.17162139515857
 20
-1.660317581719597
 10
31.37632738524569
 20
-1.660317581719597
 42
0.9999999999999998
 10
31.37632738524569
 20
-1.282603044836053
 42
0.0383840686344034
 10
31.17162139515857
 20
-1.298341129881483
 42
-1.339507463590821
  0
LWPOLYLINE
  5
B3
330
17
100
AcDbEntity
  8
0
100
AcDbPolyline
 90
        4
 70
     0
 43
0.0
 10
31.17162139515857
 20
-1.660317581719597
 10
30.96691540507146
 20
-1.660317581719597
 42
-0.9999999999999998
 10
30.96691540507146
 20
-1.282603044836053
 42
-0.0383840686344034
 10
31.17162139515857
 20
-1.298341129881483
 42
1.339507463590821
  0
LWPOLYLINE
  5
B9
330
17
100
AcDbEntity
  8
0
100
AcDbPolyline
 90
        3
 70
     0
 43
0.0
 10
31.9904451701922
 20
-2.588865962831322
 42
-0.3189501920491757
 10
31.39207395710281
 20
-2.163937046863187
 42
-0.210066328157394
 10
31.17162139515857
 20
-2.588865962831322
 42
-2.144473513379494
  0
LWPOLYLINE
  5
BE
330
17
100
AcDbEntity
  8
0
100
AcDbPolyline
 90
        2
 70
     0
 43
0.0
 10
31.37632738524569
 20
-1.660317581719597
 42
0.2943005500646925
 10
31.97469859833508
 20
-2.588865962831322
 42
-4.624546280249882
  0
LWPOLYLINE
  5
C2
330
17
100
AcDbEntity
  8
0
100
AcDbPolyline
 90
        5
 70
     0
 43
0.0
 10
33.88003916717729
 20
1.641222740531468
 42
-0.1274820394234388
 10
33.23442786788686
 20
1.861556303012392
 42
0.0891271652685308
 10
32.13216487285082
 20
2.33369947411683
 42
0.1144386721493587
 10
31.45506061516098
 20
1.814341923927809
 10
31.39016138957104
 20
1.633353698008756
 42
1.000000001162713
  0
LWPOLYLINE
  5
C9
330
17
100
AcDbEntity
  8
0
100
AcDbPolyline
 90
        5
 70
     0
 43
0.0
 10
33.88003916717729
 20
1.625484655486042
 42
0.1274820394234388
 10
33.23442786788686
 20
1.405151093005118
 42
-0.0891271652685308
 10
32.13216487285082
 20
0.9330079219006801
 42
-0.1144386721493587
 10
31.45506061516098
 20
1.452365472089702
 10
31.39016138957104
 20
1.633353698008756
 42
-1.000000001162713
  0
LWPOLYLINE
  5
D0
330
17
100
AcDbEntity
  8
0
100
AcDbPolyline
 90
        3
 70
     0
 43
0.0
 10
34.49415695212381
 20
1.405151093005112
 10
34.49415695212381
 20
1.84581809401868
 42
-0.3735374977692907
 10
31.37632738524569
 20
4.552772688178388
 42
1.050286423446176
  0
LWPOLYLINE
  5
D5
330
17
100
AcDbEntity
  8
0
100
AcDbPolyline
 90
        5
 70
     0
 43
0.0
 10
31.17163156918395
 20
4.329194175140859
 42
-0.1274820394234388
 10
30.94239995130797
 20
3.686688382254159
 42
0.0891271652685308
 10
30.45507413897535
 20
2.591053207170444
 42
0.1144386721493587
 10
30.96502797105442
 20
1.906838672197727
 10
31.14510234614
 20
1.839445298331723
 42
1.000000001162713
  0
LWPOLYLINE
  5
DC
330
17
100
AcDbEntity
  8
0
100
AcDbPolyline
 90
        5
 70
     0
 43
0.0
 10
31.18736815233053
 20
4.328976754424362
 42
0.1274820394234388
 10
31.39876160617763
 20
3.680383171201704
 42
-0.0891271652685308
 10
31.8556320220046
 20
2.571702736004775
 42
-0.1144386721493587
 10
31.32696987917167
 20
1.901837988868935
 10
31.14510234614
 20
1.839445298331723
 42
-1.000000001162713
  0
LWPOLYLINE
  5
E3
330
17
100
AcDbEntity
  8
0
100
AcDbPolyline
 90
        3
 70
     0
 43
0.0
 10
30.35279762012494
 20
5.839835149855122
 42
-0.3189501920491757
 10
30.95116883321433
 20
5.414906233886988
 42
-0.210066328157394
 10
31.17162139515857
 20
5.839835149855122
 42
-2.144473513379494
  0
LWPOLYLINE
  5
E8
330
17
100
AcDbEntity
  8
0
100
AcDbPolyline
 90
        2
 70
     0
 43
0.0
 10
30.96691540507146
 20
4.911286768743398
 42
0.2943005500646925
 10
30.36854419198206
 20
5.839835149855122
 42
-4.624546280249882
  0
LWPOLYLINE
  5
EC
330
17
100
AcDbEntity
  8
0
100
AcDbPolyline
 90
        3
 70
     0
 43
0.0
 10
31.9904451701922
 20
5.839835149855122
 42
0.3189501920491757
 10
31.39207395710281
 20
5.414906233886988
 42
0.210066328157394
 10
31.17162139515857
 20
5.839835149855122
 42
2.144473513379494
  0
LWPOLYLINE
  5
F1
330
17
100
AcDbEntity
  8
0
100
AcDbPolyline
 90
        2
 70
     0
 43
0.0
 10
31.37632738524569
 20
4.911286768743398
 42
-0.2943005500646925
 10
31.97469859833508
 20
5.839835149855122
 42
4.624546280249882
  0
LWPOLYLINE
  5
F5
330
17
100
AcDbEntity
  8
0
100
AcDbPolyline
 90
        4
 70
     0
 43
0.0
 10
31.17162139515857
 20
4.911286768743398
 10
31.37632738524569
 20
4.911286768743398
 42
-0.9999999999999998
 10
31.37632738524569
 20
4.533572231859853
 42
-0.0383840686344034
 10
31.17162139515857
 20
4.549310316905286
 42
1.339507463590821
  0
LWPOLYLINE
  5
FB
330
17
100
AcDbEntity
  8
0
100
AcDbPolyline
 90
        4
 70
     0
 43
0.0
 10
31.17162139515857
 20
4.911286768743398
 10
30.96691540507146
 20
4.911286768743398
 42
0.9999999999999998
 10
30.96691540507146
 20
4.533572231859853
 42
0.0383840686344034
 10
31.17162139515857
 20
4.549310316905286
 42
-1.339507463590821
  0
LWPOLYLINE
  5
101
330
17
100
AcDbEntity
  8
0
100
AcDbPolyline
 90
        5
 70
     0
 43
0.0
 10
33.88003916717729
 20
18.68524151294313
 42
-0.1274820394234388
 10
33.23442786788686
 20
18.90557507542406
 42
0.0891271652685308
 10
32.13216487285082
 20
19.37771824652849
 42
0.1144386721493587
 10
31.45506061516098
 20
18.85836069633947
 10
31.39016138957104
 20
18.67737247042042
 42
1.000000001162713
  0
LWPOLYLINE
  5
108
330
17
100
AcDbEntity
  8
0
100
AcDbPolyline
 90
        5
 70
     0
 43
0.0
 10
33.88003916717729
 20
18.66950342789771
 42
0.1274820394234388
 10
33.23442786788686
 20
18.44916986541679
 42
-0.0891271652685308
 10
32.13216487285082
 20
17.97702669431234
 42
-0.1144386721493587
 10
31.45506061516098
 20
18.49638424450136
 10
31.39016138957104
 20
18.67737247042042
 42
-1.000000001162713
  0
LWPOLYLINE
  5
10F
330
17
100
AcDbEntity
  8
0
100
AcDbPolyline
 90
        3
 70
     0
 43
0.0
 10
34.49415695212381
 20
18.88983686643035
 10
34.49415695212381
 20
18.44916986541679
 42
0.3735374977692907
 10
31.37632738524569
 20
15.74221527125707
 42
-1.050286423446176
  0
LWPOLYLINE
  5
114
330
17
100
AcDbEntity
  8
0
100
AcDbPolyline
 90
        5
 70
     0
 43
0.0
 10
31.1716303108707
 20
16.02212648847145
 42
0.1274820394234388
 10
30.95489214178078
 20
16.66895366367868
 42
-0.0891271652685308
 10
30.48888893136886
 20
17.77382645822662
 42
-0.1144386721493587
 10
31.01200564356682
 20
18.4480306899986
 10
31.19335214762694
 20
18.51192194815395
 42
-1.000000001162713
  0
LWPOLYLINE
  5
11B
330
17
100
AcDbEntity
  8
0
100
AcDbPolyline
 90
        5
 70
     0
 43
0.0
 10
31.18736815233053
 20
16.02203892659492
 42
-0.1274820394234388
 10
31.41129028779435
 20
16.66641436512151
 42
0.0891271652685308
 10
31.88955880443654
 20
17.76603344018125
 42
0.1144386721493587
 10
31.37397649292862
 20
18.44601676407986
 10
31.19335214762694
 20
18.51192194815395
 42
1.000000001162713
  0
LWPOLYLINE
  5
122
330
17
100
AcDbEntity
  8
0
100
AcDbPolyline
 90
        2
 70
     0
 43
0.0
 10
30.96691540507146
 20
15.38370119069206
 42
-0.2943005500646925
 10
30.36854419198206
 20
14.45515280958034
 42
4.624546280249882
  0
LWPOLYLINE
  5
126
330
17
100
AcDbEntity
  8
0
100
AcDbPolyline
 90
        3
 70
     0
 43
0.0
 10
30.35279762012494
 20
14.45515280958034
 42
0.3189501920491757
 10
30.95116883321433
 20
14.88008172554848
 42
0.210066328157394
 10
31.17162139515857
 20
14.45515280958034
 42
2.144473513379494
  0
LWPOLYLINE
  5
12B
330
17
100
AcDbEntity
  8
0
100
AcDbPolyline
 90
        4
 70
     0
 43
0.0
 10
31.17162139515857
 20
15.38370119069206
 10
31.37632738524569
 20
15.38370119069206
 42
0.9999999999999998
 10
31.37632738524569
 20
15.76141572757561
 42
0.0383840686344034
 10
31.17162139515857
 20
15.74567764253018
 42
-1.339507463590821
  0
LWPOLYLINE
  5
131
330
17
100
AcDbEntity
  8
0
100
AcDbPolyline
 90
        3
 70
     0
 43
0.0
 10
31.9904451701922
 20
14.45515280958034
 42
-0.3189501920491757
 10
31.39207395710281
 20
14.88008172554848
 42
-0.210066328157394
 10
31.17162139515857
 20
14.45515280958034
 42
-2.144473513379494
  0
LWPOLYLINE
  5
136
330
17
100
AcDbEntity
  8
0
100
AcDbPolyline
 90
        2
 70
     0
 43
0.0
 10
31.37632738524569
 20
15.38370119069206
 42
0.2943005500646925
 10
31.97469859833508
 20
14.45515280958034
 42
-4.624546280249882
  0
LWPOLYLINE
  5
13A
330
17
100
AcDbEntity
  8
0
100
AcDbPolyline
 90
        4
 70
     0
 43
0.0
 10
31.17162139515857
 20
15.38370119069206
 10
30.96691540507146
 20
15.38370119069206
 42
-0.9999999999999998
 10
30.96691540507146
 20
15.76141572757561
 42
-0.0383840686344034
 10
31.17162139515857
 20
15.74567764253018
 42
1.339507463590821
  0
LINE
  5
140
330
17
100
AcDbEntity
  8
0
100
AcDbLine
 10
31.43024339608392
 20
26.73995880716612
 30
0.0
 11
31.43024339608392
 21
22.54645704978472
 31
0.0
  0
LINE
  5
141
330
17
100
AcDbEntity
  8
0
100
AcDbLine
 10
30.93024339608392
 20
22.51127215517001
 30
0.0
 11
30.93024339608392
 21
26.73995880716612
 31
0.0
  0
LWPOLYLINE
  5
142
330
17
100
AcDbEntity
  8
0
100
AcDbPolyline
 90
        3
 70
     0
 43
0.0
 10
30.35279762012494
 20
22.88385392226679
 42
-0.3189501920491757
 10
30.95116883321433
 20
22.45892500629865
 42
-0.210066328157394
 10
31.17162139515857
 20
22.88385392226679
 42
-2.144473513379494
  0
LWPOLYLINE
  5
147
330
17
100
AcDbEntity
  8
0
100
AcDbPolyline
 90
        2
 70
     0
 43
0.0
 10
30.96691540507146
 20
21.95530554115506
 42
0.2943005500646925
 10
30.36854419198206
 20
22.88385392226679
 42
-4.624546280249882
  0
LWPOLYLINE
  5
14B
330
17
100
AcDbEntity
  8
0
100
AcDbPolyline
 90
        3
 70
     0
 43
0.0
 10
31.9904451701922
 20
22.88385392226679
 42
0.3189501920491757
 10
31.39207395710281
 20
22.45892500629865
 42
0.210066328157394
 10
31.17162139515857
 20
22.88385392226679
 42
2.144473513379494
  0
LWPOLYLINE
  5
150
330
17
100
AcDbEntity
  8
0
100
AcDbPolyline
 90
        2
 70
     0
 43
0.0
 10
31.37632738524569
 20
21.95530554115506
 42
-0.2943005500646925
 10
31.97469859833508
 20
22.88385392226679
 42
4.624546280249882
  0
LWPOLYLINE
  5
154
330
17
100
AcDbEntity
  8
0
100
AcDbPolyline
 90
        4
 70
     0
 43
0.0
 10
31.17162139515857
 20
21.95530554115506
 10
31.37632738524569
 20
21.95530554115506
 42
-0.9999999999999998
 10
31.37632738524569
 20
21.57759100427152
 42
-0.0383840686344034
 10
31.17162139515857
 20
21.59332908931695
 42
1.339507463590821
  0
LWPOLYLINE
  5
15A
330
17
100
AcDbEntity
  8
0
100
AcDbPolyline
 90
        4
 70
     0
 43
0.0
 10
31.17162139515857
 20
21.95530554115506
 10
30.96691540507146
 20
21.95530554115506
 42
0.9999999999999998
 10
30.96691540507146
 20
21.57759100427152
 42
0.0383840686344034
 10
31.17162139515857
 20
21.59332908931695
 42
-1.339507463590821
  0
LINE
  5
160
330
17
100
AcDbEntity
  8
0
100
AcDbLine
 10
30.93024339608392
 20
26.73995880716612
 30
0.0
 11
31.43024339608392
 21
26.73995880716612
 31
0.0
  0
TEXT
  5
16A
330
17
100
AcDbEntity
  8
ADPDIM
100
AcDbText
 10
-1.114265471583198
 20
-12.91063895447844
 30
0.0
 40
0.625
  1
J U L I U S  B L U M  &  C O . ,  I N C .      ( 8 0 0 )  5 2 6 - 6 2 9 3        W W W . J U L I U S B L U M . C O M        P A R T  N O .  1 5 8
 41
1.25
  7
ARIAL_WIDE
 72
     1
 11
31.18024339608392
 21
-12.28563895447844
 31
0.0
100
AcDbText
 73
     3
  0
ENDSEC
  0
SECTION
  2
OBJECTS
  0
DICTIONARY
  5
C
330
0
100
AcDbDictionary
  3
ACAD_GROUP
350
D
  3
ACAD_LAYOUT
350
16F
  3
ACAD_MLINESTYLE
350
1A
  3
ACAD_PLOTSETTINGS
350
170
  3
ACAD_PLOTSTYLENAME
350
16D
  3
ACDBHEADERROUNDTRIPXREC
350
25C
  3
ACDBVARIABLEDICTIONARY
350
26
  0
DICTIONARY
  5
19C
330
17
100
AcDbDictionary
280
     1
  3
ACAD_LAYOUTSELFREF
360
27E
  0
DICTIONARY
  5
19A
330
14
100
AcDbDictionary
280
     1
  3
ACAD_LAYOUTSELFREF
360
27D
  0
DICTIONARY
  5
D
102
{ACAD_REACTORS
330
C
102
}
330
C
100
AcDbDictionary
  0
DICTIONARY
  5
16F
102
{ACAD_REACTORS
330
C
102
}
330
C
100
AcDbDictionary
  0
DICTIONARY
  5
1A
102
{ACAD_REACTORS
330
C
102
}
330
C
100
AcDbDictionary
  3
STANDARD
350
1B
  0
DICTIONARY
  5
170
102
{ACAD_REACTORS
330
C
102
}
330
C
100
AcDbDictionary
  0
ACDBDICTIONARYWDFLT
  5
16D
102
{ACAD_REACTORS
330
C
102
}
330
C
100
AcDbDictionary
281
     1
  3
Normal
350
16E
100
AcDbDictionaryWithDefault
340
16E
  0
DICTIONARY
  5
25C
102
{ACAD_REACTORS
330
C
102
}
330
C
100
AcDbDictionary
  3
CEPSNTYPE
350
266
  3
DIMSTYLEDATA
350
26A
  3
FINGERPRINTGUID
350
267
  3
HYPERLINKBASE
350
25F
  3
INSUNITS
350
265
  3
LAYOUTDICT
350
261
  3
LWETCUNION
350
264
  3
PLOTSETDICT
350
262
  3
PLOTSTYLNAMDICT
350
263
  3
PSVPSCALE
350
269
  3
PUCSBASE
350
26D
  3
PUCSORGBACK
350
273
  3
PUCSORGBOTTOM
350
26F
  3
PUCSORGFRONT
350
272
  3
PUCSORGLEFT
350
270
  3
PUCSORGRIGHT
350
271
  3
PUCSORGTOP
350
26E
  3
PUCSORTHOREF
350
26B
  3
PUCSORTHOVIEW
350
26C
  3
STYLESHEET
350
260
  3
TSTACKALIGN
350
25D
  3
TSTACKSIZE
350
25E
  3
UCSBASE
350
276
  3
UCSORGBACK
350
27C
  3
UCSORGBOTTOM
350
278
  3
UCSORGFRONT
350
27B
  3
UCSORGLEFT
350
279
  3
UCSORGRIGHT
350
27A
  3
UCSORGTOP
350
277
  3
UCSORTHOREF
350
274
  3
UCSORTHOVIEW
350
275
  3
VERSIONGUID
350
268
  0
DICTIONARY
  5
26
102
{ACAD_REACTORS
330
C
102
}
330
C
100
AcDbDictionary
  3
DIMADEC
350
27
  3
DIMASSOC
350
1A2
  0
XRECORD
  5
27E
102
{ACAD_REACTORS
330
19C
102
}
330
19C
100
AcDbXrecord
340
17
  0
XRECORD
  5
27D
102
{ACAD_REACTORS
330
19A
102
}
330
19A
100
AcDbXrecord
340
14
  0
MLINESTYLE
  5
1B
102
{ACAD_REACTORS
330
1A
102
}
330
1A
100
AcDbMlineStyle
  2
STANDARD
 70
     0
  3

 62
   256
 51
90.0
 52
90.0
 71
     2
 49
0.5
 62
   256
  6
BYLAYER
 49
-0.5
 62
   256
  6
BYLAYER
  0
ACDBPLACEHOLDER
  5
16E
102
{ACAD_REACTORS
330
16D
102
}
330
16D
100
AcDbPlaceHolder
280
     0
  0
XRECORD
  5
266
102
{ACAD_REACTORS
330
25C
102
}
330
25C
100
AcDbXrecord
 90
        0
  0
XRECORD
  5
26A
102
{ACAD_REACTORS
330
25C
102
}
330
25C
100
AcDbXrecord
1000
DSTYLE
1002
{
1070
   277
 70
     5
1070
   279
 70
     2
1002
}
  0
XRECORD
  5
267
102
{ACAD_REACTORS
330
25C
102
}
330
25C
100
AcDbXrecord
  1
{173D0DD6-57BD-4F06-9935-4208D9AB9880}
  0
XRECORD
  5
25F
102
{ACAD_REACTORS
330
25C
102
}
330
25C
100
AcDbXrecord
  1

  0
XRECORD
  5
265
102
{ACAD_REACTORS
330
25C
102
}
330
25C
100
AcDbXrecord
 90
        0
  0
XRECORD
  5
261
102
{ACAD_REACTORS
330
25C
102
}
330
25C
100
AcDbXrecord
340
16F
  0
XRECORD
  5
264
102
{ACAD_REACTORS
330
25C
102
}
330
25C
100
AcDbXrecord
 90
    14877
  0
XRECORD
  5
262
102
{ACAD_REACTORS
330
25C
102
}
330
25C
100
AcDbXrecord
340
170
  0
XRECORD
  5
263
102
{ACAD_REACTORS
330
25C
102
}
330
25C
100
AcDbXrecord
340
16D
  0
XRECORD
  5
269
102
{ACAD_REACTORS
330
25C
102
}
330
25C
100
AcDbXrecord
 40
0.0
  0
XRECORD
  5
26D
102
{ACAD_REACTORS
330
25C
102
}
330
25C
100
AcDbXrecord
340
0
  0
XRECORD
  5
273
102
{ACAD_REACTORS
330
25C
102
}
330
25C
100
AcDbXrecord
 10
0.0
 20
0.0
 30
0.0
  0
XRECORD
  5
26F
102
{ACAD_REACTORS
330
25C
102
}
330
25C
100
AcDbXrecord
 10
0.0
 20
0.0
 30
0.0
  0
XRECORD
  5
272
102
{ACAD_REACTORS
330
25C
102
}
330
25C
100
AcDbXrecord
 10
0.0
 20
0.0
 30
0.0
  0
XRECORD
  5
270
102
{ACAD_REACTORS
330
25C
102
}
330
25C
100
AcDbXrecord
 10
0.0
 20
0.0
 30
0.0
  0
XRECORD
  5
271
102
{ACAD_REACTORS
330
25C
102
}
330
25C
100
AcDbXrecord
 10
0.0
 20
0.0
 30
0.0
  0
XRECORD
  5
26E
102
{ACAD_REACTORS
330
25C
102
}
330
25C
100
AcDbXrecord
 10
0.0
 20
0.0
 30
0.0
  0
XRECORD
  5
26B
102
{ACAD_REACTORS
330
25C
102
}
330
25C
100
AcDbXrecord
340
0
  0
XRECORD
  5
26C
102
{ACAD_REACTORS
330
25C
102
}
330
25C
100
AcDbXrecord
 70
     0
  0
XRECORD
  5
260
102
{ACAD_REACTORS
330
25C
102
}
330
25C
100
AcDbXrecord
  1

  0
XRECORD
  5
25D
102
{ACAD_REACTORS
330
25C
102
}
330
25C
100
AcDbXrecord
 90
        1
  0
XRECORD
  5
25E
102
{ACAD_REACTORS
330
25C
102
}
330
25C
100
AcDbXrecord
 90
       70
  0
XRECORD
  5
276
102
{ACAD_REACTORS
330
25C
102
}
330
25C
100
AcDbXrecord
340
0
  0
XRECORD
  5
27C
102
{ACAD_REACTORS
330
25C
102
}
330
25C
100
AcDbXrecord
 10
0.0
 20
0.0
 30
0.0
  0
XRECORD
  5
278
102
{ACAD_REACTORS
330
25C
102
}
330
25C
100
AcDbXrecord
 10
0.0
 20
0.0
 30
0.0
  0
XRECORD
  5
27B
102
{ACAD_REACTORS
330
25C
102
}
330
25C
100
AcDbXrecord
 10
0.0
 20
0.0
 30
0.0
  0
XRECORD
  5
279
102
{ACAD_REACTORS
330
25C
102
}
330
25C
100
AcDbXrecord
 10
0.0
 20
0.0
 30
0.0
  0
XRECORD
  5
27A
102
{ACAD_REACTORS
330
25C
102
}
330
25C
100
AcDbXrecord
 10
0.0
 20
0.0
 30
0.0
  0
XRECORD
  5
277
102
{ACAD_REACTORS
330
25C
102
}
330
25C
100
AcDbXrecord
 10
0.0
 20
0.0
 30
0.0
  0
XRECORD
  5
274
102
{ACAD_REACTORS
330
25C
102
}
330
25C
100
AcDbXrecord
340
0
  0
XRECORD
  5
275
102
{ACAD_REACTORS
330
25C
102
}
330
25C
100
AcDbXrecord
 70
     0
  0
XRECORD
  5
268
102
{ACAD_REACTORS
330
25C
102
}
330
25C
100
AcDbXrecord
  1
{4AB3F446-AE8E-48BB-88FD-C57EFAD3CBC7}
  0
DICTIONARYVAR
  5
27
102
{ACAD_REACTORS
330
26
102
}
330
26
100
DictionaryVariables
280
     0
  1
0
  0
DICTIONARYVAR
  5
1A2
102
{ACAD_REACTORS
330
26
102
}
330
26
100
DictionaryVariables
280
     0
  1
1
  0
ENDSEC
  0
EOF
