  0
SECTION
  2
HEADER
  9
$ACADVER
  1
AC1015
  9
$ACADMAINTVER
 70
    20
  9
$DWGCODEPAGE
  3
ANSI_936
  9
$INSBASE
 10
0.0
 20
0.0
 30
0.0
  9
$EXTMIN
 10
-4.685501540317002
 20
-33.02009231132299
 30
0.0
  9
$EXTMAX
 10
59.66157383485352
 20
16.93649476707119
 30
0.0
  9
$LIMMIN
 10
-22.0
 20
-17.0
  9
$LIMMAX
 10
12.01333333333333
 20
27.01333333333334
  9
$ORTHOMODE
 70
     0
  9
$REGENMODE
 70
     1
  9
$FILLMODE
 70
     1
  9
$QTEXTMODE
 70
     0
  9
$MIRRTEXT
 70
     0
  9
$LTSCALE
 40
1.0
  9
$ATTMODE
 70
     1
  9
$TEXTSIZE
 40
0.5
  9
$TRACEWID
 40
0.05
  9
$TEXTSTYLE
  7
Standard
  9
$CLAYER
  8
0
  9
$CELTYPE
  6
ByLayer
  9
$CECOLOR
 62
     7
  9
$CELTSCALE
 40
1.0
  9
$DISPSILH
 70
     0
  9
$DIMSCALE
 40
1.0
  9
$DIMASZ
 40
0.18
  9
$DIMEXO
 40
0.0625
  9
$DIMDLI
 40
0.38
  9
$DIMRND
 40
0.0
  9
$DIMDLE
 40
0.0
  9
$DIMEXE
 40
0.18
  9
$DIMTP
 40
0.0
  9
$DIMTM
 40
0.0
  9
$DIMTXT
 40
0.312
  9
$DIMCEN
 40
0.09
  9
$DIMTSZ
 40
0.0
  9
$DIMTOL
 70
     0
  9
$DIMLIM
 70
     0
  9
$DIMTIH
 70
     1
  9
$DIMTOH
 70
     1
  9
$DIMSE1
 70
     0
  9
$DIMSE2
 70
     0
  9
$DIMTAD
 70
     0
  9
$DIMZIN
 70
     0
  9
$DIMBLK
  1

  9
$DIMASO
 70
     1
  9
$DIMSHO
 70
     1
  9
$DIMPOST
  1

  9
$DIMAPOST
  1

  9
$DIMALT
 70
     0
  9
$DIMALTD
 70
     2
  9
$DIMALTF
 40
25.4
  9
$DIMLFAC
 40
1.0
  9
$DIMTOFL
 70
     0
  9
$DIMTVP
 40
0.0
  9
$DIMTIX
 70
     0
  9
$DIMSOXD
 70
     0
  9
$DIMSAH
 70
     0
  9
$DIMBLK1
  1

  9
$DIMBLK2
  1

  9
$DIMSTYLE
  2
Standard
  9
$DIMCLRD
 70
     0
  9
$DIMCLRE
 70
     0
  9
$DIMCLRT
 70
     0
  9
$DIMTFAC
 40
1.0
  9
$DIMGAP
 40
0.09
  9
$DIMJUST
 70
     0
  9
$DIMSD1
 70
     0
  9
$DIMSD2
 70
     0
  9
$DIMTOLJ
 70
     1
  9
$DIMTZIN
 70
     0
  9
$DIMALTZ
 70
     0
  9
$DIMALTTZ
 70
     0
  9
$DIMUPT
 70
     0
  9
$DIMDEC
 70
     3
  9
$DIMTDEC
 70
     4
  9
$DIMALTU
 70
     2
  9
$DIMALTTD
 70
     2
  9
$DIMTXSTY
  7
Standard
  9
$DIMAUNIT
 70
     1
  9
$DIMADEC
 70
     0
  9
$DIMALTRND
 40
0.0
  9
$DIMAZIN
 70
     0
  9
$DIMDSEP
 70
    46
  9
$DIMATFIT
 70
     3
  9
$DIMFRAC
 70
     0
  9
$DIMLDRBLK
  1

  9
$DIMLUNIT
 70
     4
  9
$DIMLWD
 70
    -2
  9
$DIMLWE
 70
    -2
  9
$DIMTMOVE
 70
     0
  9
$LUNITS
 70
     2
  9
$LUPREC
 70
     3
  9
$SKETCHINC
 40
0.1
  9
$FILLETRAD
 40
0.031
  9
$AUNITS
 70
     0
  9
$AUPREC
 70
     2
  9
$MENU
  1
.
  9
$ELEVATION
 40
0.0
  9
$PELEVATION
 40
0.0
  9
$THICKNESS
 40
0.0
  9
$LIMCHECK
 70
     0
  9
$CHAMFERA
 40
0.025
  9
$CHAMFERB
 40
0.025
  9
$CHAMFERC
 40
0.0
  9
$CHAMFERD
 40
0.0
  9
$SKPOLY
 70
     0
  9
$TDCREATE
 40
2454946.139733125
  9
$TDUCREATE
 40
2454946.348066458
  9
$TDUPDATE
 40
2455209.532536632
  9
$TDUUPDATE
 40
2455209.740869965
  9
$TDINDWG
 40
0.1082144676
  9
$TDUSRTIMER
 40
0.1082144676
  9
$USRTIMER
 70
     1
  9
$ANGBASE
 50
0.0
  9
$ANGDIR
 70
     0
  9
$PDMODE
 70
     0
  9
$PDSIZE
 40
0.0
  9
$PLINEWID
 40
0.0
  9
$SPLFRAME
 70
     0
  9
$SPLINETYPE
 70
     6
  9
$SPLINESEGS
 70
     8
  9
$HANDSEED
  5
607
  9
$SURFTAB1
 70
     6
  9
$SURFTAB2
 70
     6
  9
$SURFTYPE
 70
     6
  9
$SURFU
 70
     6
  9
$SURFV
 70
     6
  9
$UCSBASE
  2

  9
$UCSNAME
  2

  9
$UCSORG
 10
0.0
 20
0.0
 30
0.0
  9
$UCSXDIR
 10
1.0
 20
0.0
 30
0.0
  9
$UCSYDIR
 10
0.0
 20
1.0
 30
0.0
  9
$UCSORTHOREF
  2

  9
$UCSORTHOVIEW
 70
     0
  9
$UCSORGTOP
 10
0.0
 20
0.0
 30
0.0
  9
$UCSORGBOTTOM
 10
0.0
 20
0.0
 30
0.0
  9
$UCSORGLEFT
 10
0.0
 20
0.0
 30
0.0
  9
$UCSORGRIGHT
 10
0.0
 20
0.0
 30
0.0
  9
$UCSORGFRONT
 10
0.0
 20
0.0
 30
0.0
  9
$UCSORGBACK
 10
0.0
 20
0.0
 30
0.0
  9
$PUCSBASE
  2

  9
$PUCSNAME
  2

  9
$PUCSORG
 10
0.0
 20
0.0
 30
0.0
  9
$PUCSXDIR
 10
1.0
 20
0.0
 30
0.0
  9
$PUCSYDIR
 10
0.0
 20
1.0
 30
0.0
  9
$PUCSORTHOREF
  2

  9
$PUCSORTHOVIEW
 70
     0
  9
$PUCSORGTOP
 10
0.0
 20
0.0
 30
0.0
  9
$PUCSORGBOTTOM
 10
0.0
 20
0.0
 30
0.0
  9
$PUCSORGLEFT
 10
0.0
 20
0.0
 30
0.0
  9
$PUCSORGRIGHT
 10
0.0
 20
0.0
 30
0.0
  9
$PUCSORGFRONT
 10
0.0
 20
0.0
 30
0.0
  9
$PUCSORGBACK
 10
0.0
 20
0.0
 30
0.0
  9
$USERI1
 70
     0
  9
$USERI2
 70
     0
  9
$USERI3
 70
     0
  9
$USERI4
 70
     0
  9
$USERI5
 70
     0
  9
$USERR1
 40
0.0
  9
$USERR2
 40
0.0
  9
$USERR3
 40
0.0
  9
$USERR4
 40
0.0
  9
$USERR5
 40
0.0
  9
$WORLDVIEW
 70
     1
  9
$SHADEDGE
 70
     3
  9
$SHADEDIF
 70
    70
  9
$TILEMODE
 70
     1
  9
$MAXACTVP
 70
    64
  9
$PINSBASE
 10
0.0
 20
0.0
 30
0.0
  9
$PLIMCHECK
 70
     0
  9
$PEXTMIN
 10
1.000000000000000E+20
 20
1.000000000000000E+20
 30
1.000000000000000E+20
  9
$PEXTMAX
 10
-1.000000000000000E+20
 20
-1.000000000000000E+20
 30
-1.000000000000000E+20
  9
$PLIMMIN
 10
0.0
 20
0.0
  9
$PLIMMAX
 10
12.0
 20
9.0
  9
$UNITMODE
 70
     0
  9
$VISRETAIN
 70
     1
  9
$PLINEGEN
 70
     0
  9
$PSLTSCALE
 70
     1
  9
$TREEDEPTH
 70
  3020
  9
$CMLSTYLE
  2
Standard
  9
$CMLJUST
 70
     0
  9
$CMLSCALE
 40
1.0
  9
$PROXYGRAPHICS
 70
     1
  9
$MEASUREMENT
 70
     0
  9
$CELWEIGHT
370
    -1
  9
$ENDCAPS
280
     0
  9
$JOINSTYLE
280
     0
  9
$LWDISPLAY
290
     0
  9
$INSUNITS
 70
     0
  9
$HYPERLINKBASE
  1

  9
$STYLESHEET
  1

  9
$XEDIT
290
     1
  9
$CEPSNTYPE
380
     0
  9
$PSTYLEMODE
290
     1
  9
$FINGERPRINTGUID
  2
{76C0E9B4-3EF2-4973-8BE1-98D3AEC1770F}
  9
$VERSIONGUID
  2
{5D487363-9DAE-419E-99C8-5B00F3D56573}
  9
$EXTNAMES
290
     1
  9
$PSVPSCALE
 40
0.0
  9
$OLESTARTUP
290
     0
  0
ENDSEC
  0
SECTION
  2
CLASSES
  0
CLASS
  1
ACDBDICTIONARYWDFLT
  2
AcDbDictionaryWithDefault
  3
ObjectDBX Classes
 90
        0
280
     0
281
     0
  0
CLASS
  1
DICTIONARYVAR
  2
AcDbDictionaryVar
  3
ObjectDBX Classes
 90
        0
280
     0
281
     0
  0
CLASS
  1
ACDBPLACEHOLDER
  2
AcDbPlaceHolder
  3
ObjectDBX Classes
 90
        0
280
     0
281
     0
  0
CLASS
  1
LAYOUT
  2
AcDbLayout
  3
ObjectDBX Classes
 90
        0
280
     0
281
     0
  0
CLASS
  1
MATERIAL
  2
AcDbMaterial
  3
ObjectDBX Classes
 90
     1024
280
     0
281
     0
  0
CLASS
  1
VISUALSTYLE
  2
AcDbVisualStyle
  3
ObjectDBX Classes
 90
     4095
280
     0
281
     0
  0
CLASS
  1
TABLESTYLE
  2
AcDbTableStyle
  3
ObjectDBX Classes
 90
     4095
280
     0
281
     0
  0
CLASS
  1
DIMASSOC
  2
AcDbDimAssoc
  3
"AcDbDimAssoc|Product Desc:     AcDim ARX App For Dimension|Company:          Autodesk, Inc.|WEB Address:      www.autodesk.com"
 90
    32768
280
     0
281
     0
  0
CLASS
  1
ACAD_EVALUATION_GRAPH
  2
AcDbEvalGraph
  3
ObjectDBX Classes
 90
     1153
280
     0
281
     0
  0
CLASS
  1
ACAECUSTOBJ
  2
AcAeEditorObj
  3
AcAeEditorObj
 90
    33792
280
     0
281
     0
  0
CLASS
  1
ACDB_DYNAMICBLOCKPURGEPREVENTER_VERSION
  2
AcDbDynamicBlockPurgePreventer
  3
ObjectDBX Classes
 90
     1153
280
     0
281
     0
  0
CLASS
  1
SORTENTSTABLE
  2
AcDbSortentsTable
  3
ObjectDBX Classes
 90
        0
280
     0
281
     0
  0
ENDSEC
  0
SECTION
  2
TABLES
  0
TABLE
  2
VPORT
  5
8
102
{ACAD_XDICTIONARY
360
BE
102
}
330
0
100
AcDbSymbolTable
 70
     1
  0
VPORT
  5
13
330
8
100
AcDbSymbolTableRecord
100
AcDbViewportTableRecord
  2
*Active
 70
     0
 10
0.0
 20
0.0
 11
1.0
 21
1.0
 12
27.48854490039338
 22
-8.041017194599177
 13
0.0
 23
0.0
 14
1.0
 24
1.0
 15
0.0
 25
0.0
 16
0.0
 26
0.0
 36
1.0
 17
0.0
 27
0.0
 37
0.0
 40
50.51571166486464
 41
2.426443202979515
 42
50.0
 43
0.0
 44
0.0
 50
0.0
 51
0.0
 71
     0
 72
   100
 73
     1
 74
     1
 75
     0
 76
     0
 77
     0
 78
     0
281
     0
 65
     1
110
0.0
120
0.0
130
0.0
111
1.0
121
0.0
131
0.0
112
0.0
122
1.0
132
0.0
 79
     0
146
0.0
  0
ENDTAB
  0
TABLE
  2
LTYPE
  5
5
330
0
100
AcDbSymbolTable
 70
     3
  0
LTYPE
  5
14
330
5
100
AcDbSymbolTableRecord
100
AcDbLinetypeTableRecord
  2
ByBlock
 70
     0
  3

 72
    65
 73
     0
 40
0.0
  0
LTYPE
  5
15
330
5
100
AcDbSymbolTableRecord
100
AcDbLinetypeTableRecord
  2
ByLayer
 70
     0
  3

 72
    65
 73
     0
 40
0.0
  0
LTYPE
  5
16
330
5
100
AcDbSymbolTableRecord
100
AcDbLinetypeTableRecord
  2
Continuous
 70
     0
  3
Solid line
 72
    65
 73
     0
 40
0.0
  0
LTYPE
  5
5C8
330
5
100
AcDbSymbolTableRecord
100
AcDbLinetypeTableRecord
  2
HIDDEN2
 70
     0
  3
Hidden (.5x) _ _ _ _ _ _ _ _ _ _ _ _ _ _ _ _ _
 72
    65
 73
     2
 40
0.1875
 49
0.125
 74
     0
 49
-0.0625
 74
     0
  0
ENDTAB
  0
TABLE
  2
LAYER
  5
2
102
{ACAD_XDICTIONARY
360
5C9
102
}
330
0
100
AcDbSymbolTable
 70
     5
  0
LAYER
  5
10
330
2
100
AcDbSymbolTableRecord
100
AcDbLayerTableRecord
  2
0
 70
     0
 62
     7
  6
Continuous
370
    -3
390
F
  0
LAYER
  5
51
330
2
100
AcDbSymbolTableRecord
100
AcDbLayerTableRecord
  2
APPDETAIL
 70
     0
 62
     5
  6
Continuous
370
    -3
390
F
  0
LAYER
  5
9F
330
2
100
AcDbSymbolTableRecord
100
AcDbLayerTableRecord
  2
ADPDIM
 70
     0
 62
     3
  6
Continuous
370
    -3
390
F
  0
LAYER
  5
DC
330
2
100
AcDbSymbolTableRecord
100
AcDbLayerTableRecord
  2
Defpoints
 70
     0
 62
     7
  6
Continuous
290
     0
370
    -3
390
F
  0
ENDTAB
  0
TABLE
  2
STYLE
  5
3
330
0
100
AcDbSymbolTable
 70
     3
  0
STYLE
  5
11
330
3
100
AcDbSymbolTableRecord
100
AcDbTextStyleTableRecord
  2
Standard
 70
     0
 40
0.0
 41
1.0
 50
0.0
 71
     0
 42
0.5
  3
txt
  4

  0
STYLE
  5
A0
330
3
100
AcDbSymbolTableRecord
100
AcDbTextStyleTableRecord
  2
ARIAL_WIDE
 70
     0
 40
0.0
 41
1.25
 50
0.0
 71
     0
 42
0.2
  3
arial.ttf
  4

1001
ACAD
1000
Arial
1071
       34
  0
STYLE
  5
5C7
330
3
100
AcDbSymbolTableRecord
100
AcDbTextStyleTableRecord
  2

 70
     1
 40
0.0
 41
1.0
 50
0.0
 71
     0
 42
0.5
  3
ltypeshp.shx
  4

  0
ENDTAB
  0
TABLE
  2
VIEW
  5
6
330
0
100
AcDbSymbolTable
 70
     0
  0
ENDTAB
  0
TABLE
  2
UCS
  5
7
330
0
100
AcDbSymbolTable
 70
     0
  0
ENDTAB
  0
TABLE
  2
APPID
  5
9
330
0
100
AcDbSymbolTable
 70
     6
  0
APPID
  5
12
330
9
100
AcDbSymbolTableRecord
100
AcDbRegAppTableRecord
  2
ACAD
 70
     0
  0
APPID
  5
17F
330
9
100
AcDbSymbolTableRecord
100
AcDbRegAppTableRecord
  2
ACAUTHENVIRON
 70
     0
  0
APPID
  5
1AA
330
9
100
AcDbSymbolTableRecord
100
AcDbRegAppTableRecord
  2
AcDbDynamicBlockTrueName
 70
     0
  0
APPID
  5
1AB
330
9
100
AcDbSymbolTableRecord
100
AcDbRegAppTableRecord
  2
AcDbDynamicBlockGUID
 70
     0
  0
APPID
  5
1AD
330
9
100
AcDbSymbolTableRecord
100
AcDbRegAppTableRecord
  2
AcDbBlockRepETag
 70
     0
  0
APPID
  5
5BE
330
9
100
AcDbSymbolTableRecord
100
AcDbRegAppTableRecord
  2
ACAD_EXEMPT_FROM_CAD_STANDARDS
 70
     0
  0
ENDTAB
  0
TABLE
  2
DIMSTYLE
  5
A
330
0
100
AcDbSymbolTable
 70
     2
100
AcDbDimStyleTable
 71
     1
340
29
  0
DIMSTYLE
105
29
102
{ACAD_REACTORS
330
13A
330
183
330
1D6
330
314
102
}
330
A
100
AcDbSymbolTableRecord
100
AcDbDimStyleTableRecord
  2
Standard
 70
     0
340
11
  0
ENDTAB
  0
TABLE
  2
BLOCK_RECORD
  5
1
330
0
100
AcDbSymbolTable
 70
     9
  0
BLOCK_RECORD
  5
21
102
{ACAD_XDICTIONARY
360
5D4
102
}
330
1
100
AcDbSymbolTableRecord
100
AcDbBlockTableRecord
  2
*Model_Space
340
24
  0
BLOCK_RECORD
  5
1D
330
1
100
AcDbSymbolTableRecord
100
AcDbBlockTableRecord
  2
*Paper_Space
340
20
  0
BLOCK_RECORD
  5
25
330
1
100
AcDbSymbolTableRecord
100
AcDbBlockTableRecord
  2
*Paper_Space0
340
28
  0
BLOCK_RECORD
  5
13B
330
1
100
AcDbSymbolTableRecord
100
AcDbBlockTableRecord
  2
*D1
340
0
  0
BLOCK_RECORD
  5
184
330
1
100
AcDbSymbolTableRecord
100
AcDbBlockTableRecord
  2
*D2
340
0
  0
BLOCK_RECORD
  5
1D7
330
1
100
AcDbSymbolTableRecord
100
AcDbBlockTableRecord
  2
*D3
340
0
  0
BLOCK_RECORD
  5
2BF
102
{ACAD_XDICTIONARY
360
3A3
102
}
330
1
100
AcDbSymbolTableRecord
100
AcDbBlockTableRecord
  2
A$C0BB32EA6
340
0
102
{BLKREFS
331
2E2
102
}
1001
AcDbDynamicBlockGUID
1000
{FA7BADAD-CCA0-4FC8-AE52-36819D2A03F9}
1001
AcDbBlockRepETag
1070
     1
1071
       32
  0
BLOCK_RECORD
  5
315
330
1
100
AcDbSymbolTableRecord
100
AcDbBlockTableRecord
  2
*D5
340
0
  0
BLOCK_RECORD
  5
3A7
102
{ACAD_XDICTIONARY
360
3C1
102
}
330
1
100
AcDbSymbolTableRecord
100
AcDbBlockTableRecord
  2
*U6
340
0
102
{BLKREFS
331
3C6
102
}
1001
AcDbDynamicBlockTrueName
1000
A$C7E87390C
1001
AcDbDynamicBlockGUID
1000
{6FC07970-15A9-4120-A696-8524CC2FBFD3}
  0
BLOCK_RECORD
  5
541
330
1
100
AcDbSymbolTableRecord
100
AcDbBlockTableRecord
  2
_Oblique
340
0
102
{BLKREFS
331
5A3
331
5A4
331
5AD
331
5AE
331
5B7
331
5B8
102
}
  0
ENDTAB
  0
ENDSEC
  0
SECTION
  2
BLOCKS
  0
BLOCK
  5
22
330
21
100
AcDbEntity
  8
0
100
AcDbBlockBegin
  2
*Model_Space
 70
     0
 10
0.0
 20
0.0
 30
0.0
  3
*Model_Space
  1

  0
ENDBLK
  5
23
330
21
100
AcDbEntity
  8
0
100
AcDbBlockEnd
  0
BLOCK
  5
1E
330
1D
100
AcDbEntity
 67
     1
  8
0
100
AcDbBlockBegin
  2
*Paper_Space
 70
     0
 10
0.0
 20
0.0
 30
0.0
  3
*Paper_Space
  1

  0
ENDBLK
  5
1F
330
1D
100
AcDbEntity
 67
     1
  8
0
100
AcDbBlockEnd
  0
BLOCK
  5
26
330
25
100
AcDbEntity
 67
     1
  8
0
100
AcDbBlockBegin
  2
*Paper_Space0
 70
     0
 10
0.0
 20
0.0
 30
0.0
  3
*Paper_Space0
  1

  0
ENDBLK
  5
27
330
25
100
AcDbEntity
 67
     1
  8
0
100
AcDbBlockEnd
  0
BLOCK
  5
146
330
13B
100
AcDbEntity
  8
0
 62
     7
100
AcDbBlockBegin
  2
*D1
 70
     1
 10
0.0
 20
0.0
 30
0.0
  3
*D1
  1

  0
LINE
  5
595
330
13B
100
AcDbEntity
  8
ADPDIM
 62
     0
370
    -2
100
AcDbLine
 10
26.681290436836
 20
14.0643659046869
 30
0.0
 11
25.40522994842063
 21
14.0643659046869
 31
0.0
  0
LINE
  5
596
330
13B
100
AcDbEntity
  8
ADPDIM
 62
     0
370
    -2
100
AcDbLine
 10
26.681290436836
 20
-25.9356340953131
 30
0.0
 11
25.40522994842062
 21
-25.9356340953131
 31
0.0
  0
LINE
  5
597
330
13B
100
AcDbEntity
  8
ADPDIM
 62
     0
370
    -2
100
AcDbLine
 10
25.58522994842063
 20
14.0643659046869
 30
0.0
 11
25.58522994842063
 21
-5.060634095313095
 31
0.0
  0
LINE
  5
598
330
13B
100
AcDbEntity
  8
ADPDIM
 62
     0
370
    -2
100
AcDbLine
 10
25.58522994842062
 20
-25.9356340953131
 30
0.0
 11
25.58522994842063
 21
-6.810634095313095
 31
0.0
  0
LINE
  5
599
330
13B
100
AcDbEntity
  8
ADPDIM
 62
     0
370
    -2
100
AcDbLine
 10
25.71022994842062
 20
-26.06063409531309
 30
0.0
 11
25.46022994842062
 21
-25.8106340953131
 31
0.0
  0
LINE
  5
59A
330
13B
100
AcDbEntity
  8
ADPDIM
 62
     0
370
    -2
100
AcDbLine
 10
25.71022994842063
 20
13.9393659046869
 30
0.0
 11
25.46022994842063
 21
14.1893659046869
 31
0.0
  0
MTEXT
  5
59B
330
13B
100
AcDbEntity
  8
ADPDIM
 62
     0
100
AcDbMText
 10
25.58522994842063
 20
-5.935634095313091
 30
0.0
 40
1.0
 41
0.0
 71
     5
 72
     1
  1
\A1;40
 11
0.0000000000000001
 21
1.0
 31
0.0
 73
     1
 44
1.0
1001
ACAD
1000
MTEXTBEGIN
1070
    73
1070
     1
1070
    44
1040
1.0
1070
    74
1070
     0
1000
MTEXTEND
  0
POINT
  5
59C
330
13B
100
AcDbEntity
  8
Defpoints
 62
     0
100
AcDbPoint
 10
26.743790436836
 20
14.0643659046869
 30
0.0
  0
POINT
  5
59D
330
13B
100
AcDbEntity
  8
Defpoints
 62
     0
100
AcDbPoint
 10
26.743790436836
 20
-25.9356340953131
 30
0.0
  0
POINT
  5
59E
330
13B
100
AcDbEntity
  8
Defpoints
 62
     0
100
AcDbPoint
 10
25.58522994842062
 20
-25.9356340953131
 30
0.0
  0
ENDBLK
  5
147
330
13B
100
AcDbEntity
  8
0
 62
     7
100
AcDbBlockEnd
  0
BLOCK
  5
18F
330
184
100
AcDbEntity
  8
0
 62
     7
100
AcDbBlockBegin
  2
*D2
 70
     1
 10
0.0
 20
0.0
 30
0.0
  3
*D2
  1

  0
LINE
  5
5A9
330
184
100
AcDbEntity
  8
ADPDIM
 62
     0
370
    -2
100
AcDbLine
 10
26.86802886727143
 20
14.14296013560216
 30
0.0
 11
26.86802886727143
 21
15.01124536272639
 31
0.0
  0
LINE
  5
5AA
330
184
100
AcDbEntity
  8
ADPDIM
 62
     0
370
    -2
100
AcDbLine
 10
28.11857206871494
 20
14.14296013560216
 30
0.0
 11
28.11857206871494
 21
15.01124536272639
 31
0.0
  0
LINE
  5
5AB
330
184
100
AcDbEntity
  8
ADPDIM
 62
     0
370
    -2
100
AcDbLine
 10
28.11857206871494
 20
14.83124536272639
 30
0.0
 11
26.86802886727143
 21
14.83124536272639
 31
0.0
  0
LINE
  5
5AC
330
184
100
AcDbEntity
  8
ADPDIM
 62
     0
370
    -2
100
AcDbLine
 10
26.86802886727143
 20
14.83124536272639
 30
0.0
 11
24.14922958198909
 21
14.83124536272639
 31
0.0
  0
INSERT
  5
5AD
330
184
100
AcDbEntity
  8
ADPDIM
 62
     0
370
    -2
100
AcDbBlockReference
  2
_Oblique
 10
28.11857206871494
 20
14.83124536272639
 30
0.0
 41
0.18
 42
0.18
 43
0.18
  0
INSERT
  5
5AE
330
184
100
AcDbEntity
  8
ADPDIM
 62
     0
370
    -2
100
AcDbBlockReference
  2
_Oblique
 10
26.86802886727143
 20
14.83124536272639
 30
0.0
 41
0.18
 42
0.18
 43
0.18
 50
180.0
  0
MTEXT
  5
5AF
330
184
100
AcDbEntity
  8
ADPDIM
 62
     0
100
AcDbMText
 10
22.05922958198909
 20
14.83124536272639
 30
0.0
 40
1.0
 41
0.0
 71
     5
 72
     1
  1
\A1;1 1/4
 73
     1
 44
1.0
1001
ACAD
1000
MTEXTBEGIN
1070
    73
1070
     1
1070
    44
1040
1.0
1070
    74
1070
     0
1000
MTEXTEND
  0
POINT
  5
5B0
330
184
100
AcDbEntity
  8
Defpoints
 62
     0
100
AcDbPoint
 10
26.86802886727143
 20
14.08046013560216
 30
0.0
  0
POINT
  5
5B1
330
184
100
AcDbEntity
  8
Defpoints
 62
     0
100
AcDbPoint
 10
28.11857206871494
 20
14.08046013560216
 30
0.0
  0
POINT
  5
5B2
330
184
100
AcDbEntity
  8
Defpoints
 62
     0
100
AcDbPoint
 10
28.11857206871494
 20
14.83124536272639
 30
0.0
  0
ENDBLK
  5
190
330
184
100
AcDbEntity
  8
0
 62
     7
100
AcDbBlockEnd
  0
BLOCK
  5
1E2
330
1D7
100
AcDbEntity
  8
0
 62
     7
100
AcDbBlockBegin
  2
*D3
 70
     1
 10
0.0
 20
0.0
 30
0.0
  3
*D3
  1

  0
LINE
  5
5B3
330
1D7
100
AcDbEntity
  8
ADPDIM
 62
     0
370
    -2
100
AcDbLine
 10
26.74297454712708
 20
-25.99942231059003
 30
0.0
 11
26.74297454712708
 21
-26.94376452578619
 31
0.0
  0
LINE
  5
5B4
330
1D7
100
AcDbEntity
  8
ADPDIM
 62
     0
370
    -2
100
AcDbLine
 10
28.24362638885928
 20
-25.99942231059003
 30
0.0
 11
28.24362638885928
 21
-26.94376452578619
 31
0.0
  0
LINE
  5
5B5
330
1D7
100
AcDbEntity
  8
ADPDIM
 62
     0
370
    -2
100
AcDbLine
 10
26.74297454712708
 20
-26.76376452578619
 30
0.0
 11
28.24362638885928
 21
-26.76376452578619
 31
0.0
  0
LINE
  5
5B6
330
1D7
100
AcDbEntity
  8
ADPDIM
 62
     0
370
    -2
100
AcDbLine
 10
28.24362638885928
 20
-26.76376452578619
 30
0.0
 11
30.31884640890184
 21
-26.76376452578619
 31
0.0
  0
INSERT
  5
5B7
330
1D7
100
AcDbEntity
  8
ADPDIM
 62
     0
370
    -2
100
AcDbBlockReference
  2
_Oblique
 10
26.74297454712708
 20
-26.76376452578619
 30
0.0
 41
0.18
 42
0.18
 43
0.18
 50
180.0
  0
INSERT
  5
5B8
330
1D7
100
AcDbEntity
  8
ADPDIM
 62
     0
370
    -2
100
AcDbBlockReference
  2
_Oblique
 10
28.24362638885928
 20
-26.76376452578619
 30
0.0
 41
0.18
 42
0.18
 43
0.18
  0
MTEXT
  5
5B9
330
1D7
100
AcDbEntity
  8
ADPDIM
 62
     0
100
AcDbMText
 10
32.40884640890184
 20
-26.76376452578619
 30
0.0
 40
1.0
 41
0.0
 71
     5
 72
     1
  1
\A1;1 1/2
 73
     1
 44
1.0
1001
ACAD
1000
MTEXTBEGIN
1070
    73
1070
     1
1070
    44
1040
1.0
1070
    74
1070
     0
1000
MTEXTEND
  0
POINT
  5
5BA
330
1D7
100
AcDbEntity
  8
Defpoints
 62
     0
100
AcDbPoint
 10
26.74297454712708
 20
-25.93692231059002
 30
0.0
  0
POINT
  5
5BB
330
1D7
100
AcDbEntity
  8
Defpoints
 62
     0
100
AcDbPoint
 10
28.24362638885928
 20
-25.93692231059002
 30
0.0
  0
POINT
  5
5BC
330
1D7
100
AcDbEntity
  8
Defpoints
 62
     0
100
AcDbPoint
 10
28.24362638885928
 20
-26.76376452578619
 30
0.0
  0
ENDBLK
  5
1E3
330
1D7
100
AcDbEntity
  8
0
 62
     7
100
AcDbBlockEnd
  0
BLOCK
  5
2E0
330
2BF
100
AcDbEntity
  8
0
 62
     7
100
AcDbBlockBegin
  2
A$C0BB32EA6
 70
     0
 10
0.0
 20
0.0
 30
0.0
  3
A$C0BB32EA6
  1

  0
LINE
  5
383
330
2BF
100
AcDbEntity
  8
APPDETAIL
  6
Continuous
 62
     7
100
AcDbLine
 10
3.815144800269393
 20
0.8972829337699756
 30
0.0
 11
3.815144800269393
 21
1.497543670462857
 31
0.0
  0
LINE
  5
384
330
2BF
100
AcDbEntity
  8
APPDETAIL
  6
Continuous
 62
     7
100
AcDbLine
 10
3.815144800269393
 20
1.497543670462857
 30
0.0
 11
31.42687559519222
 21
1.411257011728725
 31
0.0
  0
LINE
  5
385
330
2BF
100
AcDbEntity
  8
APPDETAIL
  6
Continuous
 62
     7
100
AcDbLine
 10
3.815144800269393
 20
0.8972829337699756
 30
0.0
 11
3.815144800269393
 21
0.2970221970770943
 31
0.0
  0
LINE
  5
386
330
2BF
100
AcDbEntity
  8
APPDETAIL
  6
Continuous
 62
     7
100
AcDbLine
 10
3.815144800269393
 20
0.2970221970770943
 30
0.0
 11
31.42687559519222
 21
0.3833088558112259
 31
0.0
  0
CIRCLE
  5
3A1
330
2BF
100
AcDbEntity
  8
APPDETAIL
  6
Continuous
 62
     7
100
AcDbCircle
 10
1.81581709119294
 20
0.9105598178805927
 30
0.0
 40
0.5881486787822313
  0
CIRCLE
  5
3A2
330
2BF
100
AcDbEntity
  8
APPDETAIL
  6
Continuous
 62
     7
100
AcDbCircle
 10
37.61744500673368
 20
0.8797879143343294
 30
0.0
 40
0.4959508821245424
  0
LWPOLYLINE
  5
5DE
330
2BF
100
AcDbEntity
  8
0
 62
     7
100
AcDbPolyline
 90
        4
 70
     0
 43
0.0
 10
32.22722324411607
 20
1.408755925325834
 10
35.82905075722314
 20
1.397500214347378
 10
35.82905075722314
 20
0.3970656531925734
 10
32.22722324411607
 20
0.385809942214113
  0
ENDBLK
  5
2E1
330
2BF
100
AcDbEntity
  8
0
 62
     7
100
AcDbBlockEnd
  0
BLOCK
  5
320
330
315
100
AcDbEntity
  8
0
 62
     7
100
AcDbBlockBegin
  2
*D5
 70
     1
 10
0.0
 20
0.0
 30
0.0
  3
*D5
  1

  0
LINE
  5
59F
330
315
100
AcDbEntity
  8
ADPDIM
 62
     0
370
    -2
100
AcDbLine
 10
28.17584822177675
 20
14.08106335252735
 30
0.0
 11
31.53322482153734
 21
14.08106335252735
 31
0.0
  0
LINE
  5
5A0
330
315
100
AcDbEntity
  8
ADPDIM
 62
     0
370
    -2
100
AcDbLine
 10
28.749758779638
 20
9.560437825249714
 30
0.0
 11
31.53322482153734
 21
9.560437825249714
 31
0.0
  0
LINE
  5
5A1
330
315
100
AcDbEntity
  8
ADPDIM
 62
     0
370
    -2
100
AcDbLine
 10
31.35322482153734
 20
14.08106335252735
 30
0.0
 11
31.35322482153734
 21
12.82075058888853
 31
0.0
  0
LINE
  5
5A2
330
315
100
AcDbEntity
  8
ADPDIM
 62
     0
370
    -2
100
AcDbLine
 10
31.35322482153734
 20
9.560437825249714
 30
0.0
 11
31.35322482153734
 21
10.82075058888853
 31
0.0
  0
INSERT
  5
5A3
330
315
100
AcDbEntity
  8
ADPDIM
 62
     0
370
    -2
100
AcDbBlockReference
  2
_Oblique
 10
31.35322482153734
 20
14.08106335252735
 30
0.0
 41
0.18
 42
0.18
 43
0.18
 50
90.0
  0
INSERT
  5
5A4
330
315
100
AcDbEntity
  8
ADPDIM
 62
     0
370
    -2
100
AcDbBlockReference
  2
_Oblique
 10
31.35322482153734
 20
9.560437825249714
 30
0.0
 41
0.18
 42
0.18
 43
0.18
 50
270.0
  0
MTEXT
  5
5A5
330
315
100
AcDbEntity
  8
ADPDIM
 62
     0
100
AcDbMText
 10
31.35322482153734
 20
11.82075058888854
 30
0.0
 40
1.0
 41
0.0
 71
     5
 72
     1
  1
\A1;4 1/2
 73
     1
 44
1.0
1001
ACAD
1000
MTEXTBEGIN
1070
    73
1070
     1
1070
    44
1040
1.0
1070
    74
1070
     0
1000
MTEXTEND
  0
POINT
  5
5A6
330
315
100
AcDbEntity
  8
Defpoints
 62
     0
100
AcDbPoint
 10
28.11334822177675
 20
14.08106335252735
 30
0.0
  0
POINT
  5
5A7
330
315
100
AcDbEntity
  8
Defpoints
 62
     0
100
AcDbPoint
 10
28.687258779638
 20
9.560437825249714
 30
0.0
  0
POINT
  5
5A8
330
315
100
AcDbEntity
  8
Defpoints
 62
     0
100
AcDbPoint
 10
31.35322482153734
 20
9.560437825249714
 30
0.0
  0
ENDBLK
  5
321
330
315
100
AcDbEntity
  8
0
 62
     7
100
AcDbBlockEnd
  0
BLOCK
  5
3C2
330
3A7
100
AcDbEntity
  8
0
 62
     7
100
AcDbBlockBegin
  2
*U6
 70
     1
 10
0.0
 20
0.0
 30
0.0
  3
*U6
  1

  0
LINE
  5
3A8
330
3A7
100
AcDbEntity
  8
APPDETAIL
  6
Continuous
 62
     7
100
AcDbLine
 10
-0.0000000336371677
 20
0.9003911092312703
 30
0.0
 11
-0.0000000336371677
 21
1.481554527574206
 31
0.0
1001
AcDbBlockRepETag
1070
     1
1071
        5
1005
3A8
  0
LINE
  5
3A9
330
3A7
100
AcDbEntity
  8
APPDETAIL
  6
Continuous
 62
     7
100
AcDbLine
 10
0.2000868785937939
 20
1.700738758155114
 30
0.0
 11
0.3001303347092765
 21
1.700738758155114
 31
0.0
1001
AcDbBlockRepETag
1070
     1
1071
        6
1005
3A9
  0
LINE
  5
3AA
330
3A7
100
AcDbEntity
  8
APPDETAIL
  6
Continuous
 62
     7
100
AcDbLine
 10
0.300130334709273
 20
1.700738758155114
 30
0.0
 11
0.300130334709273
 21
0.1000434603074267
 31
0.0
1001
AcDbBlockRepETag
1070
     1
1071
        7
1005
3AA
  0
LINE
  5
3AB
330
3A7
100
AcDbEntity
  8
APPDETAIL
  6
Continuous
 62
     7
100
AcDbLine
 10
0.5002172469402347
 20
0.1000434603074267
 30
0.0
 11
0.5002172469402347
 21
1.700738758155114
 31
0.0
1001
AcDbBlockRepETag
1070
     1
1071
        8
1005
3AB
  0
LINE
  5
3AC
330
3A7
100
AcDbEntity
  8
APPDETAIL
  6
Continuous
 62
     7
100
AcDbLine
 10
0.5002172469402382
 20
1.700738758155114
 30
0.0
 11
0.6002607030557173
 21
1.700738758155114
 31
0.0
1001
AcDbBlockRepETag
1070
     1
1071
        9
1005
3AC
  0
LINE
  5
3AD
330
3A7
100
AcDbEntity
  8
APPDETAIL
  6
Continuous
 62
     7
100
AcDbLine
 10
0.6002607030557173
 20
1.700738758155114
 30
0.0
 11
0.6002607030557173
 21
0.1000434603074267
 31
0.0
1001
AcDbBlockRepETag
1070
     1
1071
       10
1005
3AD
  0
LINE
  5
3AE
330
3A7
100
AcDbEntity
  8
APPDETAIL
  6
Continuous
 62
     7
100
AcDbLine
 10
0.8003476152866753
 20
1.481554527574206
 30
0.0
 11
0.8003476152866753
 21
0.9003911092312703
 31
0.0
1001
AcDbBlockRepETag
1070
     1
1071
       11
1005
3AE
  0
LINE
  5
3AF
330
3A7
100
AcDbEntity
  8
APPDETAIL
  6
Continuous
 62
     7
100
AcDbLine
 10
-0.0000000336371677
 20
0.9003911092312703
 30
0.0
 11
-0.0000000336371677
 21
0.3192276908883346
 31
0.0
1001
AcDbBlockRepETag
1070
     1
1071
       12
1005
3AF
  0
LINE
  5
3B0
330
3A7
100
AcDbEntity
  8
APPDETAIL
  6
Continuous
 62
     7
100
AcDbLine
 10
0.2000868785937939
 20
1.700738758155114
 30
0.0
 11
0.2000868785937939
 21
0.1000434603074267
 31
0.0
1001
AcDbBlockRepETag
1070
     1
1071
       13
1005
3B0
  0
LINE
  5
3B1
330
3A7
100
AcDbEntity
  8
APPDETAIL
  6
Continuous
 62
     7
100
AcDbLine
 10
0.2000868785937939
 20
0.1000434603074267
 30
0.0
 11
0.3001303347092801
 21
0.1000434603074267
 31
0.0
1001
AcDbBlockRepETag
1070
     1
1071
       14
1005
3B1
  0
LINE
  5
3B2
330
3A7
100
AcDbEntity
  8
APPDETAIL
  6
Continuous
 62
     7
100
AcDbLine
 10
0.5002172469402382
 20
0.1000434603074267
 30
0.0
 11
0.6002607030557173
 21
0.1000434603074267
 31
0.0
1001
AcDbBlockRepETag
1070
     1
1071
       15
1005
3B2
  0
LINE
  5
3B3
330
3A7
100
AcDbEntity
  8
APPDETAIL
  6
Continuous
 62
     7
100
AcDbLine
 10
0.6002607030557173
 20
0.1000434603074267
 30
0.0
 11
0.6002607030557173
 21
0.3001303725383877
 31
0.0
1001
AcDbBlockRepETag
1070
     1
1071
       16
1005
3B3
  0
LINE
  5
3B4
330
3A7
100
AcDbEntity
  8
APPDETAIL
  6
Continuous
 62
     7
100
AcDbLine
 10
0.8003476152866753
 20
0.3192276908883346
 30
0.0
 11
0.8003476152866753
 21
0.9003911092312703
 31
0.0
1001
AcDbBlockRepETag
1070
     1
1071
       17
1005
3B4
  0
ARC
  5
3B5
330
3A7
100
AcDbEntity
  8
APPDETAIL
  6
Continuous
 62
     7
100
AcDbCircle
 10
-0.0000000336371677
 20
1.700738758155114
 30
0.0
 40
0.2000869122309609
100
AcDbArc
 50
275.2159085704541
 51
0.0
1001
AcDbBlockRepETag
1070
     1
1071
       18
1005
3B5
  0
ARC
  5
3B6
330
3A7
100
AcDbEntity
  8
APPDETAIL
  6
Continuous
 62
     7
100
AcDbCircle
 10
0.020008657585926
 20
1.481554527574206
 30
0.0
 40
0.0200086912230961
100
AcDbArc
 50
95.21590857045406
 51
180.0
1001
AcDbBlockRepETag
1070
     1
1071
       19
1005
3B6
  0
ARC
  5
3B7
330
3A7
100
AcDbEntity
  8
APPDETAIL
  6
Continuous
 62
     7
100
AcDbCircle
 10
0.8003476152866753
 20
1.700738758155114
 30
0.0
 40
0.2000869122309609
100
AcDbArc
 50
180.0
 51
264.7840914295459
1001
AcDbBlockRepETag
1070
     1
1071
       20
1005
3B7
  0
ARC
  5
3B8
330
3A7
100
AcDbEntity
  8
APPDETAIL
  6
Continuous
 62
     7
100
AcDbCircle
 10
0.7803389240635781
 20
1.481554527574206
 30
0.0
 40
0.0200086912230961
100
AcDbArc
 50
0.0
 51
84.78409142954594
1001
AcDbBlockRepETag
1070
     1
1071
       21
1005
3B8
  0
ARC
  5
3B9
330
3A7
100
AcDbEntity
  8
APPDETAIL
  6
Continuous
 62
     7
100
AcDbCircle
 10
0.8003476152866753
 20
0.1000434603074267
 30
0.0
 40
0.2000869122309609
100
AcDbArc
 50
95.21590857045406
 51
180.0
1001
AcDbBlockRepETag
1070
     1
1071
       22
1005
3B9
  0
ARC
  5
3BA
330
3A7
100
AcDbEntity
  8
APPDETAIL
  6
Continuous
 62
     7
100
AcDbCircle
 10
0.7803389240635781
 20
0.3192276908883346
 30
0.0
 40
0.0200086912230961
100
AcDbArc
 50
275.2159085704541
 51
0.0
1001
AcDbBlockRepETag
1070
     1
1071
       23
1005
3BA
  0
ARC
  5
3BB
330
3A7
100
AcDbEntity
  8
APPDETAIL
  6
Continuous
 62
     7
100
AcDbCircle
 10
-0.0000000336371677
 20
0.1000434603074267
 30
0.0
 40
0.2000869122309609
100
AcDbArc
 50
0.0
 51
84.78409142954594
1001
AcDbBlockRepETag
1070
     1
1071
       24
1005
3BB
  0
ARC
  5
3BC
330
3A7
100
AcDbEntity
  8
APPDETAIL
  6
Continuous
 62
     7
100
AcDbCircle
 10
0.020008657585926
 20
0.3192276908883346
 30
0.0
 40
0.0200086912230961
100
AcDbArc
 50
180.0
 51
264.7840914295459
1001
AcDbBlockRepETag
1070
     1
1071
       25
1005
3BC
  0
ARC
  5
3BD
330
3A7
100
AcDbEntity
  8
APPDETAIL
  6
Continuous
 62
     7
100
AcDbCircle
 10
0.4001737908247592
 20
0.1000434603074267
 30
0.0
 40
0.1000434561154806
100
AcDbArc
 50
180.0
 51
0.0
1001
AcDbBlockRepETag
1070
     1
1071
       26
1005
3BD
  0
ARC
  5
3BE
330
3A7
100
AcDbEntity
  8
APPDETAIL
  6
Continuous
 62
     7
100
AcDbCircle
 10
0.4001737908247592
 20
1.700738758155117
 30
0.0
 40
0.1000434561154806
100
AcDbArc
 50
0.0
 51
180.0000000000016
1001
AcDbBlockRepETag
1070
     1
1071
       27
1005
3BE
  0
LINE
  5
3BF
330
3A7
100
AcDbEntity
  8
APPDETAIL
  6
Continuous
 62
     7
100
AcDbLine
 10
0.7803389240635781
 20
1.500651845924153
 30
0.0
 11
0.7803389240635781
 21
0.3001303725383877
 31
0.0
1001
AcDbBlockRepETag
1070
     1
1071
       28
1005
3BF
  0
LINE
  5
3C0
330
3A7
100
AcDbEntity
  8
APPDETAIL
  6
Continuous
 62
     7
100
AcDbLine
 10
0.020008657585926
 20
1.500651845924153
 30
0.0
 11
0.020008657585926
 21
0.3001303725383877
 31
0.0
1001
AcDbBlockRepETag
1070
     1
1071
       29
1005
3C0
  0
ENDBLK
  5
3C3
330
3A7
100
AcDbEntity
  8
0
 62
     7
100
AcDbBlockEnd
  0
BLOCK
  5
543
330
541
100
AcDbEntity
  8
0
 62
     7
100
AcDbBlockBegin
  2
_Oblique
 70
     0
 10
0.0
 20
0.0
 30
0.0
  3
_Oblique
  1

  0
LINE
  5
542
330
541
100
AcDbEntity
  8
0
  6
ByBlock
 62
     0
370
    -2
100
AcDbLine
 10
-0.5
 20
-0.5
 30
0.0
 11
0.5
 21
0.5
 31
0.0
  0
ENDBLK
  5
544
330
541
100
AcDbEntity
  8
0
 62
     7
100
AcDbBlockEnd
  0
ENDSEC
  0
SECTION
  2
ENTITIES
  0
TEXT
  5
A8
330
21
100
AcDbEntity
  8
ADPDIM
100
AcDbText
 10
-4.685501540317002
 20
-32.83506502619338
 30
0.0
 40
0.625
  1
J U L I U S  B L U M  &  C O . ,  I N C .      ( 8 0 0 )  5 2 6 - 6 2 9 3        W W W . J U L I U S B L U M . C O M        P A R T  N o .  1 5 7
 41
1.25
  7
ARIAL_WIDE
 72
     1
 11
27.48803614726826
 21
-32.21006502619338
 31
0.0
100
AcDbText
 73
     3
  0
DIMENSION
  5
13A
330
21
100
AcDbEntity
  8
ADPDIM
100
AcDbDimension
  2
*D1
 10
25.58522994842062
 20
-25.9356340953131
 30
0.0
 11
25.58522994842063
 21
-5.935634095313091
 31
0.0
 70
    32
 71
     5
 42
40.0
  3
Standard
100
AcDbAlignedDimension
 13
26.743790436836
 23
14.0643659046869
 33
0.0
 14
26.743790436836
 24
-25.9356340953131
 34
0.0
 50
90.0
100
AcDbRotatedDimension
1001
ACAD
1000
DSTYLE
1002
{
1070
   343
1005
541
1070
   173
1070
     1
1070
   344
1005
541
1070
   276
1070
     2
1070
    41
1040
0.125
1070
    73
1070
     0
1070
    74
1070
     0
1070
    78
1070
     3
1070
   140
1040
1.0
1070
   141
1040
0.1875
1070
   142
1040
0.125
1070
   147
1040
0.125
1070
   171
1070
     1
1070
   273
1070
     5
1070
   274
1070
     1
1070
   277
1070
     5
1070
   279
1070
     2
1070
   284
1070
     3
1070
   285
1070
     3
1070
   286
1070
     3
1002
}
  0
DIMENSION
  5
183
330
21
100
AcDbEntity
  8
ADPDIM
100
AcDbDimension
  2
*D2
 10
28.11857206871494
 20
14.83124536272639
 30
0.0
 11
22.05922958198909
 21
14.83124536272639
 31
0.0
 70
   160
 71
     5
 42
1.250543201443505
  3
Standard
100
AcDbAlignedDimension
 13
26.86802886727143
 23
14.08046013560216
 33
0.0
 14
28.11857206871494
 24
14.08046013560216
 34
0.0
100
AcDbRotatedDimension
1001
ACAD
1000
DSTYLE
1002
{
1070
   343
1005
541
1070
   173
1070
     1
1070
   344
1005
541
1070
   276
1070
     2
1070
   140
1040
1.0
1070
   271
1070
     3
1070
   275
1070
     1
1070
   277
1070
     5
1002
}
  0
DIMENSION
  5
1D6
330
21
100
AcDbEntity
  8
ADPDIM
100
AcDbDimension
  2
*D3
 10
28.24362638885928
 20
-26.76376452578619
 30
0.0
 11
32.40884640890184
 21
-26.76376452578619
 31
0.0
 70
   160
 71
     5
 42
1.500651841732203
  3
Standard
100
AcDbAlignedDimension
 13
26.74297454712708
 23
-25.93692231059002
 33
0.0
 14
28.24362638885928
 24
-25.93692231059002
 34
0.0
100
AcDbRotatedDimension
1001
ACAD
1000
DSTYLE
1002
{
1070
   343
1005
541
1070
   173
1070
     1
1070
   344
1005
541
1070
   276
1070
     2
1070
   140
1040
1.0
1070
   271
1070
     3
1070
   275
1070
     1
1070
   277
1070
     5
1002
}
  0
INSERT
  5
2E2
330
21
100
AcDbEntity
  8
0
 62
     7
100
AcDbBlockReference
  2
A$C0BB32EA6
 10
28.60968028826746
 20
-30.70525009400157
 30
0.0
 41
1.25
 42
1.25
 43
1.25
 50
90.0
  0
DIMENSION
  5
314
330
21
100
AcDbEntity
  8
ADPDIM
100
AcDbDimension
  2
*D5
 10
31.35322482153734
 20
9.560437825249714
 30
0.0
 11
31.35322482153734
 21
11.82075058888854
 31
0.0
 70
   160
 71
     5
 42
4.52062552727764
  3
Standard
100
AcDbAlignedDimension
 13
28.11334822177675
 23
14.08106335252735
 33
0.0
 14
28.687258779638
 24
9.560437825249714
 34
0.0
 50
90.0
100
AcDbRotatedDimension
1001
ACAD
1000
DSTYLE
1002
{
1070
   343
1005
541
1070
   173
1070
     1
1070
   344
1005
541
1070
   147
1040
0.5
1070
   276
1070
     2
1070
   140
1040
1.0
1070
   271
1070
     3
1070
   275
1070
     1
1070
   277
1070
     5
1002
}
  0
INSERT
  5
3C6
330
21
100
AcDbEntity
  8
0
 62
     7
100
AcDbBlockReference
  2
*U6
 10
28.60626056837029
 20
8.578344442035163
 30
0.0
 41
1.25
 42
1.25
 43
1.25
 50
90.0
  0
LINE
  5
5C4
330
21
100
AcDbEntity
  8
APPDETAIL
  6
HIDDEN2
100
AcDbLine
 10
26.84873538161017
 20
9.578778961143507
 30
0.0
 11
26.84560902360656
 21
8.578344399988704
 31
0.0
  0
LINE
  5
5C5
330
21
100
AcDbEntity
  8
APPDETAIL
  6
HIDDEN2
100
AcDbLine
 10
28.12741786049983
 20
9.578778961143507
 30
0.0
 11
28.13054421850344
 21
8.578344399988704
 31
0.0
  0
ENDSEC
  0
SECTION
  2
OBJECTS
  0
DICTIONARY
  5
C
330
0
100
AcDbDictionary
281
     1
  3
ACAD_COLOR
350
1C
  3
ACAD_GROUP
350
D
  3
ACAD_LAYOUT
350
1A
  3
ACAD_MATERIAL
350
1B
  3
ACAD_MLINESTYLE
350
17
  3
ACAD_PLOTSETTINGS
350
19
  3
ACAD_PLOTSTYLENAME
350
E
  3
ACAD_TABLESTYLE
350
98
  3
ACAD_VISUALSTYLE
350
87
  3
AcDbVariableDictionary
350
7F
  3
DWGPROPS
350
5F8
  0
DICTIONARY
  5
BE
330
8
100
AcDbDictionary
280
     1
281
     1
  0
DICTIONARY
  5
5C9
330
2
100
AcDbDictionary
280
     1
281
     1
  3
ACAD_LAYERFILTERS
360
5CB
  3
ACLYDICTIONARY
360
5CA
  0
DICTIONARY
  5
5D4
330
21
100
AcDbDictionary
280
     1
281
     1
  0
DICTIONARY
  5
3A3
330
2BF
100
AcDbDictionary
280
     1
281
     1
  3
ACAD_SORTENTS
360
5DF
  0
DICTIONARY
  5
3C1
330
3A7
100
AcDbDictionary
280
     1
281
     1
  3
ACAD_ENHANCEDBLOCK
360
3C4
  3
AcDbDynamicBlockRoundTripPurgePreventer
360
3C5
  0
DICTIONARY
  5
1C
102
{ACAD_REACTORS
330
C
102
}
330
C
100
AcDbDictionary
281
     1
  0
DICTIONARY
  5
D
102
{ACAD_REACTORS
330
C
102
}
330
C
100
AcDbDictionary
281
     1
  0
DICTIONARY
  5
1A
102
{ACAD_REACTORS
330
C
102
}
330
C
100
AcDbDictionary
281
     1
  3
Layout1
350
20
  3
Layout2
350
28
  3
Model
350
24
  0
DICTIONARY
  5
1B
102
{ACAD_REACTORS
330
C
102
}
330
C
100
AcDbDictionary
281
     1
  3
ByBlock
350
85
  3
ByLayer
350
84
  3
Global
350
86
  0
DICTIONARY
  5
17
102
{ACAD_REACTORS
330
C
102
}
330
C
100
AcDbDictionary
281
     1
  3
Standard
350
18
  0
DICTIONARY
  5
19
102
{ACAD_REACTORS
330
C
102
}
330
C
100
AcDbDictionary
281
     1
  0
ACDBDICTIONARYWDFLT
  5
E
102
{ACAD_REACTORS
330
C
102
}
330
C
100
AcDbDictionary
281
     1
  3
Normal
350
F
100
AcDbDictionaryWithDefault
340
F
  0
DICTIONARY
  5
98
102
{ACAD_REACTORS
330
C
102
}
330
C
100
AcDbDictionary
281
     1
  3
Standard
350
99
  0
DICTIONARY
  5
87
102
{ACAD_REACTORS
330
C
102
}
330
C
100
AcDbDictionary
281
     1
  3
2dWireframe
350
8D
  3
3D Hidden
350
8F
  3
3dWireframe
350
8E
  3
Basic
350
8C
  3
Brighten
350
93
  3
ColorChange
350
97
  3
Conceptual
350
90
  3
Dim
350
92
  3
Facepattern
350
96
  3
Flat
350
88
  3
FlatWithEdges
350
89
  3
Gouraud
350
8A
  3
GouraudWithEdges
350
8B
  3
Linepattern
350
95
  3
Realistic
350
91
  3
Thicken
350
94
  0
DICTIONARY
  5
7F
102
{ACAD_REACTORS
330
C
102
}
330
C
100
AcDbDictionary
281
     1
  3
CTABLESTYLE
350
AB
  3
DIMASSOC
350
81
  3
HIDETEXT
350
80
  3
INDEXCTL
350
AD
  3
PROJECTNAME
350
82
  3
SORTENTS
350
AC
  0
XRECORD
  5
5F8
102
{ACAD_REACTORS
330
C
102
}
330
C
100
AcDbXrecord
280
     1
  1
DWGPROPS COOKIE
  2

  3

  4

  6

  7

  8
John
  9

300
=
301
=
302
=
303
=
304
=
305
=
306
=
307
=
308
=
309
=
 40
0.1082144212962963
 41
2454946.139733125
 42
2455209.532536632
  1

 90
        0
  0
DICTIONARY
  5
5CB
102
{ACAD_REACTORS
330
5C9
102
}
330
5C9
100
AcDbDictionary
281
     1
  0
DICTIONARY
  5
5CA
102
{ACAD_REACTORS
330
5C9
102
}
330
5C9
100
AcDbDictionary
281
     1
1001
ACAD
1000
<All
  0
SORTENTSTABLE
  5
5DF
102
{ACAD_REACTORS
330
3A3
102
}
330
3A3
100
AcDbSortentsTable
330
2BF
331
3A1
  5
3A2
331
385
  5
386
331
383
  5
384
331
3A2
  5
5DE
331
386
  5
3A1
331
5DE
  5
383
331
384
  5
385
  0
ACAD_EVALUATION_GRAPH
  5
3C4
102
{ACAD_REACTORS
330
3C1
102
}
330
3C1
100
AcDbEvalGraph
 96
        0
 97
        0
  0
ACDB_DYNAMICBLOCKPURGEPREVENTER_VERSION
  5
3C5
102
{ACAD_REACTORS
330
3C1
102
}
330
3C1
100
AcDbDynamicBlockPurgePreventer
 70
     1
  0
LAYOUT
  5
20
102
{ACAD_XDICTIONARY
360
5F9
102
}
102
{ACAD_REACTORS
330
1A
102
}
330
1A
100
AcDbPlotSettings
  1

  2

  4

  6

 40
0.0
 41
0.0
 42
0.0
 43
0.0
 44
0.0
 45
0.0
 46
0.0
 47
0.0
 48
0.0
 49
0.0
140
0.0
141
0.0
142
1.0
143
1.0
 70
   688
 72
     0
 73
     0
 74
     5
  7

 75
    16
147
1.0
148
0.0
149
0.0
100
AcDbLayout
  1
Layout1
 70
     1
 71
     1
 10
0.0
 20
0.0
 11
12.0
 21
9.0
 12
0.0
 22
0.0
 32
0.0
 14
1.000000000000000E+20
 24
1.000000000000000E+20
 34
1.000000000000000E+20
 15
-1.000000000000000E+20
 25
-1.000000000000000E+20
 35
-1.000000000000000E+20
146
0.0
 13
0.0
 23
0.0
 33
0.0
 16
1.0
 26
0.0
 36
0.0
 17
0.0
 27
1.0
 37
0.0
 76
     0
330
1D
  0
LAYOUT
  5
28
102
{ACAD_XDICTIONARY
360
5FD
102
}
102
{ACAD_REACTORS
330
1A
102
}
330
1A
100
AcDbPlotSettings
  1

  2

  4

  6

 40
0.0
 41
0.0
 42
0.0
 43
0.0
 44
0.0
 45
0.0
 46
0.0
 47
0.0
 48
0.0
 49
0.0
140
0.0
141
0.0
142
1.0
143
1.0
 70
   688
 72
     0
 73
     0
 74
     5
  7

 75
    16
147
1.0
148
0.0
149
0.0
100
AcDbLayout
  1
Layout2
 70
     1
 71
     2
 10
0.0
 20
0.0
 11
12.0
 21
9.0
 12
0.0
 22
0.0
 32
0.0
 14
0.0
 24
0.0
 34
0.0
 15
0.0
 25
0.0
 35
0.0
146
0.0
 13
0.0
 23
0.0
 33
0.0
 16
1.0
 26
0.0
 36
0.0
 17
0.0
 27
1.0
 37
0.0
 76
     0
330
25
  0
LAYOUT
  5
24
102
{ACAD_XDICTIONARY
360
5FB
102
}
102
{ACAD_REACTORS
330
1A
102
}
330
1A
100
AcDbPlotSettings
  1

  2

  4

  6

 40
0.0
 41
0.0
 42
0.0
 43
0.0
 44
0.0
 45
0.0
 46
0.0
 47
0.0
 48
0.0
 49
0.0
140
0.0
141
0.0
142
1.0
143
1.0
 70
  1712
 72
     0
 73
     0
 74
     0
  7

 75
     0
147
1.0
148
0.0
149
0.0
100
AcDbLayout
  1
Model
 70
     1
 71
     0
 10
0.0
 20
0.0
 11
12.0
 21
9.0
 12
0.0
 22
0.0
 32
0.0
 14
0.0
 24
0.0
 34
0.0
 15
0.0
 25
0.0
 35
0.0
146
0.0
 13
0.0
 23
0.0
 33
0.0
 16
1.0
 26
0.0
 36
0.0
 17
0.0
 27
1.0
 37
0.0
 76
     0
330
21
331
13
  0
MATERIAL
  5
85
102
{ACAD_XDICTIONARY
360
601
102
}
102
{ACAD_REACTORS
330
1B
102
}
330
1B
100
AcDbMaterial
  1
ByBlock
  0
MATERIAL
  5
84
102
{ACAD_XDICTIONARY
360
5FF
102
}
102
{ACAD_REACTORS
330
1B
102
}
330
1B
100
AcDbMaterial
  1
ByLayer
  0
MATERIAL
  5
86
102
{ACAD_XDICTIONARY
360
603
102
}
102
{ACAD_REACTORS
330
1B
102
}
330
1B
100
AcDbMaterial
  1
Global
  0
MLINESTYLE
  5
18
102
{ACAD_REACTORS
330
17
102
}
330
17
100
AcDbMlineStyle
  2
STANDARD
 70
     0
  3

 62
   256
 51
90.0
 52
90.0
 71
     2
 49
0.5
 62
   256
  6
BYLAYER
 49
-0.5
 62
   256
  6
BYLAYER
  0
ACDBPLACEHOLDER
  5
F
102
{ACAD_REACTORS
330
E
102
}
330
E
  0
TABLESTYLE
  5
99
102
{ACAD_XDICTIONARY
360
605
102
}
102
{ACAD_REACTORS
330
98
102
}
330
98
100
AcDbTableStyle
  3
Standard
 70
     0
 71
     0
 40
0.06
 41
0.06
280
     0
281
     0
  7
Standard
140
0.18
170
     2
 62
     0
 63
     7
283
     0
274
    -2
284
     1
 64
     0
275
    -2
285
     1
 65
     0
276
    -2
286
     1
 66
     0
277
    -2
287
     1
 67
     0
278
    -2
288
     1
 68
     0
279
    -2
289
     1
 69
     0
  7
Standard
140
0.25
170
     5
 62
     0
 63
     7
283
     0
274
    -2
284
     1
 64
     0
275
    -2
285
     1
 65
     0
276
    -2
286
     1
 66
     0
277
    -2
287
     1
 67
     0
278
    -2
288
     1
 68
     0
279
    -2
289
     1
 69
     0
  7
Standard
140
0.18
170
     5
 62
     0
 63
     7
283
     0
274
    -2
284
     1
 64
     0
275
    -2
285
     1
 65
     0
276
    -2
286
     1
 66
     0
277
    -2
287
     1
 67
     0
278
    -2
288
     1
 68
     0
279
    -2
289
     1
 69
     0
  0
VISUALSTYLE
  5
8D
102
{ACAD_REACTORS
330
87
102
}
330
87
100
AcDbVisualStyle
  2
2dWireframe
 70
     4
 71
     0
 72
     2
 73
     0
 90
        0
 40
-0.6
 41
-30.0
 62
     5
 63
     7
 74
     1
 91
        4
 64
     7
 65
   257
 75
     1
175
     1
 42
1.0
 92
        0
 66
   257
 43
1.0
 76
     1
 77
     6
 78
     2
 67
     7
 79
     5
170
     0
171
     0
290
     0
174
     0
 93
        1
 44
0.0
173
     0
291
     0
 45
0.0
1001
ACAD
1000
AcDbSavedByObjectVersion
1070
     0
  0
VISUALSTYLE
  5
8F
102
{ACAD_REACTORS
330
87
102
}
330
87
100
AcDbVisualStyle
  2
3D Hidden
 70
     6
 71
     1
 72
     2
 73
     2
 90
        0
 40
-0.6
 41
-30.0
 62
     5
 63
     7
 74
     2
 91
        2
 64
     7
 65
   257
 75
     2
175
     1
 42
40.0
 92
        0
 66
   257
 43
1.0
 76
     1
 77
     6
 78
     2
 67
     7
 79
     3
170
     0
171
     0
290
     0
174
     0
 93
        1
 44
0.0
173
     0
291
     0
 45
0.0
1001
ACAD
1000
AcDbSavedByObjectVersion
1070
     0
  0
VISUALSTYLE
  5
8E
102
{ACAD_REACTORS
330
87
102
}
330
87
100
AcDbVisualStyle
  2
3dWireframe
 70
     5
 71
     0
 72
     2
 73
     0
 90
        0
 40
-0.6
 41
-30.0
 62
     5
 63
     7
 74
     1
 91
        4
 64
     7
 65
   257
 75
     1
175
     1
 42
1.0
 92
        0
 66
   257
 43
1.0
 76
     1
 77
     6
 78
     2
 67
     7
 79
     5
170
     0
171
     0
290
     0
174
     0
 93
        1
 44
0.0
173
     0
291
     0
 45
0.0
1001
ACAD
1000
AcDbSavedByObjectVersion
1070
     0
  0
VISUALSTYLE
  5
8C
102
{ACAD_REACTORS
330
87
102
}
330
87
100
AcDbVisualStyle
  2
Basic
 70
     7
 71
     1
 72
     0
 73
     1
 90
        0
 40
-0.6
 41
-30.0
 62
     5
 63
     7
 74
     0
 91
        4
 64
     7
 65
   257
 75
     1
175
     1
 42
1.0
 92
        8
 66
     7
 43
1.0
 76
     1
 77
     6
 78
     2
 67
     7
 79
     5
170
     0
171
     0
290
     0
174
     0
 93
        1
 44
0.0
173
     0
291
     1
 45
0.0
1001
ACAD
1000
AcDbSavedByObjectVersion
1070
     0
  0
VISUALSTYLE
  5
93
102
{ACAD_REACTORS
330
87
102
}
330
87
100
AcDbVisualStyle
  2
Brighten
 70
    12
 71
     2
 72
     2
 73
     0
 90
        0
 40
-0.6
 41
-30.0
 62
     5
 63
     7
 74
     1
 91
        4
 64
     7
 65
   257
 75
     1
175
     1
 42
1.0
 92
        8
 66
     7
 43
1.0
 76
     1
 77
     6
 78
     2
 67
     7
 79
     5
170
     0
171
     0
290
     0
174
     0
 93
        1
 44
50.0
173
     0
291
     1
 45
0.0
1001
ACAD
1000
AcDbSavedByObjectVersion
1070
     0
  0
VISUALSTYLE
  5
97
102
{ACAD_REACTORS
330
87
102
}
330
87
100
AcDbVisualStyle
  2
ColorChange
 70
    16
 71
     2
 72
     2
 73
     3
 90
        0
 40
-0.6
 41
-30.0
 62
     5
 63
     8
 74
     1
 91
        4
 64
     7
 65
   257
 75
     1
175
     1
 42
1.0
 92
        8
 66
     8
 43
1.0
 76
     1
 77
     6
 78
     2
 67
     7
 79
     5
170
     0
171
     0
290
     0
174
     0
 93
        1
 44
0.0
173
     0
291
     1
 45
0.0
1001
ACAD
1000
AcDbSavedByObjectVersion
1070
     0
  0
VISUALSTYLE
  5
90
102
{ACAD_REACTORS
330
87
102
}
330
87
100
AcDbVisualStyle
  2
Conceptual
 70
     9
 71
     3
 72
     2
 73
     0
 90
        0
 40
-0.6
 41
-30.0
 62
     5
 63
     7
 74
     2
 91
        2
 64
     7
 65
   257
 75
     1
175
     1
 42
40.0
 92
        8
 66
     7
 43
1.0
 76
     1
 77
     6
 78
     2
 67
     7
 79
     3
170
     0
171
     0
290
     0
174
     0
 93
        1
 44
0.0
173
     0
291
     0
 45
0.0
1001
ACAD
1000
AcDbSavedByObjectVersion
1070
     0
  0
VISUALSTYLE
  5
92
102
{ACAD_REACTORS
330
87
102
}
330
87
100
AcDbVisualStyle
  2
Dim
 70
    11
 71
     2
 72
     2
 73
     0
 90
        0
 40
-0.6
 41
-30.0
 62
     5
 63
     7
 74
     1
 91
        4
 64
     7
 65
   257
 75
     1
175
     1
 42
1.0
 92
        8
 66
     7
 43
1.0
 76
     1
 77
     6
 78
     2
 67
     7
 79
     5
170
     0
171
     0
290
     0
174
     0
 93
        1
 44
-50.0
173
     0
291
     1
 45
0.0
1001
ACAD
1000
AcDbSavedByObjectVersion
1070
     0
  0
VISUALSTYLE
  5
96
102
{ACAD_REACTORS
330
87
102
}
330
87
100
AcDbVisualStyle
  2
Facepattern
 70
    15
 71
     2
 72
     2
 73
     0
 90
        0
 40
-0.6
 41
-30.0
 62
     5
 63
     7
 74
     1
 91
        4
 64
     7
 65
   257
 75
     1
175
     1
 42
1.0
 92
        8
 66
     7
 43
1.0
 76
     1
 77
     6
 78
     2
 67
     7
 79
     5
170
     0
171
     0
290
     0
174
     0
 93
        1
 44
0.0
173
     0
291
     1
 45
0.0
1001
ACAD
1000
AcDbSavedByObjectVersion
1070
     0
  0
VISUALSTYLE
  5
88
102
{ACAD_REACTORS
330
87
102
}
330
87
100
AcDbVisualStyle
  2
Flat
 70
     0
 71
     2
 72
     1
 73
     1
 90
        2
 40
-0.6
 41
30.0
 62
     5
 63
     7
 74
     0
 91
        4
 64
     7
 65
   257
 75
     1
175
     1
 42
1.0
 92
        8
 66
     7
 43
1.0
 76
     1
 77
     6
 78
     2
 67
     7
 79
     5
170
     0
171
     0
290
     0
174
     0
 93
       13
 44
0.0
173
     0
291
     1
 45
0.0
1001
ACAD
1000
AcDbSavedByObjectVersion
1070
     0
  0
VISUALSTYLE
  5
89
102
{ACAD_REACTORS
330
87
102
}
330
87
100
AcDbVisualStyle
  2
FlatWithEdges
 70
     1
 71
     2
 72
     1
 73
     1
 90
        2
 40
-0.6
 41
30.0
 62
     5
 63
     7
 74
     1
 91
        4
 64
     7
 65
   257
 75
     1
175
     1
 42
1.0
 92
        0
 66
   257
 43
1.0
 76
     1
 77
     6
 78
     2
 67
     7
 79
     5
170
     0
171
     0
290
     0
174
     0
 93
       13
 44
0.0
173
     0
291
     1
 45
0.0
1001
ACAD
1000
AcDbSavedByObjectVersion
1070
     0
  0
VISUALSTYLE
  5
8A
102
{ACAD_REACTORS
330
87
102
}
330
87
100
AcDbVisualStyle
  2
Gouraud
 70
     2
 71
     2
 72
     2
 73
     1
 90
        2
 40
-0.6
 41
30.0
 62
     5
 63
     7
 74
     0
 91
        4
 64
     7
 65
   257
 75
     1
175
     1
 42
1.0
 92
        0
 66
     7
 43
1.0
 76
     1
 77
     6
 78
     2
 67
     7
 79
     5
170
     0
171
     0
290
     0
174
     0
 93
       13
 44
0.0
173
     0
291
     1
 45
0.0
1001
ACAD
1000
AcDbSavedByObjectVersion
1070
     0
  0
VISUALSTYLE
  5
8B
102
{ACAD_REACTORS
330
87
102
}
330
87
100
AcDbVisualStyle
  2
GouraudWithEdges
 70
     3
 71
     2
 72
     2
 73
     1
 90
        2
 40
-0.6
 41
30.0
 62
     5
 63
     7
 74
     1
 91
        4
 64
     7
 65
   257
 75
     1
175
     1
 42
1.0
 92
        0
 66
   257
 43
1.0
 76
     1
 77
     6
 78
     2
 67
     7
 79
     5
170
     0
171
     0
290
     0
174
     0
 93
       13
 44
0.0
173
     0
291
     1
 45
0.0
1001
ACAD
1000
AcDbSavedByObjectVersion
1070
     0
  0
VISUALSTYLE
  5
95
102
{ACAD_REACTORS
330
87
102
}
330
87
100
AcDbVisualStyle
  2
Linepattern
 70
    14
 71
     2
 72
     2
 73
     0
 90
        0
 40
-0.6
 41
-30.0
 62
     5
 63
     7
 74
     1
 91
        4
 64
     7
 65
   257
 75
     7
175
     7
 42
1.0
 92
        8
 66
     7
 43
1.0
 76
     1
 77
     6
 78
     2
 67
     7
 79
     5
170
     0
171
     0
290
     0
174
     0
 93
        1
 44
0.0
173
     0
291
     1
 45
0.0
1001
ACAD
1000
AcDbSavedByObjectVersion
1070
     0
  0
VISUALSTYLE
  5
91
102
{ACAD_REACTORS
330
87
102
}
330
87
100
AcDbVisualStyle
  2
Realistic
 70
     8
 71
     2
 72
     2
 73
     0
 90
        0
 40
-0.6
 41
-30.0
 62
     5
 63
     7
 74
     1
 91
        0
 64
     7
 65
   257
 75
     1
175
     1
 42
1.0
 92
        8
 66
     8
 43
1.0
 76
     1
 77
     6
 78
     2
 67
     7
 79
     5
170
     0
171
     0
290
     0
174
     0
 93
       13
 44
0.0
173
     0
291
     0
 45
0.0
1001
ACAD
1000
AcDbSavedByObjectVersion
1070
     0
  0
VISUALSTYLE
  5
94
102
{ACAD_REACTORS
330
87
102
}
330
87
100
AcDbVisualStyle
  2
Thicken
 70
    13
 71
     2
 72
     2
 73
     0
 90
        0
 40
-0.6
 41
-30.0
 62
     5
 63
     7
 74
     1
 91
        4
 64
     7
 65
   257
 75
     1
175
     1
 42
1.0
 92
       12
 66
     7
 43
1.0
 76
     1
 77
     6
 78
     2
 67
     7
 79
     5
170
     0
171
     0
290
     0
174
     0
 93
        1
 44
0.0
173
     0
291
     1
 45
0.0
1001
ACAD
1000
AcDbSavedByObjectVersion
1070
     0
  0
DICTIONARYVAR
  5
AB
102
{ACAD_REACTORS
330
7F
102
}
330
7F
100
DictionaryVariables
280
     0
  1
STANDARD
  0
DICTIONARYVAR
  5
81
102
{ACAD_REACTORS
330
7F
102
}
330
7F
100
DictionaryVariables
280
     0
  1
2
  0
DICTIONARYVAR
  5
80
102
{ACAD_REACTORS
330
7F
102
}
330
7F
100
DictionaryVariables
280
     0
  1
1
  0
DICTIONARYVAR
  5
AD
102
{ACAD_REACTORS
330
7F
102
}
330
7F
100
DictionaryVariables
280
     0
  1
0
  0
DICTIONARYVAR
  5
82
102
{ACAD_REACTORS
330
7F
102
}
330
7F
100
DictionaryVariables
280
     0
  1

  0
DICTIONARYVAR
  5
AC
102
{ACAD_REACTORS
330
7F
102
}
330
7F
100
DictionaryVariables
280
     0
  1
127
  0
DICTIONARY
  5
5F9
330
20
100
AcDbDictionary
280
     1
281
     1
  3
ACAD_XREC_ROUNDTRIP
360
5FA
  0
DICTIONARY
  5
5FD
330
28
100
AcDbDictionary
280
     1
281
     1
  3
ACAD_XREC_ROUNDTRIP
360
5FE
  0
DICTIONARY
  5
5FB
330
24
100
AcDbDictionary
280
     1
281
     1
  3
ACAD_XREC_ROUNDTRIP
360
5FC
  0
DICTIONARY
  5
601
330
85
100
AcDbDictionary
280
     1
281
     1
  3
ACAD_XREC_ROUNDTRIP
360
602
  0
DICTIONARY
  5
5FF
330
84
100
AcDbDictionary
280
     1
281
     1
  3
ACAD_XREC_ROUNDTRIP
360
600
  0
DICTIONARY
  5
603
330
86
100
AcDbDictionary
280
     1
281
     1
  3
ACAD_XREC_ROUNDTRIP
360
604
  0
DICTIONARY
  5
605
330
99
100
AcDbDictionary
280
     1
281
     1
  3
ACAD_XREC_ROUNDTRIP
360
606
  0
XRECORD
  5
5FA
102
{ACAD_REACTORS
330
5F9
102
}
330
5F9
100
AcDbXrecord
280
     1
102
SHADEPLOT
 70
     0
102
SHADEPLOTRESLEVEL
 70
     2
102
SHADEPLOTCUSTOMDPI
 70
   300
  0
XRECORD
  5
5FE
102
{ACAD_REACTORS
330
5FD
102
}
330
5FD
100
AcDbXrecord
280
     1
102
SHADEPLOT
 70
     0
102
SHADEPLOTRESLEVEL
 70
     2
102
SHADEPLOTCUSTOMDPI
 70
   300
  0
XRECORD
  5
5FC
102
{ACAD_REACTORS
330
5FB
102
}
330
5FB
100
AcDbXrecord
280
     1
102
SHADEPLOT
 70
     0
102
SHADEPLOTRESLEVEL
 70
     2
102
SHADEPLOTCUSTOMDPI
 70
   300
  0
XRECORD
  5
602
102
{ACAD_REACTORS
330
601
102
}
330
601
100
AcDbXrecord
280
     1
102
MATERIAL
148
0.0
149
0.0
149
0.0
 93
        0
 94
       63
282
     0
 72
     1
 77
     1
171
     1
175
     1
179
     1
273
     0
  0
XRECORD
  5
600
102
{ACAD_REACTORS
330
5FF
102
}
330
5FF
100
AcDbXrecord
280
     1
102
MATERIAL
148
0.0
149
0.0
149
0.0
 93
        0
 94
       63
282
     0
 72
     1
 77
     1
171
     1
175
     1
179
     1
273
     0
  0
XRECORD
  5
604
102
{ACAD_REACTORS
330
603
102
}
330
603
100
AcDbXrecord
280
     1
102
MATERIAL
148
0.0
149
0.0
149
0.0
 93
        0
 94
       63
282
     0
 72
     1
 77
     1
171
     1
175
     1
179
     1
273
     0
  0
XRECORD
  5
606
102
{ACAD_REACTORS
330
605
102
}
330
605
100
AcDbXrecord
280
     1
102
ACAD_ROUNDTRIP_PRE2007_TABLESTYLE
 90
      512
 91
        0
  1

 92
      512
 93
        0
  2

 94
      512
 95
        0
  3

  0
ENDSEC
  0
EOF
