  0
SECTION
  2
HEADER
  9
$ACADVER
  1
AC1014
  9
$ACADMAINTVER
 70
     9
  9
$DWGCODEPAGE
  3
ANSI_1252
  9
$INSBASE
 10
-77.67180879749474
 20
98.74719744156958
 30
0.0
  9
$EXTMIN
 10
-107.1497248957212
 20
97.12132713744685
 30
0.0
  9
$EXTMAX
 10
-54.94389269926829
 20
126.4758858312005
 30
0.0
  9
$LIMMIN
 10
0.0
 20
0.0
  9
$LIMMAX
 10
36.0
 20
36.0
  9
$ORTHOMODE
 70
     1
  9
$REGENMODE
 70
     1
  9
$FILLMODE
 70
     1
  9
$QTEXTMODE
 70
     0
  9
$MIRRTEXT
 70
     1
  9
$DRAGMODE
 70
     0
  9
$LTSCALE
 40
1.0
  9
$OSMODE
 70
    37
  9
$ATTMODE
 70
     1
  9
$TEXTSIZE
 40
0.2
  9
$TRACEWID
 40
0.05
  9
$TEXTSTYLE
  7
STANDARD
  9
$CLAYER
  8
XXX
  9
$CELTYPE
  6
BYLAYER
  9
$CECOLOR
 62
   256
  9
$CELTSCALE
 40
1.0
  9
$DELOBJ
 70
     1
  9
$DISPSILH
 70
     0
  9
$DIMSCALE
 40
1.0
  9
$DIMASZ
 40
0.125
  9
$DIMEXO
 40
0.0625
  9
$DIMDLI
 40
0.38
  9
$DIMRND
 40
0.0
  9
$DIMDLE
 40
0.0
  9
$DIMEXE
 40
0.18
  9
$DIMTP
 40
0.0
  9
$DIMTM
 40
0.0
  9
$DIMTXT
 40
0.125
  9
$DIMCEN
 40
0.1875
  9
$DIMTSZ
 40
0.125
  9
$DIMTOL
 70
     0
  9
$DIMLIM
 70
     0
  9
$DIMTIH
 70
     0
  9
$DIMTOH
 70
     0
  9
$DIMSE1
 70
     0
  9
$DIMSE2
 70
     0
  9
$DIMTAD
 70
     0
  9
$DIMZIN
 70
     3
  9
$DIMBLK
  1

  9
$DIMASO
 70
     1
  9
$DIMSHO
 70
     1
  9
$DIMPOST
  1

  9
$DIMAPOST
  1

  9
$DIMALT
 70
     0
  9
$DIMALTD
 70
     1
  9
$DIMALTF
 40
25.4
  9
$DIMLFAC
 40
1.0
  9
$DIMTOFL
 70
     0
  9
$DIMTVP
 40
0.0
  9
$DIMTIX
 70
     0
  9
$DIMSOXD
 70
     0
  9
$DIMSAH
 70
     0
  9
$DIMBLK1
  1

  9
$DIMBLK2
  1

  9
$DIMSTYLE
  2
STANDARD
  9
$DIMCLRD
 70
     0
  9
$DIMCLRE
 70
     0
  9
$DIMCLRT
 70
     0
  9
$DIMTFAC
 40
1.0
  9
$DIMGAP
 40
0.125
  9
$DIMJUST
 70
     0
  9
$DIMSD1
 70
     0
  9
$DIMSD2
 70
     0
  9
$DIMTOLJ
 70
     1
  9
$DIMTZIN
 70
     3
  9
$DIMALTZ
 70
     3
  9
$DIMALTTZ
 70
     3
  9
$DIMFIT
 70
     5
  9
$DIMUPT
 70
     0
  9
$DIMUNIT
 70
     5
  9
$DIMDEC
 70
     4
  9
$DIMTDEC
 70
     4
  9
$DIMALTU
 70
     5
  9
$DIMALTTD
 70
     1
  9
$DIMTXSTY
  7
STANDARD
  9
$DIMAUNIT
 70
     0
  9
$LUNITS
 70
     5
  9
$LUPREC
 70
     4
  9
$SKETCHINC
 40
0.1
  9
$FILLETRAD
 40
0.062
  9
$AUNITS
 70
     0
  9
$AUPREC
 70
     0
  9
$MENU
  1
acad
  9
$ELEVATION
 40
0.0
  9
$PELEVATION
 40
0.0
  9
$THICKNESS
 40
0.0
  9
$LIMCHECK
 70
     0
  9
$BLIPMODE
 70
     0
  9
$CHAMFERA
 40
0.0
  9
$CHAMFERB
 40
0.0
  9
$CHAMFERC
 40
0.0
  9
$CHAMFERD
 40
0.0
  9
$SKPOLY
 70
     0
  9
$TDCREATE
 40
2450407.584609954
  9
$TDUPDATE
 40
2452297.082167060
  9
$TDINDWG
 40
0.0052193634
  9
$TDUSRTIMER
 40
0.0052193634
  9
$USRTIMER
 70
     1
  9
$ANGBASE
 50
0.0
  9
$ANGDIR
 70
     0
  9
$PDMODE
 70
     0
  9
$PDSIZE
 40
0.0
  9
$PLINEWID
 40
0.0
  9
$COORDS
 70
     2
  9
$SPLFRAME
 70
     0
  9
$SPLINETYPE
 70
     6
  9
$SPLINESEGS
 70
     8
  9
$ATTDIA
 70
     0
  9
$ATTREQ
 70
     1
  9
$HANDLING
 70
 22529
  9
$HANDSEED
  5
438
  9
$SURFTAB1
 70
     6
  9
$SURFTAB2
 70
     6
  9
$SURFTYPE
 70
     6
  9
$SURFU
 70
     6
  9
$SURFV
 70
     6
  9
$UCSNAME
  2

  9
$UCSORG
 10
0.0
 20
0.0
 30
0.0
  9
$UCSXDIR
 10
1.0
 20
0.0
 30
0.0
  9
$UCSYDIR
 10
0.0
 20
1.0
 30
0.0
  9
$PUCSNAME
  2

  9
$PUCSORG
 10
0.0
 20
0.0
 30
0.0
  9
$PUCSXDIR
 10
1.0
 20
0.0
 30
0.0
  9
$PUCSYDIR
 10
0.0
 20
1.0
 30
0.0
  9
$USERI1
 70
     0
  9
$USERI2
 70
     0
  9
$USERI3
 70
     0
  9
$USERI4
 70
     0
  9
$USERI5
 70
     0
  9
$USERR1
 40
0.0
  9
$USERR2
 40
0.0
  9
$USERR3
 40
0.0
  9
$USERR4
 40
0.0
  9
$USERR5
 40
0.0
  9
$WORLDVIEW
 70
     1
  9
$SHADEDGE
 70
     3
  9
$SHADEDIF
 70
    70
  9
$TILEMODE
 70
     1
  9
$MAXACTVP
 70
    15
  9
$PINSBASE
 10
0.0008545038290322
 20
1.250283272183907
 30
0.0
  9
$PLIMCHECK
 70
     0
  9
$PEXTMIN
 10
1.000000000000000E+20
 20
1.000000000000000E+20
 30
1.000000000000000E+20
  9
$PEXTMAX
 10
-1.000000000000000E+20
 20
-1.000000000000000E+20
 30
-1.000000000000000E+20
  9
$PLIMMIN
 10
0.0
 20
0.0
  9
$PLIMMAX
 10
12.0
 20
9.0
  9
$UNITMODE
 70
     0
  9
$VISRETAIN
 70
     0
  9
$PLINEGEN
 70
     0
  9
$PSLTSCALE
 70
     1
  9
$TREEDEPTH
 70
  3020
  9
$PICKSTYLE
 70
     1
  9
$CMLSTYLE
  2
STANDARD
  9
$CMLJUST
 70
     0
  9
$CMLSCALE
 40
1.0
  9
$PROXYGRAPHICS
 70
     1
  9
$MEASUREMENT
 70
     0
  0
ENDSEC
  0
SECTION
  2
CLASSES
  0
CLASS
  1
ACDBDICTIONARYWDFLT
  2
AcDbDictionaryWithDefault
  3
AutoCAD 2000
 90
        0
280
     0
281
     0
  0
CLASS
  1
ACDBPLACEHOLDER
  2
AcDbPlaceHolder
  3
AutoCAD 2000
 90
        0
280
     0
281
     0
  0
CLASS
  1
LAYOUT
  2
AcDbLayout
  3
AutoCAD 2000
 90
        0
280
     0
281
     0
  0
CLASS
  1
DICTIONARYVAR
  2
AcDbDictionaryVar
  3
AutoCAD 2000
 90
        0
280
     0
281
     0
  0
CLASS
  1
LONG_TRANSACTION
  2
AcDbLongTransaction
  3
AutoCAD 2000
 90
        0
280
     0
281
     0
  0
CLASS
  1
LWPOLYLINE
  2
AcDbPolyline
  3
AutoCAD 2000
 90
        0
280
     0
281
     1
  0
CLASS
  1
HATCH
  2
AcDbHatch
  3
AutoCAD 2000
 90
        0
280
     0
281
     1
  0
CLASS
  1
XRECORD
  2
AcDbXrecord
  3
AutoCAD 2000
 90
        0
280
     0
281
     0
  0
CLASS
  1
LONG_TRANSACTION
  2
AcDbLongTransaction
  3
AutoCAD 2000
 90
        0
280
     0
281
     0
  0
CLASS
  1
LWPOLYLINE
  2
AcDbPolyline
  3
AutoCAD 2000
 90
        0
280
     0
281
     1
  0
CLASS
  1
HATCH
  2
AcDbHatch
  3
AutoCAD 2000
 90
        0
280
     0
281
     1
  0
CLASS
  1
XRECORD
  2
AcDbXrecord
  3
AutoCAD 2000
 90
        0
280
     0
281
     0
  0
CLASS
  1
LONG_TRANSACTION
  2
AcDbLongTransaction
  3
AutoCAD 2000
 90
        0
280
     0
281
     0
  0
CLASS
  1
LWPOLYLINE
  2
AcDbPolyline
  3
AutoCAD 2000
 90
        0
280
     0
281
     1
  0
CLASS
  1
HATCH
  2
AcDbHatch
  3
AutoCAD 2000
 90
        0
280
     0
281
     1
  0
CLASS
  1
XRECORD
  2
AcDbXrecord
  3
AutoCAD 2000
 90
        0
280
     0
281
     0
  0
CLASS
  1
LONG_TRANSACTION
  2
AcDbLongTransaction
  3
AutoCAD 2000
 90
        0
280
     0
281
     0
  0
CLASS
  1
LWPOLYLINE
  2
AcDbPolyline
  3
AutoCAD 2000
 90
        0
280
     0
281
     1
  0
CLASS
  1
HATCH
  2
AcDbHatch
  3
AutoCAD 2000
 90
        0
280
     0
281
     1
  0
CLASS
  1
XRECORD
  2
AcDbXrecord
  3
AutoCAD 2000
 90
        0
280
     0
281
     0
  0
CLASS
  1
LONG_TRANSACTION
  2
AcDbLongTransaction
  3
AutoCAD 2000
 90
        0
280
     0
281
     0
  0
CLASS
  1
LWPOLYLINE
  2
AcDbPolyline
  3
AutoCAD 2000
 90
        0
280
     0
281
     1
  0
CLASS
  1
HATCH
  2
AcDbHatch
  3
AutoCAD 2000
 90
        0
280
     0
281
     1
  0
CLASS
  1
XRECORD
  2
AcDbXrecord
  3
AutoCAD 2000
 90
        0
280
     0
281
     0
  0
CLASS
  1
LONG_TRANSACTION
  2
AcDbLongTransaction
  3
AutoCAD 2000
 90
        0
280
     0
281
     0
  0
CLASS
  1
LWPOLYLINE
  2
AcDbPolyline
  3
AutoCAD 2000
 90
        0
280
     0
281
     1
  0
CLASS
  1
HATCH
  2
AcDbHatch
  3
AutoCAD 2000
 90
        0
280
     0
281
     1
  0
CLASS
  1
XRECORD
  2
AcDbXrecord
  3
AutoCAD 2000
 90
        0
280
     0
281
     0
  0
ENDSEC
  0
SECTION
  2
TABLES
  0
TABLE
  2
VPORT
  5
8
330
0
100
AcDbSymbolTable
 70
     2
  0
VPORT
  5
414
330
8
100
AcDbSymbolTableRecord
100
AcDbViewportTableRecord
  2
*ACTIVE
 70
     0
 10
0.0
 20
0.0
 11
1.0
 21
1.0
 12
-81.00454622905228
 22
111.7954793558338
 13
0.0
 23
0.0
 14
0.5740882589684922
 24
0.5740882589684922
 15
0.5
 25
0.5
 16
0.0
 26
0.0
 36
1.0
 17
0.0
 27
0.0
 37
0.0
 40
33.46085859021266
 41
1.570528967254408
 42
50.0
 43
0.0
 44
0.0
 50
0.0
 51
0.0
 71
     0
 72
   100
 73
     1
 74
     0
 75
     0
 76
     0
 77
     0
 78
     0
  0
ENDTAB
  0
TABLE
  2
LTYPE
  5
5
330
0
100
AcDbSymbolTable
 70
     1
  0
LTYPE
  5
13
330
5
100
AcDbSymbolTableRecord
100
AcDbLinetypeTableRecord
  2
BYBLOCK
 70
     0
  3

 72
    65
 73
     0
 40
0.0
  0
LTYPE
  5
14
330
5
100
AcDbSymbolTableRecord
100
AcDbLinetypeTableRecord
  2
BYLAYER
 70
     0
  3

 72
    65
 73
     0
 40
0.0
  0
LTYPE
  5
15
330
5
100
AcDbSymbolTableRecord
100
AcDbLinetypeTableRecord
  2
CONTINUOUS
 70
     0
  3
Solid line
 72
    65
 73
     0
 40
0.0
  0
ENDTAB
  0
TABLE
  2
LAYER
  5
2
330
0
100
AcDbSymbolTable
 70
     4
  0
LAYER
  5
10
330
2
100
AcDbSymbolTableRecord
100
AcDbLayerTableRecord
  2
0
 70
     0
 62
     7
  6
CONTINUOUS
  0
LAYER
  5
DB
330
2
100
AcDbSymbolTableRecord
100
AcDbLayerTableRecord
  2
DEFPOINTS
 70
     0
 62
     7
  6
CONTINUOUS
  0
LAYER
  5
DE
330
2
100
AcDbSymbolTableRecord
100
AcDbLayerTableRecord
  2
XXX
 70
     0
 62
     3
  6
CONTINUOUS
  0
LAYER
  5
DF
330
2
100
AcDbSymbolTableRecord
100
AcDbLayerTableRecord
  2
ADPDIM
 70
     0
 62
     3
  6
CONTINUOUS
  0
ENDTAB
  0
TABLE
  2
STYLE
  5
3
330
0
100
AcDbSymbolTable
 70
     2
  0
STYLE
  5
11
330
3
100
AcDbSymbolTableRecord
100
AcDbTextStyleTableRecord
  2
STANDARD
 70
     0
 40
0.0
 41
1.0
 50
0.0
 71
     0
 42
0.2
  3
txt
  4

  0
STYLE
  5
247
330
3
100
AcDbSymbolTableRecord
100
AcDbTextStyleTableRecord
  2
ARIAL_WIDE
 70
     0
 40
0.0
 41
1.25
 50
0.0
 71
     0
 42
0.2
  3
ARIAL.TTF
  4

1001
ACAD
1000
Arial
1071
       34
  0
ENDTAB
  0
TABLE
  2
VIEW
  5
6
330
0
100
AcDbSymbolTable
 70
     0
  0
ENDTAB
  0
TABLE
  2
UCS
  5
7
330
0
100
AcDbSymbolTable
 70
     0
  0
ENDTAB
  0
TABLE
  2
APPID
  5
9
330
0
100
AcDbSymbolTable
 70
     1
  0
APPID
  5
12
330
9
100
AcDbSymbolTableRecord
100
AcDbRegAppTableRecord
  2
ACAD
 70
     0
  0
ENDTAB
  0
TABLE
  2
DIMSTYLE
  5
A
330
0
100
AcDbSymbolTable
 70
     1
  0
DIMSTYLE
105
245
330
A
100
AcDbSymbolTableRecord
100
AcDbDimStyleTableRecord
  2
STANDARD
 70
     0
  3

  4

  5

  6

  7

 40
1.0
 41
0.18
 42
0.0625
 43
0.38
 44
0.18
 45
0.0
 46
0.0
 47
0.0
 48
0.0
140
0.18
141
0.09
142
0.0
143
25.4
144
1.0
145
0.0
146
1.0
147
0.09
 71
     0
 72
     0
 73
     1
 74
     1
 75
     0
 76
     0
 77
     0
 78
     0
170
     0
171
     2
172
     0
173
     0
174
     0
175
     0
176
     0
177
     0
178
     0
270
     2
271
     4
272
     4
273
     2
274
     2
340
11
275
     0
280
     0
281
     0
282
     0
283
     1
284
     0
285
     0
286
     0
287
     3
288
     0
  0
ENDTAB
  0
TABLE
  2
BLOCK_RECORD
  5
1
330
0
100
AcDbSymbolTable
 70
     2
  0
BLOCK_RECORD
  5
1E
102
{ACAD_XDICTIONARY
360
284
102
}
330
1
100
AcDbSymbolTableRecord
100
AcDbBlockTableRecord
  2
*MODEL_SPACE
  0
BLOCK_RECORD
  5
1A
102
{ACAD_XDICTIONARY
360
286
102
}
330
1
100
AcDbSymbolTableRecord
100
AcDbBlockTableRecord
  2
*PAPER_SPACE
  0
BLOCK_RECORD
  5
D4
330
1
100
AcDbSymbolTableRecord
100
AcDbBlockTableRecord
  2
*D0
  0
BLOCK_RECORD
  5
D5
330
1
100
AcDbSymbolTableRecord
100
AcDbBlockTableRecord
  2
*D1
  0
ENDTAB
  0
ENDSEC
  0
SECTION
  2
BLOCKS
  0
BLOCK
  5
E2
330
1E
100
AcDbEntity
  8
0
100
AcDbBlockBegin
  2
*MODEL_SPACE
 70
     0
 10
0.0
 20
0.0
 30
0.0
  3
*MODEL_SPACE
  1

  0
ENDBLK
  5
E3
330
1E
100
AcDbEntity
  8
0
100
AcDbBlockEnd
  0
BLOCK
  5
E0
330
1A
100
AcDbEntity
 67
     1
  8
0
100
AcDbBlockBegin
  2
*PAPER_SPACE
 70
     0
 10
0.0
 20
0.0
 30
0.0
  3
*PAPER_SPACE
  1

  0
ENDBLK
  5
E1
330
1A
100
AcDbEntity
 67
     1
  8
0
100
AcDbBlockEnd
  0
BLOCK
  5
E5
330
D4
100
AcDbEntity
  8
0
100
AcDbBlockBegin
  2
*D0
 70
     1
 10
0.0
 20
0.0
 30
0.0
  3
*D0
  1

  0
LINE
  5
E6
330
D4
100
AcDbEntity
  8
0
  6
BYBLOCK
 62
     0
100
AcDbLine
 10
-77.60930879749475
 20
125.7471974415695
 30
0.0
 11
-76.32383646613035
 21
125.7471974415695
 31
0.0
  0
LINE
  5
E7
330
D4
100
AcDbEntity
  8
0
  6
BYBLOCK
 62
     0
100
AcDbLine
 10
-77.60930879749475
 20
98.74719744156958
 30
0.0
 11
-76.32383646613037
 21
98.74719744156958
 31
0.0
  0
LINE
  5
E8
330
D4
100
AcDbEntity
  8
0
  6
BYBLOCK
 62
     0
100
AcDbLine
 10
-76.50383646613036
 20
125.7471974415695
 30
0.0
 11
-76.50383646613038
 21
112.4763641082362
 31
0.0
  0
LINE
  5
E9
330
D4
100
AcDbEntity
  8
0
  6
BYBLOCK
 62
     0
100
AcDbLine
 10
-76.50383646613038
 20
98.74719744156958
 30
0.0
 11
-76.50383646613038
 21
112.0180307749029
 31
0.0
  0
LINE
  5
EA
330
D4
100
AcDbEntity
  8
0
  6
BYBLOCK
 62
     0
100
AcDbLine
 10
-76.37883646613037
 20
125.6221974415695
 30
0.0
 11
-76.62883646613036
 21
125.8721974415695
 31
0.0
  0
LINE
  5
EB
330
D4
100
AcDbEntity
  8
0
  6
BYBLOCK
 62
     0
100
AcDbLine
 10
-76.37883646613038
 20
98.62219744156959
 30
0.0
 11
-76.62883646613038
 21
98.87219744156958
 31
0.0
  0
TEXT
  5
EC
330
D4
100
AcDbEntity
  8
0
  6
BYBLOCK
 62
     0
100
AcDbText
 10
-76.44133646613038
 20
112.1430307749029
 30
0.0
 40
0.125
  1
27
 50
90.0
 72
     1
 11
-76.50383646613038
 21
112.2471974415695
 31
0.0
100
AcDbText
 73
     2
  0
POINT
  5
EE
330
D4
100
AcDbEntity
  8
DEFPOINTS
  6
BYBLOCK
 62
     0
100
AcDbPoint
 10
-77.67180879749474
 20
125.7471974415695
 30
0.0
  0
POINT
  5
EF
330
D4
100
AcDbEntity
  8
DEFPOINTS
  6
BYBLOCK
 62
     0
100
AcDbPoint
 10
-77.67180879749474
 20
98.74719744156958
 30
0.0
  0
POINT
  5
F0
330
D4
100
AcDbEntity
  8
DEFPOINTS
  6
BYBLOCK
 62
     0
100
AcDbPoint
 10
-76.50383646613038
 20
98.74719744156958
 30
0.0
  0
ENDBLK
  5
F1
330
D4
100
AcDbEntity
  8
0
100
AcDbBlockEnd
  0
BLOCK
  5
F2
330
D5
100
AcDbEntity
  8
0
100
AcDbBlockBegin
  2
*D1
 70
     1
 10
0.0
 20
0.0
 30
0.0
  3
*D1
  1

  0
LINE
  5
F3
330
D5
100
AcDbEntity
  8
0
  6
BYBLOCK
 62
     0
100
AcDbLine
 10
-84.42180879749475
 20
125.8096974415695
 30
0.0
 11
-84.42180879749475
 21
126.4758858312005
 31
0.0
  0
LINE
  5
F4
330
D5
100
AcDbEntity
  8
0
  6
BYBLOCK
 62
     0
100
AcDbLine
 10
-77.67180879749474
 20
125.8096974415695
 30
0.0
 11
-77.67180879749474
 21
126.4758858312005
 31
0.0
  0
LINE
  5
F5
330
D5
100
AcDbEntity
  8
0
  6
BYBLOCK
 62
     0
100
AcDbLine
 10
-84.42180879749475
 20
126.2958858312005
 30
0.0
 11
-81.46347546416143
 21
126.2958858312005
 31
0.0
  0
LINE
  5
F6
330
D5
100
AcDbEntity
  8
0
  6
BYBLOCK
 62
     0
100
AcDbLine
 10
-77.67180879749474
 20
126.2958858312005
 30
0.0
 11
-80.63014213082807
 21
126.2958858312005
 31
0.0
  0
LINE
  5
F7
330
D5
100
AcDbEntity
  8
0
  6
BYBLOCK
 62
     0
100
AcDbLine
 10
-84.54680879749474
 20
126.1708858312005
 30
0.0
 11
-84.29680879749474
 21
126.4208858312005
 31
0.0
  0
LINE
  5
F8
330
D5
100
AcDbEntity
  8
0
  6
BYBLOCK
 62
     0
100
AcDbLine
 10
-77.79680879749474
 20
126.1708858312005
 30
0.0
 11
-77.54680879749475
 21
126.4208858312005
 31
0.0
  0
TEXT
  5
F9
330
D5
100
AcDbEntity
  8
0
  6
BYBLOCK
 62
     0
100
AcDbText
 10
-81.33847546416141
 20
126.2333858312005
 30
0.0
 40
0.125
  1
6 3/4
 72
     1
 11
-81.04680879749475
 21
126.2958858312005
 31
0.0
100
AcDbText
 73
     2
  0
POINT
  5
FA
330
D5
100
AcDbEntity
  8
DEFPOINTS
  6
BYBLOCK
 62
     0
100
AcDbPoint
 10
-84.42180879749475
 20
125.7471974415695
 30
0.0
  0
POINT
  5
FB
330
D5
100
AcDbEntity
  8
DEFPOINTS
  6
BYBLOCK
 62
     0
100
AcDbPoint
 10
-77.67180879749474
 20
125.7471974415695
 30
0.0
  0
POINT
  5
FC
330
D5
100
AcDbEntity
  8
DEFPOINTS
  6
BYBLOCK
 62
     0
100
AcDbPoint
 10
-77.67180879749474
 20
126.2958858312005
 30
0.0
  0
ENDBLK
  5
FD
330
D5
100
AcDbEntity
  8
0
100
AcDbBlockEnd
  0
ENDSEC
  0
SECTION
  2
ENTITIES
  0
LINE
  5
FE
330
1E
100
AcDbEntity
  8
0
100
AcDbLine
 10
-84.23380879749476
 20
111.7471974415695
 30
0.0
 11
-82.73418776351844
 21
106.7818106745915
 31
0.0
  0
LINE
  5
FF
330
1E
100
AcDbEntity
  8
0
100
AcDbLine
 10
-84.23380879749476
 20
111.7471974415695
 30
0.0
 11
-82.73430879749474
 21
107.1221974415695
 31
0.0
  0
LINE
  5
100
330
1E
100
AcDbEntity
  8
0
100
AcDbLine
 10
-84.29580879749476
 20
112.2471974415695
 30
0.0
 11
-82.73430879749474
 21
107.2471974415695
 31
0.0
  0
LINE
  5
101
330
1E
100
AcDbEntity
  8
0
100
AcDbLine
 10
-84.23380879749476
 20
112.2471974415695
 30
0.0
 11
-82.73430879749474
 21
107.6221974415695
 31
0.0
  0
LINE
  5
102
330
1E
100
AcDbEntity
  8
0
100
AcDbLine
 10
-83.21086141800577
 20
106.9905834936601
 30
0.0
 11
-84.23421437811805
 21
111.7506029361188
 31
0.0
  0
LINE
  5
103
330
1E
100
AcDbEntity
  8
0
100
AcDbLine
 10
-83.29780879749476
 20
107.0281974415695
 30
0.0
 11
-84.42180879749475
 21
112.0901974415695
 31
0.0
  0
LINE
  5
104
330
1E
100
AcDbEntity
  8
0
100
AcDbLine
 10
-84.42180879749475
 20
112.0591974415695
 30
0.0
 11
-83.35980879749476
 21
107.0591974415695
 31
0.0
  0
LINE
  5
105
330
1E
100
AcDbEntity
  8
0
100
AcDbLine
 10
-77.67180879749474
 20
112.0591974415695
 30
0.0
 11
-78.73380879749475
 21
107.0591974415695
 31
0.0
  0
LINE
  5
106
330
1E
100
AcDbEntity
  8
0
100
AcDbLine
 10
-78.79580879749475
 20
107.0281974415695
 30
0.0
 11
-77.67180879749474
 21
112.0901974415695
 31
0.0
  0
LINE
  5
107
330
1E
100
AcDbEntity
  8
0
100
AcDbLine
 10
-77.85980879749475
 20
112.2471974415695
 30
0.0
 11
-79.35930879749474
 21
107.6221974415695
 31
0.0
  0
LINE
  5
108
330
1E
100
AcDbEntity
  8
0
100
AcDbLine
 10
-77.79780879749475
 20
112.2471974415695
 30
0.0
 11
-79.35930879749474
 21
107.2471974415695
 31
0.0
  0
LINE
  5
109
330
1E
100
AcDbEntity
  8
0
100
AcDbLine
 10
-77.85980879749475
 20
111.7471974415695
 30
0.0
 11
-79.35930879749474
 21
107.1221974415695
 31
0.0
  0
LINE
  5
10A
330
1E
100
AcDbEntity
  8
0
100
AcDbLine
 10
-77.85980879749475
 20
111.7471974415695
 30
0.0
 11
-79.35942983147106
 21
106.7818106745915
 31
0.0
  0
LINE
  5
10B
330
1E
100
AcDbEntity
  8
0
100
AcDbLine
 10
-78.88275617698372
 20
106.9905834936601
 30
0.0
 11
-77.85940321687146
 21
111.7506029361188
 31
0.0
  0
LINE
  5
10C
330
1E
100
AcDbEntity
  8
0
100
AcDbLine
 10
-81.04680879749475
 20
112.0591974415695
 30
0.0
 11
-79.98480879749475
 21
107.0591974415695
 31
0.0
  0
LINE
  5
10D
330
1E
100
AcDbEntity
  8
0
100
AcDbLine
 10
-81.04680879749475
 20
112.0591974415695
 30
0.0
 11
-82.10880879749476
 21
107.0591974415695
 31
0.0
  0
LINE
  5
10E
330
1E
100
AcDbEntity
  8
0
100
AcDbLine
 10
-82.17080879749476
 20
107.0281974415695
 30
0.0
 11
-81.04680879749475
 21
112.0901974415695
 31
0.0
  0
LINE
  5
10F
330
1E
100
AcDbEntity
  8
0
100
AcDbLine
 10
-81.23480879749475
 20
112.2471974415695
 30
0.0
 11
-82.73430879749474
 21
107.6221974415695
 31
0.0
  0
LINE
  5
110
330
1E
100
AcDbEntity
  8
0
100
AcDbLine
 10
-81.17280879749475
 20
112.2471974415695
 30
0.0
 11
-82.73430879749474
 21
107.2471974415695
 31
0.0
  0
LINE
  5
111
330
1E
100
AcDbEntity
  8
0
100
AcDbLine
 10
-81.23480879749475
 20
111.7471974415695
 30
0.0
 11
-82.73430879749474
 21
107.1221974415695
 31
0.0
  0
LINE
  5
112
330
1E
100
AcDbEntity
  8
0
100
AcDbLine
 10
-81.23480879749475
 20
111.7471974415695
 30
0.0
 11
-82.73442983147106
 21
106.7818106745915
 31
0.0
  0
LINE
  5
113
330
1E
100
AcDbEntity
  8
0
100
AcDbLine
 10
-82.25775617698372
 20
106.9905834936601
 30
0.0
 11
-81.23440321687146
 21
111.7506029361188
 31
0.0
  0
LINE
  5
114
330
1E
100
AcDbEntity
  8
0
100
AcDbLine
 10
-79.83586141800578
 20
106.9905834936601
 30
0.0
 11
-80.85921437811805
 21
111.7506029361188
 31
0.0
  0
LINE
  5
115
330
1E
100
AcDbEntity
  8
0
100
AcDbLine
 10
-80.85880879749476
 20
111.7471974415695
 30
0.0
 11
-79.35918776351845
 21
106.7818106745915
 31
0.0
  0
LINE
  5
116
330
1E
100
AcDbEntity
  8
0
100
AcDbLine
 10
-80.85880879749476
 20
111.7471974415695
 30
0.0
 11
-79.35930879749474
 21
107.1221974415695
 31
0.0
  0
LINE
  5
117
330
1E
100
AcDbEntity
  8
0
100
AcDbLine
 10
-80.92080879749476
 20
112.2471974415695
 30
0.0
 11
-79.35930879749474
 21
107.2471974415695
 31
0.0
  0
LINE
  5
118
330
1E
100
AcDbEntity
  8
0
100
AcDbLine
 10
-80.85880879749476
 20
112.2471974415695
 30
0.0
 11
-79.35930879749474
 21
107.6221974415695
 31
0.0
  0
LINE
  5
119
330
1E
100
AcDbEntity
  8
0
100
AcDbLine
 10
-79.92280879749475
 20
107.0281974415695
 30
0.0
 11
-81.04680879749475
 21
112.0901974415695
 31
0.0
  0
DIMENSION
  5
11A
330
1E
100
AcDbEntity
  8
ADPDIM
100
AcDbDimension
  2
*D0
 10
-76.50383646613038
 20
98.74719744156958
 30
0.0
 11
-76.50383646613038
 21
112.2471974415695
 31
0.0
100
AcDbAlignedDimension
 13
-77.67180879749474
 23
125.7471974415695
 33
0.0
 14
-77.67180879749474
 24
98.74719744156958
 34
0.0
 50
90.0
100
AcDbRotatedDimension
  0
LINE
  5
11B
330
1E
100
AcDbEntity
  8
0
100
AcDbLine
 10
-84.42180879749475
 20
98.93519744156959
 30
0.0
 11
-83.35980879749476
 21
103.9351974415695
 31
0.0
  0
LINE
  5
11C
330
1E
100
AcDbEntity
  8
0
100
AcDbLine
 10
-83.29780879749476
 20
103.9661974415695
 30
0.0
 11
-84.42180879749475
 21
98.90419744156957
 31
0.0
  0
LINE
  5
11D
330
1E
100
AcDbEntity
  8
0
100
AcDbLine
 10
-84.29580879749476
 20
98.74719744156958
 30
0.0
 11
-82.73430879749474
 21
103.7471974415695
 31
0.0
  0
LINE
  5
11E
330
1E
100
AcDbEntity
  8
0
100
AcDbLine
 10
-84.42180879749475
 20
98.75715867747933
 30
0.0
 11
-84.23380879749476
 21
98.74719744156958
 31
0.0
  0
LINE
  5
11F
330
1E
100
AcDbEntity
  8
0
100
AcDbLine
 10
-84.28049496176749
 20
105.4986245405177
 30
0.0
 11
-82.73430879749474
 21
104.5284474415695
 31
0.0
  0
LINE
  5
120
330
1E
100
AcDbEntity
  8
0
100
AcDbLine
 10
-84.28049496176749
 20
105.4957703426213
 30
0.0
 11
-82.73430879749474
 21
106.4659474415695
 31
0.0
  0
LINE
  5
121
330
1E
100
AcDbEntity
  8
0
100
AcDbLine
 10
-83.29780879749476
 20
107.0281974415695
 30
0.0
 11
-84.42180879749475
 21
105.6536974415695
 31
0.0
  0
LINE
  5
122
330
1E
100
AcDbEntity
  8
0
100
AcDbLine
 10
-83.35980879749476
 20
107.0591974415695
 30
0.0
 11
-84.42180879749475
 21
105.6846974415695
 31
0.0
  0
LINE
  5
123
330
1E
100
AcDbEntity
  8
0
100
AcDbLine
 10
-83.35980879749476
 20
103.9351974415695
 30
0.0
 11
-84.42180879749475
 21
105.3096974415695
 31
0.0
  0
LINE
  5
124
330
1E
100
AcDbEntity
  8
0
100
AcDbLine
 10
-83.29780879749476
 20
103.9661974415695
 30
0.0
 11
-84.42180879749475
 21
105.3406974415695
 31
0.0
  0
LINE
  5
125
330
1E
100
AcDbEntity
  8
0
100
AcDbLine
 10
-84.42180879749475
 20
98.93519744156959
 30
0.0
 11
-84.42180879749475
 21
98.75715867747933
 31
0.0
  0
LINE
  5
126
330
1E
100
AcDbEntity
  8
0
100
AcDbLine
 10
-84.42180879749475
 20
105.6846974415695
 30
0.0
 11
-84.42180879749475
 21
105.3406974415695
 31
0.0
  0
LINE
  5
127
330
1E
100
AcDbEntity
  8
0
100
AcDbLine
 10
-78.88275617698372
 20
104.003811389479
 30
0.0
 11
-77.85940321687146
 21
99.24379194702034
 31
0.0
  0
LINE
  5
128
330
1E
100
AcDbEntity
  8
0
100
AcDbLine
 10
-77.85980879749475
 20
99.24719744156959
 30
0.0
 11
-79.35942983147106
 21
104.2125842085475
 31
0.0
  0
LINE
  5
129
330
1E
100
AcDbEntity
  8
0
100
AcDbLine
 10
-77.85980879749475
 20
99.24719744156959
 30
0.0
 11
-79.35930879749474
 21
103.8721974415695
 31
0.0
  0
LINE
  5
12A
330
1E
100
AcDbEntity
  8
0
100
AcDbLine
 10
-78.79580879749475
 20
103.9661974415695
 30
0.0
 11
-77.67180879749474
 21
98.90419744156957
 31
0.0
  0
LINE
  5
12B
330
1E
100
AcDbEntity
  8
0
100
AcDbLine
 10
-77.67180879749474
 20
98.93519744156959
 30
0.0
 11
-78.73380879749475
 21
103.9351974415695
 31
0.0
  0
LINE
  5
12C
330
1E
100
AcDbEntity
  8
0
100
AcDbLine
 10
-82.17080879749476
 20
103.9661974415695
 30
0.0
 11
-81.04680879749475
 21
98.90419744156957
 31
0.0
  0
LINE
  5
12D
330
1E
100
AcDbEntity
  8
0
100
AcDbLine
 10
-81.04680879749475
 20
98.93519744156959
 30
0.0
 11
-82.10880879749476
 21
103.9351974415695
 31
0.0
  0
LINE
  5
12E
330
1E
100
AcDbEntity
  8
0
100
AcDbLine
 10
-81.04680879749475
 20
98.93519744156959
 30
0.0
 11
-79.98480879749475
 21
103.9351974415695
 31
0.0
  0
LINE
  5
12F
330
1E
100
AcDbEntity
  8
0
100
AcDbLine
 10
-82.25775617698372
 20
104.003811389479
 30
0.0
 11
-81.23440321687146
 21
99.24379194702034
 31
0.0
  0
LINE
  5
130
330
1E
100
AcDbEntity
  8
0
100
AcDbLine
 10
-81.23480879749475
 20
99.24719744156959
 30
0.0
 11
-82.73442983147106
 21
104.2125842085475
 31
0.0
  0
LINE
  5
131
330
1E
100
AcDbEntity
  8
0
100
AcDbLine
 10
-81.23480879749475
 20
99.24719744156959
 30
0.0
 11
-82.73430879749474
 21
103.8721974415695
 31
0.0
  0
LINE
  5
132
330
1E
100
AcDbEntity
  8
0
100
AcDbLine
 10
-84.23380879749476
 20
99.24719744156959
 30
0.0
 11
-82.73430879749474
 21
103.8721974415695
 31
0.0
  0
LINE
  5
133
330
1E
100
AcDbEntity
  8
0
100
AcDbLine
 10
-84.23380879749476
 20
99.24719744156959
 30
0.0
 11
-82.73418776351844
 21
104.2125842085475
 31
0.0
  0
LINE
  5
134
330
1E
100
AcDbEntity
  8
0
100
AcDbLine
 10
-83.21086141800577
 20
104.003811389479
 30
0.0
 11
-84.23421437811805
 21
99.24379194702034
 31
0.0
  0
LINE
  5
135
330
1E
100
AcDbEntity
  8
0
100
AcDbLine
 10
-79.92280879749475
 20
103.9661974415695
 30
0.0
 11
-81.04680879749475
 21
98.90419744156957
 31
0.0
  0
LINE
  5
136
330
1E
100
AcDbEntity
  8
0
100
AcDbLine
 10
-80.85880879749476
 20
99.24719744156959
 30
0.0
 11
-79.35930879749474
 21
103.8721974415695
 31
0.0
  0
LINE
  5
137
330
1E
100
AcDbEntity
  8
0
100
AcDbLine
 10
-80.85880879749476
 20
99.24719744156959
 30
0.0
 11
-79.35918776351845
 21
104.2125842085475
 31
0.0
  0
LINE
  5
138
330
1E
100
AcDbEntity
  8
0
100
AcDbLine
 10
-79.83586141800578
 20
104.003811389479
 30
0.0
 11
-80.85921437811805
 21
99.24379194702034
 31
0.0
  0
LINE
  5
139
330
1E
100
AcDbEntity
  8
0
100
AcDbLine
 10
-84.23380879749476
 20
98.74719744156958
 30
0.0
 11
-82.73430879749474
 21
103.3721974415695
 31
0.0
  0
LINE
  5
13A
330
1E
100
AcDbEntity
  8
0
100
AcDbLine
 10
-77.85980879749475
 20
98.74719744156958
 30
0.0
 11
-79.35930879749474
 21
103.3721974415695
 31
0.0
  0
LINE
  5
13B
330
1E
100
AcDbEntity
  8
0
100
AcDbLine
 10
-77.79780879749475
 20
98.74719744156958
 30
0.0
 11
-79.35930879749474
 21
103.7471974415695
 31
0.0
  0
LINE
  5
13C
330
1E
100
AcDbEntity
  8
0
100
AcDbLine
 10
-81.23480879749475
 20
98.74719744156958
 30
0.0
 11
-82.73430879749474
 21
103.3721974415695
 31
0.0
  0
LINE
  5
13D
330
1E
100
AcDbEntity
  8
0
100
AcDbLine
 10
-81.17280879749475
 20
98.74719744156958
 30
0.0
 11
-82.73430879749474
 21
103.7471974415695
 31
0.0
  0
LINE
  5
13E
330
1E
100
AcDbEntity
  8
0
100
AcDbLine
 10
-80.85880879749476
 20
98.74719744156958
 30
0.0
 11
-79.35930879749474
 21
103.3721974415695
 31
0.0
  0
LINE
  5
13F
330
1E
100
AcDbEntity
  8
0
100
AcDbLine
 10
-80.92080879749476
 20
98.74719744156958
 30
0.0
 11
-79.35930879749474
 21
103.7471974415695
 31
0.0
  0
LINE
  5
140
330
1E
100
AcDbEntity
  8
0
100
AcDbLine
 10
-81.23480879749475
 20
98.74719744156958
 30
0.0
 11
-80.85880879749476
 21
98.74719744156958
 31
0.0
  0
LINE
  5
141
330
1E
100
AcDbEntity
  8
0
100
AcDbLine
 10
-77.85980879749475
 20
98.74719744156958
 30
0.0
 11
-77.67180879749474
 21
98.74719744156958
 31
0.0
  0
LINE
  5
142
330
1E
100
AcDbEntity
  8
0
100
AcDbLine
 10
-77.67180879749474
 20
98.92523620565984
 30
0.0
 11
-77.67180879749474
 21
98.74719744156958
 31
0.0
  0
LINE
  5
143
330
1E
100
AcDbEntity
  8
0
100
AcDbLine
 10
-79.98480879749475
 20
107.0591974415695
 30
0.0
 11
-81.04680879749475
 21
105.6846974415695
 31
0.0
  0
LINE
  5
144
330
1E
100
AcDbEntity
  8
0
100
AcDbLine
 10
-79.92280879749475
 20
107.0281974415695
 30
0.0
 11
-81.04680879749475
 21
105.6536974415695
 31
0.0
  0
LINE
  5
145
330
1E
100
AcDbEntity
  8
0
100
AcDbLine
 10
-80.79656011298316
 20
105.6878412992972
 30
0.0
 11
-79.83586141800578
 21
106.9905834936601
 31
0.0
  0
LINE
  5
146
330
1E
100
AcDbEntity
  8
0
100
AcDbLine
 10
-80.79717717352272
 20
105.6837703426213
 30
0.0
 11
-79.35930879749474
 21
106.5909474415695
 31
0.0
  0
LINE
  5
147
330
1E
100
AcDbEntity
  8
0
100
AcDbLine
 10
-80.79717717352272
 20
105.6837703426213
 30
0.0
 11
-79.35918776351845
 21
106.7818106745915
 31
0.0
  0
LINE
  5
148
330
1E
100
AcDbEntity
  8
0
100
AcDbLine
 10
-80.90549496176748
 20
105.4957703426213
 30
0.0
 11
-79.35930879749474
 21
106.4659474415695
 31
0.0
  0
LINE
  5
149
330
1E
100
AcDbEntity
  8
0
100
AcDbLine
 10
-80.85880879749476
 20
105.4971974415695
 30
0.0
 11
-79.35930879749474
 21
106.3721974415695
 31
0.0
  0
LINE
  5
14A
330
1E
100
AcDbEntity
  8
0
100
AcDbLine
 10
-79.98480879749475
 20
103.9351974415695
 30
0.0
 11
-81.04680879749475
 21
105.3096974415695
 31
0.0
  0
LINE
  5
14B
330
1E
100
AcDbEntity
  8
0
100
AcDbLine
 10
-80.90549496176748
 20
105.4986245405177
 30
0.0
 11
-79.35930879749474
 21
104.5284474415695
 31
0.0
  0
LINE
  5
14C
330
1E
100
AcDbEntity
  8
0
100
AcDbLine
 10
-79.92280879749475
 20
103.9661974415695
 30
0.0
 11
-81.04680879749475
 21
105.3406974415695
 31
0.0
  0
LINE
  5
14D
330
1E
100
AcDbEntity
  8
0
100
AcDbLine
 10
-80.85880879749476
 20
105.4971974415695
 30
0.0
 11
-79.35930879749474
 21
104.6221974415695
 31
0.0
  0
LINE
  5
14E
330
1E
100
AcDbEntity
  8
0
100
AcDbLine
 10
-80.79717717352272
 20
105.3106245405178
 30
0.0
 11
-79.35918776351845
 21
104.2125842085475
 31
0.0
  0
LINE
  5
14F
330
1E
100
AcDbEntity
  8
0
100
AcDbLine
 10
-80.79717717352272
 20
105.3106245405178
 30
0.0
 11
-79.35930879749474
 21
104.4034474415695
 31
0.0
  0
LINE
  5
150
330
1E
100
AcDbEntity
  8
0
100
AcDbLine
 10
-80.79656011298316
 20
105.3065535838418
 30
0.0
 11
-79.83586141800578
 21
104.003811389479
 31
0.0
  0
LINE
  5
151
330
1E
100
AcDbEntity
  8
0
100
AcDbLine
 10
-84.17217717352272
 20
105.6837703426213
 30
0.0
 11
-82.73430879749474
 21
106.5909474415695
 31
0.0
  0
LINE
  5
152
330
1E
100
AcDbEntity
  8
0
100
AcDbLine
 10
-84.17217717352272
 20
105.6837703426213
 30
0.0
 11
-82.73418776351844
 21
106.7818106745915
 31
0.0
  0
LINE
  5
153
330
1E
100
AcDbEntity
  8
0
100
AcDbLine
 10
-84.23380879749476
 20
105.4971974415695
 30
0.0
 11
-82.73430879749474
 21
106.3721974415695
 31
0.0
  0
LINE
  5
154
330
1E
100
AcDbEntity
  8
0
100
AcDbLine
 10
-84.17156011298315
 20
105.6878412992972
 30
0.0
 11
-83.21086141800577
 21
106.9905834936601
 31
0.0
  0
LINE
  5
155
330
1E
100
AcDbEntity
  8
0
100
AcDbLine
 10
-81.29705748200635
 20
105.6878412992972
 30
0.0
 11
-82.25775617698372
 21
106.9905834936601
 31
0.0
  0
LINE
  5
156
330
1E
100
AcDbEntity
  8
0
100
AcDbLine
 10
-82.10880879749476
 20
107.0591974415695
 30
0.0
 11
-81.04680879749475
 21
105.6846974415695
 31
0.0
  0
LINE
  5
157
330
1E
100
AcDbEntity
  8
0
100
AcDbLine
 10
-82.17080879749476
 20
107.0281974415695
 30
0.0
 11
-81.04680879749475
 21
105.6536974415695
 31
0.0
  0
LINE
  5
158
330
1E
100
AcDbEntity
  8
0
100
AcDbLine
 10
-81.23480879749475
 20
105.4971974415695
 30
0.0
 11
-82.73430879749474
 21
106.3721974415695
 31
0.0
  0
LINE
  5
159
330
1E
100
AcDbEntity
  8
0
100
AcDbLine
 10
-81.18812263322203
 20
105.4957703426213
 30
0.0
 11
-82.73430879749474
 21
106.4659474415695
 31
0.0
  0
LINE
  5
15A
330
1E
100
AcDbEntity
  8
0
100
AcDbLine
 10
-81.29644042146679
 20
105.6837703426213
 30
0.0
 11
-82.73442983147106
 21
106.7818106745915
 31
0.0
  0
LINE
  5
15B
330
1E
100
AcDbEntity
  8
0
100
AcDbLine
 10
-81.29644042146679
 20
105.6837703426213
 30
0.0
 11
-82.73430879749474
 21
106.5909474415695
 31
0.0
  0
LINE
  5
15C
330
1E
100
AcDbEntity
  8
0
100
AcDbLine
 10
-81.29644042146679
 20
105.3106245405178
 30
0.0
 11
-82.73430879749474
 21
104.4034474415695
 31
0.0
  0
LINE
  5
15D
330
1E
100
AcDbEntity
  8
0
100
AcDbLine
 10
-81.29644042146679
 20
105.3106245405178
 30
0.0
 11
-82.73442983147106
 21
104.2125842085475
 31
0.0
  0
LINE
  5
15E
330
1E
100
AcDbEntity
  8
0
100
AcDbLine
 10
-81.18812263322203
 20
105.4986245405177
 30
0.0
 11
-82.73430879749474
 21
104.5284474415695
 31
0.0
  0
LINE
  5
15F
330
1E
100
AcDbEntity
  8
0
100
AcDbLine
 10
-81.23480879749475
 20
105.4971974415695
 30
0.0
 11
-82.73430879749474
 21
104.6221974415695
 31
0.0
  0
LINE
  5
160
330
1E
100
AcDbEntity
  8
0
100
AcDbLine
 10
-82.25775617698372
 20
104.003811389479
 30
0.0
 11
-82.73442983147106
 21
104.2125842085475
 31
0.0
  0
LINE
  5
161
330
1E
100
AcDbEntity
  8
0
100
AcDbLine
 10
-82.73430879749474
 20
103.7471974415695
 30
0.0
 11
-82.73430879749474
 21
103.3721974415695
 31
0.0
  0
LINE
  5
162
330
1E
100
AcDbEntity
  8
0
100
AcDbLine
 10
-83.21086141800577
 20
104.003811389479
 30
0.0
 11
-82.73418776351844
 21
104.2125842085475
 31
0.0
  0
LINE
  5
163
330
1E
100
AcDbEntity
  8
0
100
AcDbLine
 10
-84.23380879749476
 20
105.4971974415695
 30
0.0
 11
-82.73430879749474
 21
104.6221974415695
 31
0.0
  0
LINE
  5
164
330
1E
100
AcDbEntity
  8
0
100
AcDbLine
 10
-84.17217717352272
 20
105.3106245405178
 30
0.0
 11
-82.73418776351844
 21
104.2125842085475
 31
0.0
  0
LINE
  5
165
330
1E
100
AcDbEntity
  8
0
100
AcDbLine
 10
-84.17217717352272
 20
105.3106245405178
 30
0.0
 11
-82.73430879749474
 21
104.4034474415695
 31
0.0
  0
LINE
  5
166
330
1E
100
AcDbEntity
  8
0
100
AcDbLine
 10
-84.17156011298315
 20
105.3065535838418
 30
0.0
 11
-83.21086141800577
 21
104.003811389479
 31
0.0
  0
LINE
  5
167
330
1E
100
AcDbEntity
  8
0
100
AcDbLine
 10
-83.29780879749476
 20
103.9661974415695
 30
0.0
 11
-83.36540858308394
 21
103.9370041074864
 31
0.0
  0
LINE
  5
168
330
1E
100
AcDbEntity
  8
0
100
AcDbLine
 10
-82.73418776351844
 20
104.2125842085475
 30
0.0
 11
-82.73430879749474
 21
104.4034474415695
 31
0.0
  0
POINT
  5
169
330
1E
100
AcDbEntity
  8
0
100
AcDbPoint
 10
-82.73430879749474
 20
104.2159474415695
 30
0.0
  0
POINT
  5
16A
330
1E
100
AcDbEntity
  8
0
100
AcDbPoint
 10
-82.77178031518118
 20
104.0163377932559
 30
0.0
  0
POINT
  5
16B
330
1E
100
AcDbEntity
  8
0
100
AcDbPoint
 10
-82.76760339384495
 20
103.9745832350281
 30
0.0
  0
LINE
  5
16C
330
1E
100
AcDbEntity
  8
0
100
AcDbLine
 10
-82.73418776351844
 20
104.2125842085475
 30
0.0
 11
-82.73430879749474
 21
103.8721974415695
 31
0.0
  0
LINE
  5
16D
330
1E
100
AcDbEntity
  8
0
100
AcDbLine
 10
-82.73430879749474
 20
104.5284474415695
 30
0.0
 11
-82.73430879749474
 21
104.6221974415695
 31
0.0
  0
LINE
  5
16E
330
1E
100
AcDbEntity
  8
0
100
AcDbLine
 10
-81.29705748200635
 20
105.3065535838418
 30
0.0
 11
-82.25775617698372
 21
104.003811389479
 31
0.0
  0
LINE
  5
16F
330
1E
100
AcDbEntity
  8
0
100
AcDbLine
 10
-82.17080879749476
 20
103.9661974415695
 30
0.0
 11
-81.04680879749475
 21
105.3406974415695
 31
0.0
  0
LINE
  5
170
330
1E
100
AcDbEntity
  8
0
100
AcDbLine
 10
-82.10880879749476
 20
103.9351974415695
 30
0.0
 11
-81.04680879749475
 21
105.3096974415695
 31
0.0
  0
LINE
  5
171
330
1E
100
AcDbEntity
  8
0
100
AcDbLine
 10
-82.17080879749476
 20
103.9661974415695
 30
0.0
 11
-82.10320901190556
 21
103.9370041074864
 31
0.0
  0
LINE
  5
172
330
1E
100
AcDbEntity
  8
0
100
AcDbLine
 10
-82.25775617698372
 20
106.9905834936601
 30
0.0
 11
-82.73442983147106
 21
106.7818106745915
 31
0.0
  0
LINE
  5
173
330
1E
100
AcDbEntity
  8
0
100
AcDbLine
 10
-83.21086141800577
 20
106.9905834936601
 30
0.0
 11
-82.73418776351844
 21
106.7818106745915
 31
0.0
  0
LINE
  5
174
330
1E
100
AcDbEntity
  8
0
100
AcDbLine
 10
-83.29780879749476
 20
107.0281974415695
 30
0.0
 11
-83.36540858308394
 21
107.0573907756527
 31
0.0
  0
LINE
  5
175
330
1E
100
AcDbEntity
  8
0
100
AcDbLine
 10
-82.73418776351844
 20
106.7818106745915
 30
0.0
 11
-82.73430879749474
 21
107.1221974415695
 31
0.0
  0
LINE
  5
176
330
1E
100
AcDbEntity
  8
0
100
AcDbLine
 10
-82.73430879749474
 20
106.4659474415695
 30
0.0
 11
-82.73430879749474
 21
106.3721974415695
 31
0.0
  0
LINE
  5
177
330
1E
100
AcDbEntity
  8
0
100
AcDbLine
 10
-82.73418776351844
 20
106.7818106745915
 30
0.0
 11
-82.73430879749474
 21
106.5909474415695
 31
0.0
  0
POINT
  5
178
330
1E
100
AcDbEntity
  8
0
100
AcDbPoint
 10
-82.73430879749474
 20
106.7784474415695
 30
0.0
  0
LINE
  5
179
330
1E
100
AcDbEntity
  8
0
100
AcDbLine
 10
-82.73430879749474
 20
107.2471974415695
 30
0.0
 11
-82.73430879749474
 21
107.6221974415695
 31
0.0
  0
POINT
  5
17A
330
1E
100
AcDbEntity
  8
0
100
AcDbPoint
 10
-82.77178031518118
 20
106.9780570898832
 30
0.0
  0
POINT
  5
17B
330
1E
100
AcDbEntity
  8
0
100
AcDbPoint
 10
-82.76760339384495
 20
107.0198116481109
 30
0.0
  0
LINE
  5
17C
330
1E
100
AcDbEntity
  8
0
100
AcDbLine
 10
-82.17080879749476
 20
107.0281974415695
 30
0.0
 11
-82.10320901190556
 21
107.0573907756527
 31
0.0
  0
LINE
  5
17D
330
1E
100
AcDbEntity
  8
0
100
AcDbLine
 10
-77.85980879749475
 20
105.4971974415695
 30
0.0
 11
-79.35930879749474
 21
106.3721974415695
 31
0.0
  0
LINE
  5
17E
330
1E
100
AcDbEntity
  8
0
100
AcDbLine
 10
-77.81312263322202
 20
105.4957703426213
 30
0.0
 11
-79.35930879749474
 21
106.4659474415695
 31
0.0
  0
LINE
  5
17F
330
1E
100
AcDbEntity
  8
0
100
AcDbLine
 10
-77.92144042146678
 20
105.6837703426213
 30
0.0
 11
-79.35942983147106
 21
106.7818106745915
 31
0.0
  0
LINE
  5
180
330
1E
100
AcDbEntity
  8
0
100
AcDbLine
 10
-77.92144042146678
 20
105.6837703426213
 30
0.0
 11
-79.35930879749474
 21
106.5909474415695
 31
0.0
  0
LINE
  5
181
330
1E
100
AcDbEntity
  8
0
100
AcDbLine
 10
-78.73380879749475
 20
107.0591974415695
 30
0.0
 11
-77.67180879749474
 21
105.6846974415695
 31
0.0
  0
LINE
  5
182
330
1E
100
AcDbEntity
  8
0
100
AcDbLine
 10
-78.79580879749475
 20
107.0281974415695
 30
0.0
 11
-77.67180879749474
 21
105.6536974415695
 31
0.0
  0
LINE
  5
183
330
1E
100
AcDbEntity
  8
0
100
AcDbLine
 10
-77.92205748200635
 20
105.6878412992972
 30
0.0
 11
-78.88275617698372
 21
106.9905834936601
 31
0.0
  0
LINE
  5
184
330
1E
100
AcDbEntity
  8
0
100
AcDbLine
 10
-77.92144042146678
 20
105.3106245405178
 30
0.0
 11
-79.35930879749474
 21
104.4034474415695
 31
0.0
  0
LINE
  5
185
330
1E
100
AcDbEntity
  8
0
100
AcDbLine
 10
-77.92144042146678
 20
105.3106245405178
 30
0.0
 11
-79.35942983147106
 21
104.2125842085475
 31
0.0
  0
LINE
  5
186
330
1E
100
AcDbEntity
  8
0
100
AcDbLine
 10
-77.81312263322202
 20
105.4986245405177
 30
0.0
 11
-79.35930879749474
 21
104.5284474415695
 31
0.0
  0
LINE
  5
187
330
1E
100
AcDbEntity
  8
0
100
AcDbLine
 10
-77.85980879749475
 20
105.4971974415695
 30
0.0
 11
-79.35930879749474
 21
104.6221974415695
 31
0.0
  0
LINE
  5
188
330
1E
100
AcDbEntity
  8
0
100
AcDbLine
 10
-78.73380879749475
 20
103.9351974415695
 30
0.0
 11
-77.67180879749474
 21
105.3096974415695
 31
0.0
  0
LINE
  5
189
330
1E
100
AcDbEntity
  8
0
100
AcDbLine
 10
-77.92205748200635
 20
105.3065535838418
 30
0.0
 11
-78.88275617698372
 21
104.003811389479
 31
0.0
  0
LINE
  5
18A
330
1E
100
AcDbEntity
  8
0
100
AcDbLine
 10
-78.79580879749475
 20
103.9661974415695
 30
0.0
 11
-77.67180879749474
 21
105.3406974415695
 31
0.0
  0
LINE
  5
18B
330
1E
100
AcDbEntity
  8
0
100
AcDbLine
 10
-79.35930879749474
 20
103.7471974415695
 30
0.0
 11
-79.35930879749474
 21
103.3721974415695
 31
0.0
  0
LINE
  5
18C
330
1E
100
AcDbEntity
  8
0
100
AcDbLine
 10
-78.88275617698372
 20
104.003811389479
 30
0.0
 11
-79.35942983147106
 21
104.2125842085475
 31
0.0
  0
LINE
  5
18D
330
1E
100
AcDbEntity
  8
0
100
AcDbLine
 10
-79.92280879749475
 20
103.9661974415695
 30
0.0
 11
-79.99040858308394
 21
103.9370041074864
 31
0.0
  0
LINE
  5
18E
330
1E
100
AcDbEntity
  8
0
100
AcDbLine
 10
-79.35942983147106
 20
104.2125842085475
 30
0.0
 11
-79.35930879749474
 21
104.4034474415695
 31
0.0
  0
LINE
  5
18F
330
1E
100
AcDbEntity
  8
0
100
AcDbLine
 10
-79.83586141800578
 20
104.003811389479
 30
0.0
 11
-79.35918776351845
 21
104.2125842085475
 31
0.0
  0
POINT
  5
190
330
1E
100
AcDbEntity
  8
0
100
AcDbPoint
 10
-79.35930879749474
 20
104.2159474415695
 30
0.0
  0
POINT
  5
191
330
1E
100
AcDbEntity
  8
0
100
AcDbPoint
 10
-79.32601420114456
 20
103.9745832350281
 30
0.0
  0
POINT
  5
192
330
1E
100
AcDbEntity
  8
0
100
AcDbPoint
 10
-79.32183727980832
 20
104.0163377932559
 30
0.0
  0
LINE
  5
193
330
1E
100
AcDbEntity
  8
0
100
AcDbLine
 10
-79.35942983147106
 20
104.2125842085475
 30
0.0
 11
-79.35930879749474
 21
103.8721974415695
 31
0.0
  0
LINE
  5
194
330
1E
100
AcDbEntity
  8
0
100
AcDbLine
 10
-79.35930879749474
 20
104.5284474415695
 30
0.0
 11
-79.35930879749474
 21
104.6221974415695
 31
0.0
  0
LINE
  5
195
330
1E
100
AcDbEntity
  8
0
100
AcDbLine
 10
-78.79580879749475
 20
103.9661974415695
 30
0.0
 11
-78.72820901190556
 21
103.9370041074864
 31
0.0
  0
LINE
  5
196
330
1E
100
AcDbEntity
  8
0
100
AcDbLine
 10
-78.88275617698372
 20
106.9905834936601
 30
0.0
 11
-79.35942983147106
 21
106.7818106745915
 31
0.0
  0
LINE
  5
197
330
1E
100
AcDbEntity
  8
0
100
AcDbLine
 10
-79.83586141800578
 20
106.9905834936601
 30
0.0
 11
-79.35918776351845
 21
106.7818106745915
 31
0.0
  0
LINE
  5
198
330
1E
100
AcDbEntity
  8
0
100
AcDbLine
 10
-79.35942983147106
 20
106.7818106745915
 30
0.0
 11
-79.35930879749474
 21
107.1221974415695
 31
0.0
  0
LINE
  5
199
330
1E
100
AcDbEntity
  8
0
100
AcDbLine
 10
-79.35930879749474
 20
106.4659474415695
 30
0.0
 11
-79.35930879749474
 21
106.3721974415695
 31
0.0
  0
LINE
  5
19A
330
1E
100
AcDbEntity
  8
0
100
AcDbLine
 10
-79.35942983147106
 20
106.7818106745915
 30
0.0
 11
-79.35930879749474
 21
106.5909474415695
 31
0.0
  0
POINT
  5
19B
330
1E
100
AcDbEntity
  8
0
100
AcDbPoint
 10
-79.35930879749474
 20
106.7784474415695
 30
0.0
  0
LINE
  5
19C
330
1E
100
AcDbEntity
  8
0
100
AcDbLine
 10
-79.92280879749475
 20
107.0281974415695
 30
0.0
 11
-79.99040858308394
 21
107.0573907756527
 31
0.0
  0
LINE
  5
19D
330
1E
100
AcDbEntity
  8
0
100
AcDbLine
 10
-79.35930879749474
 20
107.2471974415695
 30
0.0
 11
-79.35930879749474
 21
107.6221974415695
 31
0.0
  0
POINT
  5
19E
330
1E
100
AcDbEntity
  8
0
100
AcDbPoint
 10
-79.32183727980832
 20
106.9780570898832
 30
0.0
  0
POINT
  5
19F
330
1E
100
AcDbEntity
  8
0
100
AcDbPoint
 10
-79.32601420114456
 20
107.0198116481109
 30
0.0
  0
LINE
  5
1A0
330
1E
100
AcDbEntity
  8
0
100
AcDbLine
 10
-78.79580879749475
 20
107.0281974415695
 30
0.0
 11
-78.72820901190556
 21
107.0573907756527
 31
0.0
  0
LINE
  5
1A1
330
1E
100
AcDbEntity
  8
0
100
AcDbLine
 10
-84.23380879749476
 20
118.9971974415695
 30
0.0
 11
-82.73430879749474
 21
118.1221974415695
 31
0.0
  0
LINE
  5
1A2
330
1E
100
AcDbEntity
  8
0
100
AcDbLine
 10
-84.28049496176749
 20
118.9986245405177
 30
0.0
 11
-82.73430879749474
 21
118.0284474415695
 31
0.0
  0
LINE
  5
1A3
330
1E
100
AcDbEntity
  8
0
100
AcDbLine
 10
-84.42180879749475
 20
119.1846974415695
 30
0.0
 11
-84.42180879749475
 21
118.8406974415695
 31
0.0
  0
LINE
  5
1A4
330
1E
100
AcDbEntity
  8
0
100
AcDbLine
 10
-77.81312263322202
 20
118.9986245405177
 30
0.0
 11
-79.35930879749474
 21
118.0284474415695
 31
0.0
  0
LINE
  5
1A5
330
1E
100
AcDbEntity
  8
0
100
AcDbLine
 10
-77.85980879749475
 20
118.9971974415695
 30
0.0
 11
-79.35930879749474
 21
118.1221974415695
 31
0.0
  0
LINE
  5
1A6
330
1E
100
AcDbEntity
  8
0
100
AcDbLine
 10
-81.18812263322203
 20
118.9986245405177
 30
0.0
 11
-82.73430879749474
 21
118.0284474415695
 31
0.0
  0
LINE
  5
1A7
330
1E
100
AcDbEntity
  8
0
100
AcDbLine
 10
-81.23480879749475
 20
118.9971974415695
 30
0.0
 11
-82.73430879749474
 21
118.1221974415695
 31
0.0
  0
LINE
  5
1A8
330
1E
100
AcDbEntity
  8
0
100
AcDbLine
 10
-80.85880879749476
 20
118.9971974415695
 30
0.0
 11
-79.35930879749474
 21
118.1221974415695
 31
0.0
  0
LINE
  5
1A9
330
1E
100
AcDbEntity
  8
0
100
AcDbLine
 10
-80.90549496176748
 20
118.9986245405177
 30
0.0
 11
-79.35930879749474
 21
118.0284474415695
 31
0.0
  0
LINE
  5
1AA
330
1E
100
AcDbEntity
  8
0
100
AcDbLine
 10
-84.29580879749476
 20
112.2471974415695
 30
0.0
 11
-82.73430879749474
 21
117.2471974415695
 31
0.0
  0
LINE
  5
1AB
330
1E
100
AcDbEntity
  8
0
100
AcDbLine
 10
-84.42180879749475
 20
112.4351974415695
 30
0.0
 11
-83.35980879749476
 21
117.4351974415695
 31
0.0
  0
LINE
  5
1AC
330
1E
100
AcDbEntity
  8
0
100
AcDbLine
 10
-83.29780879749476
 20
117.4661974415695
 30
0.0
 11
-84.42180879749475
 21
112.4041974415695
 31
0.0
  0
LINE
  5
1AD
330
1E
100
AcDbEntity
  8
0
100
AcDbLine
 10
-83.35980879749476
 20
117.4351974415695
 30
0.0
 11
-84.42180879749475
 21
118.8096974415695
 31
0.0
  0
LINE
  5
1AE
330
1E
100
AcDbEntity
  8
0
100
AcDbLine
 10
-83.29780879749476
 20
117.4661974415695
 30
0.0
 11
-84.42180879749475
 21
118.8406974415695
 31
0.0
  0
LINE
  5
1AF
330
1E
100
AcDbEntity
  8
0
100
AcDbLine
 10
-84.42180879749475
 20
112.4351974415695
 30
0.0
 11
-84.42180879749475
 21
112.0591974415695
 31
0.0
  0
LINE
  5
1B0
330
1E
100
AcDbEntity
  8
0
100
AcDbLine
 10
-77.79780879749475
 20
112.2471974415695
 30
0.0
 11
-79.35930879749474
 21
117.2471974415695
 31
0.0
  0
LINE
  5
1B1
330
1E
100
AcDbEntity
  8
0
100
AcDbLine
 10
-77.85980879749475
 20
112.2471974415695
 30
0.0
 11
-79.35930879749474
 21
116.8721974415695
 31
0.0
  0
LINE
  5
1B2
330
1E
100
AcDbEntity
  8
0
100
AcDbLine
 10
-84.23380879749476
 20
112.2471974415695
 30
0.0
 11
-82.73430879749474
 21
116.8721974415695
 31
0.0
  0
LINE
  5
1B3
330
1E
100
AcDbEntity
  8
0
100
AcDbLine
 10
-81.17280879749475
 20
112.2471974415695
 30
0.0
 11
-82.73430879749474
 21
117.2471974415695
 31
0.0
  0
LINE
  5
1B4
330
1E
100
AcDbEntity
  8
0
100
AcDbLine
 10
-81.23480879749475
 20
112.2471974415695
 30
0.0
 11
-82.73430879749474
 21
116.8721974415695
 31
0.0
  0
LINE
  5
1B5
330
1E
100
AcDbEntity
  8
0
100
AcDbLine
 10
-80.85880879749476
 20
112.2471974415695
 30
0.0
 11
-79.35930879749474
 21
116.8721974415695
 31
0.0
  0
LINE
  5
1B6
330
1E
100
AcDbEntity
  8
0
100
AcDbLine
 10
-80.92080879749476
 20
112.2471974415695
 30
0.0
 11
-79.35930879749474
 21
117.2471974415695
 31
0.0
  0
LINE
  5
1B7
330
1E
100
AcDbEntity
  8
0
100
AcDbLine
 10
-84.23380879749476
 20
112.7471974415695
 30
0.0
 11
-82.73430879749474
 21
117.3721974415695
 31
0.0
  0
LINE
  5
1B8
330
1E
100
AcDbEntity
  8
0
100
AcDbLine
 10
-84.23380879749476
 20
112.7471974415695
 30
0.0
 11
-82.73418776351844
 21
117.7125842085475
 31
0.0
  0
LINE
  5
1B9
330
1E
100
AcDbEntity
  8
0
100
AcDbLine
 10
-83.21086141800577
 20
117.503811389479
 30
0.0
 11
-84.23421437811805
 21
112.7437919470203
 31
0.0
  0
LINE
  5
1BA
330
1E
100
AcDbEntity
  8
0
100
AcDbLine
 10
-78.88275617698372
 20
117.503811389479
 30
0.0
 11
-77.85940321687146
 21
112.7437919470203
 31
0.0
  0
LINE
  5
1BB
330
1E
100
AcDbEntity
  8
0
100
AcDbLine
 10
-77.85980879749475
 20
112.7471974415695
 30
0.0
 11
-79.35942983147106
 21
117.7125842085475
 31
0.0
  0
LINE
  5
1BC
330
1E
100
AcDbEntity
  8
0
100
AcDbLine
 10
-77.85980879749475
 20
112.7471974415695
 30
0.0
 11
-79.35930879749474
 21
117.3721974415695
 31
0.0
  0
LINE
  5
1BD
330
1E
100
AcDbEntity
  8
0
100
AcDbLine
 10
-78.79580879749475
 20
117.4661974415695
 30
0.0
 11
-77.67180879749474
 21
112.4041974415695
 31
0.0
  0
LINE
  5
1BE
330
1E
100
AcDbEntity
  8
0
100
AcDbLine
 10
-77.67180879749474
 20
112.4351974415695
 30
0.0
 11
-78.73380879749475
 21
117.4351974415695
 31
0.0
  0
LINE
  5
1BF
330
1E
100
AcDbEntity
  8
0
100
AcDbLine
 10
-82.25775617698372
 20
117.503811389479
 30
0.0
 11
-81.23440321687146
 21
112.7437919470203
 31
0.0
  0
LINE
  5
1C0
330
1E
100
AcDbEntity
  8
0
100
AcDbLine
 10
-81.23480879749475
 20
112.7471974415695
 30
0.0
 11
-82.73442983147106
 21
117.7125842085475
 31
0.0
  0
LINE
  5
1C1
330
1E
100
AcDbEntity
  8
0
100
AcDbLine
 10
-81.23480879749475
 20
112.7471974415695
 30
0.0
 11
-82.73430879749474
 21
117.3721974415695
 31
0.0
  0
LINE
  5
1C2
330
1E
100
AcDbEntity
  8
0
100
AcDbLine
 10
-82.17080879749476
 20
117.4661974415695
 30
0.0
 11
-81.04680879749475
 21
112.4041974415695
 31
0.0
  0
LINE
  5
1C3
330
1E
100
AcDbEntity
  8
0
100
AcDbLine
 10
-81.04680879749475
 20
112.4351974415695
 30
0.0
 11
-82.10880879749476
 21
117.4351974415695
 31
0.0
  0
LINE
  5
1C4
330
1E
100
AcDbEntity
  8
0
100
AcDbLine
 10
-81.04680879749475
 20
112.4351974415695
 30
0.0
 11
-79.98480879749475
 21
117.4351974415695
 31
0.0
  0
LINE
  5
1C5
330
1E
100
AcDbEntity
  8
0
100
AcDbLine
 10
-79.92280879749475
 20
117.4661974415695
 30
0.0
 11
-81.04680879749475
 21
112.4041974415695
 31
0.0
  0
LINE
  5
1C6
330
1E
100
AcDbEntity
  8
0
100
AcDbLine
 10
-80.85880879749476
 20
112.7471974415695
 30
0.0
 11
-79.35930879749474
 21
117.3721974415695
 31
0.0
  0
LINE
  5
1C7
330
1E
100
AcDbEntity
  8
0
100
AcDbLine
 10
-80.85880879749476
 20
112.7471974415695
 30
0.0
 11
-79.35918776351845
 21
117.7125842085475
 31
0.0
  0
LINE
  5
1C8
330
1E
100
AcDbEntity
  8
0
100
AcDbLine
 10
-79.83586141800578
 20
117.503811389479
 30
0.0
 11
-80.85921437811805
 21
112.7437919470203
 31
0.0
  0
LINE
  5
1C9
330
1E
100
AcDbEntity
  8
0
100
AcDbLine
 10
-79.98480879749475
 20
117.4351974415695
 30
0.0
 11
-81.04680879749475
 21
118.8096974415695
 31
0.0
  0
LINE
  5
1CA
330
1E
100
AcDbEntity
  8
0
100
AcDbLine
 10
-80.79717717352272
 20
118.8106245405178
 30
0.0
 11
-79.35918776351845
 21
117.7125842085475
 31
0.0
  0
LINE
  5
1CB
330
1E
100
AcDbEntity
  8
0
100
AcDbLine
 10
-80.79717717352272
 20
118.8106245405178
 30
0.0
 11
-79.35930879749474
 21
117.9034474415695
 31
0.0
  0
LINE
  5
1CC
330
1E
100
AcDbEntity
  8
0
100
AcDbLine
 10
-80.79656011298316
 20
118.8065535838418
 30
0.0
 11
-79.83586141800578
 21
117.503811389479
 31
0.0
  0
LINE
  5
1CD
330
1E
100
AcDbEntity
  8
0
100
AcDbLine
 10
-79.92280879749475
 20
117.4661974415695
 30
0.0
 11
-81.04680879749475
 21
118.8406974415695
 31
0.0
  0
LINE
  5
1CE
330
1E
100
AcDbEntity
  8
0
100
AcDbLine
 10
-81.29644042146679
 20
118.8106245405178
 30
0.0
 11
-82.73430879749474
 21
117.9034474415695
 31
0.0
  0
LINE
  5
1CF
330
1E
100
AcDbEntity
  8
0
100
AcDbLine
 10
-81.29644042146679
 20
118.8106245405178
 30
0.0
 11
-82.73442983147106
 21
117.7125842085475
 31
0.0
  0
LINE
  5
1D0
330
1E
100
AcDbEntity
  8
0
100
AcDbLine
 10
-82.25775617698372
 20
117.503811389479
 30
0.0
 11
-82.73442983147106
 21
117.7125842085475
 31
0.0
  0
LINE
  5
1D1
330
1E
100
AcDbEntity
  8
0
100
AcDbLine
 10
-84.17217717352272
 20
118.8106245405178
 30
0.0
 11
-82.73418776351844
 21
117.7125842085475
 31
0.0
  0
LINE
  5
1D2
330
1E
100
AcDbEntity
  8
0
100
AcDbLine
 10
-84.17217717352272
 20
118.8106245405178
 30
0.0
 11
-82.73430879749474
 21
117.9034474415695
 31
0.0
  0
LINE
  5
1D3
330
1E
100
AcDbEntity
  8
0
100
AcDbLine
 10
-83.21086141800577
 20
117.503811389479
 30
0.0
 11
-82.73418776351844
 21
117.7125842085475
 31
0.0
  0
LINE
  5
1D4
330
1E
100
AcDbEntity
  8
0
100
AcDbLine
 10
-84.17156011298315
 20
118.8065535838418
 30
0.0
 11
-83.21086141800577
 21
117.503811389479
 31
0.0
  0
LINE
  5
1D5
330
1E
100
AcDbEntity
  8
0
100
AcDbLine
 10
-83.29780879749476
 20
117.4661974415695
 30
0.0
 11
-83.36540858308394
 21
117.4370041074864
 31
0.0
  0
LINE
  5
1D6
330
1E
100
AcDbEntity
  8
0
100
AcDbLine
 10
-82.73418776351844
 20
117.7125842085475
 30
0.0
 11
-82.73430879749474
 21
117.3721974415695
 31
0.0
  0
LINE
  5
1D7
330
1E
100
AcDbEntity
  8
0
100
AcDbLine
 10
-82.73430879749474
 20
117.2471974415695
 30
0.0
 11
-82.73430879749474
 21
116.8721974415695
 31
0.0
  0
POINT
  5
1D8
330
1E
100
AcDbEntity
  8
0
100
AcDbPoint
 10
-82.77178031518118
 20
117.5163377932559
 30
0.0
  0
POINT
  5
1D9
330
1E
100
AcDbEntity
  8
0
100
AcDbPoint
 10
-82.76760339384495
 20
117.4745832350281
 30
0.0
  0
LINE
  5
1DA
330
1E
100
AcDbEntity
  8
0
100
AcDbLine
 10
-82.73430879749474
 20
118.0284474415695
 30
0.0
 11
-82.73430879749474
 21
118.1221974415695
 31
0.0
  0
LINE
  5
1DB
330
1E
100
AcDbEntity
  8
0
100
AcDbLine
 10
-82.73418776351844
 20
117.7125842085475
 30
0.0
 11
-82.73430879749474
 21
117.9034474415695
 31
0.0
  0
POINT
  5
1DC
330
1E
100
AcDbEntity
  8
0
100
AcDbPoint
 10
-82.73430879749474
 20
117.7159474415695
 30
0.0
  0
LINE
  5
1DD
330
1E
100
AcDbEntity
  8
0
100
AcDbLine
 10
-81.29705748200635
 20
118.8065535838418
 30
0.0
 11
-82.25775617698372
 21
117.503811389479
 31
0.0
  0
LINE
  5
1DE
330
1E
100
AcDbEntity
  8
0
100
AcDbLine
 10
-82.17080879749476
 20
117.4661974415695
 30
0.0
 11
-81.04680879749475
 21
118.8406974415695
 31
0.0
  0
LINE
  5
1DF
330
1E
100
AcDbEntity
  8
0
100
AcDbLine
 10
-82.10880879749476
 20
117.4351974415695
 30
0.0
 11
-81.04680879749475
 21
118.8096974415695
 31
0.0
  0
LINE
  5
1E0
330
1E
100
AcDbEntity
  8
0
100
AcDbLine
 10
-82.17080879749476
 20
117.4661974415695
 30
0.0
 11
-82.10320901190556
 21
117.4370041074864
 31
0.0
  0
LINE
  5
1E1
330
1E
100
AcDbEntity
  8
0
100
AcDbLine
 10
-77.92144042146678
 20
118.8106245405178
 30
0.0
 11
-79.35930879749474
 21
117.9034474415695
 31
0.0
  0
LINE
  5
1E2
330
1E
100
AcDbEntity
  8
0
100
AcDbLine
 10
-77.92144042146678
 20
118.8106245405178
 30
0.0
 11
-79.35942983147106
 21
117.7125842085475
 31
0.0
  0
LINE
  5
1E3
330
1E
100
AcDbEntity
  8
0
100
AcDbLine
 10
-77.92205748200635
 20
118.8065535838418
 30
0.0
 11
-78.88275617698372
 21
117.503811389479
 31
0.0
  0
LINE
  5
1E4
330
1E
100
AcDbEntity
  8
0
100
AcDbLine
 10
-78.79580879749475
 20
117.4661974415695
 30
0.0
 11
-77.67180879749474
 21
118.8406974415695
 31
0.0
  0
LINE
  5
1E5
330
1E
100
AcDbEntity
  8
0
100
AcDbLine
 10
-78.73380879749475
 20
117.4351974415695
 30
0.0
 11
-77.67180879749474
 21
118.8096974415695
 31
0.0
  0
LINE
  5
1E6
330
1E
100
AcDbEntity
  8
0
100
AcDbLine
 10
-78.88275617698372
 20
117.503811389479
 30
0.0
 11
-79.35942983147106
 21
117.7125842085475
 31
0.0
  0
LINE
  5
1E7
330
1E
100
AcDbEntity
  8
0
100
AcDbLine
 10
-79.83586141800578
 20
117.503811389479
 30
0.0
 11
-79.35918776351845
 21
117.7125842085475
 31
0.0
  0
LINE
  5
1E8
330
1E
100
AcDbEntity
  8
0
100
AcDbLine
 10
-79.35942983147106
 20
117.7125842085475
 30
0.0
 11
-79.35930879749474
 21
117.3721974415695
 31
0.0
  0
LINE
  5
1E9
330
1E
100
AcDbEntity
  8
0
100
AcDbLine
 10
-79.92280879749475
 20
117.4661974415695
 30
0.0
 11
-79.99040858308394
 21
117.4370041074864
 31
0.0
  0
LINE
  5
1EA
330
1E
100
AcDbEntity
  8
0
100
AcDbLine
 10
-79.35930879749474
 20
117.2471974415695
 30
0.0
 11
-79.35930879749474
 21
116.8721974415695
 31
0.0
  0
POINT
  5
1EB
330
1E
100
AcDbEntity
  8
0
100
AcDbPoint
 10
-79.32601420114456
 20
117.4745832350281
 30
0.0
  0
POINT
  5
1EC
330
1E
100
AcDbEntity
  8
0
100
AcDbPoint
 10
-79.32183727980832
 20
117.5163377932559
 30
0.0
  0
LINE
  5
1ED
330
1E
100
AcDbEntity
  8
0
100
AcDbLine
 10
-79.35930879749474
 20
118.0284474415695
 30
0.0
 11
-79.35930879749474
 21
118.1221974415695
 31
0.0
  0
LINE
  5
1EE
330
1E
100
AcDbEntity
  8
0
100
AcDbLine
 10
-79.35942983147106
 20
117.7125842085475
 30
0.0
 11
-79.35930879749474
 21
117.9034474415695
 31
0.0
  0
POINT
  5
1EF
330
1E
100
AcDbEntity
  8
0
100
AcDbPoint
 10
-79.35930879749474
 20
117.7159474415695
 30
0.0
  0
LINE
  5
1F0
330
1E
100
AcDbEntity
  8
0
100
AcDbLine
 10
-78.79580879749475
 20
117.4661974415695
 30
0.0
 11
-78.72820901190556
 21
117.4370041074864
 31
0.0
  0
LINE
  5
1F1
330
1E
100
AcDbEntity
  8
0
100
AcDbLine
 10
-83.29780879749476
 20
120.5281974415695
 30
0.0
 11
-84.42180879749475
 21
125.5901974415695
 31
0.0
  0
LINE
  5
1F2
330
1E
100
AcDbEntity
  8
0
100
AcDbLine
 10
-84.42180879749475
 20
125.5591974415695
 30
0.0
 11
-83.35980879749476
 21
120.5591974415695
 31
0.0
  0
LINE
  5
1F3
330
1E
100
AcDbEntity
  8
0
100
AcDbLine
 10
-84.28049496176749
 20
118.9957703426213
 30
0.0
 11
-82.73430879749474
 21
119.9659474415695
 31
0.0
  0
LINE
  5
1F4
330
1E
100
AcDbEntity
  8
0
100
AcDbLine
 10
-83.29780879749476
 20
120.5281974415695
 30
0.0
 11
-84.42180879749475
 21
119.1536974415695
 31
0.0
  0
LINE
  5
1F5
330
1E
100
AcDbEntity
  8
0
100
AcDbLine
 10
-83.35980879749476
 20
120.5591974415695
 30
0.0
 11
-84.42180879749475
 21
119.1846974415695
 31
0.0
  0
LINE
  5
1F6
330
1E
100
AcDbEntity
  8
0
100
AcDbLine
 10
-84.29580879749476
 20
125.7471974415695
 30
0.0
 11
-82.73430879749474
 21
120.7471974415695
 31
0.0
  0
LINE
  5
1F7
330
1E
100
AcDbEntity
  8
0
100
AcDbLine
 10
-84.42180879749475
 20
125.7200921108751
 30
0.0
 11
-84.23380879749476
 21
125.7471974415695
 31
0.0
  0
DIMENSION
  5
1F8
330
1E
100
AcDbEntity
  8
XXX
100
AcDbDimension
  2
*D1
 10
-77.67180879749474
 20
126.2958858312005
 30
0.0
 11
-81.04680879749475
 21
126.2958858312005
 31
0.0
100
AcDbAlignedDimension
 13
-84.42180879749475
 23
125.7471974415695
 33
0.0
 14
-77.67180879749474
 24
125.7471974415695
 34
0.0
100
AcDbRotatedDimension
  0
LINE
  5
1F9
330
1E
100
AcDbEntity
  8
0
100
AcDbLine
 10
-84.42180879749475
 20
125.5901974415695
 30
0.0
 11
-84.42180879749475
 21
125.7200921108751
 31
0.0
  0
LINE
  5
1FA
330
1E
100
AcDbEntity
  8
0
100
AcDbLine
 10
-77.67180879749474
 20
125.5591974415695
 30
0.0
 11
-78.73380879749475
 21
120.5591974415695
 31
0.0
  0
LINE
  5
1FB
330
1E
100
AcDbEntity
  8
0
100
AcDbLine
 10
-78.79580879749475
 20
120.5281974415695
 30
0.0
 11
-77.67180879749474
 21
125.5901974415695
 31
0.0
  0
LINE
  5
1FC
330
1E
100
AcDbEntity
  8
0
100
AcDbLine
 10
-77.85980879749475
 20
125.2471974415695
 30
0.0
 11
-79.35930879749474
 21
120.6221974415695
 31
0.0
  0
LINE
  5
1FD
330
1E
100
AcDbEntity
  8
0
100
AcDbLine
 10
-77.85980879749475
 20
125.2471974415695
 30
0.0
 11
-79.35942983147106
 21
120.2818106745915
 31
0.0
  0
LINE
  5
1FE
330
1E
100
AcDbEntity
  8
0
100
AcDbLine
 10
-78.88275617698372
 20
120.4905834936601
 30
0.0
 11
-77.85940321687146
 21
125.2506029361188
 31
0.0
  0
LINE
  5
1FF
330
1E
100
AcDbEntity
  8
0
100
AcDbLine
 10
-81.04680879749475
 20
125.5591974415695
 30
0.0
 11
-79.98480879749475
 21
120.5591974415695
 31
0.0
  0
LINE
  5
200
330
1E
100
AcDbEntity
  8
0
100
AcDbLine
 10
-81.04680879749475
 20
125.5591974415695
 30
0.0
 11
-82.10880879749476
 21
120.5591974415695
 31
0.0
  0
LINE
  5
201
330
1E
100
AcDbEntity
  8
0
100
AcDbLine
 10
-82.17080879749476
 20
120.5281974415695
 30
0.0
 11
-81.04680879749475
 21
125.5901974415695
 31
0.0
  0
LINE
  5
202
330
1E
100
AcDbEntity
  8
0
100
AcDbLine
 10
-81.23480879749475
 20
125.2471974415695
 30
0.0
 11
-82.73430879749474
 21
120.6221974415695
 31
0.0
  0
LINE
  5
203
330
1E
100
AcDbEntity
  8
0
100
AcDbLine
 10
-81.23480879749475
 20
125.2471974415695
 30
0.0
 11
-82.73442983147106
 21
120.2818106745915
 31
0.0
  0
LINE
  5
204
330
1E
100
AcDbEntity
  8
0
100
AcDbLine
 10
-82.25775617698372
 20
120.4905834936601
 30
0.0
 11
-81.23440321687146
 21
125.2506029361188
 31
0.0
  0
LINE
  5
205
330
1E
100
AcDbEntity
  8
0
100
AcDbLine
 10
-83.21086141800577
 20
120.4905834936601
 30
0.0
 11
-84.23421437811805
 21
125.2506029361188
 31
0.0
  0
LINE
  5
206
330
1E
100
AcDbEntity
  8
0
100
AcDbLine
 10
-84.23380879749476
 20
125.2471974415695
 30
0.0
 11
-82.73418776351844
 21
120.2818106745915
 31
0.0
  0
LINE
  5
207
330
1E
100
AcDbEntity
  8
0
100
AcDbLine
 10
-84.23380879749476
 20
125.2471974415695
 30
0.0
 11
-82.73430879749474
 21
120.6221974415695
 31
0.0
  0
LINE
  5
208
330
1E
100
AcDbEntity
  8
0
100
AcDbLine
 10
-79.83586141800578
 20
120.4905834936601
 30
0.0
 11
-80.85921437811805
 21
125.2506029361188
 31
0.0
  0
LINE
  5
209
330
1E
100
AcDbEntity
  8
0
100
AcDbLine
 10
-80.85880879749476
 20
125.2471974415695
 30
0.0
 11
-79.35918776351845
 21
120.2818106745915
 31
0.0
  0
LINE
  5
20A
330
1E
100
AcDbEntity
  8
0
100
AcDbLine
 10
-80.85880879749476
 20
125.2471974415695
 30
0.0
 11
-79.35930879749474
 21
120.6221974415695
 31
0.0
  0
LINE
  5
20B
330
1E
100
AcDbEntity
  8
0
100
AcDbLine
 10
-79.92280879749475
 20
120.5281974415695
 30
0.0
 11
-81.04680879749475
 21
125.5901974415695
 31
0.0
  0
LINE
  5
20C
330
1E
100
AcDbEntity
  8
0
100
AcDbLine
 10
-84.23380879749476
 20
125.7471974415695
 30
0.0
 11
-82.73430879749474
 21
121.1221974415695
 31
0.0
  0
LINE
  5
20D
330
1E
100
AcDbEntity
  8
0
100
AcDbLine
 10
-77.85980879749475
 20
125.7471974415695
 30
0.0
 11
-79.35930879749474
 21
121.1221974415695
 31
0.0
  0
LINE
  5
20E
330
1E
100
AcDbEntity
  8
0
100
AcDbLine
 10
-77.79780879749475
 20
125.7471974415695
 30
0.0
 11
-79.35930879749474
 21
120.7471974415695
 31
0.0
  0
LINE
  5
20F
330
1E
100
AcDbEntity
  8
0
100
AcDbLine
 10
-81.23480879749475
 20
125.7471974415695
 30
0.0
 11
-82.73430879749474
 21
121.1221974415695
 31
0.0
  0
LINE
  5
210
330
1E
100
AcDbEntity
  8
0
100
AcDbLine
 10
-81.17280879749475
 20
125.7471974415695
 30
0.0
 11
-82.73430879749474
 21
120.7471974415695
 31
0.0
  0
LINE
  5
211
330
1E
100
AcDbEntity
  8
0
100
AcDbLine
 10
-80.92080879749476
 20
125.7471974415695
 30
0.0
 11
-79.35930879749474
 21
120.7471974415695
 31
0.0
  0
LINE
  5
212
330
1E
100
AcDbEntity
  8
0
100
AcDbLine
 10
-80.85880879749476
 20
125.7471974415695
 30
0.0
 11
-79.35930879749474
 21
121.1221974415695
 31
0.0
  0
LINE
  5
213
330
1E
100
AcDbEntity
  8
0
100
AcDbLine
 10
-79.98480879749475
 20
120.5591974415695
 30
0.0
 11
-81.04680879749475
 21
119.1846974415695
 31
0.0
  0
LINE
  5
214
330
1E
100
AcDbEntity
  8
0
100
AcDbLine
 10
-79.92280879749475
 20
120.5281974415695
 30
0.0
 11
-81.04680879749475
 21
119.1536974415695
 31
0.0
  0
LINE
  5
215
330
1E
100
AcDbEntity
  8
0
100
AcDbLine
 10
-80.90549496176748
 20
118.9957703426213
 30
0.0
 11
-79.35930879749474
 21
119.9659474415695
 31
0.0
  0
LINE
  5
216
330
1E
100
AcDbEntity
  8
0
100
AcDbLine
 10
-80.79656011298316
 20
119.1878412992972
 30
0.0
 11
-79.83586141800578
 21
120.4905834936601
 31
0.0
  0
LINE
  5
217
330
1E
100
AcDbEntity
  8
0
100
AcDbLine
 10
-80.79717717352272
 20
119.1837703426213
 30
0.0
 11
-79.35930879749474
 21
120.0909474415695
 31
0.0
  0
LINE
  5
218
330
1E
100
AcDbEntity
  8
0
100
AcDbLine
 10
-80.79717717352272
 20
119.1837703426213
 30
0.0
 11
-79.35918776351845
 21
120.2818106745915
 31
0.0
  0
LINE
  5
219
330
1E
100
AcDbEntity
  8
0
100
AcDbLine
 10
-80.85880879749476
 20
118.9971974415695
 30
0.0
 11
-79.35930879749474
 21
119.8721974415695
 31
0.0
  0
LINE
  5
21A
330
1E
100
AcDbEntity
  8
0
100
AcDbLine
 10
-81.23480879749475
 20
118.9971974415695
 30
0.0
 11
-82.73430879749474
 21
119.8721974415695
 31
0.0
  0
LINE
  5
21B
330
1E
100
AcDbEntity
  8
0
100
AcDbLine
 10
-81.18812263322203
 20
118.9957703426213
 30
0.0
 11
-82.73430879749474
 21
119.9659474415695
 31
0.0
  0
LINE
  5
21C
330
1E
100
AcDbEntity
  8
0
100
AcDbLine
 10
-81.29644042146679
 20
119.1837703426213
 30
0.0
 11
-82.73442983147106
 21
120.2818106745915
 31
0.0
  0
LINE
  5
21D
330
1E
100
AcDbEntity
  8
0
100
AcDbLine
 10
-81.29644042146679
 20
119.1837703426213
 30
0.0
 11
-82.73430879749474
 21
120.0909474415695
 31
0.0
  0
LINE
  5
21E
330
1E
100
AcDbEntity
  8
0
100
AcDbLine
 10
-82.25775617698372
 20
120.4905834936601
 30
0.0
 11
-82.73442983147106
 21
120.2818106745915
 31
0.0
  0
LINE
  5
21F
330
1E
100
AcDbEntity
  8
0
100
AcDbLine
 10
-83.21086141800577
 20
120.4905834936601
 30
0.0
 11
-82.73418776351844
 21
120.2818106745915
 31
0.0
  0
LINE
  5
220
330
1E
100
AcDbEntity
  8
0
100
AcDbLine
 10
-84.23380879749476
 20
118.9971974415695
 30
0.0
 11
-82.73430879749474
 21
119.8721974415695
 31
0.0
  0
LINE
  5
221
330
1E
100
AcDbEntity
  8
0
100
AcDbLine
 10
-84.17217717352272
 20
119.1837703426213
 30
0.0
 11
-82.73430879749474
 21
120.0909474415695
 31
0.0
  0
LINE
  5
222
330
1E
100
AcDbEntity
  8
0
100
AcDbLine
 10
-84.17217717352272
 20
119.1837703426213
 30
0.0
 11
-82.73418776351844
 21
120.2818106745915
 31
0.0
  0
LINE
  5
223
330
1E
100
AcDbEntity
  8
0
100
AcDbLine
 10
-84.17156011298315
 20
119.1878412992972
 30
0.0
 11
-83.21086141800577
 21
120.4905834936601
 31
0.0
  0
LINE
  5
224
330
1E
100
AcDbEntity
  8
0
100
AcDbLine
 10
-83.29780879749476
 20
120.5281974415695
 30
0.0
 11
-83.36540858308394
 21
120.5573907756526
 31
0.0
  0
LINE
  5
225
330
1E
100
AcDbEntity
  8
0
100
AcDbLine
 10
-82.73418776351844
 20
120.2818106745915
 30
0.0
 11
-82.73430879749474
 21
120.0909474415695
 31
0.0
  0
LINE
  5
226
330
1E
100
AcDbEntity
  8
0
100
AcDbLine
 10
-82.73430879749474
 20
119.9659474415695
 30
0.0
 11
-82.73430879749474
 21
119.8721974415695
 31
0.0
  0
POINT
  5
227
330
1E
100
AcDbEntity
  8
0
100
AcDbPoint
 10
-82.73430879749474
 20
120.2784474415695
 30
0.0
  0
POINT
  5
228
330
1E
100
AcDbEntity
  8
0
100
AcDbPoint
 10
-82.76760339384495
 20
120.5198116481109
 30
0.0
  0
POINT
  5
229
330
1E
100
AcDbEntity
  8
0
100
AcDbPoint
 10
-82.77178031518118
 20
120.4780570898832
 30
0.0
  0
LINE
  5
22A
330
1E
100
AcDbEntity
  8
0
100
AcDbLine
 10
-82.73418776351844
 20
120.2818106745915
 30
0.0
 11
-82.73430879749474
 21
120.6221974415695
 31
0.0
  0
LINE
  5
22B
330
1E
100
AcDbEntity
  8
0
100
AcDbLine
 10
-82.73430879749474
 20
120.7471974415695
 30
0.0
 11
-82.73430879749474
 21
121.1221974415695
 31
0.0
  0
LINE
  5
22C
330
1E
100
AcDbEntity
  8
0
100
AcDbLine
 10
-81.29705748200635
 20
119.1878412992972
 30
0.0
 11
-82.25775617698372
 21
120.4905834936601
 31
0.0
  0
LINE
  5
22D
330
1E
100
AcDbEntity
  8
0
100
AcDbLine
 10
-82.10880879749476
 20
120.5591974415695
 30
0.0
 11
-81.04680879749475
 21
119.1846974415695
 31
0.0
  0
LINE
  5
22E
330
1E
100
AcDbEntity
  8
0
100
AcDbLine
 10
-82.17080879749476
 20
120.5281974415695
 30
0.0
 11
-81.04680879749475
 21
119.1536974415695
 31
0.0
  0
LINE
  5
22F
330
1E
100
AcDbEntity
  8
0
100
AcDbLine
 10
-82.17080879749476
 20
120.5281974415695
 30
0.0
 11
-82.10320901190556
 21
120.5573907756526
 31
0.0
  0
LINE
  5
230
330
1E
100
AcDbEntity
  8
0
100
AcDbLine
 10
-77.85980879749475
 20
118.9971974415695
 30
0.0
 11
-79.35930879749474
 21
119.8721974415695
 31
0.0
  0
LINE
  5
231
330
1E
100
AcDbEntity
  8
0
100
AcDbLine
 10
-77.81312263322202
 20
118.9957703426213
 30
0.0
 11
-79.35930879749474
 21
119.9659474415695
 31
0.0
  0
LINE
  5
232
330
1E
100
AcDbEntity
  8
0
100
AcDbLine
 10
-77.92144042146678
 20
119.1837703426213
 30
0.0
 11
-79.35942983147106
 21
120.2818106745915
 31
0.0
  0
LINE
  5
233
330
1E
100
AcDbEntity
  8
0
100
AcDbLine
 10
-77.92144042146678
 20
119.1837703426213
 30
0.0
 11
-79.35930879749474
 21
120.0909474415695
 31
0.0
  0
LINE
  5
234
330
1E
100
AcDbEntity
  8
0
100
AcDbLine
 10
-78.73380879749475
 20
120.5591974415695
 30
0.0
 11
-77.67180879749474
 21
119.1846974415695
 31
0.0
  0
LINE
  5
235
330
1E
100
AcDbEntity
  8
0
100
AcDbLine
 10
-78.79580879749475
 20
120.5281974415695
 30
0.0
 11
-77.67180879749474
 21
119.1536974415695
 31
0.0
  0
LINE
  5
236
330
1E
100
AcDbEntity
  8
0
100
AcDbLine
 10
-77.92205748200635
 20
119.1878412992972
 30
0.0
 11
-78.88275617698372
 21
120.4905834936601
 31
0.0
  0
LINE
  5
237
330
1E
100
AcDbEntity
  8
0
100
AcDbLine
 10
-78.88275617698372
 20
120.4905834936601
 30
0.0
 11
-79.35942983147106
 21
120.2818106745915
 31
0.0
  0
LINE
  5
238
330
1E
100
AcDbEntity
  8
0
100
AcDbLine
 10
-79.92280879749475
 20
120.5281974415695
 30
0.0
 11
-79.99040858308394
 21
120.5573907756526
 31
0.0
  0
LINE
  5
239
330
1E
100
AcDbEntity
  8
0
100
AcDbLine
 10
-79.35942983147106
 20
120.2818106745915
 30
0.0
 11
-79.35930879749474
 21
120.0909474415695
 31
0.0
  0
LINE
  5
23A
330
1E
100
AcDbEntity
  8
0
100
AcDbLine
 10
-79.35930879749474
 20
119.9659474415695
 30
0.0
 11
-79.35930879749474
 21
119.8721974415695
 31
0.0
  0
LINE
  5
23B
330
1E
100
AcDbEntity
  8
0
100
AcDbLine
 10
-79.83586141800578
 20
120.4905834936601
 30
0.0
 11
-79.35918776351845
 21
120.2818106745915
 31
0.0
  0
POINT
  5
23C
330
1E
100
AcDbEntity
  8
0
100
AcDbPoint
 10
-79.35930879749474
 20
120.2784474415695
 30
0.0
  0
POINT
  5
23D
330
1E
100
AcDbEntity
  8
0
100
AcDbPoint
 10
-79.32183727980832
 20
120.4780570898832
 30
0.0
  0
POINT
  5
23E
330
1E
100
AcDbEntity
  8
0
100
AcDbPoint
 10
-79.32601420114456
 20
120.5198116481109
 30
0.0
  0
LINE
  5
23F
330
1E
100
AcDbEntity
  8
0
100
AcDbLine
 10
-79.35942983147106
 20
120.2818106745915
 30
0.0
 11
-79.35930879749474
 21
120.6221974415695
 31
0.0
  0
LINE
  5
240
330
1E
100
AcDbEntity
  8
0
100
AcDbLine
 10
-78.79580879749475
 20
120.5281974415695
 30
0.0
 11
-78.72820901190556
 21
120.5573907756526
 31
0.0
  0
LINE
  5
241
330
1E
100
AcDbEntity
  8
0
100
AcDbLine
 10
-79.35930879749474
 20
120.7471974415695
 30
0.0
 11
-79.35930879749474
 21
121.1221974415695
 31
0.0
  0
LINE
  5
242
330
1E
100
AcDbEntity
  8
0
100
AcDbLine
 10
-81.23480879749475
 20
125.7471974415695
 30
0.0
 11
-80.85880879749476
 21
125.7471974415695
 31
0.0
  0
LINE
  5
243
330
1E
100
AcDbEntity
  8
0
100
AcDbLine
 10
-77.67180879749474
 20
125.5901974415695
 30
0.0
 11
-77.67180879749474
 21
125.7200921108751
 31
0.0
  0
LINE
  5
244
330
1E
100
AcDbEntity
  8
0
100
AcDbLine
 10
-77.85980879749475
 20
125.7471974415695
 30
0.0
 11
-77.67180879749474
 21
125.7471974415695
 31
0.0
  0
TEXT
  5
248
330
1E
100
AcDbEntity
  8
ADPDIM
100
AcDbText
 10
-107.1497248957212
 20
97.26934896555052
 30
0.0
 40
0.5
  1
J U L I U S  B L U M  &  C O . ,  I N C .      ( 8 0 0 )  5 2 6 - 6 2 9 3        W W W . J U L I U S B L U M . C O M        P A R T  N o .  1 5 4 2
 41
1.25
  7
ARIAL_WIDE
 72
     1
 11
-81.04680879749475
 21
97.76934896555053
 31
0.0
100
AcDbText
 73
     3
  0
ENDSEC
  0
SECTION
  2
OBJECTS
  0
DICTIONARY
  5
C
330
0
100
AcDbDictionary
  3
ACAD_GROUP
350
D
  3
ACAD_LAYOUT
350
19
  3
ACAD_MLINESTYLE
350
16
  3
ACAD_PLOTSETTINGS
350
18
  3
ACAD_PLOTSTYLENAME
350
E
  3
ACDBHEADERROUNDTRIPXREC
350
415
  3
ACDBVARIABLEDICTIONARY
350
2B9
  0
DICTIONARY
  5
284
330
1E
100
AcDbDictionary
280
     1
  3
ACAD_LAYOUTSELFREF
360
437
  0
DICTIONARY
  5
286
330
1A
100
AcDbDictionary
280
     1
  3
ACAD_LAYOUTSELFREF
360
436
  0
DICTIONARY
  5
D
102
{ACAD_REACTORS
330
C
102
}
330
C
100
AcDbDictionary
  0
DICTIONARY
  5
19
102
{ACAD_REACTORS
330
C
102
}
330
C
100
AcDbDictionary
  0
DICTIONARY
  5
16
102
{ACAD_REACTORS
330
C
102
}
330
C
100
AcDbDictionary
  3
STANDARD
350
17
  0
DICTIONARY
  5
18
102
{ACAD_REACTORS
330
C
102
}
330
C
100
AcDbDictionary
  0
ACDBDICTIONARYWDFLT
  5
E
102
{ACAD_REACTORS
330
C
102
}
330
C
100
AcDbDictionary
281
     1
  3
Normal
350
F
100
AcDbDictionaryWithDefault
340
F
  0
DICTIONARY
  5
415
102
{ACAD_REACTORS
330
C
102
}
330
C
100
AcDbDictionary
  3
CEPSNTYPE
350
41F
  3
DIMSTYLEDATA
350
423
  3
FINGERPRINTGUID
350
420
  3
HYPERLINKBASE
350
418
  3
INSUNITS
350
41E
  3
LAYOUTDICT
350
41A
  3
LWETCUNION
350
41D
  3
PLOTSETDICT
350
41B
  3
PLOTSTYLNAMDICT
350
41C
  3
PSVPSCALE
350
422
  3
PUCSBASE
350
426
  3
PUCSORGBACK
350
42C
  3
PUCSORGBOTTOM
350
428
  3
PUCSORGFRONT
350
42B
  3
PUCSORGLEFT
350
429
  3
PUCSORGRIGHT
350
42A
  3
PUCSORGTOP
350
427
  3
PUCSORTHOREF
350
424
  3
PUCSORTHOVIEW
350
425
  3
STYLESHEET
350
419
  3
TSTACKALIGN
350
416
  3
TSTACKSIZE
350
417
  3
UCSBASE
350
42F
  3
UCSORGBACK
350
435
  3
UCSORGBOTTOM
350
431
  3
UCSORGFRONT
350
434
  3
UCSORGLEFT
350
432
  3
UCSORGRIGHT
350
433
  3
UCSORGTOP
350
430
  3
UCSORTHOREF
350
42D
  3
UCSORTHOVIEW
350
42E
  3
VERSIONGUID
350
421
  0
DICTIONARY
  5
2B9
102
{ACAD_REACTORS
330
C
102
}
330
C
100
AcDbDictionary
  3
DIMASSOC
350
2BB
  3
HIDETEXT
350
2BA
  0
XRECORD
  5
437
102
{ACAD_REACTORS
330
284
102
}
330
284
100
AcDbXrecord
340
1E
  0
XRECORD
  5
436
102
{ACAD_REACTORS
330
286
102
}
330
286
100
AcDbXrecord
340
1A
  0
MLINESTYLE
  5
17
102
{ACAD_REACTORS
330
16
102
}
330
16
100
AcDbMlineStyle
  2
STANDARD
 70
     0
  3

 62
   256
 51
90.0
 52
90.0
 71
     2
 49
0.5
 62
   256
  6
BYLAYER
 49
-0.5
 62
   256
  6
BYLAYER
  0
ACDBPLACEHOLDER
  5
F
102
{ACAD_REACTORS
330
E
102
}
330
E
100
AcDbPlaceHolder
280
     0
  0
XRECORD
  5
41F
102
{ACAD_REACTORS
330
415
102
}
330
415
100
AcDbXrecord
 90
        0
  0
XRECORD
  5
423
102
{ACAD_REACTORS
330
415
102
}
330
415
100
AcDbXrecord
1000
DSTYLE
1002
{
1070
   277
 70
     5
1070
   279
 70
     2
1002
}
  0
XRECORD
  5
420
102
{ACAD_REACTORS
330
415
102
}
330
415
100
AcDbXrecord
  1
{50104F52-5BCA-4E16-9AC3-9C3A77DB9F9A}
  0
XRECORD
  5
418
102
{ACAD_REACTORS
330
415
102
}
330
415
100
AcDbXrecord
  1

  0
XRECORD
  5
41E
102
{ACAD_REACTORS
330
415
102
}
330
415
100
AcDbXrecord
 90
        0
  0
XRECORD
  5
41A
102
{ACAD_REACTORS
330
415
102
}
330
415
100
AcDbXrecord
340
19
  0
XRECORD
  5
41D
102
{ACAD_REACTORS
330
415
102
}
330
415
100
AcDbXrecord
 90
    14877
  0
XRECORD
  5
41B
102
{ACAD_REACTORS
330
415
102
}
330
415
100
AcDbXrecord
340
18
  0
XRECORD
  5
41C
102
{ACAD_REACTORS
330
415
102
}
330
415
100
AcDbXrecord
340
E
  0
XRECORD
  5
422
102
{ACAD_REACTORS
330
415
102
}
330
415
100
AcDbXrecord
 40
0.0
  0
XRECORD
  5
426
102
{ACAD_REACTORS
330
415
102
}
330
415
100
AcDbXrecord
340
0
  0
XRECORD
  5
42C
102
{ACAD_REACTORS
330
415
102
}
330
415
100
AcDbXrecord
 10
0.0
 20
0.0
 30
0.0
  0
XRECORD
  5
428
102
{ACAD_REACTORS
330
415
102
}
330
415
100
AcDbXrecord
 10
0.0
 20
0.0
 30
0.0
  0
XRECORD
  5
42B
102
{ACAD_REACTORS
330
415
102
}
330
415
100
AcDbXrecord
 10
0.0
 20
0.0
 30
0.0
  0
XRECORD
  5
429
102
{ACAD_REACTORS
330
415
102
}
330
415
100
AcDbXrecord
 10
0.0
 20
0.0
 30
0.0
  0
XRECORD
  5
42A
102
{ACAD_REACTORS
330
415
102
}
330
415
100
AcDbXrecord
 10
0.0
 20
0.0
 30
0.0
  0
XRECORD
  5
427
102
{ACAD_REACTORS
330
415
102
}
330
415
100
AcDbXrecord
 10
0.0
 20
0.0
 30
0.0
  0
XRECORD
  5
424
102
{ACAD_REACTORS
330
415
102
}
330
415
100
AcDbXrecord
340
0
  0
XRECORD
  5
425
102
{ACAD_REACTORS
330
415
102
}
330
415
100
AcDbXrecord
 70
     0
  0
XRECORD
  5
419
102
{ACAD_REACTORS
330
415
102
}
330
415
100
AcDbXrecord
  1

  0
XRECORD
  5
416
102
{ACAD_REACTORS
330
415
102
}
330
415
100
AcDbXrecord
 90
        1
  0
XRECORD
  5
417
102
{ACAD_REACTORS
330
415
102
}
330
415
100
AcDbXrecord
 90
       70
  0
XRECORD
  5
42F
102
{ACAD_REACTORS
330
415
102
}
330
415
100
AcDbXrecord
340
0
  0
XRECORD
  5
435
102
{ACAD_REACTORS
330
415
102
}
330
415
100
AcDbXrecord
 10
0.0
 20
0.0
 30
0.0
  0
XRECORD
  5
431
102
{ACAD_REACTORS
330
415
102
}
330
415
100
AcDbXrecord
 10
0.0
 20
0.0
 30
0.0
  0
XRECORD
  5
434
102
{ACAD_REACTORS
330
415
102
}
330
415
100
AcDbXrecord
 10
0.0
 20
0.0
 30
0.0
  0
XRECORD
  5
432
102
{ACAD_REACTORS
330
415
102
}
330
415
100
AcDbXrecord
 10
0.0
 20
0.0
 30
0.0
  0
XRECORD
  5
433
102
{ACAD_REACTORS
330
415
102
}
330
415
100
AcDbXrecord
 10
0.0
 20
0.0
 30
0.0
  0
XRECORD
  5
430
102
{ACAD_REACTORS
330
415
102
}
330
415
100
AcDbXrecord
 10
0.0
 20
0.0
 30
0.0
  0
XRECORD
  5
42D
102
{ACAD_REACTORS
330
415
102
}
330
415
100
AcDbXrecord
340
0
  0
XRECORD
  5
42E
102
{ACAD_REACTORS
330
415
102
}
330
415
100
AcDbXrecord
 70
     0
  0
XRECORD
  5
421
102
{ACAD_REACTORS
330
415
102
}
330
415
100
AcDbXrecord
  1
{C2608954-B18D-4763-8DD4-E19614CCE65D}
  0
DICTIONARYVAR
  5
2BB
102
{ACAD_REACTORS
330
2B9
102
}
330
2B9
100
DictionaryVariables
280
     0
  1
2
  0
DICTIONARYVAR
  5
2BA
102
{ACAD_REACTORS
330
2B9
102
}
330
2B9
100
DictionaryVariables
280
     0
  1
1
  0
ENDSEC
  0
EOF
