  0
SECTION
  2
HEADER
  9
$ACADVER
  1
AC1015
  9
$ACADMAINTVER
 70
    20
  9
$DWGCODEPAGE
  3
ANSI_1252
  9
$INSBASE
 10
10.65563173960408
 20
3.712583469811105
 30
0.0
  9
$EXTMIN
 10
-22.14554031968544
 20
-0.2252203931665913
 30
0.0
  9
$EXTMAX
 10
42.44347741564881
 20
42.03306930097529
 30
0.0
  9
$LIMMIN
 10
0.0
 20
0.0
  9
$LIMMAX
 10
36.0
 20
36.0
  9
$ORTHOMODE
 70
     0
  9
$REGENMODE
 70
     1
  9
$FILLMODE
 70
     1
  9
$QTEXTMODE
 70
     0
  9
$MIRRTEXT
 70
     1
  9
$LTSCALE
 40
1.0
  9
$ATTMODE
 70
     1
  9
$TEXTSIZE
 40
0.2
  9
$TRACEWID
 40
0.05
  9
$TEXTSTYLE
  7
STANDARD
  9
$CLAYER
  8
0
  9
$CELTYPE
  6
BYLAYER
  9
$CECOLOR
 62
   256
  9
$CELTSCALE
 40
1.0
  9
$DISPSILH
 70
     0
  9
$DIMSCALE
 40
1.0
  9
$DIMASZ
 40
0.125
  9
$DIMEXO
 40
0.0625
  9
$DIMDLI
 40
0.38
  9
$DIMRND
 40
0.0
  9
$DIMDLE
 40
0.0
  9
$DIMEXE
 40
0.18
  9
$DIMTP
 40
0.0
  9
$DIMTM
 40
0.0
  9
$DIMTXT
 40
0.125
  9
$DIMCEN
 40
0.1875
  9
$DIMTSZ
 40
0.125
  9
$DIMTOL
 70
     0
  9
$DIMLIM
 70
     0
  9
$DIMTIH
 70
     0
  9
$DIMTOH
 70
     0
  9
$DIMSE1
 70
     0
  9
$DIMSE2
 70
     0
  9
$DIMTAD
 70
     0
  9
$DIMZIN
 70
     3
  9
$DIMBLK
  1

  9
$DIMASO
 70
     1
  9
$DIMSHO
 70
     1
  9
$DIMPOST
  1

  9
$DIMAPOST
  1

  9
$DIMALT
 70
     0
  9
$DIMALTD
 70
     1
  9
$DIMALTF
 40
25.4
  9
$DIMLFAC
 40
1.0
  9
$DIMTOFL
 70
     0
  9
$DIMTVP
 40
0.0
  9
$DIMTIX
 70
     0
  9
$DIMSOXD
 70
     0
  9
$DIMSAH
 70
     0
  9
$DIMBLK1
  1

  9
$DIMBLK2
  1

  9
$DIMSTYLE
  2
STANDARD
  9
$DIMCLRD
 70
     0
  9
$DIMCLRE
 70
     0
  9
$DIMCLRT
 70
     0
  9
$DIMTFAC
 40
1.0
  9
$DIMGAP
 40
0.125
  9
$DIMJUST
 70
     0
  9
$DIMSD1
 70
     0
  9
$DIMSD2
 70
     0
  9
$DIMTOLJ
 70
     1
  9
$DIMTZIN
 70
     3
  9
$DIMALTZ
 70
     3
  9
$DIMALTTZ
 70
     3
  9
$DIMUPT
 70
     0
  9
$DIMDEC
 70
     4
  9
$DIMTDEC
 70
     4
  9
$DIMALTU
 70
     5
  9
$DIMALTTD
 70
     1
  9
$DIMTXSTY
  7
STANDARD
  9
$DIMAUNIT
 70
     0
  9
$DIMADEC
 70
     0
  9
$DIMALTRND
 40
0.0
  9
$DIMAZIN
 70
     0
  9
$DIMDSEP
 70
    46
  9
$DIMATFIT
 70
     3
  9
$DIMFRAC
 70
     0
  9
$DIMLDRBLK
  1

  9
$DIMLUNIT
 70
     5
  9
$DIMLWD
 70
    -2
  9
$DIMLWE
 70
    -2
  9
$DIMTMOVE
 70
     2
  9
$LUNITS
 70
     5
  9
$LUPREC
 70
     4
  9
$SKETCHINC
 40
0.1
  9
$FILLETRAD
 40
0.062
  9
$AUNITS
 70
     0
  9
$AUPREC
 70
     0
  9
$MENU
  1
acad
  9
$ELEVATION
 40
0.0
  9
$PELEVATION
 40
0.0
  9
$THICKNESS
 40
0.0
  9
$LIMCHECK
 70
     0
  9
$CHAMFERA
 40
0.0
  9
$CHAMFERB
 40
0.0
  9
$CHAMFERC
 40
0.0
  9
$CHAMFERD
 40
0.0
  9
$SKPOLY
 70
     0
  9
$TDCREATE
 40
2450373.694326574
  9
$TDUCREATE
 40
2450373.860993241
  9
$TDUPDATE
 40
2453944.982099317
  9
$TDUUPDATE
 40
2453945.148765984
  9
$TDINDWG
 40
0.0152086574
  9
$TDUSRTIMER
 40
0.0152086574
  9
$USRTIMER
 70
     1
  9
$ANGBASE
 50
0.0
  9
$ANGDIR
 70
     0
  9
$PDMODE
 70
     0
  9
$PDSIZE
 40
0.0
  9
$PLINEWID
 40
0.0
  9
$SPLFRAME
 70
     0
  9
$SPLINETYPE
 70
     6
  9
$SPLINESEGS
 70
     8
  9
$HANDSEED
  5
285
  9
$SURFTAB1
 70
     6
  9
$SURFTAB2
 70
     6
  9
$SURFTYPE
 70
     6
  9
$SURFU
 70
     6
  9
$SURFV
 70
     6
  9
$UCSBASE
  2

  9
$UCSNAME
  2

  9
$UCSORG
 10
0.0
 20
0.0
 30
0.0
  9
$UCSXDIR
 10
1.0
 20
0.0
 30
0.0
  9
$UCSYDIR
 10
0.0
 20
1.0
 30
0.0
  9
$UCSORTHOREF
  2

  9
$UCSORTHOVIEW
 70
     0
  9
$UCSORGTOP
 10
0.0
 20
0.0
 30
0.0
  9
$UCSORGBOTTOM
 10
0.0
 20
0.0
 30
0.0
  9
$UCSORGLEFT
 10
0.0
 20
0.0
 30
0.0
  9
$UCSORGRIGHT
 10
0.0
 20
0.0
 30
0.0
  9
$UCSORGFRONT
 10
0.0
 20
0.0
 30
0.0
  9
$UCSORGBACK
 10
0.0
 20
0.0
 30
0.0
  9
$PUCSBASE
  2

  9
$PUCSNAME
  2

  9
$PUCSORG
 10
0.0
 20
0.0
 30
0.0
  9
$PUCSXDIR
 10
1.0
 20
0.0
 30
0.0
  9
$PUCSYDIR
 10
0.0
 20
1.0
 30
0.0
  9
$PUCSORTHOREF
  2

  9
$PUCSORTHOVIEW
 70
     0
  9
$PUCSORGTOP
 10
0.0
 20
0.0
 30
0.0
  9
$PUCSORGBOTTOM
 10
0.0
 20
0.0
 30
0.0
  9
$PUCSORGLEFT
 10
0.0
 20
0.0
 30
0.0
  9
$PUCSORGRIGHT
 10
0.0
 20
0.0
 30
0.0
  9
$PUCSORGFRONT
 10
0.0
 20
0.0
 30
0.0
  9
$PUCSORGBACK
 10
0.0
 20
0.0
 30
0.0
  9
$USERI1
 70
     0
  9
$USERI2
 70
     0
  9
$USERI3
 70
     0
  9
$USERI4
 70
     0
  9
$USERI5
 70
     0
  9
$USERR1
 40
0.0
  9
$USERR2
 40
0.0
  9
$USERR3
 40
0.0
  9
$USERR4
 40
0.0
  9
$USERR5
 40
0.0
  9
$WORLDVIEW
 70
     1
  9
$SHADEDGE
 70
     3
  9
$SHADEDIF
 70
    70
  9
$TILEMODE
 70
     1
  9
$MAXACTVP
 70
    15
  9
$PINSBASE
 10
1.667196317885515E+99
 20
2.439420651286265E+99
 30
0.0
  9
$PLIMCHECK
 70
     0
  9
$PEXTMIN
 10
1.000000000000000E+20
 20
1.000000000000000E+20
 30
1.000000000000000E+20
  9
$PEXTMAX
 10
-1.000000000000000E+20
 20
-1.000000000000000E+20
 30
-1.000000000000000E+20
  9
$PLIMMIN
 10
0.0
 20
0.0
  9
$PLIMMAX
 10
12.0
 20
9.0
  9
$UNITMODE
 70
     0
  9
$VISRETAIN
 70
     0
  9
$PLINEGEN
 70
     0
  9
$PSLTSCALE
 70
     1
  9
$TREEDEPTH
 70
  3020
  9
$CMLSTYLE
  2
STANDARD
  9
$CMLJUST
 70
     0
  9
$CMLSCALE
 40
1.0
  9
$PROXYGRAPHICS
 70
     1
  9
$MEASUREMENT
 70
     0
  9
$CELWEIGHT
370
    -1
  9
$ENDCAPS
280
     0
  9
$JOINSTYLE
280
     0
  9
$LWDISPLAY
290
     0
  9
$INSUNITS
 70
     0
  9
$HYPERLINKBASE
  1

  9
$STYLESHEET
  1

  9
$XEDIT
290
     1
  9
$CEPSNTYPE
380
     0
  9
$PSTYLEMODE
290
     1
  9
$FINGERPRINTGUID
  2
{9BDEFF70-AE02-41E7-A972-2777879D3743}
  9
$VERSIONGUID
  2
{50398BF5-F32F-45DC-ACE7-E538BCA408B1}
  9
$EXTNAMES
290
     1
  9
$PSVPSCALE
 40
0.0
  9
$OLESTARTUP
290
     0
  0
ENDSEC
  0
SECTION
  2
CLASSES
  0
CLASS
  1
DICTIONARYVAR
  2
AcDbDictionaryVar
  3
ObjectDBX Classes
 90
        0
280
     0
281
     0
  0
CLASS
  1
ACDBDICTIONARYWDFLT
  2
AcDbDictionaryWithDefault
  3
ObjectDBX Classes
 90
        0
280
     0
281
     0
  0
CLASS
  1
ACDBPLACEHOLDER
  2
AcDbPlaceHolder
  3
ObjectDBX Classes
 90
        0
280
     0
281
     0
  0
CLASS
  1
LAYOUT
  2
AcDbLayout
  3
ObjectDBX Classes
 90
        0
280
     0
281
     0
  0
CLASS
  1
MATERIAL
  2
AcDbMaterial
  3
ObjectDBX Classes
 90
     1024
280
     0
281
     0
  0
CLASS
  1
VISUALSTYLE
  2
AcDbVisualStyle
  3
ObjectDBX Classes
 90
     4095
280
     0
281
     0
  0
CLASS
  1
TABLESTYLE
  2
AcDbTableStyle
  3
ObjectDBX Classes
 90
     4095
280
     0
281
     0
  0
ENDSEC
  0
SECTION
  2
TABLES
  0
TABLE
  2
VPORT
  5
8
330
0
100
AcDbSymbolTable
 70
     1
  0
VPORT
  5
199
330
8
100
AcDbSymbolTableRecord
100
AcDbViewportTableRecord
  2
*Active
 70
     0
 10
0.0
 20
0.0
 11
1.0
 21
1.0
 12
13.29338103439303
 22
37.27964949703502
 13
0.0
 23
0.0
 14
0.5740882589684922
 24
0.5740882589684922
 15
0.5
 25
0.5
 16
0.0
 26
0.0
 36
1.0
 17
0.0
 27
0.0
 37
0.0
 40
16.56872546631406
 41
2.023012552301255
 42
50.0
 43
0.0
 44
0.0
 50
0.0
 51
0.0
 71
     0
 72
   100
 73
     1
 74
     0
 75
     0
 76
     0
 77
     0
 78
     0
281
     0
 65
     1
110
0.0
120
0.0
130
0.0
111
1.0
121
0.0
131
0.0
112
0.0
122
1.0
132
0.0
 79
     0
146
0.0
  0
ENDTAB
  0
TABLE
  2
LTYPE
  5
5
330
0
100
AcDbSymbolTable
 70
     2
  0
LTYPE
  5
11
330
5
100
AcDbSymbolTableRecord
100
AcDbLinetypeTableRecord
  2
BYBLOCK
 70
     0
  3

 72
    65
 73
     0
 40
0.0
  0
LTYPE
  5
12
330
5
100
AcDbSymbolTableRecord
100
AcDbLinetypeTableRecord
  2
BYLAYER
 70
     0
  3

 72
    65
 73
     0
 40
0.0
  0
LTYPE
  5
13
330
5
100
AcDbSymbolTableRecord
100
AcDbLinetypeTableRecord
  2
CONTINUOUS
 70
     0
  3
Solid line
 72
    65
 73
     0
 40
0.0
  0
ENDTAB
  0
TABLE
  2
LAYER
  5
2
330
0
100
AcDbSymbolTable
 70
     3
  0
LAYER
  5
E
330
2
100
AcDbSymbolTableRecord
100
AcDbLayerTableRecord
  2
0
 70
     0
 62
     7
  6
CONTINUOUS
370
    -3
390
DA
  0
LAYER
  5
20
330
2
100
AcDbSymbolTableRecord
100
AcDbLayerTableRecord
  2
ADPDIM
 70
     0
 62
     3
  6
CONTINUOUS
370
    -3
390
DA
  0
LAYER
  5
21
330
2
100
AcDbSymbolTableRecord
100
AcDbLayerTableRecord
  2
DEFPOINTS
 70
     0
 62
     7
  6
CONTINUOUS
290
     0
370
    -3
390
DA
  0
ENDTAB
  0
TABLE
  2
STYLE
  5
3
330
0
100
AcDbSymbolTable
 70
     2
  0
STYLE
  5
F
330
3
100
AcDbSymbolTableRecord
100
AcDbTextStyleTableRecord
  2
STANDARD
 70
     0
 40
0.0
 41
1.0
 50
0.0
 71
     0
 42
0.2
  3
txt
  4

  0
STYLE
  5
CF
330
3
100
AcDbSymbolTableRecord
100
AcDbTextStyleTableRecord
  2
ARIAL_WIDE
 70
     0
 40
0.0
 41
1.25
 50
0.0
 71
     0
 42
0.2
  3
ARIAL.TTF
  4

1001
ACAD
1000
Arial
1071
       34
  0
ENDTAB
  0
TABLE
  2
VIEW
  5
6
330
0
100
AcDbSymbolTable
 70
     0
  0
ENDTAB
  0
TABLE
  2
UCS
  5
7
330
0
100
AcDbSymbolTable
 70
     0
  0
ENDTAB
  0
TABLE
  2
APPID
  5
9
330
0
100
AcDbSymbolTable
 70
     3
  0
APPID
  5
10
330
9
100
AcDbSymbolTableRecord
100
AcDbRegAppTableRecord
  2
ACAD
 70
     0
  0
APPID
  5
1ED
330
9
100
AcDbSymbolTableRecord
100
AcDbRegAppTableRecord
  2
ACAD_EXEMPT_FROM_CAD_STANDARDS
 70
     0
  0
APPID
  5
232
330
9
100
AcDbSymbolTableRecord
100
AcDbRegAppTableRecord
  2
DCO15
 70
     0
  0
ENDTAB
  0
TABLE
  2
DIMSTYLE
  5
A
330
0
100
AcDbSymbolTable
 70
     2
100
AcDbDimStyleTable
 71
     1
340
CD
  0
DIMSTYLE
105
CD
102
{ACAD_REACTORS
330
52
330
4D
330
72
330
20D
330
239
102
}
330
A
100
AcDbSymbolTableRecord
100
AcDbDimStyleTableRecord
  2
STANDARD
 70
     0
340
F
  0
ENDTAB
  0
TABLE
  2
BLOCK_RECORD
  5
1
330
0
100
AcDbSymbolTable
 70
    11
  0
BLOCK_RECORD
  5
17
102
{ACAD_XDICTIONARY
360
108
102
}
330
1
100
AcDbSymbolTableRecord
100
AcDbBlockTableRecord
  2
*MODEL_SPACE
340
DD
  0
BLOCK_RECORD
  5
14
102
{ACAD_XDICTIONARY
360
106
102
}
330
1
100
AcDbSymbolTableRecord
100
AcDbBlockTableRecord
  2
*PAPER_SPACE
340
DE
  0
BLOCK_RECORD
  5
1C
330
1
100
AcDbSymbolTableRecord
100
AcDbBlockTableRecord
  2
*D0
340
0
  0
BLOCK_RECORD
  5
1D
330
1
100
AcDbSymbolTableRecord
100
AcDbBlockTableRecord
  2
*D1
340
0
  0
BLOCK_RECORD
  5
1E
330
1
100
AcDbSymbolTableRecord
100
AcDbBlockTableRecord
  2
*D2
340
0
  0
BLOCK_RECORD
  5
1DF
330
1
100
AcDbSymbolTableRecord
100
AcDbBlockTableRecord
  2
*D3
340
0
  0
BLOCK_RECORD
  5
1F3
330
1
100
AcDbSymbolTableRecord
100
AcDbBlockTableRecord
  2
*D5
340
0
  0
BLOCK_RECORD
  5
200
330
1
100
AcDbSymbolTableRecord
100
AcDbBlockTableRecord
  2
*D6
340
0
  0
BLOCK_RECORD
  5
20E
330
1
100
AcDbSymbolTableRecord
100
AcDbBlockTableRecord
  2
*D7
340
0
  0
BLOCK_RECORD
  5
225
330
1
100
AcDbSymbolTableRecord
100
AcDbBlockTableRecord
  2
*D8
340
0
  0
BLOCK_RECORD
  5
23A
330
1
100
AcDbSymbolTableRecord
100
AcDbBlockTableRecord
  2
*D10
340
0
  0
ENDTAB
  0
ENDSEC
  0
SECTION
  2
BLOCKS
  0
BLOCK
  5
24
330
17
100
AcDbEntity
  8
0
100
AcDbBlockBegin
  2
*MODEL_SPACE
 70
     0
 10
0.0
 20
0.0
 30
0.0
  3
*MODEL_SPACE
  1

  0
ENDBLK
  5
25
330
17
100
AcDbEntity
  8
0
100
AcDbBlockEnd
  0
BLOCK
  5
22
330
14
100
AcDbEntity
 67
     1
  8
0
100
AcDbBlockBegin
  2
*PAPER_SPACE
 70
     0
 10
0.0
 20
0.0
 30
0.0
  3
*PAPER_SPACE
  1

  0
ENDBLK
  5
23
330
14
100
AcDbEntity
 67
     1
  8
0
100
AcDbBlockEnd
  0
BLOCK
  5
28
330
1C
100
AcDbEntity
  8
0
100
AcDbBlockBegin
  2
*D0
 70
     1
 10
0.0
 20
0.0
 30
0.0
  3
*D0
  1

  0
LINE
  5
29
330
1C
100
AcDbEntity
  8
0
  6
ByBlock
 62
     0
100
AcDbLine
 10
9.446472937511277
 20
39.7123365587711
 30
0.0
 11
8.396081594166604
 21
39.7123365587711
 31
0.0
  0
LINE
  5
2A
330
1C
100
AcDbEntity
  8
0
  6
ByBlock
 62
     0
100
AcDbLine
 10
9.579805356359276
 20
3.712583469811105
 30
0.0
 11
8.396081594166602
 21
3.712583469811105
 31
0.0
  0
LINE
  5
2B
330
1C
100
AcDbEntity
  8
0
  6
ByBlock
 62
     0
100
AcDbLine
 10
8.576081594166604
 20
39.7123365587711
 30
0.0
 11
8.576081594166604
 21
21.94162668095777
 31
0.0
  0
LINE
  5
2C
330
1C
100
AcDbEntity
  8
0
  6
ByBlock
 62
     0
100
AcDbLine
 10
8.576081594166602
 20
3.712583469811105
 30
0.0
 11
8.576081594166604
 21
21.48329334762443
 31
0.0
  0
LINE
  5
2D
330
1C
100
AcDbEntity
  8
0
  6
ByBlock
 62
     0
100
AcDbLine
 10
8.701081594166604
 20
39.5873365587711
 30
0.0
 11
8.451081594166604
 21
39.8373365587711
 31
0.0
  0
LINE
  5
2E
330
1C
100
AcDbEntity
  8
0
  6
ByBlock
 62
     0
100
AcDbLine
 10
8.701081594166602
 20
3.587583469811105
 30
0.0
 11
8.451081594166602
 21
3.837583469811105
 31
0.0
  0
TEXT
  5
2F
330
1C
100
AcDbEntity
  8
0
  6
ByBlock
 62
     0
100
AcDbText
 10
8.638581594166604
 20
21.60829334762444
 30
0.0
 40
0.125
  1
36
 50
90.0
 72
     1
 11
8.576081594166604
 21
21.71246001429111
 31
0.0
100
AcDbText
 73
     2
  0
POINT
  5
31
330
1C
100
AcDbEntity
  8
DEFPOINTS
  6
ByBlock
 62
     0
100
AcDbPoint
 10
9.508972937511277
 20
39.7123365587711
 30
0.0
  0
POINT
  5
32
330
1C
100
AcDbEntity
  8
DEFPOINTS
  6
ByBlock
 62
     0
100
AcDbPoint
 10
9.642305356359276
 20
3.712583469811105
 30
0.0
  0
POINT
  5
33
330
1C
100
AcDbEntity
  8
DEFPOINTS
  6
ByBlock
 62
     0
100
AcDbPoint
 10
8.576081594166602
 20
3.712583469811105
 30
0.0
  0
ENDBLK
  5
34
330
1C
100
AcDbEntity
  8
0
100
AcDbBlockEnd
  0
BLOCK
  5
35
330
1D
100
AcDbEntity
  8
0
100
AcDbBlockBegin
  2
*D1
 70
     1
 10
0.0
 20
0.0
 30
0.0
  3
*D1
  1

  0
LINE
  5
36
330
1D
100
AcDbEntity
  8
0
  6
ByBlock
 62
     0
100
AcDbLine
 10
9.668965072937421
 20
3.650083469811105
 30
0.0
 11
9.668965072937421
 21
2.727119033849534
 31
0.0
  0
LINE
  5
37
330
1D
100
AcDbEntity
  8
0
  6
ByBlock
 62
     0
100
AcDbLine
 10
10.65563173960408
 20
3.650083469811105
 30
0.0
 11
10.65563173960408
 21
2.727119033849534
 31
0.0
  0
LINE
  5
38
330
1D
100
AcDbEntity
  8
0
  6
ByBlock
 62
     0
100
AcDbLine
 10
9.668965072937421
 20
2.907119033849534
 30
0.0
 11
9.418965072937421
 21
2.907119033849534
 31
0.0
  0
LINE
  5
39
330
1D
100
AcDbEntity
  8
0
  6
ByBlock
 62
     0
100
AcDbLine
 10
10.65563173960408
 20
2.907119033849534
 30
0.0
 11
10.90563173960408
 21
2.907119033849534
 31
0.0
  0
LINE
  5
3A
330
1D
100
AcDbEntity
  8
0
  6
ByBlock
 62
     0
100
AcDbLine
 10
9.543965072937421
 20
2.782119033849534
 30
0.0
 11
9.793965072937421
 21
3.032119033849534
 31
0.0
  0
LINE
  5
3B
330
1D
100
AcDbEntity
  8
0
  6
ByBlock
 62
     0
100
AcDbLine
 10
10.53063173960408
 20
2.782119033849534
 30
0.0
 11
10.78063173960408
 21
3.032119033849534
 31
0.0
  0
TEXT
  5
3C
330
1D
100
AcDbEntity
  8
0
  6
ByBlock
 62
     0
100
AcDbText
 10
11.03063173960408
 20
2.844619033849534
 30
0.0
 40
0.125
  1
1.00
 72
     1
 11
11.17646507293741
 21
2.907119033849534
 31
0.0
100
AcDbText
 73
     2
  0
POINT
  5
3D
330
1D
100
AcDbEntity
  8
DEFPOINTS
  6
ByBlock
 62
     0
100
AcDbPoint
 10
9.668965072937421
 20
3.712583469811105
 30
0.0
  0
POINT
  5
3E
330
1D
100
AcDbEntity
  8
DEFPOINTS
  6
ByBlock
 62
     0
100
AcDbPoint
 10
10.65563173960408
 20
3.712583469811105
 30
0.0
  0
POINT
  5
3F
330
1D
100
AcDbEntity
  8
DEFPOINTS
  6
ByBlock
 62
     0
100
AcDbPoint
 10
10.65563173960408
 20
2.907119033849534
 30
0.0
  0
ENDBLK
  5
40
330
1D
100
AcDbEntity
  8
0
100
AcDbBlockEnd
  0
BLOCK
  5
41
330
1E
100
AcDbEntity
  8
0
100
AcDbBlockBegin
  2
*D2
 70
     1
 10
0.0
 20
0.0
 30
0.0
  3
*D2
  1

  0
LINE
  5
42
330
1E
100
AcDbEntity
  8
0
  6
ByBlock
 62
     0
100
AcDbLine
 10
9.508972937511277
 20
39.7748365587711
 30
0.0
 11
9.508972937511277
 21
40.60735348260324
 31
0.0
  0
LINE
  5
43
330
1E
100
AcDbEntity
  8
0
  6
ByBlock
 62
     0
100
AcDbLine
 10
10.78896415845208
 20
39.7748365587711
 30
0.0
 11
10.78896415845208
 21
40.60735348260324
 31
0.0
  0
LINE
  5
44
330
1E
100
AcDbEntity
  8
0
  6
ByBlock
 62
     0
100
AcDbLine
 10
9.508972937511277
 20
40.42735348260324
 30
0.0
 11
9.805218547981677
 21
40.42735348260324
 31
0.0
  0
LINE
  5
45
330
1E
100
AcDbEntity
  8
0
  6
ByBlock
 62
     0
100
AcDbLine
 10
10.78896415845208
 20
40.42735348260324
 30
0.0
 11
10.49271854798168
 21
40.42735348260324
 31
0.0
  0
LINE
  5
46
330
1E
100
AcDbEntity
  8
0
  6
ByBlock
 62
     0
100
AcDbLine
 10
9.383972937511277
 20
40.30235348260324
 30
0.0
 11
9.633972937511277
 21
40.55235348260324
 31
0.0
  0
LINE
  5
47
330
1E
100
AcDbEntity
  8
0
  6
ByBlock
 62
     0
100
AcDbLine
 10
10.66396415845208
 20
40.30235348260324
 30
0.0
 11
10.91396415845208
 21
40.55235348260324
 31
0.0
  0
TEXT
  5
48
330
1E
100
AcDbEntity
  8
0
  6
ByBlock
 62
     0
100
AcDbText
 10
9.930218547981677
 20
40.36485348260324
 30
0.0
 40
0.125
  1
1.250
 72
     1
 11
10.14896854798168
 21
40.42735348260324
 31
0.0
100
AcDbText
 73
     2
  0
POINT
  5
49
330
1E
100
AcDbEntity
  8
DEFPOINTS
  6
ByBlock
 62
     0
100
AcDbPoint
 10
9.508972937511277
 20
39.7123365587711
 30
0.0
  0
POINT
  5
4A
330
1E
100
AcDbEntity
  8
DEFPOINTS
  6
ByBlock
 62
     0
100
AcDbPoint
 10
10.78896415845208
 20
39.7123365587711
 30
0.0
  0
POINT
  5
4B
330
1E
100
AcDbEntity
  8
DEFPOINTS
  6
ByBlock
 62
     0
100
AcDbPoint
 10
10.78896415845208
 20
40.42735348260324
 30
0.0
  0
ENDBLK
  5
4C
330
1E
100
AcDbEntity
  8
0
100
AcDbBlockEnd
  0
BLOCK
  5
1EA
330
1DF
100
AcDbEntity
  8
0
100
AcDbBlockBegin
  2
*D3
 70
     1
 10
0.0
 20
0.0
 30
0.0
  3
*D3
  1

  0
LINE
  5
1E0
330
1DF
100
AcDbEntity
  8
ADPDIM
 62
     0
370
    -2
100
AcDbLine
 10
9.668965072937421
 20
3.650083469811105
 30
0.0
 11
9.668965072937421
 21
2.727119033849534
 31
0.0
  0
LINE
  5
1E1
330
1DF
100
AcDbEntity
  8
ADPDIM
 62
     0
370
    -2
100
AcDbLine
 10
10.65563173960408
 20
3.650083469811105
 30
0.0
 11
10.65563173960408
 21
2.727119033849534
 31
0.0
  0
LINE
  5
1E2
330
1DF
100
AcDbEntity
  8
ADPDIM
 62
     0
370
    -2
100
AcDbLine
 10
9.668965072937421
 20
2.907119033849534
 30
0.0
 11
9.891465072937416
 21
2.907119033849534
 31
0.0
  0
LINE
  5
1E3
330
1DF
100
AcDbEntity
  8
ADPDIM
 62
     0
370
    -2
100
AcDbLine
 10
10.65563173960408
 20
2.907119033849534
 30
0.0
 11
10.43313173960408
 21
2.907119033849534
 31
0.0
  0
LINE
  5
1E4
330
1DF
100
AcDbEntity
  8
ADPDIM
 62
     0
370
    -2
100
AcDbLine
 10
10.53063173960408
 20
2.782119033849534
 30
0.0
 11
10.78063173960408
 21
3.032119033849534
 31
0.0
  0
LINE
  5
1E5
330
1DF
100
AcDbEntity
  8
ADPDIM
 62
     0
370
    -2
100
AcDbLine
 10
9.543965072937421
 20
2.782119033849534
 30
0.0
 11
9.793965072937421
 21
3.032119033849534
 31
0.0
  0
MTEXT
  5
1E6
330
1DF
100
AcDbEntity
  8
ADPDIM
 62
     0
100
AcDbMText
 10
10.16229840627075
 20
2.907119033849534
 30
0.0
 40
0.125
 41
0.0
 71
     5
 72
     1
  1
\A1;1.00
 73
     1
 44
1.0
1001
ACAD
1000
MTEXTBEGIN
1070
    73
1070
     1
1070
    44
1040
1.0
1070
    74
1070
     0
1000
MTEXTEND
  0
POINT
  5
1E7
330
1DF
100
AcDbEntity
  8
DEFPOINTS
 62
     0
100
AcDbPoint
 10
9.668965072937421
 20
3.712583469811105
 30
0.0
  0
POINT
  5
1E8
330
1DF
100
AcDbEntity
  8
DEFPOINTS
 62
     0
100
AcDbPoint
 10
10.65563173960408
 20
3.712583469811105
 30
0.0
  0
POINT
  5
1E9
330
1DF
100
AcDbEntity
  8
DEFPOINTS
 62
     0
100
AcDbPoint
 10
10.65563173960408
 20
2.907119033849534
 30
0.0
  0
ENDBLK
  5
1EB
330
1DF
100
AcDbEntity
  8
0
100
AcDbBlockEnd
  0
BLOCK
  5
1FE
330
1F3
100
AcDbEntity
  8
0
100
AcDbBlockBegin
  2
*D5
 70
     1
 10
0.0
 20
0.0
 30
0.0
  3
*D5
  1

  0
LINE
  5
1F4
330
1F3
100
AcDbEntity
  8
ADPDIM
 62
     0
370
    -2
100
AcDbLine
 10
9.446472937511277
 20
39.7123365587711
 30
0.0
 11
8.396081594166611
 21
39.7123365587711
 31
0.0
  0
LINE
  5
1F5
330
1F3
100
AcDbEntity
  8
ADPDIM
 62
     0
370
    -2
100
AcDbLine
 10
9.579805356359276
 20
3.712583469811105
 30
0.0
 11
8.396081594166602
 21
3.712583469811105
 31
0.0
  0
LINE
  5
1F6
330
1F3
100
AcDbEntity
  8
ADPDIM
 62
     0
370
    -2
100
AcDbLine
 10
8.576081594166611
 20
39.7123365587711
 30
0.0
 11
8.576081594166607
 21
21.94162668095777
 31
0.0
  0
LINE
  5
1F7
330
1F3
100
AcDbEntity
  8
ADPDIM
 62
     0
370
    -2
100
AcDbLine
 10
8.576081594166602
 20
3.712583469811105
 30
0.0
 11
8.576081594166607
 21
21.48329334762443
 31
0.0
  0
LINE
  5
1F8
330
1F3
100
AcDbEntity
  8
ADPDIM
 62
     0
370
    -2
100
AcDbLine
 10
8.701081594166602
 20
3.587583469811105
 30
0.0
 11
8.451081594166602
 21
3.837583469811105
 31
0.0
  0
LINE
  5
1F9
330
1F3
100
AcDbEntity
  8
ADPDIM
 62
     0
370
    -2
100
AcDbLine
 10
8.701081594166611
 20
39.5873365587711
 30
0.0
 11
8.451081594166611
 21
39.8373365587711
 31
0.0
  0
MTEXT
  5
1FA
330
1F3
100
AcDbEntity
  8
ADPDIM
 62
     0
100
AcDbMText
 10
8.576081594166604
 20
21.71246001429111
 30
0.0
 40
0.125
 41
0.0
 71
     5
 72
     1
  1
\A1;36
 11
0.0000000000000001
 21
1.0
 31
0.0
 73
     1
 44
1.0
1001
ACAD
1000
MTEXTBEGIN
1070
    73
1070
     1
1070
    44
1040
1.0
1070
    74
1070
     0
1000
MTEXTEND
  0
POINT
  5
1FB
330
1F3
100
AcDbEntity
  8
DEFPOINTS
 62
     0
100
AcDbPoint
 10
9.508972937511277
 20
39.7123365587711
 30
0.0
  0
POINT
  5
1FC
330
1F3
100
AcDbEntity
  8
DEFPOINTS
 62
     0
100
AcDbPoint
 10
9.642305356359276
 20
3.712583469811105
 30
0.0
  0
POINT
  5
1FD
330
1F3
100
AcDbEntity
  8
DEFPOINTS
 62
     0
100
AcDbPoint
 10
8.576081594166602
 20
3.712583469811105
 30
0.0
  0
ENDBLK
  5
1FF
330
1F3
100
AcDbEntity
  8
0
100
AcDbBlockEnd
  0
BLOCK
  5
20B
330
200
100
AcDbEntity
  8
0
100
AcDbBlockBegin
  2
*D6
 70
     1
 10
0.0
 20
0.0
 30
0.0
  3
*D6
  1

  0
LINE
  5
201
330
200
100
AcDbEntity
  8
ADPDIM
 62
     0
370
    -2
100
AcDbLine
 10
9.508972937511277
 20
39.7748365587711
 30
0.0
 11
9.508972937511277
 21
40.60735348260324
 31
0.0
  0
LINE
  5
202
330
200
100
AcDbEntity
  8
ADPDIM
 62
     0
370
    -2
100
AcDbLine
 10
10.78896415845208
 20
39.7748365587711
 30
0.0
 11
10.78896415845208
 21
40.60735348260324
 31
0.0
  0
LINE
  5
203
330
200
100
AcDbEntity
  8
ADPDIM
 62
     0
370
    -2
100
AcDbLine
 10
9.508972937511277
 20
40.42735348260324
 30
0.0
 11
9.805218547981677
 21
40.42735348260324
 31
0.0
  0
LINE
  5
204
330
200
100
AcDbEntity
  8
ADPDIM
 62
     0
370
    -2
100
AcDbLine
 10
10.78896415845208
 20
40.42735348260324
 30
0.0
 11
10.49271854798168
 21
40.42735348260324
 31
0.0
  0
LINE
  5
205
330
200
100
AcDbEntity
  8
ADPDIM
 62
     0
370
    -2
100
AcDbLine
 10
10.66396415845208
 20
40.30235348260324
 30
0.0
 11
10.91396415845208
 21
40.55235348260324
 31
0.0
  0
LINE
  5
206
330
200
100
AcDbEntity
  8
ADPDIM
 62
     0
370
    -2
100
AcDbLine
 10
9.383972937511277
 20
40.30235348260324
 30
0.0
 11
9.633972937511277
 21
40.55235348260324
 31
0.0
  0
MTEXT
  5
207
330
200
100
AcDbEntity
  8
ADPDIM
 62
     0
100
AcDbMText
 10
10.14896854798168
 20
40.42735348260324
 30
0.0
 40
0.125
 41
0.0
 71
     5
 72
     1
  1
\A1;1.250
 73
     1
 44
1.0
1001
ACAD
1000
MTEXTBEGIN
1070
    73
1070
     1
1070
    44
1040
1.0
1070
    74
1070
     0
1000
MTEXTEND
  0
POINT
  5
208
330
200
100
AcDbEntity
  8
DEFPOINTS
 62
     0
100
AcDbPoint
 10
9.508972937511277
 20
39.7123365587711
 30
0.0
  0
POINT
  5
209
330
200
100
AcDbEntity
  8
DEFPOINTS
 62
     0
100
AcDbPoint
 10
10.78896415845208
 20
39.7123365587711
 30
0.0
  0
POINT
  5
20A
330
200
100
AcDbEntity
  8
DEFPOINTS
 62
     0
100
AcDbPoint
 10
10.78896415845208
 20
40.42735348260324
 30
0.0
  0
ENDBLK
  5
20C
330
200
100
AcDbEntity
  8
0
100
AcDbBlockEnd
  0
BLOCK
  5
219
330
20E
100
AcDbEntity
  8
0
100
AcDbBlockBegin
  2
*D7
 70
     1
 10
0.0
 20
0.0
 30
0.0
  3
*D7
  1

  0
LINE
  5
21B
330
20E
100
AcDbEntity
  8
ADPDIM
 62
     0
370
    -2
100
AcDbLine
 10
10.85146415845207
 20
39.7123365587711
 30
0.0
 11
12.01882223235645
 21
39.7123365587711
 31
0.0
  0
LINE
  5
21C
330
20E
100
AcDbEntity
  8
ADPDIM
 62
     0
370
    -2
100
AcDbLine
 10
10.85146415845207
 20
35.4623365587711
 30
0.0
 11
12.01882223235644
 21
35.4623365587711
 31
0.0
  0
LINE
  5
21D
330
20E
100
AcDbEntity
  8
ADPDIM
 62
     0
370
    -2
100
AcDbLine
 10
11.83882223235645
 20
39.7123365587711
 30
0.0
 11
11.83882223235645
 21
37.81650322543776
 31
0.0
  0
LINE
  5
21E
330
20E
100
AcDbEntity
  8
ADPDIM
 62
     0
370
    -2
100
AcDbLine
 10
11.83882223235644
 20
35.4623365587711
 30
0.0
 11
11.83882223235645
 21
37.35816989210444
 31
0.0
  0
LINE
  5
21F
330
20E
100
AcDbEntity
  8
ADPDIM
 62
     0
370
    -2
100
AcDbLine
 10
11.96382223235644
 20
35.3373365587711
 30
0.0
 11
11.71382223235645
 21
35.5873365587711
 31
0.0
  0
LINE
  5
220
330
20E
100
AcDbEntity
  8
ADPDIM
 62
     0
370
    -2
100
AcDbLine
 10
11.96382223235645
 20
39.5873365587711
 30
0.0
 11
11.71382223235645
 21
39.8373365587711
 31
0.0
  0
MTEXT
  5
221
330
20E
100
AcDbEntity
  8
ADPDIM
 62
     0
100
AcDbMText
 10
11.83882223235644
 20
37.5873365587711
 30
0.0
 40
0.125
 41
0.0
 71
     5
 72
     1
  1
\A1;4{\H1.000000x;\S1/4;}
 11
0.0000000000000001
 21
1.0
 31
0.0
 73
     1
 44
1.0
1001
ACAD
1000
MTEXTBEGIN
1070
    73
1070
     1
1070
    44
1040
1.0
1070
    74
1070
     0
1000
MTEXTEND
  0
POINT
  5
222
330
20E
100
AcDbEntity
  8
DEFPOINTS
 62
     0
100
AcDbPoint
 10
10.78896415845208
 20
39.7123365587711
 30
0.0
  0
POINT
  5
223
330
20E
100
AcDbEntity
  8
DEFPOINTS
 62
     0
100
AcDbPoint
 10
10.78896415845208
 20
35.4623365587711
 30
0.0
  0
POINT
  5
224
330
20E
100
AcDbEntity
  8
DEFPOINTS
 62
     0
100
AcDbPoint
 10
11.83882223235644
 20
35.4623365587711
 30
0.0
  0
ENDBLK
  5
21A
330
20E
100
AcDbEntity
  8
0
100
AcDbBlockEnd
  0
BLOCK
  5
226
330
225
100
AcDbEntity
  8
0
100
AcDbBlockBegin
  2
*D8
 70
     1
 10
0.0
 20
0.0
 30
0.0
  3
*D8
  1

  0
LINE
  5
227
330
225
100
AcDbEntity
  8
ADPDIM
 62
     0
370
    -2
100
AcDbLine
 10
10.85146415845207
 20
39.7123365587711
 30
0.0
 11
12.01882223235645
 21
39.7123365587711
 31
0.0
  0
LINE
  5
228
330
225
100
AcDbEntity
  8
ADPDIM
 62
     0
370
    -2
100
AcDbLine
 10
10.85146415845207
 20
35.4623365587711
 30
0.0
 11
12.01882223235644
 21
35.4623365587711
 31
0.0
  0
LINE
  5
229
330
225
100
AcDbEntity
  8
ADPDIM
 62
     0
370
    -2
100
AcDbLine
 10
11.83882223235645
 20
39.7123365587711
 30
0.0
 11
11.83882223235645
 21
37.81650322543776
 31
0.0
  0
LINE
  5
22A
330
225
100
AcDbEntity
  8
ADPDIM
 62
     0
370
    -2
100
AcDbLine
 10
11.83882223235644
 20
35.4623365587711
 30
0.0
 11
11.83882223235645
 21
37.35816989210444
 31
0.0
  0
LINE
  5
22B
330
225
100
AcDbEntity
  8
ADPDIM
 62
     0
370
    -2
100
AcDbLine
 10
11.96382223235644
 20
35.3373365587711
 30
0.0
 11
11.71382223235645
 21
35.5873365587711
 31
0.0
  0
LINE
  5
22C
330
225
100
AcDbEntity
  8
ADPDIM
 62
     0
370
    -2
100
AcDbLine
 10
11.96382223235645
 20
39.5873365587711
 30
0.0
 11
11.71382223235645
 21
39.8373365587711
 31
0.0
  0
MTEXT
  5
22D
330
225
100
AcDbEntity
  8
ADPDIM
 62
     0
100
AcDbMText
 10
11.83882223235644
 20
37.5873365587711
 30
0.0
 40
0.125
 41
0.0
 71
     5
 72
     1
  1
\A1;4{\H1.000000x;\S1/4;}
 11
0.0000000000000001
 21
1.0
 31
0.0
 73
     1
 44
1.0
1001
ACAD
1000
MTEXTBEGIN
1070
    73
1070
     1
1070
    44
1040
1.0
1070
    74
1070
     0
1000
MTEXTEND
  0
POINT
  5
22E
330
225
100
AcDbEntity
  8
DEFPOINTS
 62
     0
100
AcDbPoint
 10
10.78896415845208
 20
39.7123365587711
 30
0.0
  0
POINT
  5
22F
330
225
100
AcDbEntity
  8
DEFPOINTS
 62
     0
100
AcDbPoint
 10
10.78896415845208
 20
35.4623365587711
 30
0.0
  0
POINT
  5
230
330
225
100
AcDbEntity
  8
DEFPOINTS
 62
     0
100
AcDbPoint
 10
11.83882223235644
 20
35.4623365587711
 30
0.0
  0
ENDBLK
  5
231
330
225
100
AcDbEntity
  8
0
100
AcDbBlockEnd
  0
BLOCK
  5
245
330
23A
100
AcDbEntity
  8
0
100
AcDbBlockBegin
  2
*D10
 70
     1
 10
0.0
 20
0.0
 30
0.0
  3
*D10
  1

  0
LINE
  5
251
330
23A
100
AcDbEntity
  8
ADPDIM
 62
     0
370
    -2
100
AcDbLine
 10
10.71813170567839
 20
7.965949773047793
 30
0.0
 11
11.88548977958276
 21
7.965949773047793
 31
0.0
  0
LINE
  5
252
330
23A
100
AcDbEntity
  8
ADPDIM
 62
     0
370
    -2
100
AcDbLine
 10
10.71813170567839
 20
3.715949773047793
 30
0.0
 11
11.88548977958276
 21
3.715949773047793
 31
0.0
  0
LINE
  5
253
330
23A
100
AcDbEntity
  8
ADPDIM
 62
     0
370
    -2
100
AcDbLine
 10
11.70548977958276
 20
7.965949773047793
 30
0.0
 11
11.70548977958276
 21
6.07011643971446
 31
0.0
  0
LINE
  5
254
330
23A
100
AcDbEntity
  8
ADPDIM
 62
     0
370
    -2
100
AcDbLine
 10
11.70548977958276
 20
3.715949773047793
 30
0.0
 11
11.70548977958276
 21
5.611783106381126
 31
0.0
  0
LINE
  5
255
330
23A
100
AcDbEntity
  8
ADPDIM
 62
     0
370
    -2
100
AcDbLine
 10
11.83048977958276
 20
3.590949773047793
 30
0.0
 11
11.58048977958276
 21
3.840949773047793
 31
0.0
  0
LINE
  5
256
330
23A
100
AcDbEntity
  8
ADPDIM
 62
     0
370
    -2
100
AcDbLine
 10
11.83048977958276
 20
7.840949773047793
 30
0.0
 11
11.58048977958276
 21
8.090949773047794
 31
0.0
  0
MTEXT
  5
257
330
23A
100
AcDbEntity
  8
ADPDIM
 62
     0
100
AcDbMText
 10
11.70548977958276
 20
5.840949773047794
 30
0.0
 40
0.125
 41
0.0
 71
     5
 72
     1
  1
\A1;4{\H1.000000x;\S1/4;}
 11
0.0000000000000001
 21
1.0
 31
0.0
 73
     1
 44
1.0
1001
ACAD
1000
MTEXTBEGIN
1070
    73
1070
     1
1070
    44
1040
1.0
1070
    74
1070
     0
1000
MTEXTEND
  0
POINT
  5
258
330
23A
100
AcDbEntity
  8
DEFPOINTS
 62
     0
100
AcDbPoint
 10
10.65563170567839
 20
7.965949773047793
 30
0.0
  0
POINT
  5
259
330
23A
100
AcDbEntity
  8
DEFPOINTS
 62
     0
100
AcDbPoint
 10
10.65563170567839
 20
3.715949773047793
 30
0.0
  0
POINT
  5
25A
330
23A
100
AcDbEntity
  8
DEFPOINTS
 62
     0
100
AcDbPoint
 10
11.70548977958276
 20
3.715949773047793
 30
0.0
  0
ENDBLK
  5
246
330
23A
100
AcDbEntity
  8
0
100
AcDbBlockEnd
  0
ENDSEC
  0
SECTION
  2
ENTITIES
  0
DIMENSION
  5
4D
330
17
100
AcDbEntity
  8
ADPDIM
100
AcDbDimension
  2
*D5
 10
8.576081594166602
 20
3.712583469811105
 30
0.0
 11
8.576081594166604
 21
21.71246001429111
 31
0.0
 70
    32
 71
     5
 42
35.99975308895999
  3
STANDARD
100
AcDbAlignedDimension
 13
9.508972937511277
 23
39.7123365587711
 33
0.0
 14
9.642305356359276
 24
3.712583469811105
 34
0.0
 50
90.0
100
AcDbRotatedDimension
1001
ACAD
1000
DSTYLE
1002
{
1070
    41
1040
0.125
1070
    73
1070
     0
1070
    74
1070
     0
1070
    78
1070
     3
1070
   140
1040
0.125
1070
   141
1040
0.1875
1070
   142
1040
0.125
1070
   147
1040
0.125
1070
   171
1070
     1
1070
   273
1070
     5
1070
   274
1070
     1
1070
   277
1070
     5
1070
   279
1070
     2
1070
   284
1070
     3
1070
   285
1070
     3
1070
   286
1070
     3
1002
}
  0
LINE
  5
4E
330
17
100
AcDbEntity
  8
0
 62
     7
100
AcDbLine
 10
9.560788785136978
 20
33.15184303080012
 30
0.0
 11
9.629132763461445
 21
8.552929468422391
 31
0.0
  0
LINE
  5
4F
330
17
100
AcDbEntity
  8
0
 62
     7
100
AcDbLine
 10
10.67355128313566
 20
8.552929468422391
 30
0.0
 11
10.73563119091287
 21
33.15184303080012
 31
0.0
  0
LINE
  5
50
330
17
100
AcDbEntity
  8
0
 62
     7
100
AcDbLine
 10
10.65563173960408
 20
3.712583469811105
 30
0.0
 11
10.67108107306859
 21
7.966266825491199
 31
0.0
  0
LINE
  5
51
330
17
100
AcDbEntity
  8
0
 62
     7
100
AcDbLine
 10
9.630714907919678
 20
7.966266825491199
 30
0.0
 11
9.642305356359276
 21
3.712583469811105
 31
0.0
  0
DIMENSION
  5
52
330
17
100
AcDbEntity
  8
ADPDIM
100
AcDbDimension
  2
*D3
 10
10.65563173960408
 20
2.907119033849534
 30
0.0
 11
10.16229840627075
 21
2.907119033849534
 31
0.0
 70
    32
  1
1.00
 71
     5
 42
0.9866666666666574
  3
STANDARD
100
AcDbAlignedDimension
 13
9.668965072937421
 23
3.712583469811105
 33
0.0
 14
10.65563173960408
 24
3.712583469811105
 34
0.0
100
AcDbRotatedDimension
1001
ACAD
1000
DSTYLE
1002
{
1070
    41
1040
0.125
1070
    73
1070
     0
1070
    74
1070
     0
1070
    78
1070
     3
1070
   140
1040
0.125
1070
   141
1040
0.1875
1070
   142
1040
0.125
1070
   147
1040
0.125
1070
   171
1070
     1
1070
   273
1070
     5
1070
   274
1070
     1
1070
   277
1070
     5
1070
   279
1070
     2
1070
   284
1070
     3
1070
   285
1070
     3
1070
   286
1070
     3
1002
}
  0
CIRCLE
  5
53
330
17
100
AcDbEntity
  8
0
100
AcDbCircle
 10
10.1574787480315
 20
2.064407113441428
 30
0.0
 40
0.5
  0
LINE
  5
54
330
17
100
AcDbEntity
  8
0
 62
     7
100
AcDbLine
 10
9.642305356359276
 20
3.712583469811105
 30
0.0
 11
10.65563173960408
 21
3.712583469811105
 31
0.0
  0
LINE
  5
55
330
17
100
AcDbEntity
  8
0
 62
     7
100
AcDbLine
 10
10.65563173960408
 20
3.712583469811105
 30
0.0
 11
10.65563173960408
 21
3.712583469811105
 31
0.0
  0
LINE
  5
56
330
17
100
AcDbEntity
  8
0
 62
     7
100
AcDbLine
 10
10.71425111430735
 20
8.446263533343998
 30
0.0
 11
9.56759231221455
 21
8.446263533343998
 31
0.0
  0
LINE
  5
57
330
17
100
AcDbEntity
  8
0
 62
     7
100
AcDbLine
 10
10.71425111430735
 20
8.446263533343998
 30
0.0
 11
9.56759231221455
 21
8.446263533343998
 31
0.0
  0
LINE
  5
58
330
17
100
AcDbEntity
  8
0
 62
     7
100
AcDbLine
 10
10.71425111430735
 20
8.446263533343998
 30
0.0
 11
9.56759231221455
 21
8.446263533343998
 31
0.0
  0
LINE
  5
59
330
17
100
AcDbEntity
  8
0
 62
     7
100
AcDbLine
 10
10.74091759807695
 20
7.966266825491199
 30
0.0
 11
9.56759231221455
 21
7.966266825491199
 31
0.0
  0
LINE
  5
5A
330
17
100
AcDbEntity
  8
0
 62
     7
100
AcDbLine
 10
9.56759231221455
 20
8.552929468422394
 30
0.0
 11
10.74091759807695
 21
8.552929468422394
 31
0.0
  0
LINE
  5
5B
330
17
100
AcDbEntity
  8
0
 62
     7
100
AcDbLine
 10
9.56759231221455
 20
8.446263533343998
 30
0.0
 11
10.74091759807695
 21
8.446263533343998
 31
0.0
  0
LINE
  5
5C
330
17
100
AcDbEntity
  8
0
 62
     7
100
AcDbLine
 10
10.74091759807695
 20
8.072932760569596
 30
0.0
 11
9.56759231221455
 21
8.072932760569596
 31
0.0
  0
ARC
  5
5D
330
17
100
AcDbEntity
  8
0
 62
     7
100
AcDbCircle
 10
9.632338565958484
 20
8.258356503197861
 30
0.0
 40
0.1992041151259201
100
AcDbArc
 50
109.4108773157506
 51
250.5891226842493
  0
LINE
  5
5E
330
17
100
AcDbEntity
  8
0
 62
     7
100
AcDbLine
 10
9.56759231221455
 20
7.966266825491199
 30
0.0
 11
9.56759231221455
 21
8.072932760569596
 31
0.0
  0
LINE
  5
5F
330
17
100
AcDbEntity
  8
0
 62
     7
100
AcDbLine
 10
9.56759231221455
 20
8.446263533343998
 30
0.0
 11
9.56759231221455
 21
8.552929468422394
 31
0.0
  0
ARC
  5
60
330
17
100
AcDbEntity
  8
0
 62
     7
100
AcDbCircle
 10
10.67205994014636
 20
8.258356503197861
 30
0.0
 40
0.1992041151259201
100
AcDbArc
 50
289.4108773157507
 51
70.58912268424936
  0
LINE
  5
61
330
17
100
AcDbEntity
  8
0
 62
     7
100
AcDbLine
 10
10.74091759807695
 20
8.072932760569596
 30
0.0
 11
10.74091759807695
 21
7.966266825491199
 31
0.0
  0
LINE
  5
62
330
17
100
AcDbEntity
  8
0
 62
     7
100
AcDbLine
 10
10.74091759807695
 20
7.966266825491199
 30
0.0
 11
10.74091759807695
 21
7.966266825491199
 31
0.0
  0
LINE
  5
63
330
17
100
AcDbEntity
  8
0
 62
     7
100
AcDbLine
 10
10.74091759807695
 20
8.552929468422394
 30
0.0
 11
10.74091759807695
 21
8.446263533343998
 31
0.0
  0
LWPOLYLINE
  5
64
330
17
100
AcDbEntity
  8
0
 62
     7
100
AcDbPolyline
 90
        4
 70
     0
 43
0.0
 10
10.73269651933991
 20
33.15176557683597
 42
0.3768206980318931
 10
10.88131431029025
 20
33.33525307691507
 42
-0.329142767501598
 10
10.61904758024121
 20
33.66727821469472
 42
-0.2714847441461639
 10
11.18896141499607
 20
33.95183754388813
 42
-5.509514788838981
  0
LWPOLYLINE
  5
6A
330
17
100
AcDbEntity
  8
0
 62
     7
100
AcDbPolyline
 90
        4
 70
     0
 43
0.0
 10
9.561238503942451
 20
33.15176557683597
 42
-0.3768206980318931
 10
9.412620712992108
 20
33.33525307691507
 42
0.329142767501598
 10
9.674887443041143
 20
33.66727821469472
 42
0.2864246696396828
 10
9.080416279239798
 20
33.94687817859511
 42
5.509514788838981
  0
LINE
  5
70
330
17
100
AcDbEntity
  8
0
 62
     7
100
AcDbLine
 10
9.562305905050472
 20
33.15184303080012
 30
0.0
 11
10.73563119091287
 21
33.15184303080012
 31
0.0
  0
LINE
  5
71
330
17
100
AcDbEntity
  8
0
 62
     7
100
AcDbLine
 10
9.428973486202472
 20
33.33850841718733
 30
0.0
 11
10.89563009353047
 21
33.33850841718733
 31
0.0
  0
DIMENSION
  5
72
330
17
100
AcDbEntity
  8
ADPDIM
100
AcDbDimension
  2
*D6
 10
10.78896415845208
 20
40.42735348260324
 30
0.0
 11
10.14896854798168
 21
40.42735348260324
 31
0.0
 70
    32
  1
1.250
 71
     5
 42
1.2799912209408
  3
STANDARD
100
AcDbAlignedDimension
 13
9.508972937511277
 23
39.7123365587711
 33
0.0
 14
10.78896415845208
 24
39.7123365587711
 34
0.0
100
AcDbRotatedDimension
1001
ACAD
1000
DSTYLE
1002
{
1070
    41
1040
0.125
1070
    73
1070
     0
1070
    74
1070
     0
1070
    78
1070
     3
1070
   140
1040
0.125
1070
   141
1040
0.1875
1070
   142
1040
0.125
1070
   147
1040
0.125
1070
   171
1070
     1
1070
   273
1070
     5
1070
   274
1070
     1
1070
   277
1070
     5
1070
   279
1070
     2
1070
   284
1070
     3
1070
   285
1070
     3
1070
   286
1070
     3
1002
}
  0
LWPOLYLINE
  5
73
330
17
100
AcDbEntity
  8
0
 62
     7
100
AcDbPolyline
 90
        6
 70
     0
 43
0.0
 10
9.34268300928883
 20
37.20451176458915
 42
-0.1021209791461575
 10
9.403878556889491
 20
37.66905381043002
 42
0.2070592920297566
 10
9.360167321494071
 20
38.22825389035538
 42
-0.8542472729954219
 10
9.395136173345708
 20
38.25446647729501
 42
-0.3740018067679395
 10
9.596207355794085
 20
38.04476639027629
 10
9.648660747292122
 20
37.77390385393938
  0
ARC
  5
7B
330
17
100
AcDbEntity
  8
0
 62
     7
100
AcDbCircle
 10
9.202196778937011
 20
35.52434802593813
 30
0.0
 40
0.8233884256996047
100
AcDbArc
 50
8.826491668353497
 51
68.13940493897231
  0
LWPOLYLINE
  5
7C
330
17
100
AcDbEntity
  8
0
 62
     7
100
AcDbPolyline
 90
        4
 70
     0
 43
0.0
 10
10.14696751164118
 20
38.23699147004345
 42
0.1466379883255973
 10
9.648660747292122
 20
37.7651664263759
 42
0.0910434449531988
 10
9.159096139045693
 20
36.64676611440059
 42
0.3125600725606255
 10
9.552496347839827
 20
35.46720350523171
 42
14.60514073324043
  0
ARC
  5
82
330
17
100
AcDbEntity
  8
0
 62
     7
100
AcDbCircle
 10
13.93527532733873
 20
36.49992577718805
 30
0.0
 40
4.417760154396925
100
AcDbArc
 50
162.6465420994232
 51
193.5188958879339
  0
ARC
  5
83
330
17
100
AcDbEntity
  8
0
 62
     7
100
AcDbCircle
 10
10.58884672034371
 20
36.11847885643795
 30
0.0
 40
1.484243539071215
100
AcDbArc
 50
132.8877821402875
 51
172.8791126143574
  0
ARC
  5
84
330
17
100
AcDbEntity
  8
0
 62
     7
100
AcDbCircle
 10
8.841184720285903
 20
35.77570494081467
 30
0.0
 40
1.24776525557146
100
AcDbArc
 50
7.926084940803361
 51
56.21653458583342
  0
LINE
  5
85
330
17
100
AcDbEntity
  8
0
 62
     7
100
AcDbLine
 10
10.73563119091287
 20
35.47182711875532
 30
0.0
 11
9.562305905050472
 21
35.47182711875532
 31
0.0
  0
LINE
  5
86
330
17
100
AcDbEntity
  8
0
 62
     7
100
AcDbLine
 10
10.73563119091287
 20
35.28516173236813
 30
0.0
 11
9.562305905050472
 21
35.28516173236813
 31
0.0
  0
LINE
  5
87
330
17
100
AcDbEntity
  8
0
 62
     7
100
AcDbLine
 10
9.428973486202472
 20
35.09849634598092
 30
0.0
 11
10.89563009353047
 21
35.09849634598092
 31
0.0
  0
LINE
  5
88
330
17
100
AcDbEntity
  8
0
 62
     7
100
AcDbLine
 10
10.78896415845208
 20
39.7123365587711
 30
0.0
 11
9.508972937511277
 21
39.7123365587711
 31
0.0
  0
CIRCLE
  5
89
330
17
100
AcDbEntity
  8
0
 62
     7
100
AcDbCircle
 10
9.654960867593985
 20
34.22448789657284
 30
0.0
 40
0.1117834614661532
  0
LINE
  5
8A
330
17
100
AcDbEntity
  8
0
 62
     7
100
AcDbLine
 10
11.18896141499607
 20
34.48516721928012
 30
0.0
 11
9.082309197197677
 21
34.48516721928012
 31
0.0
  0
LINE
  5
8B
330
17
100
AcDbEntity
  8
0
 62
     7
100
AcDbLine
 10
9.082309197197677
 20
33.95183754388813
 30
0.0
 11
11.18896141499607
 21
33.95183754388813
 31
0.0
  0
LWPOLYLINE
  5
8C
330
17
100
AcDbEntity
  8
0
 62
     7
100
AcDbPolyline
 90
        4
 70
     0
 43
0.0
 10
9.561238503942451
 20
35.27497842546455
 42
0.3768206980318931
 10
9.412620712992108
 20
35.09149092538545
 42
-0.3034032873403235
 10
9.674887443041143
 20
34.78638770369546
 42
-0.1581544427504359
 10
9.082309197197677
 20
34.48516721928012
 42
-5.509514788838981
  0
LINE
  5
92
330
17
100
AcDbEntity
  8
0
 62
     7
100
AcDbLine
 10
9.562305905050472
 20
35.47182711875532
 30
0.0
 11
9.562305905050472
 21
35.28516173236813
 31
0.0
  0
CIRCLE
  5
93
330
17
100
AcDbEntity
  8
0
 62
     7
100
AcDbCircle
 10
9.163592650900124
 20
34.20914096011635
 30
0.0
 40
0.1117834614661532
  0
LINE
  5
94
330
17
100
AcDbEntity
  8
0
 62
     7
100
AcDbLine
 10
9.082309197197677
 20
34.48516721928012
 30
0.0
 11
9.082309197197677
 21
33.95183754388813
 31
0.0
  0
CIRCLE
  5
95
330
17
100
AcDbEntity
  8
0
 62
     7
100
AcDbCircle
 10
9.409276645526475
 20
34.20914096011635
 30
0.0
 40
0.1117834614661532
  0
ARC
  5
96
330
17
100
AcDbEntity
  8
0
 62
     7
100
AcDbCircle
 10
9.691481006689009
 20
35.89651565428476
 30
0.0
 40
0.4404301610269413
100
AcDbArc
 50
114.5075032775865
 51
193.9296078733123
  0
ARC
  5
97
330
17
100
AcDbEntity
  8
0
 62
     7
100
AcDbCircle
 10
10.25659207968479
 20
35.97064342514457
 30
0.0
 40
1.108116720154451
100
AcDbArc
 50
131.2287051534847
 51
176.6632311952785
  0
LINE
  5
98
330
17
100
AcDbEntity
  8
0
 62
     7
100
AcDbLine
 10
9.508972937511277
 20
39.7123365587711
 30
0.0
 11
9.50004295634179
 21
38.1225805248809
 31
0.0
  0
ARC
  5
99
330
17
100
AcDbEntity
  8
0
 62
     7
100
AcDbCircle
 10
9.178425438013491
 20
36.34651553692182
 30
0.0
 40
0.9285681146369771
100
AcDbArc
 50
16.60125260384516
 51
65.05953161725692
  0
LINE
  5
9A
330
17
100
AcDbEntity
  8
0
 62
     7
100
AcDbLine
 10
10.14896854798167
 20
37.79181120671052
 30
0.0
 11
10.03509996175273
 21
36.88086251687903
 31
0.0
  0
LINE
  5
9B
330
17
100
AcDbEntity
  8
0
 62
     7
100
AcDbLine
 10
10.26092864240296
 20
36.89613045134025
 30
0.0
 11
10.14896854798167
 21
37.79181120671052
 31
0.0
  0
ARC
  5
9C
330
17
100
AcDbEntity
  8
0
 62
     7
100
AcDbCircle
 10
11.11550958526886
 20
36.34651553692182
 30
0.0
 40
0.9285681146369672
100
AcDbArc
 50
114.9404683827431
 51
163.398747396155
  0
ARC
  5
9D
330
17
100
AcDbEntity
  8
0
 62
     7
100
AcDbCircle
 10
9.838618644104821
 20
36.16382112329241
 30
0.0
 40
1.345338789021541
100
AcDbArc
 50
8.317192409329454
 51
49.33930776616738
  0
ARC
  5
9E
330
17
100
AcDbEntity
  8
0
 62
     7
100
AcDbCircle
 10
6.358659695943629
 20
36.49992577718805
 30
0.0
 40
4.417760154396925
100
AcDbArc
 50
346.4811041120661
 51
17.35345790057676
  0
LWPOLYLINE
  5
9F
330
17
100
AcDbEntity
  8
0
 62
     7
100
AcDbPolyline
 90
        4
 70
     0
 43
0.0
 10
9.692371982687546
 20
37.85254146263369
 42
-0.1489525582881374
 10
9.928412016987568
 20
37.4506162958478
 42
-0.0652650985037422
 10
10.08577196404051
 20
35.95650355615082
 42
-0.1520817404271801
 10
9.919669633443781
 20
35.46720350523171
 42
-1.058455286006532
  0
LWPOLYLINE
  5
A5
330
17
100
AcDbEntity
  8
0
 62
     7
100
AcDbPolyline
 90
        4
 70
     0
 43
0.0
 10
10.60156304059481
 20
37.85254146263369
 42
0.1489525582881475
 10
10.36552300629479
 20
37.4506162958478
 42
0.0652650985037422
 10
10.20816305924184
 20
35.95650355615082
 42
0.1520817404271813
 10
10.37426538983857
 20
35.46720350523171
 42
1.058455286006532
  0
LWPOLYLINE
  5
AB
330
17
100
AcDbEntity
  8
0
 62
     7
100
AcDbPolyline
 90
        4
 70
     0
 43
0.0
 10
10.14696751164118
 20
38.23699147004345
 42
-0.146637988325589
 10
10.64527427599023
 20
37.7651664263759
 42
-0.0910434449531988
 10
11.13483888423667
 20
36.64676611440059
 42
-0.3125600725606255
 10
10.74143867544253
 20
35.46720350523171
 42
-14.60514073324043
  0
ARC
  5
B1
330
17
100
AcDbEntity
  8
0
 62
     7
100
AcDbCircle
 10
10.62039075748608
 20
35.89837743702842
 30
0.0
 40
0.4235133786263303
100
AcDbArc
 50
345.2417399865411
 51
67.10588101788548
  0
ARC
  5
B2
330
17
100
AcDbEntity
  8
0
 62
     7
100
AcDbCircle
 10
10.03734294359756
 20
35.97064342514457
 30
0.0
 40
1.108116720154451
100
AcDbArc
 50
3.336768804721425
 51
48.77129484651533
  0
CIRCLE
  5
B3
330
17
100
AcDbEntity
  8
0
 62
     7
100
AcDbCircle
 10
10.88338106816688
 20
34.20914096011635
 30
0.0
 40
0.1117834614661532
  0
LWPOLYLINE
  5
B4
330
17
100
AcDbEntity
  8
0
 62
     7
100
AcDbPolyline
 90
        4
 70
     0
 43
0.0
 10
10.73269651933991
 20
35.27497842546455
 42
-0.3768206980318931
 10
10.88131431029025
 20
35.09149092538545
 42
0.2947119019870717
 10
10.61904758024121
 20
34.79423900886243
 42
0.2100928559827583
 10
11.18896141499607
 20
34.48516721928012
 42
5.509514788838981
  0
LINE
  5
BA
330
17
100
AcDbEntity
  8
0
 62
     7
100
AcDbLine
 10
10.73563119091287
 20
35.28516173236813
 30
0.0
 11
10.73563119091287
 21
35.47182711875532
 31
0.0
  0
CIRCLE
  5
BB
330
17
100
AcDbEntity
  8
0
 62
     7
100
AcDbCircle
 10
9.900644862220335
 20
34.20914096011635
 30
0.0
 40
0.1117834614661532
  0
CIRCLE
  5
BC
330
17
100
AcDbEntity
  8
0
 62
     7
100
AcDbCircle
 10
10.1309736213976
 20
34.20914096011635
 30
0.0
 40
0.1117834614661532
  0
CIRCLE
  5
BD
330
17
100
AcDbEntity
  8
0
 62
     7
100
AcDbCircle
 10
10.62234183809146
 20
34.20914096011635
 30
0.0
 40
0.1117834614661532
  0
CIRCLE
  5
BE
330
17
100
AcDbEntity
  8
0
 62
     7
100
AcDbCircle
 10
10.39201285147302
 20
34.20914096011635
 30
0.0
 40
0.1117834614661532
  0
ARC
  5
BF
330
17
100
AcDbEntity
  8
0
 62
     7
100
AcDbCircle
 10
11.09173824434535
 20
35.52434802593813
 30
0.0
 40
0.8233884256996047
100
AcDbArc
 50
111.8605950610277
 51
171.1735083316465
  0
ARC
  5
C0
330
17
100
AcDbEntity
  8
0
 62
     7
100
AcDbCircle
 10
11.45275030299647
 20
35.77570494081466
 30
0.0
 40
1.247765255571481
100
AcDbArc
 50
123.7834654141671
 51
172.0739150591963
  0
CIRCLE
  5
C1
330
17
100
AcDbEntity
  8
0
 62
     7
100
AcDbCircle
 10
11.12906506279323
 20
34.20914096011635
 30
0.0
 40
0.1117834614661532
  0
LINE
  5
C2
330
17
100
AcDbEntity
  8
0
 62
     7
100
AcDbLine
 10
11.18896141499607
 20
33.95183754388813
 30
0.0
 11
11.18896141499607
 21
34.48516721928012
 31
0.0
  0
LWPOLYLINE
  5
C3
330
17
100
AcDbEntity
  8
0
 62
     7
100
AcDbPolyline
 90
        6
 70
     0
 43
0.0
 10
10.95125201399353
 20
37.17975375951091
 42
0.1033242436265531
 10
10.89005646639287
 20
37.66905381043002
 42
-0.2070592920297566
 10
10.93376770178829
 20
38.22825389035538
 42
0.8542472729954219
 10
10.89879884993665
 20
38.25446647729501
 42
0.374001806767902
 10
10.69772766748827
 20
38.04476639027629
 10
10.64527427599023
 20
37.77390385393938
  0
LINE
  5
CB
330
17
100
AcDbEntity
  8
0
 62
     7
100
AcDbLine
 10
10.78429510043922
 20
38.14005553213247
 30
0.0
 11
10.78896415845208
 21
39.7123365587711
 31
0.0
  0
CIRCLE
  5
CC
330
17
100
AcDbEntity
  8
0
100
AcDbCircle
 10
10.17364887870639
 20
41.40806930097529
 30
0.0
 40
0.625
  0
TEXT
  5
D6
330
17
100
AcDbEntity
  8
ADPDIM
100
AcDbText
 10
-22.14554031968544
 20
-0.040193108036987
 30
0.0
 40
0.625
  1
J U L I U S  B L U M  &  C O . ,  I N C .      ( 8 0 0 )  5 2 6 - 6 2 9 3        W W W . J U L I U S B L U M . C O M        P A R T  N O .  1 5 4
 41
1.25
  7
ARIAL_WIDE
 72
     1
 11
10.14896854798168
 21
0.5848068919630131
 31
0.0
100
AcDbText
 73
     3
  0
DIMENSION
  5
20D
330
17
100
AcDbEntity
  8
ADPDIM
100
AcDbDimension
  2
*D7
 10
11.83882223235644
 20
35.4623365587711
 30
0.0
 11
11.83882223235644
 21
37.5873365587711
 31
0.0
 70
    32
 71
     5
 42
4.25
  3
STANDARD
100
AcDbAlignedDimension
 13
10.78896415845208
 23
39.7123365587711
 33
0.0
 14
10.78896415845208
 24
35.4623365587711
 34
0.0
 50
90.0
100
AcDbRotatedDimension
1001
ACAD
1000
DSTYLE
1002
{
1070
    41
1040
0.125
1070
    73
1070
     0
1070
    74
1070
     0
1070
    78
1070
     3
1070
   140
1040
0.125
1070
   141
1040
0.1875
1070
   142
1040
0.125
1070
   147
1040
0.125
1070
   171
1070
     1
1070
   273
1070
     5
1070
   274
1070
     1
1070
   277
1070
     5
1070
   279
1070
     2
1070
   284
1070
     3
1070
   285
1070
     3
1070
   286
1070
     3
1002
}
  0
DIMENSION
  5
239
330
17
100
AcDbEntity
  8
ADPDIM
100
AcDbDimension
  2
*D10
 10
11.70548977958276
 20
3.715949773047793
 30
0.0
 11
11.70548977958276
 21
5.840949773047794
 31
0.0
 70
    32
 71
     5
 42
4.25
  3
STANDARD
100
AcDbAlignedDimension
 13
10.65563170567839
 23
7.965949773047793
 33
0.0
 14
10.65563170567839
 24
3.715949773047793
 34
0.0
 50
90.0
100
AcDbRotatedDimension
1001
ACAD
1000
DSTYLE
1002
{
1070
    41
1040
0.125
1070
    73
1070
     0
1070
    74
1070
     0
1070
    78
1070
     3
1070
   140
1040
0.125
1070
   141
1040
0.1875
1070
   142
1040
0.125
1070
   147
1040
0.125
1070
   171
1070
     1
1070
   273
1070
     5
1070
   274
1070
     1
1070
   277
1070
     5
1070
   279
1070
     2
1070
   284
1070
     3
1070
   285
1070
     3
1070
   286
1070
     3
1002
}
  0
ENDSEC
  0
SECTION
  2
OBJECTS
  0
DICTIONARY
  5
C
330
0
100
AcDbDictionary
281
     1
  3
ACAD_COLOR
350
1D9
  3
ACAD_GROUP
350
D
  3
ACAD_LAYOUT
350
DB
  3
ACAD_MATERIAL
350
1C4
  3
ACAD_MLINESTYLE
350
1A
  3
ACAD_PLOTSETTINGS
350
DC
  3
ACAD_PLOTSTYLENAME
350
D9
  3
ACAD_TABLESTYLE
350
1DA
  3
ACAD_VISUALSTYLE
350
1C8
  3
ACDBVARIABLEDICTIONARY
350
26
  3
ASE_INDEX_DICTIONARY
350
25C
  3
DWGPROPS
350
278
  0
DICTIONARY
  5
108
330
17
100
AcDbDictionary
280
     1
281
     1
  3
ACAD_LAYOUTSELFREF
360
1BE
  0
DICTIONARY
  5
106
330
14
100
AcDbDictionary
280
     1
281
     1
  3
ACAD_LAYOUTSELFREF
360
1BD
  0
DICTIONARY
  5
1D9
102
{ACAD_REACTORS
330
C
102
}
330
C
100
AcDbDictionary
281
     1
  0
DICTIONARY
  5
D
102
{ACAD_REACTORS
330
C
102
}
330
C
100
AcDbDictionary
281
     1
  0
DICTIONARY
  5
DB
102
{ACAD_REACTORS
330
C
102
}
330
C
100
AcDbDictionary
281
     1
  3
Layout1
350
DE
  3
Model
350
DD
  0
DICTIONARY
  5
1C4
102
{ACAD_REACTORS
330
C
102
}
330
C
100
AcDbDictionary
281
     1
  3
ByBlock
350
1C6
  3
ByLayer
350
1C5
  3
Global
350
1C7
  0
DICTIONARY
  5
1A
102
{ACAD_REACTORS
330
C
102
}
330
C
100
AcDbDictionary
281
     1
  3
STANDARD
350
1B
  0
DICTIONARY
  5
DC
102
{ACAD_REACTORS
330
C
102
}
330
C
100
AcDbDictionary
281
     1
  0
ACDBDICTIONARYWDFLT
  5
D9
102
{ACAD_REACTORS
330
C
102
}
330
C
100
AcDbDictionary
281
     1
  3
Normal
350
DA
100
AcDbDictionaryWithDefault
340
DA
  0
DICTIONARY
  5
1DA
102
{ACAD_REACTORS
330
C
102
}
330
C
100
AcDbDictionary
281
     1
  3
Standard
350
1DB
  0
DICTIONARY
  5
1C8
102
{ACAD_REACTORS
330
C
102
}
330
C
100
AcDbDictionary
281
     1
  3
2dWireframe
350
1CE
  3
3D Hidden
350
1D0
  3
3dWireframe
350
1CF
  3
Basic
350
1CD
  3
Brighten
350
1D4
  3
ColorChange
350
1D8
  3
Conceptual
350
1D1
  3
Dim
350
1D3
  3
Facepattern
350
1D7
  3
Flat
350
1C9
  3
FlatWithEdges
350
1CA
  3
Gouraud
350
1CB
  3
GouraudWithEdges
350
1CC
  3
Linepattern
350
1D6
  3
Realistic
350
1D2
  3
Thicken
350
1D5
  0
DICTIONARY
  5
26
102
{ACAD_REACTORS
330
C
102
}
330
C
100
AcDbDictionary
281
     1
  3
CTABLESTYLE
350
25E
  3
DIMADEC
350
27
  3
DIMASSOC
350
10E
  3
INDEXCTL
350
277
  3
SORTENTS
350
276
  0
DICTIONARY
  5
25C
102
{ACAD_REACTORS
330
C
102
}
330
C
100
AcDbDictionary
281
     1
  3
ASEBlockHierarchyIndexRecord
350
25D
1001
DCO15
1040
1567448949.381
  0
XRECORD
  5
278
102
{ACAD_REACTORS
330
C
102
}
330
C
100
AcDbXrecord
280
     1
  1
DWGPROPS COOKIE
  2

  3

  4

  6

  7

  8
Yu Hu
  9

300
=
301
=
302
=
303
=
304
=
305
=
306
=
307
=
308
=
309
=
 40
0.0152085416666667
 41
2450373.694326574
 42
2453944.982099317
  1

 90
        0
  0
XRECORD
  5
1BE
102
{ACAD_REACTORS
330
108
102
}
330
108
100
AcDbXrecord
280
     1
340
17
  0
XRECORD
  5
1BD
102
{ACAD_REACTORS
330
106
102
}
330
106
100
AcDbXrecord
280
     1
340
14
  0
LAYOUT
  5
DE
102
{ACAD_XDICTIONARY
360
27B
102
}
102
{ACAD_REACTORS
330
DB
102
}
330
DB
100
AcDbPlotSettings
  1

  2
Fax
  4

  6

 40
0.0
 41
0.0
 42
0.0
 43
0.0
 44
0.0
 45
0.0
 46
0.0
 47
0.0
 48
0.0
 49
0.0
140
0.0
141
0.0
142
1.0
143
1.0
 70
   688
 72
     0
 73
     0
 74
     5
  7
Default R14 pen assignments.ctb
 75
    16
147
1.0
148
0.0
149
0.0
100
AcDbLayout
  1
Layout1
 70
     1
 71
     1
 10
0.0
 20
0.0
 11
12.0
 21
9.0
 12
1.667196317885515E+99
 22
2.439420651286265E+99
 32
0.0
 14
1.000000000000000E+20
 24
1.000000000000000E+20
 34
1.000000000000000E+20
 15
-1.000000000000000E+20
 25
-1.000000000000000E+20
 35
-1.000000000000000E+20
146
0.0
 13
0.0
 23
0.0
 33
0.0
 16
1.0
 26
0.0
 36
0.0
 17
0.0
 27
1.0
 37
0.0
 76
     0
330
14
  0
LAYOUT
  5
DD
102
{ACAD_XDICTIONARY
360
279
102
}
102
{ACAD_REACTORS
330
DB
102
}
330
DB
100
AcDbPlotSettings
  1

  2
Fax
  4

  6

 40
0.0
 41
0.0
 42
0.0
 43
0.0
 44
0.0
 45
0.0
 46
0.0
 47
0.0
 48
0.0
 49
0.0
140
0.0
141
0.0
142
1.0
143
1.0
 70
  1712
 72
     0
 73
     0
 74
     0
  7
Default R14 pen assignments.ctb
 75
     0
147
1.0
148
0.0
149
0.0
100
AcDbLayout
  1
Model
 70
     1
 71
     0
 10
0.0
 20
0.0
 11
12.0
 21
9.0
 12
0.0
 22
0.0
 32
0.0
 14
0.0
 24
0.0
 34
0.0
 15
0.0
 25
0.0
 35
0.0
146
0.0
 13
0.0
 23
0.0
 33
0.0
 16
1.0
 26
0.0
 36
0.0
 17
0.0
 27
1.0
 37
0.0
 76
     0
330
17
331
199
  0
MATERIAL
  5
1C6
102
{ACAD_XDICTIONARY
360
27F
102
}
102
{ACAD_REACTORS
330
1C4
102
}
330
1C4
100
AcDbMaterial
  1
ByBlock
  0
MATERIAL
  5
1C5
102
{ACAD_XDICTIONARY
360
27D
102
}
102
{ACAD_REACTORS
330
1C4
102
}
330
1C4
100
AcDbMaterial
  1
ByLayer
  0
MATERIAL
  5
1C7
102
{ACAD_XDICTIONARY
360
281
102
}
102
{ACAD_REACTORS
330
1C4
102
}
330
1C4
100
AcDbMaterial
  1
Global
  0
MLINESTYLE
  5
1B
102
{ACAD_REACTORS
330
1A
102
}
330
1A
100
AcDbMlineStyle
  2
STANDARD
 70
     0
  3

 62
   256
 51
90.0
 52
90.0
 71
     2
 49
0.5
 62
   256
  6
BYLAYER
 49
-0.5
 62
   256
  6
BYLAYER
  0
ACDBPLACEHOLDER
  5
DA
102
{ACAD_REACTORS
330
D9
102
}
330
D9
  0
TABLESTYLE
  5
1DB
102
{ACAD_XDICTIONARY
360
283
102
}
102
{ACAD_REACTORS
330
1DA
102
}
330
1DA
100
AcDbTableStyle
  3
Standard
 70
     0
 71
     0
 40
0.06
 41
0.06
280
     0
281
     0
  7
STANDARD
140
0.18
170
     2
 62
     0
 63
     7
283
     0
274
    -2
284
     1
 64
     0
275
    -2
285
     1
 65
     0
276
    -2
286
     1
 66
     0
277
    -2
287
     1
 67
     0
278
    -2
288
     1
 68
     0
279
    -2
289
     1
 69
     0
  7
STANDARD
140
0.25
170
     5
 62
     0
 63
     7
283
     0
274
    -2
284
     1
 64
     0
275
    -2
285
     1
 65
     0
276
    -2
286
     1
 66
     0
277
    -2
287
     1
 67
     0
278
    -2
288
     1
 68
     0
279
    -2
289
     1
 69
     0
  7
STANDARD
140
0.18
170
     5
 62
     0
 63
     7
283
     0
274
    -2
284
     1
 64
     0
275
    -2
285
     1
 65
     0
276
    -2
286
     1
 66
     0
277
    -2
287
     1
 67
     0
278
    -2
288
     1
 68
     0
279
    -2
289
     1
 69
     0
  0
VISUALSTYLE
  5
1CE
102
{ACAD_REACTORS
330
1C8
102
}
330
1C8
100
AcDbVisualStyle
  2
2dWireframe
 70
     4
 71
     0
 72
     2
 73
     0
 90
        0
 40
-0.6
 41
-30.0
 62
     5
 63
     7
 74
     1
 91
        4
 64
     7
 65
   257
 75
     1
175
     1
 42
1.0
 92
        0
 66
   257
 43
1.0
 76
     1
 77
     6
 78
     2
 67
     7
 79
     5
170
     0
171
     0
290
     0
174
     0
 93
        1
 44
0.0
173
     0
291
     0
 45
0.0
1001
ACAD
1000
AcDbSavedByObjectVersion
1070
     0
  0
VISUALSTYLE
  5
1D0
102
{ACAD_REACTORS
330
1C8
102
}
330
1C8
100
AcDbVisualStyle
  2
3D Hidden
 70
     6
 71
     1
 72
     2
 73
     2
 90
        0
 40
-0.6
 41
-30.0
 62
     5
 63
     7
 74
     2
 91
        2
 64
     7
 65
   257
 75
     2
175
     1
 42
40.0
 92
        0
 66
   257
 43
1.0
 76
     1
 77
     6
 78
     2
 67
     7
 79
     3
170
     0
171
     0
290
     0
174
     0
 93
        1
 44
0.0
173
     0
291
     0
 45
0.0
1001
ACAD
1000
AcDbSavedByObjectVersion
1070
     0
  0
VISUALSTYLE
  5
1CF
102
{ACAD_REACTORS
330
1C8
102
}
330
1C8
100
AcDbVisualStyle
  2
3dWireframe
 70
     5
 71
     0
 72
     2
 73
     0
 90
        0
 40
-0.6
 41
-30.0
 62
     5
 63
     7
 74
     1
 91
        4
 64
     7
 65
   257
 75
     1
175
     1
 42
1.0
 92
        0
 66
   257
 43
1.0
 76
     1
 77
     6
 78
     2
 67
     7
 79
     5
170
     0
171
     0
290
     0
174
     0
 93
        1
 44
0.0
173
     0
291
     0
 45
0.0
1001
ACAD
1000
AcDbSavedByObjectVersion
1070
     0
  0
VISUALSTYLE
  5
1CD
102
{ACAD_REACTORS
330
1C8
102
}
330
1C8
100
AcDbVisualStyle
  2
Basic
 70
     7
 71
     1
 72
     0
 73
     1
 90
        0
 40
-0.6
 41
-30.0
 62
     5
 63
     7
 74
     0
 91
        4
 64
     7
 65
   257
 75
     1
175
     1
 42
1.0
 92
        8
 66
     7
 43
1.0
 76
     1
 77
     6
 78
     2
 67
     7
 79
     5
170
     0
171
     0
290
     0
174
     0
 93
        1
 44
0.0
173
     0
291
     1
 45
0.0
1001
ACAD
1000
AcDbSavedByObjectVersion
1070
     0
  0
VISUALSTYLE
  5
1D4
102
{ACAD_REACTORS
330
1C8
102
}
330
1C8
100
AcDbVisualStyle
  2
Brighten
 70
    12
 71
     2
 72
     2
 73
     0
 90
        0
 40
-0.6
 41
-30.0
 62
     5
 63
     7
 74
     1
 91
        4
 64
     7
 65
   257
 75
     1
175
     1
 42
1.0
 92
        8
 66
     7
 43
1.0
 76
     1
 77
     6
 78
     2
 67
     7
 79
     5
170
     0
171
     0
290
     0
174
     0
 93
        1
 44
50.0
173
     0
291
     1
 45
0.0
1001
ACAD
1000
AcDbSavedByObjectVersion
1070
     0
  0
VISUALSTYLE
  5
1D8
102
{ACAD_REACTORS
330
1C8
102
}
330
1C8
100
AcDbVisualStyle
  2
ColorChange
 70
    16
 71
     2
 72
     2
 73
     3
 90
        0
 40
-0.6
 41
-30.0
 62
     5
 63
     8
 74
     1
 91
        4
 64
     7
 65
   257
 75
     1
175
     1
 42
1.0
 92
        8
 66
     8
 43
1.0
 76
     1
 77
     6
 78
     2
 67
     7
 79
     5
170
     0
171
     0
290
     0
174
     0
 93
        1
 44
0.0
173
     0
291
     1
 45
0.0
1001
ACAD
1000
AcDbSavedByObjectVersion
1070
     0
  0
VISUALSTYLE
  5
1D1
102
{ACAD_REACTORS
330
1C8
102
}
330
1C8
100
AcDbVisualStyle
  2
Conceptual
 70
     9
 71
     3
 72
     2
 73
     0
 90
        0
 40
-0.6
 41
-30.0
 62
     5
 63
     7
 74
     2
 91
        2
 64
     7
 65
   257
 75
     1
175
     1
 42
40.0
 92
        8
 66
     7
 43
1.0
 76
     1
 77
     6
 78
     2
 67
     7
 79
     3
170
     0
171
     0
290
     0
174
     0
 93
        1
 44
0.0
173
     0
291
     0
 45
0.0
1001
ACAD
1000
AcDbSavedByObjectVersion
1070
     0
  0
VISUALSTYLE
  5
1D3
102
{ACAD_REACTORS
330
1C8
102
}
330
1C8
100
AcDbVisualStyle
  2
Dim
 70
    11
 71
     2
 72
     2
 73
     0
 90
        0
 40
-0.6
 41
-30.0
 62
     5
 63
     7
 74
     1
 91
        4
 64
     7
 65
   257
 75
     1
175
     1
 42
1.0
 92
        8
 66
     7
 43
1.0
 76
     1
 77
     6
 78
     2
 67
     7
 79
     5
170
     0
171
     0
290
     0
174
     0
 93
        1
 44
-50.0
173
     0
291
     1
 45
0.0
1001
ACAD
1000
AcDbSavedByObjectVersion
1070
     0
  0
VISUALSTYLE
  5
1D7
102
{ACAD_REACTORS
330
1C8
102
}
330
1C8
100
AcDbVisualStyle
  2
Facepattern
 70
    15
 71
     2
 72
     2
 73
     0
 90
        0
 40
-0.6
 41
-30.0
 62
     5
 63
     7
 74
     1
 91
        4
 64
     7
 65
   257
 75
     1
175
     1
 42
1.0
 92
        8
 66
     7
 43
1.0
 76
     1
 77
     6
 78
     2
 67
     7
 79
     5
170
     0
171
     0
290
     0
174
     0
 93
        1
 44
0.0
173
     0
291
     1
 45
0.0
1001
ACAD
1000
AcDbSavedByObjectVersion
1070
     0
  0
VISUALSTYLE
  5
1C9
102
{ACAD_REACTORS
330
1C8
102
}
330
1C8
100
AcDbVisualStyle
  2
Flat
 70
     0
 71
     2
 72
     1
 73
     1
 90
        2
 40
-0.6
 41
30.0
 62
     5
 63
     7
 74
     0
 91
        4
 64
     7
 65
   257
 75
     1
175
     1
 42
1.0
 92
        8
 66
     7
 43
1.0
 76
     1
 77
     6
 78
     2
 67
     7
 79
     5
170
     0
171
     0
290
     0
174
     0
 93
       13
 44
0.0
173
     0
291
     1
 45
0.0
1001
ACAD
1000
AcDbSavedByObjectVersion
1070
     0
  0
VISUALSTYLE
  5
1CA
102
{ACAD_REACTORS
330
1C8
102
}
330
1C8
100
AcDbVisualStyle
  2
FlatWithEdges
 70
     1
 71
     2
 72
     1
 73
     1
 90
        2
 40
-0.6
 41
30.0
 62
     5
 63
     7
 74
     1
 91
        4
 64
     7
 65
   257
 75
     1
175
     1
 42
1.0
 92
        0
 66
   257
 43
1.0
 76
     1
 77
     6
 78
     2
 67
     7
 79
     5
170
     0
171
     0
290
     0
174
     0
 93
       13
 44
0.0
173
     0
291
     1
 45
0.0
1001
ACAD
1000
AcDbSavedByObjectVersion
1070
     0
  0
VISUALSTYLE
  5
1CB
102
{ACAD_REACTORS
330
1C8
102
}
330
1C8
100
AcDbVisualStyle
  2
Gouraud
 70
     2
 71
     2
 72
     2
 73
     1
 90
        2
 40
-0.6
 41
30.0
 62
     5
 63
     7
 74
     0
 91
        4
 64
     7
 65
   257
 75
     1
175
     1
 42
1.0
 92
        0
 66
     7
 43
1.0
 76
     1
 77
     6
 78
     2
 67
     7
 79
     5
170
     0
171
     0
290
     0
174
     0
 93
       13
 44
0.0
173
     0
291
     1
 45
0.0
1001
ACAD
1000
AcDbSavedByObjectVersion
1070
     0
  0
VISUALSTYLE
  5
1CC
102
{ACAD_REACTORS
330
1C8
102
}
330
1C8
100
AcDbVisualStyle
  2
GouraudWithEdges
 70
     3
 71
     2
 72
     2
 73
     1
 90
        2
 40
-0.6
 41
30.0
 62
     5
 63
     7
 74
     1
 91
        4
 64
     7
 65
   257
 75
     1
175
     1
 42
1.0
 92
        0
 66
   257
 43
1.0
 76
     1
 77
     6
 78
     2
 67
     7
 79
     5
170
     0
171
     0
290
     0
174
     0
 93
       13
 44
0.0
173
     0
291
     1
 45
0.0
1001
ACAD
1000
AcDbSavedByObjectVersion
1070
     0
  0
VISUALSTYLE
  5
1D6
102
{ACAD_REACTORS
330
1C8
102
}
330
1C8
100
AcDbVisualStyle
  2
Linepattern
 70
    14
 71
     2
 72
     2
 73
     0
 90
        0
 40
-0.6
 41
-30.0
 62
     5
 63
     7
 74
     1
 91
        4
 64
     7
 65
   257
 75
     7
175
     7
 42
1.0
 92
        8
 66
     7
 43
1.0
 76
     1
 77
     6
 78
     2
 67
     7
 79
     5
170
     0
171
     0
290
     0
174
     0
 93
        1
 44
0.0
173
     0
291
     1
 45
0.0
1001
ACAD
1000
AcDbSavedByObjectVersion
1070
     0
  0
VISUALSTYLE
  5
1D2
102
{ACAD_REACTORS
330
1C8
102
}
330
1C8
100
AcDbVisualStyle
  2
Realistic
 70
     8
 71
     2
 72
     2
 73
     0
 90
        0
 40
-0.6
 41
-30.0
 62
     5
 63
     7
 74
     1
 91
        0
 64
     7
 65
   257
 75
     1
175
     1
 42
1.0
 92
        8
 66
     8
 43
1.0
 76
     1
 77
     6
 78
     2
 67
     7
 79
     5
170
     0
171
     0
290
     0
174
     0
 93
       13
 44
0.0
173
     0
291
     0
 45
0.0
1001
ACAD
1000
AcDbSavedByObjectVersion
1070
     0
  0
VISUALSTYLE
  5
1D5
102
{ACAD_REACTORS
330
1C8
102
}
330
1C8
100
AcDbVisualStyle
  2
Thicken
 70
    13
 71
     2
 72
     2
 73
     0
 90
        0
 40
-0.6
 41
-30.0
 62
     5
 63
     7
 74
     1
 91
        4
 64
     7
 65
   257
 75
     1
175
     1
 42
1.0
 92
       12
 66
     7
 43
1.0
 76
     1
 77
     6
 78
     2
 67
     7
 79
     5
170
     0
171
     0
290
     0
174
     0
 93
        1
 44
0.0
173
     0
291
     1
 45
0.0
1001
ACAD
1000
AcDbSavedByObjectVersion
1070
     0
  0
DICTIONARYVAR
  5
25E
102
{ACAD_REACTORS
330
26
102
}
330
26
100
DictionaryVariables
280
     0
  1
STANDARD
  0
DICTIONARYVAR
  5
27
102
{ACAD_REACTORS
330
26
102
}
330
26
100
DictionaryVariables
280
     0
  1
0
  0
DICTIONARYVAR
  5
10E
102
{ACAD_REACTORS
330
26
102
}
330
26
100
DictionaryVariables
280
     0
  1
1
  0
DICTIONARYVAR
  5
277
102
{ACAD_REACTORS
330
26
102
}
330
26
100
DictionaryVariables
280
     0
  1
0
  0
DICTIONARYVAR
  5
276
102
{ACAD_REACTORS
330
26
102
}
330
26
100
DictionaryVariables
280
     0
  1
127
  0
XRECORD
  5
25D
102
{ACAD_REACTORS
330
25C
102
}
330
25C
100
AcDbXrecord
280
     1
  0
DICTIONARY
  5
27B
330
DE
100
AcDbDictionary
280
     1
281
     1
  3
ACAD_XREC_ROUNDTRIP
360
27C
  0
DICTIONARY
  5
279
330
DD
100
AcDbDictionary
280
     1
281
     1
  3
ACAD_XREC_ROUNDTRIP
360
27A
  0
DICTIONARY
  5
27F
330
1C6
100
AcDbDictionary
280
     1
281
     1
  3
ACAD_XREC_ROUNDTRIP
360
280
  0
DICTIONARY
  5
27D
330
1C5
100
AcDbDictionary
280
     1
281
     1
  3
ACAD_XREC_ROUNDTRIP
360
27E
  0
DICTIONARY
  5
281
330
1C7
100
AcDbDictionary
280
     1
281
     1
  3
ACAD_XREC_ROUNDTRIP
360
282
  0
DICTIONARY
  5
283
330
1DB
100
AcDbDictionary
280
     1
281
     1
  3
ACAD_XREC_ROUNDTRIP
360
284
  0
XRECORD
  5
27C
102
{ACAD_REACTORS
330
27B
102
}
330
27B
100
AcDbXrecord
280
     1
102
SHADEPLOT
 70
     0
102
SHADEPLOTRESLEVEL
 70
     2
102
SHADEPLOTCUSTOMDPI
 70
   300
  0
XRECORD
  5
27A
102
{ACAD_REACTORS
330
279
102
}
330
279
100
AcDbXrecord
280
     1
102
SHADEPLOT
 70
     0
102
SHADEPLOTRESLEVEL
 70
     2
102
SHADEPLOTCUSTOMDPI
 70
   300
  0
XRECORD
  5
280
102
{ACAD_REACTORS
330
27F
102
}
330
27F
100
AcDbXrecord
280
     1
102
MATERIAL
148
0.0
149
0.0
149
0.0
 93
        0
 94
       63
282
     0
 72
     1
 77
     1
171
     1
175
     1
179
     1
273
     0
  0
XRECORD
  5
27E
102
{ACAD_REACTORS
330
27D
102
}
330
27D
100
AcDbXrecord
280
     1
102
MATERIAL
148
0.0
149
0.0
149
0.0
 93
        0
 94
       63
282
     0
 72
     1
 77
     1
171
     1
175
     1
179
     1
273
     0
  0
XRECORD
  5
282
102
{ACAD_REACTORS
330
281
102
}
330
281
100
AcDbXrecord
280
     1
102
MATERIAL
148
0.0
149
0.0
149
0.0
 93
        0
 94
       63
282
     0
 72
     1
 77
     1
171
     1
175
     1
179
     1
273
     0
  0
XRECORD
  5
284
102
{ACAD_REACTORS
330
283
102
}
330
283
100
AcDbXrecord
280
     1
102
ACAD_ROUNDTRIP_PRE2007_TABLESTYLE
 90
      512
 91
        0
  1

 92
      512
 93
        0
  2

 94
      512
 95
        0
  3

  0
ENDSEC
  0
EOF
