  0
SECTION
  2
HEADER
  9
$ACADVER
  1
AC1014
  9
$ACADMAINTVER
 70
     9
  9
$DWGCODEPAGE
  3
ANSI_1252
  9
$INSBASE
 10
-17.940651268763
 20
2.37333520272698
 30
0.0
  9
$EXTMIN
 10
-25.64010924153409
 20
-0.2655572714958567
 30
0.0
  9
$EXTMAX
 10
-12.15240886636355
 20
7.795607579937527
 30
0.0
  9
$LIMMIN
 10
0.0
 20
0.0
  9
$LIMMAX
 10
36.0
 20
36.0
  9
$ORTHOMODE
 70
     1
  9
$REGENMODE
 70
     1
  9
$FILLMODE
 70
     1
  9
$QTEXTMODE
 70
     0
  9
$MIRRTEXT
 70
     1
  9
$DRAGMODE
 70
     0
  9
$LTSCALE
 40
1.0
  9
$OSMODE
 70
    37
  9
$ATTMODE
 70
     1
  9
$TEXTSIZE
 40
0.2
  9
$TRACEWID
 40
0.05
  9
$TEXTSTYLE
  7
STANDARD
  9
$CLAYER
  8
ADPDIM
  9
$CELTYPE
  6
BYLAYER
  9
$CECOLOR
 62
   256
  9
$CELTSCALE
 40
1.0
  9
$DELOBJ
 70
     1
  9
$DISPSILH
 70
     0
  9
$DIMSCALE
 40
1.0
  9
$DIMASZ
 40
0.125
  9
$DIMEXO
 40
0.0625
  9
$DIMDLI
 40
0.38
  9
$DIMRND
 40
0.0
  9
$DIMDLE
 40
0.0
  9
$DIMEXE
 40
0.18
  9
$DIMTP
 40
0.0
  9
$DIMTM
 40
0.0
  9
$DIMTXT
 40
0.125
  9
$DIMCEN
 40
0.1875
  9
$DIMTSZ
 40
0.125
  9
$DIMTOL
 70
     0
  9
$DIMLIM
 70
     0
  9
$DIMTIH
 70
     0
  9
$DIMTOH
 70
     0
  9
$DIMSE1
 70
     0
  9
$DIMSE2
 70
     0
  9
$DIMTAD
 70
     0
  9
$DIMZIN
 70
     3
  9
$DIMBLK
  1

  9
$DIMASO
 70
     1
  9
$DIMSHO
 70
     1
  9
$DIMPOST
  1

  9
$DIMAPOST
  1

  9
$DIMALT
 70
     0
  9
$DIMALTD
 70
     1
  9
$DIMALTF
 40
25.4
  9
$DIMLFAC
 40
1.0
  9
$DIMTOFL
 70
     0
  9
$DIMTVP
 40
0.0
  9
$DIMTIX
 70
     0
  9
$DIMSOXD
 70
     0
  9
$DIMSAH
 70
     0
  9
$DIMBLK1
  1

  9
$DIMBLK2
  1

  9
$DIMSTYLE
  2
STANDARD
  9
$DIMCLRD
 70
     0
  9
$DIMCLRE
 70
     0
  9
$DIMCLRT
 70
     0
  9
$DIMTFAC
 40
1.0
  9
$DIMGAP
 40
0.125
  9
$DIMJUST
 70
     0
  9
$DIMSD1
 70
     0
  9
$DIMSD2
 70
     0
  9
$DIMTOLJ
 70
     1
  9
$DIMTZIN
 70
     3
  9
$DIMALTZ
 70
     3
  9
$DIMALTTZ
 70
     3
  9
$DIMFIT
 70
     5
  9
$DIMUPT
 70
     0
  9
$DIMUNIT
 70
     5
  9
$DIMDEC
 70
     4
  9
$DIMTDEC
 70
     4
  9
$DIMALTU
 70
     5
  9
$DIMALTTD
 70
     1
  9
$DIMTXSTY
  7
STANDARD
  9
$DIMAUNIT
 70
     0
  9
$LUNITS
 70
     5
  9
$LUPREC
 70
     4
  9
$SKETCHINC
 40
0.1
  9
$FILLETRAD
 40
0.01
  9
$AUNITS
 70
     0
  9
$AUPREC
 70
     0
  9
$MENU
  1
acad
  9
$ELEVATION
 40
0.0
  9
$PELEVATION
 40
0.0
  9
$THICKNESS
 40
0.0
  9
$LIMCHECK
 70
     0
  9
$BLIPMODE
 70
     0
  9
$CHAMFERA
 40
0.0
  9
$CHAMFERB
 40
0.0
  9
$CHAMFERC
 40
0.0
  9
$CHAMFERD
 40
0.0
  9
$SKPOLY
 70
     0
  9
$TDCREATE
 40
2450210.641319248
  9
$TDUPDATE
 40
2452297.063987268
  9
$TDINDWG
 40
0.0130348843
  9
$TDUSRTIMER
 40
0.0130348843
  9
$USRTIMER
 70
     1
  9
$ANGBASE
 50
0.0
  9
$ANGDIR
 70
     0
  9
$PDMODE
 70
     0
  9
$PDSIZE
 40
0.0
  9
$PLINEWID
 40
0.0
  9
$COORDS
 70
     2
  9
$SPLFRAME
 70
     0
  9
$SPLINETYPE
 70
     6
  9
$SPLINESEGS
 70
     8
  9
$ATTDIA
 70
     0
  9
$ATTREQ
 70
     1
  9
$HANDLING
 70
 22529
  9
$HANDSEED
  5
1A7
  9
$SURFTAB1
 70
     6
  9
$SURFTAB2
 70
     6
  9
$SURFTYPE
 70
     6
  9
$SURFU
 70
     6
  9
$SURFV
 70
     6
  9
$UCSNAME
  2

  9
$UCSORG
 10
0.0
 20
0.0
 30
0.0
  9
$UCSXDIR
 10
1.0
 20
0.0
 30
0.0
  9
$UCSYDIR
 10
0.0
 20
1.0
 30
0.0
  9
$PUCSNAME
  2

  9
$PUCSORG
 10
0.0
 20
0.0
 30
0.0
  9
$PUCSXDIR
 10
1.0
 20
0.0
 30
0.0
  9
$PUCSYDIR
 10
0.0
 20
1.0
 30
0.0
  9
$USERI1
 70
     0
  9
$USERI2
 70
     0
  9
$USERI3
 70
     0
  9
$USERI4
 70
     0
  9
$USERI5
 70
     0
  9
$USERR1
 40
0.0
  9
$USERR2
 40
0.0
  9
$USERR3
 40
0.0
  9
$USERR4
 40
0.0
  9
$USERR5
 40
0.0
  9
$WORLDVIEW
 70
     1
  9
$SHADEDGE
 70
     3
  9
$SHADEDIF
 70
    70
  9
$TILEMODE
 70
     1
  9
$MAXACTVP
 70
    15
  9
$PINSBASE
 10
0.0008545056916773
 20
1.250276130627782
 30
0.0
  9
$PLIMCHECK
 70
     0
  9
$PEXTMIN
 10
1.000000000000000E+20
 20
1.000000000000000E+20
 30
1.000000000000000E+20
  9
$PEXTMAX
 10
-1.000000000000000E+20
 20
-1.000000000000000E+20
 30
-1.000000000000000E+20
  9
$PLIMMIN
 10
0.0
 20
0.0
  9
$PLIMMAX
 10
12.0
 20
9.0
  9
$UNITMODE
 70
     0
  9
$VISRETAIN
 70
     0
  9
$PLINEGEN
 70
     0
  9
$PSLTSCALE
 70
     1
  9
$TREEDEPTH
 70
  3020
  9
$PICKSTYLE
 70
     1
  9
$CMLSTYLE
  2
STANDARD
  9
$CMLJUST
 70
     0
  9
$CMLSCALE
 40
1.0
  9
$PROXYGRAPHICS
 70
     1
  9
$MEASUREMENT
 70
     0
  0
ENDSEC
  0
SECTION
  2
CLASSES
  0
CLASS
  1
DICTIONARYVAR
  2
AcDbDictionaryVar
  3
AutoCAD 2000
 90
        0
280
     0
281
     0
  0
CLASS
  1
ACDBDICTIONARYWDFLT
  2
AcDbDictionaryWithDefault
  3
AutoCAD 2000
 90
        0
280
     0
281
     0
  0
CLASS
  1
ACDBPLACEHOLDER
  2
AcDbPlaceHolder
  3
AutoCAD 2000
 90
        0
280
     0
281
     0
  0
CLASS
  1
LAYOUT
  2
AcDbLayout
  3
AutoCAD 2000
 90
        0
280
     0
281
     0
  0
CLASS
  1
LONG_TRANSACTION
  2
AcDbLongTransaction
  3
AutoCAD 2000
 90
        0
280
     0
281
     0
  0
CLASS
  1
LWPOLYLINE
  2
AcDbPolyline
  3
AutoCAD 2000
 90
        0
280
     0
281
     1
  0
CLASS
  1
HATCH
  2
AcDbHatch
  3
AutoCAD 2000
 90
        0
280
     0
281
     1
  0
CLASS
  1
XRECORD
  2
AcDbXrecord
  3
AutoCAD 2000
 90
        0
280
     0
281
     0
  0
CLASS
  1
LONG_TRANSACTION
  2
AcDbLongTransaction
  3
AutoCAD 2000
 90
        0
280
     0
281
     0
  0
CLASS
  1
LWPOLYLINE
  2
AcDbPolyline
  3
AutoCAD 2000
 90
        0
280
     0
281
     1
  0
CLASS
  1
HATCH
  2
AcDbHatch
  3
AutoCAD 2000
 90
        0
280
     0
281
     1
  0
CLASS
  1
XRECORD
  2
AcDbXrecord
  3
AutoCAD 2000
 90
        0
280
     0
281
     0
  0
CLASS
  1
LONG_TRANSACTION
  2
AcDbLongTransaction
  3
AutoCAD 2000
 90
        0
280
     0
281
     0
  0
CLASS
  1
LWPOLYLINE
  2
AcDbPolyline
  3
AutoCAD 2000
 90
        0
280
     0
281
     1
  0
CLASS
  1
HATCH
  2
AcDbHatch
  3
AutoCAD 2000
 90
        0
280
     0
281
     1
  0
CLASS
  1
XRECORD
  2
AcDbXrecord
  3
AutoCAD 2000
 90
        0
280
     0
281
     0
  0
CLASS
  1
LONG_TRANSACTION
  2
AcDbLongTransaction
  3
AutoCAD 2000
 90
        0
280
     0
281
     0
  0
CLASS
  1
LWPOLYLINE
  2
AcDbPolyline
  3
AutoCAD 2000
 90
        0
280
     0
281
     1
  0
CLASS
  1
HATCH
  2
AcDbHatch
  3
AutoCAD 2000
 90
        0
280
     0
281
     1
  0
CLASS
  1
XRECORD
  2
AcDbXrecord
  3
AutoCAD 2000
 90
        0
280
     0
281
     0
  0
CLASS
  1
LONG_TRANSACTION
  2
AcDbLongTransaction
  3
AutoCAD 2000
 90
        0
280
     0
281
     0
  0
CLASS
  1
LWPOLYLINE
  2
AcDbPolyline
  3
AutoCAD 2000
 90
        0
280
     0
281
     1
  0
CLASS
  1
HATCH
  2
AcDbHatch
  3
AutoCAD 2000
 90
        0
280
     0
281
     1
  0
CLASS
  1
XRECORD
  2
AcDbXrecord
  3
AutoCAD 2000
 90
        0
280
     0
281
     0
  0
ENDSEC
  0
SECTION
  2
TABLES
  0
TABLE
  2
VPORT
  5
8
330
0
100
AcDbSymbolTable
 70
     2
  0
VPORT
  5
183
330
8
100
AcDbSymbolTableRecord
100
AcDbViewportTableRecord
  2
*ACTIVE
 70
     0
 10
0.0
 20
0.0
 11
1.0
 21
1.0
 12
-18.89727456382201
 22
3.764114037671692
 13
0.0
 23
0.0
 14
0.5740882589684922
 24
0.5740882589684922
 15
0.5
 25
0.5
 16
0.0
 26
0.0
 36
1.0
 17
0.0
 27
0.0
 37
0.0
 40
8.632392442972511
 41
1.570528967254408
 42
50.0
 43
0.0
 44
0.0
 50
0.0
 51
0.0
 71
     0
 72
   100
 73
     1
 74
     1
 75
     0
 76
     0
 77
     0
 78
     0
  0
ENDTAB
  0
TABLE
  2
LTYPE
  5
5
330
0
100
AcDbSymbolTable
 70
     2
  0
LTYPE
  5
11
330
5
100
AcDbSymbolTableRecord
100
AcDbLinetypeTableRecord
  2
BYBLOCK
 70
     0
  3

 72
    65
 73
     0
 40
0.0
  0
LTYPE
  5
12
330
5
100
AcDbSymbolTableRecord
100
AcDbLinetypeTableRecord
  2
BYLAYER
 70
     0
  3

 72
    65
 73
     0
 40
0.0
  0
LTYPE
  5
13
330
5
100
AcDbSymbolTableRecord
100
AcDbLinetypeTableRecord
  2
CONTINUOUS
 70
     0
  3
Solid line
 72
    65
 73
     0
 40
0.0
  0
LTYPE
  5
21
330
5
100
AcDbSymbolTableRecord
100
AcDbLinetypeTableRecord
  2
DASHDOT
 70
     0
  3
__ . __ . __ . __ . __ . __ . __ . __ . __ . __
 72
    65
 73
     4
 40
1.0
 49
0.5
 74
     0
 49
-0.25
 74
     0
 49
0.0
 74
     0
 49
-0.25
 74
     0
  0
ENDTAB
  0
TABLE
  2
LAYER
  5
2
330
0
100
AcDbSymbolTable
 70
     5
  0
LAYER
  5
E
330
2
100
AcDbSymbolTableRecord
100
AcDbLayerTableRecord
  2
0
 70
     0
 62
     7
  6
CONTINUOUS
  0
LAYER
  5
23
330
2
100
AcDbSymbolTableRecord
100
AcDbLayerTableRecord
  2
ADPDIM
 70
     0
 62
     3
  6
CONTINUOUS
  0
LAYER
  5
24
330
2
100
AcDbSymbolTableRecord
100
AcDbLayerTableRecord
  2
ADP1DETAIL
 70
     0
 62
     7
  6
CONTINUOUS
  0
LAYER
  5
25
330
2
100
AcDbSymbolTableRecord
100
AcDbLayerTableRecord
  2
ADP3DETAIL
 70
     0
 62
     1
  6
CONTINUOUS
  0
LAYER
  5
26
330
2
100
AcDbSymbolTableRecord
100
AcDbLayerTableRecord
  2
DEFPOINTS
 70
     0
 62
     7
  6
CONTINUOUS
  0
ENDTAB
  0
TABLE
  2
STYLE
  5
3
330
0
100
AcDbSymbolTable
 70
     2
  0
STYLE
  5
F
330
3
100
AcDbSymbolTableRecord
100
AcDbTextStyleTableRecord
  2
STANDARD
 70
     0
 40
0.0
 41
1.0
 50
0.0
 71
     0
 42
0.2
  3
txt
  4

  0
STYLE
  5
8B
330
3
100
AcDbSymbolTableRecord
100
AcDbTextStyleTableRecord
  2
ARIAL_WIDE
 70
     0
 40
0.0
 41
1.25
 50
0.0
 71
     0
 42
0.2
  3
ARIAL.TTF
  4

1001
ACAD
1000
Arial
1071
       34
  0
ENDTAB
  0
TABLE
  2
VIEW
  5
6
330
0
100
AcDbSymbolTable
 70
     0
  0
ENDTAB
  0
TABLE
  2
UCS
  5
7
330
0
100
AcDbSymbolTable
 70
     0
  0
ENDTAB
  0
TABLE
  2
APPID
  5
9
330
0
100
AcDbSymbolTable
 70
     1
  0
APPID
  5
10
330
9
100
AcDbSymbolTableRecord
100
AcDbRegAppTableRecord
  2
ACAD
 70
     0
  0
ENDTAB
  0
TABLE
  2
DIMSTYLE
  5
A
330
0
100
AcDbSymbolTable
 70
     1
  0
DIMSTYLE
105
89
330
A
100
AcDbSymbolTableRecord
100
AcDbDimStyleTableRecord
  2
STANDARD
 70
     0
  3

  4

  5

  6

  7

 40
1.0
 41
0.18
 42
0.0625
 43
0.38
 44
0.18
 45
0.0
 46
0.0
 47
0.0
 48
0.0
140
0.18
141
0.09
142
0.0
143
25.4
144
1.0
145
0.0
146
1.0
147
0.09
 71
     0
 72
     0
 73
     1
 74
     1
 75
     0
 76
     0
 77
     0
 78
     0
170
     0
171
     2
172
     0
173
     0
174
     0
175
     0
176
     0
177
     0
178
     0
270
     2
271
     4
272
     4
273
     2
274
     2
340
F
275
     0
280
     0
281
     0
282
     0
283
     1
284
     0
285
     0
286
     0
287
     3
288
     0
  0
ENDTAB
  0
TABLE
  2
BLOCK_RECORD
  5
1
330
0
100
AcDbSymbolTable
 70
     5
  0
BLOCK_RECORD
  5
17
102
{ACAD_XDICTIONARY
360
C4
102
}
330
1
100
AcDbSymbolTableRecord
100
AcDbBlockTableRecord
  2
*MODEL_SPACE
  0
BLOCK_RECORD
  5
14
102
{ACAD_XDICTIONARY
360
C2
102
}
330
1
100
AcDbSymbolTableRecord
100
AcDbBlockTableRecord
  2
*PAPER_SPACE
  0
BLOCK_RECORD
  5
1C
330
1
100
AcDbSymbolTableRecord
100
AcDbBlockTableRecord
  2
*D0
  0
BLOCK_RECORD
  5
1D
330
1
100
AcDbSymbolTableRecord
100
AcDbBlockTableRecord
  2
*D1
  0
BLOCK_RECORD
  5
1E
330
1
100
AcDbSymbolTableRecord
100
AcDbBlockTableRecord
  2
*D2
  0
BLOCK_RECORD
  5
1F
330
1
100
AcDbSymbolTableRecord
100
AcDbBlockTableRecord
  2
*D3
  0
BLOCK_RECORD
  5
20
330
1
100
AcDbSymbolTableRecord
100
AcDbBlockTableRecord
  2
*D4
  0
ENDTAB
  0
ENDSEC
  0
SECTION
  2
BLOCKS
  0
BLOCK
  5
29
330
17
100
AcDbEntity
  8
0
100
AcDbBlockBegin
  2
*MODEL_SPACE
 70
     0
 10
0.0
 20
0.0
 30
0.0
  3
*MODEL_SPACE
  1

  0
ENDBLK
  5
2A
330
17
100
AcDbEntity
  8
0
100
AcDbBlockEnd
  0
BLOCK
  5
27
330
14
100
AcDbEntity
 67
     1
  8
0
100
AcDbBlockBegin
  2
*PAPER_SPACE
 70
     0
 10
0.0
 20
0.0
 30
0.0
  3
*PAPER_SPACE
  1

  0
ENDBLK
  5
28
330
14
100
AcDbEntity
 67
     1
  8
0
100
AcDbBlockEnd
  0
BLOCK
  5
2D
330
1C
100
AcDbEntity
  8
0
100
AcDbBlockBegin
  2
*D0
 70
     1
 10
0.0
 20
0.0
 30
0.0
  3
*D0
  1

  0
LINE
  5
2E
330
1C
100
AcDbEntity
  8
0
  6
BYBLOCK
 62
     0
100
AcDbLine
 10
-17.94614021299315
 20
1.032399951899391
 30
0.0
 11
-17.94614021299315
 21
0.6732615666909345
 31
0.0
  0
LINE
  5
2F
330
1C
100
AcDbEntity
  8
0
  6
BYBLOCK
 62
     0
100
AcDbLine
 10
-16.44614021299314
 20
1.032399951899391
 30
0.0
 11
-16.44614021299314
 21
0.6732615666909345
 31
0.0
  0
LINE
  5
30
330
1C
100
AcDbEntity
  8
0
  6
BYBLOCK
 62
     0
100
AcDbLine
 10
-17.94614021299315
 20
0.8532615666909343
 30
0.0
 11
-17.57114021299314
 21
0.8532615666909343
 31
0.0
  0
LINE
  5
31
330
1C
100
AcDbEntity
  8
0
  6
BYBLOCK
 62
     0
100
AcDbLine
 10
-16.44614021299314
 20
0.8532615666909343
 30
0.0
 11
-16.82114021299315
 21
0.8532615666909343
 31
0.0
  0
LINE
  5
32
330
1C
100
AcDbEntity
  8
0
  6
BYBLOCK
 62
     0
100
AcDbLine
 10
-18.07114021299314
 20
0.7282615666909345
 30
0.0
 11
-17.82114021299315
 21
0.9782615666909343
 31
0.0
  0
LINE
  5
33
330
1C
100
AcDbEntity
  8
0
  6
BYBLOCK
 62
     0
100
AcDbLine
 10
-16.57114021299315
 20
0.7282615666909345
 30
0.0
 11
-16.32114021299314
 21
0.9782615666909343
 31
0.0
  0
TEXT
  5
34
330
1C
100
AcDbEntity
  8
0
  6
BYBLOCK
 62
     0
100
AcDbText
 10
-17.44614021299315
 20
0.7907615666909345
 30
0.0
 40
0.125
  1
1 1/2
 72
     1
 11
-17.19614021299315
 21
0.8532615666909343
 31
0.0
100
AcDbText
 73
     2
  0
POINT
  5
36
330
1C
100
AcDbEntity
  8
DEFPOINTS
  6
BYBLOCK
 62
     0
100
AcDbPoint
 10
-17.94614021299315
 20
1.094899951899391
 30
0.0
  0
POINT
  5
37
330
1C
100
AcDbEntity
  8
DEFPOINTS
  6
BYBLOCK
 62
     0
100
AcDbPoint
 10
-16.44614021299314
 20
1.094899951899391
 30
0.0
  0
POINT
  5
38
330
1C
100
AcDbEntity
  8
DEFPOINTS
  6
BYBLOCK
 62
     0
100
AcDbPoint
 10
-16.44614021299314
 20
0.8532615666909343
 30
0.0
  0
ENDBLK
  5
39
330
1C
100
AcDbEntity
  8
0
100
AcDbBlockEnd
  0
BLOCK
  5
3A
330
1D
100
AcDbEntity
  8
0
100
AcDbBlockBegin
  2
*D1
 70
     1
 10
0.0
 20
0.0
 30
0.0
  3
*D1
  1

  0
LINE
  5
3B
330
1D
100
AcDbEntity
  8
0
  6
BYBLOCK
 62
     0
100
AcDbLine
 10
-18.00864021299314
 20
1.594899951899391
 30
0.0
 11
-18.61022859476321
 21
1.594899951899391
 31
0.0
  0
LINE
  5
3C
330
1D
100
AcDbEntity
  8
0
  6
BYBLOCK
 62
     0
100
AcDbLine
 10
-18.00864021299314
 20
1.094899951899391
 30
0.0
 11
-18.61022859476321
 21
1.094899951899391
 31
0.0
  0
LINE
  5
3D
330
1D
100
AcDbEntity
  8
0
  6
BYBLOCK
 62
     0
100
AcDbLine
 10
-18.43022859476321
 20
1.594899951899391
 30
0.0
 11
-18.43022859476321
 21
1.844899951899391
 31
0.0
  0
LINE
  5
3E
330
1D
100
AcDbEntity
  8
0
  6
BYBLOCK
 62
     0
100
AcDbLine
 10
-18.43022859476321
 20
1.094899951899391
 30
0.0
 11
-18.43022859476321
 21
0.8448999518993915
 31
0.0
  0
LINE
  5
3F
330
1D
100
AcDbEntity
  8
0
  6
BYBLOCK
 62
     0
100
AcDbLine
 10
-18.30522859476321
 20
1.469899951899391
 30
0.0
 11
-18.55522859476321
 21
1.719899951899391
 31
0.0
  0
LINE
  5
40
330
1D
100
AcDbEntity
  8
0
  6
BYBLOCK
 62
     0
100
AcDbLine
 10
-18.30522859476321
 20
0.9698999518993915
 30
0.0
 11
-18.55522859476321
 21
1.219899951899391
 31
0.0
  0
TEXT
  5
41
330
1D
100
AcDbEntity
  8
0
  6
BYBLOCK
 62
     0
100
AcDbText
 10
-18.36772859476321
 20
0.428233285232725
 30
0.0
 40
0.125
  1
1/2
 50
90.0
 72
     1
 11
-18.43022859476321
 21
0.5740666185660583
 31
0.0
100
AcDbText
 73
     2
  0
POINT
  5
42
330
1D
100
AcDbEntity
  8
DEFPOINTS
  6
BYBLOCK
 62
     0
100
AcDbPoint
 10
-17.94614021299315
 20
1.594899951899391
 30
0.0
  0
POINT
  5
43
330
1D
100
AcDbEntity
  8
DEFPOINTS
  6
BYBLOCK
 62
     0
100
AcDbPoint
 10
-17.94614021299315
 20
1.094899951899391
 30
0.0
  0
POINT
  5
44
330
1D
100
AcDbEntity
  8
DEFPOINTS
  6
BYBLOCK
 62
     0
100
AcDbPoint
 10
-18.43022859476321
 20
1.094899951899391
 30
0.0
  0
ENDBLK
  5
45
330
1D
100
AcDbEntity
  8
0
100
AcDbBlockEnd
  0
BLOCK
  5
46
330
1E
100
AcDbEntity
  8
0
100
AcDbBlockBegin
  2
*D2
 70
     1
 10
0.0
 20
0.0
 30
0.0
  3
*D2
  1

  0
LINE
  5
47
330
1E
100
AcDbEntity
  8
0
  6
BYBLOCK
 62
     0
100
AcDbLine
 10
-16.57114021299315
 20
1.657399951899391
 30
0.0
 11
-16.57114021299315
 21
1.87971266598806
 31
0.0
  0
LINE
  5
48
330
1E
100
AcDbEntity
  8
0
  6
BYBLOCK
 62
     0
100
AcDbLine
 10
-16.44614021299314
 20
1.657399951899391
 30
0.0
 11
-16.44614021299314
 21
1.87971266598806
 31
0.0
  0
LINE
  5
49
330
1E
100
AcDbEntity
  8
0
  6
BYBLOCK
 62
     0
100
AcDbLine
 10
-16.57114021299315
 20
1.69971266598806
 30
0.0
 11
-16.82114021299315
 21
1.69971266598806
 31
0.0
  0
LINE
  5
4A
330
1E
100
AcDbEntity
  8
0
  6
BYBLOCK
 62
     0
100
AcDbLine
 10
-16.44614021299314
 20
1.69971266598806
 30
0.0
 11
-16.19614021299315
 21
1.69971266598806
 31
0.0
  0
LINE
  5
4B
330
1E
100
AcDbEntity
  8
0
  6
BYBLOCK
 62
     0
100
AcDbLine
 10
-16.69614021299315
 20
1.57471266598806
 30
0.0
 11
-16.44614021299314
 21
1.82471266598806
 31
0.0
  0
LINE
  5
4C
330
1E
100
AcDbEntity
  8
0
  6
BYBLOCK
 62
     0
100
AcDbLine
 10
-16.57114021299315
 20
1.57471266598806
 30
0.0
 11
-16.32114021299314
 21
1.82471266598806
 31
0.0
  0
TEXT
  5
4D
330
1E
100
AcDbEntity
  8
0
  6
BYBLOCK
 62
     0
100
AcDbText
 10
-16.07114021299315
 20
1.63721266598806
 30
0.0
 40
0.125
  1
1/8
 72
     1
 11
-15.92530687965981
 21
1.69971266598806
 31
0.0
100
AcDbText
 73
     2
  0
POINT
  5
4E
330
1E
100
AcDbEntity
  8
DEFPOINTS
  6
BYBLOCK
 62
     0
100
AcDbPoint
 10
-16.57114021299315
 20
1.594899951899391
 30
0.0
  0
POINT
  5
4F
330
1E
100
AcDbEntity
  8
DEFPOINTS
  6
BYBLOCK
 62
     0
100
AcDbPoint
 10
-16.44614021299314
 20
1.594899951899391
 30
0.0
  0
POINT
  5
50
330
1E
100
AcDbEntity
  8
DEFPOINTS
  6
BYBLOCK
 62
     0
100
AcDbPoint
 10
-16.44614021299314
 20
1.69971266598806
 30
0.0
  0
ENDBLK
  5
51
330
1E
100
AcDbEntity
  8
0
100
AcDbBlockEnd
  0
BLOCK
  5
52
330
1F
100
AcDbEntity
  8
0
100
AcDbBlockBegin
  2
*D3
 70
     1
 10
0.0
 20
0.0
 30
0.0
  3
*D3
  1

  0
LINE
  5
53
330
1F
100
AcDbEntity
  8
0
  6
BYBLOCK
 62
     0
100
AcDbLine
 10
-17.91973714945735
 20
5.637949376432924
 30
0.0
 11
-19.68813137646617
 21
3.875846130622759
 31
0.0
  0
LINE
  5
54
330
1F
100
AcDbEntity
  8
0
  6
BYBLOCK
 62
     0
100
AcDbLine
 10
-17.92005214673734
 20
5.461172961782345
 30
0.0
 11
-17.91942215217737
 21
5.814725791083504
 31
0.0
  0
TEXT
  5
55
330
1F
100
AcDbEntity
  8
0
  6
BYBLOCK
 62
     0
100
AcDbText
 10
-20.20480549323698
 20
3.272778789299902
 30
0.0
 40
0.125
  1
R2 1/2
 50
44.89790495731457
 72
     1
 11
-20.01279896500554
 21
3.552333532110003
 31
0.0
100
AcDbText
 73
     2
  0
POINT
  5
56
330
1F
100
AcDbEntity
  8
DEFPOINTS
  6
BYBLOCK
 62
     0
100
AcDbPoint
 10
-17.91973714945735
 20
5.637949376432924
 30
0.0
  0
POINT
  5
57
330
1F
100
AcDbEntity
  8
DEFPOINTS
  6
BYBLOCK
 62
     0
100
AcDbPoint
 10
-19.690651268763
 20
3.87333520272698
 30
0.0
  0
ENDBLK
  5
58
330
1F
100
AcDbEntity
  8
0
100
AcDbBlockEnd
  0
BLOCK
  5
59
330
20
100
AcDbEntity
  8
0
100
AcDbBlockBegin
  2
*D4
 70
     1
 10
0.0
 20
0.0
 30
0.0
  3
*D4
  1

  0
LINE
  5
5A
330
20
100
AcDbEntity
  8
0
  6
BYBLOCK
 62
     0
100
AcDbLine
 10
-19.62563137646617
 20
3.875846130622759
 30
0.0
 11
-18.8541306949762
 21
3.875846130622759
 31
0.0
  0
LINE
  5
5B
330
20
100
AcDbEntity
  8
0
  6
BYBLOCK
 62
     0
100
AcDbLine
 10
-18.003151268763
 20
2.37333520272698
 30
0.0
 11
-19.2141306949762
 21
2.373335202726981
 31
0.0
  0
LINE
  5
5C
330
20
100
AcDbEntity
  8
0
  6
BYBLOCK
 62
     0
100
AcDbLine
 10
-19.0341306949762
 20
3.875846130622759
 30
0.0
 11
-19.0341306949762
 21
3.49959066667487
 31
0.0
  0
LINE
  5
5D
330
20
100
AcDbEntity
  8
0
  6
BYBLOCK
 62
     0
100
AcDbLine
 10
-19.0341306949762
 20
2.373335202726981
 30
0.0
 11
-19.0341306949762
 21
2.74959066667487
 31
0.0
  0
LINE
  5
5E
330
20
100
AcDbEntity
  8
0
  6
BYBLOCK
 62
     0
100
AcDbLine
 10
-18.9091306949762
 20
3.750846130622759
 30
0.0
 11
-19.1591306949762
 21
4.000846130622758
 31
0.0
  0
LINE
  5
5F
330
20
100
AcDbEntity
  8
0
  6
BYBLOCK
 62
     0
100
AcDbLine
 10
-18.9091306949762
 20
2.248335202726981
 30
0.0
 11
-19.1591306949762
 21
2.498335202726981
 31
0.0
  0
TEXT
  5
60
330
20
100
AcDbEntity
  8
0
  6
BYBLOCK
 62
     0
100
AcDbText
 10
-18.9716306949762
 20
2.87459066667487
 30
0.0
 40
0.125
  1
1 1/2
 50
90.0
 72
     1
 11
-19.0341306949762
 21
3.12459066667487
 31
0.0
100
AcDbText
 73
     2
  0
POINT
  5
61
330
20
100
AcDbEntity
  8
DEFPOINTS
  6
BYBLOCK
 62
     0
100
AcDbPoint
 10
-19.68813137646617
 20
3.875846130622759
 30
0.0
  0
POINT
  5
62
330
20
100
AcDbEntity
  8
DEFPOINTS
  6
BYBLOCK
 62
     0
100
AcDbPoint
 10
-17.940651268763
 20
2.37333520272698
 30
0.0
  0
POINT
  5
63
330
20
100
AcDbEntity
  8
DEFPOINTS
  6
BYBLOCK
 62
     0
100
AcDbPoint
 10
-19.0341306949762
 20
2.373335202726981
 30
0.0
  0
ENDBLK
  5
64
330
20
100
AcDbEntity
  8
0
100
AcDbBlockEnd
  0
ENDSEC
  0
SECTION
  2
ENTITIES
  0
DIMENSION
  5
65
330
17
100
AcDbEntity
  8
ADPDIM
100
AcDbDimension
  2
*D4
 10
-19.0341306949762
 20
2.373335202726981
 30
0.0
 11
-19.0341306949762
 21
3.12459066667487
 31
0.0
100
AcDbAlignedDimension
 13
-19.68813137646617
 23
3.875846130622759
 33
0.0
 14
-17.940651268763
 24
2.37333520272698
 34
0.0
 50
90.0
100
AcDbRotatedDimension
  0
LINE
  5
66
330
17
100
AcDbEntity
  8
ADP3DETAIL
  6
DASHDOT
100
AcDbLine
 10
-17.18943380209702
 20
2.054399499729673
 30
0.0
 11
-17.190651268763
 21
3.87333520272698
 31
0.0
  0
DIMENSION
  5
67
330
17
100
AcDbEntity
  8
ADPDIM
100
AcDbDimension
  2
*D2
 10
-16.44614021299314
 20
1.69971266598806
 30
0.0
 11
-15.92530687965981
 21
1.69971266598806
 31
0.0
100
AcDbAlignedDimension
 13
-16.57114021299315
 23
1.594899951899391
 33
0.0
 14
-16.44614021299314
 24
1.594899951899391
 34
0.0
100
AcDbRotatedDimension
  0
DIMENSION
  5
68
330
17
100
AcDbEntity
  8
ADPDIM
100
AcDbDimension
  2
*D0
 10
-16.44614021299314
 20
0.8532615666909343
 30
0.0
 11
-17.19614021299315
 21
0.8532615666909343
 31
0.0
100
AcDbAlignedDimension
 13
-17.94614021299315
 23
1.094899951899391
 33
0.0
 14
-16.44614021299314
 24
1.094899951899391
 34
0.0
100
AcDbRotatedDimension
  0
DIMENSION
  5
69
330
17
100
AcDbEntity
  8
ADPDIM
100
AcDbDimension
  2
*D1
 10
-18.43022859476321
 20
1.094899951899391
 30
0.0
 11
-18.43022859476321
 21
0.5740666185660583
 31
0.0
100
AcDbAlignedDimension
 13
-17.94614021299315
 23
1.594899951899391
 33
0.0
 14
-17.94614021299315
 24
1.094899951899391
 34
0.0
 50
90.0
100
AcDbRotatedDimension
  0
LINE
  5
6A
330
17
100
AcDbEntity
  8
ADP1DETAIL
100
AcDbLine
 10
-16.44614021299314
 20
1.094899951899391
 30
0.0
 11
-17.94614021299315
 21
1.094899951899391
 31
0.0
  0
LINE
  5
6B
330
17
100
AcDbEntity
  8
ADP1DETAIL
100
AcDbLine
 10
-16.63364021299314
 20
1.219899951899391
 30
0.0
 11
-17.75864021299315
 21
1.219899951899391
 31
0.0
  0
LINE
  5
6C
330
17
100
AcDbEntity
  8
ADP1DETAIL
100
AcDbLine
 10
-17.75864021299315
 20
1.219899951899391
 30
0.0
 11
-17.82114021299315
 21
1.594899951899391
 31
0.0
  0
LINE
  5
6D
330
17
100
AcDbEntity
  8
ADP1DETAIL
100
AcDbLine
 10
-17.94614021299315
 20
1.094899951899391
 30
0.0
 11
-17.94614021299315
 21
1.594899951899391
 31
0.0
  0
LINE
  5
6E
330
17
100
AcDbEntity
  8
ADP1DETAIL
100
AcDbLine
 10
-17.94614021299315
 20
1.594899951899391
 30
0.0
 11
-17.82114021299315
 21
1.594899951899391
 31
0.0
  0
LINE
  5
6F
330
17
100
AcDbEntity
  8
ADP1DETAIL
100
AcDbLine
 10
-16.63364021299314
 20
1.219899951899391
 30
0.0
 11
-16.57114021299315
 21
1.594899951899391
 31
0.0
  0
LINE
  5
70
330
17
100
AcDbEntity
  8
ADP1DETAIL
100
AcDbLine
 10
-16.44614021299314
 20
1.094899951899391
 30
0.0
 11
-16.44614021299314
 21
1.594899951899391
 31
0.0
  0
LINE
  5
71
330
17
100
AcDbEntity
  8
ADP1DETAIL
100
AcDbLine
 10
-16.44614021299314
 20
1.594899951899391
 30
0.0
 11
-16.57114021299315
 21
1.594899951899391
 31
0.0
  0
DIMENSION
  5
72
330
17
100
AcDbEntity
  8
ADPDIM
100
AcDbDimension
  2
*D3
 10
-19.690651268763
 20
3.87333520272698
 30
0.0
 11
-20.01279896500554
 21
3.552333532110003
 31
0.0
 70
     4
100
AcDbRadialDimension
 15
-17.91973714945735
 25
5.637949376432924
 35
0.0
 40
-2.496442667279348
  0
ARC
  5
73
330
17
100
AcDbEntity
  8
ADP3DETAIL
  6
DASHDOT
100
AcDbCircle
 10
-19.690651268763
 20
3.87333520272698
 30
0.0
 40
2.5
100
AcDbArc
 50
0.0
 51
89.95890754788995
  0
ARC
  5
74
330
17
100
AcDbEntity
  8
ADP1DETAIL
100
AcDbCircle
 10
-19.690651268763
 20
3.87333520272698
 30
0.0
 40
1.937999999999997
100
AcDbArc
 50
0.0
 51
89.95890754788996
  0
ARC
  5
75
330
17
100
AcDbEntity
  8
ADP1DETAIL
100
AcDbCircle
 10
-19.690651268763
 20
3.87333520272698
 30
0.0
 40
3.061999999999999
100
AcDbArc
 50
0.0
 51
89.95890754788996
  0
ARC
  5
76
330
17
100
AcDbEntity
  8
ADP1DETAIL
100
AcDbCircle
 10
-19.690651268763
 20
3.87333520272698
 30
0.0
 40
3.124999999999998
100
AcDbArc
 50
0.0
 51
89.95890754788996
  0
ARC
  5
77
330
17
100
AcDbEntity
  8
ADP1DETAIL
100
AcDbCircle
 10
-19.690651268763
 20
3.87333520272698
 30
0.0
 40
3.249999999999998
100
AcDbArc
 50
0.0
 51
89.95890754788998
  0
ARC
  5
78
330
17
100
AcDbEntity
  8
ADP1DETAIL
100
AcDbCircle
 10
-19.690651268763
 20
3.87333520272698
 30
0.0
 40
1.749999999999998
100
AcDbArc
 50
0.0
 51
89.95890754788996
  0
ARC
  5
79
330
17
100
AcDbEntity
  8
ADP1DETAIL
100
AcDbCircle
 10
-19.690651268763
 20
3.87333520272698
 30
0.0
 40
1.874999999999998
100
AcDbArc
 50
0.0
 51
89.95890754788998
  0
LINE
  5
7A
330
17
100
AcDbEntity
  8
ADP3DETAIL
  6
DASHDOT
100
AcDbLine
 10
-19.68885827244911
 20
6.373334559759742
 30
0.0
 11
-21.64033951028531
 21
6.378472820031527
 31
0.0
  0
LINE
  5
7B
330
17
100
AcDbEntity
  8
ADP1DETAIL
100
AcDbLine
 10
-19.68832037355495
 20
7.123334366869568
 30
0.0
 11
-21.18832037355495
 21
7.123334366869569
 31
0.0
  0
LINE
  5
7C
330
17
100
AcDbEntity
  8
ADP1DETAIL
100
AcDbLine
 10
-19.68832037355495
 20
6.998346008941679
 30
0.0
 11
-21.18832037355495
 21
6.998346008941679
 31
0.0
  0
LINE
  5
7D
330
17
100
AcDbEntity
  8
ADP1DETAIL
100
AcDbLine
 10
-19.68832037355495
 20
6.935845377918969
 30
0.0
 11
-21.18832037355495
 21
6.935845377918969
 31
0.0
  0
LINE
  5
7E
330
17
100
AcDbEntity
  8
ADP1DETAIL
100
AcDbLine
 10
-19.68939617134328
 20
5.748337153817018
 30
0.0
 11
-21.18939617134328
 21
5.748337153817019
 31
0.0
  0
LINE
  5
7F
330
17
100
AcDbEntity
  8
ADP1DETAIL
100
AcDbLine
 10
-19.68939617134328
 20
5.810838251490669
 30
0.0
 11
-21.18939617134328
 21
5.81083825149067
 31
0.0
  0
LINE
  5
80
330
17
100
AcDbEntity
  8
ADP1DETAIL
100
AcDbLine
 10
-21.18939617134328
 20
5.623335533925539
 30
0.0
 11
-19.68939617134328
 21
5.623334752649912
 31
0.0
  0
LINE
  5
81
330
17
100
AcDbEntity
  8
ADP1DETAIL
100
AcDbLine
 10
-21.18832037355495
 20
7.123334366869569
 30
0.0
 11
-21.18939617134328
 21
5.623335533925539
 31
0.0
  0
LINE
  5
82
330
17
100
AcDbEntity
  8
ADP1DETAIL
100
AcDbLine
 10
-17.940651268763
 20
2.37333520272698
 30
0.0
 11
-16.44065205003863
 21
2.37333520272698
 31
0.0
  0
LINE
  5
83
330
17
100
AcDbEntity
  8
ADP1DETAIL
100
AcDbLine
 10
-17.7531518491391
 20
2.37333520272698
 30
0.0
 11
-17.75315106786348
 21
3.87333520272698
 31
0.0
  0
LINE
  5
84
330
17
100
AcDbEntity
  8
ADP1DETAIL
100
AcDbLine
 10
-17.8156519121664
 20
2.37333520272698
 30
0.0
 11
-17.81565113089077
 21
3.87333520272698
 31
0.0
  0
LINE
  5
85
330
17
100
AcDbEntity
  8
ADP1DETAIL
100
AcDbLine
 10
-17.940651268763
 20
3.87333520272698
 30
0.0
 11
-17.940651268763
 21
2.37333520272698
 31
0.0
  0
LINE
  5
86
330
17
100
AcDbEntity
  8
ADP1DETAIL
100
AcDbLine
 10
-16.44065205003863
 20
2.37333520272698
 30
0.0
 11
-16.440651268763
 21
3.87333520272698
 31
0.0
  0
LINE
  5
87
330
17
100
AcDbEntity
  8
ADP1DETAIL
100
AcDbLine
 10
-16.56565211797561
 20
2.37333520272698
 30
0.0
 11
-16.56565133669998
 21
3.87333520272698
 31
0.0
  0
LINE
  5
88
330
17
100
AcDbEntity
  8
ADP1DETAIL
100
AcDbLine
 10
-16.62815215420867
 20
2.37333520272698
 30
0.0
 11
-16.62815137293304
 21
3.87333520272698
 31
0.0
  0
TEXT
  5
92
330
17
100
AcDbEntity
  8
ADPDIM
100
AcDbText
 10
-25.64010924153409
 20
-0.2285518144699358
 30
0.0
 40
0.125
  1
J U L I U S  B L U M  &  C O . ,  I N C .      ( 8 0 0 )  5 2 6 - 6 2 9 3        W W W . J U L I U S B L U M . C O M        P A R T  N O .  1 5 0 - C C
 41
1.25
  7
ARIAL_WIDE
 72
     1
 11
-18.89625905394882
 21
-0.1035518144699358
 31
0.0
100
AcDbText
 73
     3
  0
ENDSEC
  0
SECTION
  2
OBJECTS
  0
DICTIONARY
  5
C
330
0
100
AcDbDictionary
  3
ACAD_GROUP
350
D
  3
ACAD_LAYOUT
350
97
  3
ACAD_MLINESTYLE
350
1A
  3
ACAD_PLOTSETTINGS
350
98
  3
ACAD_PLOTSTYLENAME
350
95
  3
ACDBHEADERROUNDTRIPXREC
350
184
  3
ACDBVARIABLEDICTIONARY
350
2B
  0
DICTIONARY
  5
C4
330
17
100
AcDbDictionary
280
     1
  3
ACAD_LAYOUTSELFREF
360
1A6
  0
DICTIONARY
  5
C2
330
14
100
AcDbDictionary
280
     1
  3
ACAD_LAYOUTSELFREF
360
1A5
  0
DICTIONARY
  5
D
102
{ACAD_REACTORS
330
C
102
}
330
C
100
AcDbDictionary
  0
DICTIONARY
  5
97
102
{ACAD_REACTORS
330
C
102
}
330
C
100
AcDbDictionary
  0
DICTIONARY
  5
1A
102
{ACAD_REACTORS
330
C
102
}
330
C
100
AcDbDictionary
  3
STANDARD
350
1B
  0
DICTIONARY
  5
98
102
{ACAD_REACTORS
330
C
102
}
330
C
100
AcDbDictionary
  0
ACDBDICTIONARYWDFLT
  5
95
102
{ACAD_REACTORS
330
C
102
}
330
C
100
AcDbDictionary
281
     1
  3
Normal
350
96
100
AcDbDictionaryWithDefault
340
96
  0
DICTIONARY
  5
184
102
{ACAD_REACTORS
330
C
102
}
330
C
100
AcDbDictionary
  3
CEPSNTYPE
350
18E
  3
DIMSTYLEDATA
350
192
  3
FINGERPRINTGUID
350
18F
  3
HYPERLINKBASE
350
187
  3
INSUNITS
350
18D
  3
LAYOUTDICT
350
189
  3
LWETCUNION
350
18C
  3
PLOTSETDICT
350
18A
  3
PLOTSTYLNAMDICT
350
18B
  3
PSVPSCALE
350
191
  3
PUCSBASE
350
195
  3
PUCSORGBACK
350
19B
  3
PUCSORGBOTTOM
350
197
  3
PUCSORGFRONT
350
19A
  3
PUCSORGLEFT
350
198
  3
PUCSORGRIGHT
350
199
  3
PUCSORGTOP
350
196
  3
PUCSORTHOREF
350
193
  3
PUCSORTHOVIEW
350
194
  3
STYLESHEET
350
188
  3
TSTACKALIGN
350
185
  3
TSTACKSIZE
350
186
  3
UCSBASE
350
19E
  3
UCSORGBACK
350
1A4
  3
UCSORGBOTTOM
350
1A0
  3
UCSORGFRONT
350
1A3
  3
UCSORGLEFT
350
1A1
  3
UCSORGRIGHT
350
1A2
  3
UCSORGTOP
350
19F
  3
UCSORTHOREF
350
19C
  3
UCSORTHOVIEW
350
19D
  3
VERSIONGUID
350
190
  0
DICTIONARY
  5
2B
102
{ACAD_REACTORS
330
C
102
}
330
C
100
AcDbDictionary
  3
DIMADEC
350
2C
  3
DIMASSOC
350
CA
  0
XRECORD
  5
1A6
102
{ACAD_REACTORS
330
C4
102
}
330
C4
100
AcDbXrecord
340
17
  0
XRECORD
  5
1A5
102
{ACAD_REACTORS
330
C2
102
}
330
C2
100
AcDbXrecord
340
14
  0
MLINESTYLE
  5
1B
102
{ACAD_REACTORS
330
1A
102
}
330
1A
100
AcDbMlineStyle
  2
STANDARD
 70
     0
  3

 62
   256
 51
90.0
 52
90.0
 71
     2
 49
0.5
 62
   256
  6
BYLAYER
 49
-0.5
 62
   256
  6
BYLAYER
  0
ACDBPLACEHOLDER
  5
96
102
{ACAD_REACTORS
330
95
102
}
330
95
100
AcDbPlaceHolder
280
     0
  0
XRECORD
  5
18E
102
{ACAD_REACTORS
330
184
102
}
330
184
100
AcDbXrecord
 90
        0
  0
XRECORD
  5
192
102
{ACAD_REACTORS
330
184
102
}
330
184
100
AcDbXrecord
1000
DSTYLE
1002
{
1070
   277
 70
     5
1070
   279
 70
     2
1002
}
  0
XRECORD
  5
18F
102
{ACAD_REACTORS
330
184
102
}
330
184
100
AcDbXrecord
  1
{29F340B0-8EC5-4F7D-A2F2-339434DF8225}
  0
XRECORD
  5
187
102
{ACAD_REACTORS
330
184
102
}
330
184
100
AcDbXrecord
  1

  0
XRECORD
  5
18D
102
{ACAD_REACTORS
330
184
102
}
330
184
100
AcDbXrecord
 90
        0
  0
XRECORD
  5
189
102
{ACAD_REACTORS
330
184
102
}
330
184
100
AcDbXrecord
340
97
  0
XRECORD
  5
18C
102
{ACAD_REACTORS
330
184
102
}
330
184
100
AcDbXrecord
 90
    14877
  0
XRECORD
  5
18A
102
{ACAD_REACTORS
330
184
102
}
330
184
100
AcDbXrecord
340
98
  0
XRECORD
  5
18B
102
{ACAD_REACTORS
330
184
102
}
330
184
100
AcDbXrecord
340
95
  0
XRECORD
  5
191
102
{ACAD_REACTORS
330
184
102
}
330
184
100
AcDbXrecord
 40
0.0
  0
XRECORD
  5
195
102
{ACAD_REACTORS
330
184
102
}
330
184
100
AcDbXrecord
340
0
  0
XRECORD
  5
19B
102
{ACAD_REACTORS
330
184
102
}
330
184
100
AcDbXrecord
 10
0.0
 20
0.0
 30
0.0
  0
XRECORD
  5
197
102
{ACAD_REACTORS
330
184
102
}
330
184
100
AcDbXrecord
 10
0.0
 20
0.0
 30
0.0
  0
XRECORD
  5
19A
102
{ACAD_REACTORS
330
184
102
}
330
184
100
AcDbXrecord
 10
0.0
 20
0.0
 30
0.0
  0
XRECORD
  5
198
102
{ACAD_REACTORS
330
184
102
}
330
184
100
AcDbXrecord
 10
0.0
 20
0.0
 30
0.0
  0
XRECORD
  5
199
102
{ACAD_REACTORS
330
184
102
}
330
184
100
AcDbXrecord
 10
0.0
 20
0.0
 30
0.0
  0
XRECORD
  5
196
102
{ACAD_REACTORS
330
184
102
}
330
184
100
AcDbXrecord
 10
0.0
 20
0.0
 30
0.0
  0
XRECORD
  5
193
102
{ACAD_REACTORS
330
184
102
}
330
184
100
AcDbXrecord
340
0
  0
XRECORD
  5
194
102
{ACAD_REACTORS
330
184
102
}
330
184
100
AcDbXrecord
 70
     0
  0
XRECORD
  5
188
102
{ACAD_REACTORS
330
184
102
}
330
184
100
AcDbXrecord
  1

  0
XRECORD
  5
185
102
{ACAD_REACTORS
330
184
102
}
330
184
100
AcDbXrecord
 90
        1
  0
XRECORD
  5
186
102
{ACAD_REACTORS
330
184
102
}
330
184
100
AcDbXrecord
 90
       70
  0
XRECORD
  5
19E
102
{ACAD_REACTORS
330
184
102
}
330
184
100
AcDbXrecord
340
0
  0
XRECORD
  5
1A4
102
{ACAD_REACTORS
330
184
102
}
330
184
100
AcDbXrecord
 10
0.0
 20
0.0
 30
0.0
  0
XRECORD
  5
1A0
102
{ACAD_REACTORS
330
184
102
}
330
184
100
AcDbXrecord
 10
0.0
 20
0.0
 30
0.0
  0
XRECORD
  5
1A3
102
{ACAD_REACTORS
330
184
102
}
330
184
100
AcDbXrecord
 10
0.0
 20
0.0
 30
0.0
  0
XRECORD
  5
1A1
102
{ACAD_REACTORS
330
184
102
}
330
184
100
AcDbXrecord
 10
0.0
 20
0.0
 30
0.0
  0
XRECORD
  5
1A2
102
{ACAD_REACTORS
330
184
102
}
330
184
100
AcDbXrecord
 10
0.0
 20
0.0
 30
0.0
  0
XRECORD
  5
19F
102
{ACAD_REACTORS
330
184
102
}
330
184
100
AcDbXrecord
 10
0.0
 20
0.0
 30
0.0
  0
XRECORD
  5
19C
102
{ACAD_REACTORS
330
184
102
}
330
184
100
AcDbXrecord
340
0
  0
XRECORD
  5
19D
102
{ACAD_REACTORS
330
184
102
}
330
184
100
AcDbXrecord
 70
     0
  0
XRECORD
  5
190
102
{ACAD_REACTORS
330
184
102
}
330
184
100
AcDbXrecord
  1
{795C42BF-3910-4BD9-ACFE-A3473D8E3E08}
  0
DICTIONARYVAR
  5
2C
102
{ACAD_REACTORS
330
2B
102
}
330
2B
100
DictionaryVariables
280
     0
  1
0
  0
DICTIONARYVAR
  5
CA
102
{ACAD_REACTORS
330
2B
102
}
330
2B
100
DictionaryVariables
280
     0
  1
1
  0
ENDSEC
  0
EOF
