  0
SECTION
  2
HEADER
  9
$ACADVER
  1
AC1015
  9
$ACADMAINTVER
 70
    20
  9
$DWGCODEPAGE
  3
ANSI_1252
  9
$INSBASE
 10
10.82187017651893
 20
3.689947232551996
 30
0.0
  9
$EXTMIN
 10
-2.268947674326422
 20
1.663949746001301
 30
0.0
  9
$EXTMAX
 10
14.04537488706512
 20
8.376950226960946
 30
0.0
  9
$LIMMIN
 10
0.0
 20
0.0
  9
$LIMMAX
 10
36.0
 20
36.0
  9
$ORTHOMODE
 70
     1
  9
$REGENMODE
 70
     1
  9
$FILLMODE
 70
     1
  9
$QTEXTMODE
 70
     0
  9
$MIRRTEXT
 70
     1
  9
$LTSCALE
 40
1.0
  9
$ATTMODE
 70
     1
  9
$TEXTSIZE
 40
0.2
  9
$TRACEWID
 40
0.05
  9
$TEXTSTYLE
  7
STANDARD
  9
$CLAYER
  8
0
  9
$CELTYPE
  6
BYLAYER
  9
$CECOLOR
 62
   256
  9
$CELTSCALE
 40
1.0
  9
$DISPSILH
 70
     0
  9
$DIMSCALE
 40
1.0
  9
$DIMASZ
 40
0.125
  9
$DIMEXO
 40
0.0625
  9
$DIMDLI
 40
0.38
  9
$DIMRND
 40
0.0
  9
$DIMDLE
 40
0.0
  9
$DIMEXE
 40
0.18
  9
$DIMTP
 40
0.0
  9
$DIMTM
 40
0.0
  9
$DIMTXT
 40
0.125
  9
$DIMCEN
 40
0.1875
  9
$DIMTSZ
 40
0.125
  9
$DIMTOL
 70
     0
  9
$DIMLIM
 70
     0
  9
$DIMTIH
 70
     0
  9
$DIMTOH
 70
     0
  9
$DIMSE1
 70
     0
  9
$DIMSE2
 70
     0
  9
$DIMTAD
 70
     0
  9
$DIMZIN
 70
     3
  9
$DIMBLK
  1

  9
$DIMASO
 70
     1
  9
$DIMSHO
 70
     1
  9
$DIMPOST
  1

  9
$DIMAPOST
  1

  9
$DIMALT
 70
     0
  9
$DIMALTD
 70
     1
  9
$DIMALTF
 40
25.4
  9
$DIMLFAC
 40
1.0
  9
$DIMTOFL
 70
     0
  9
$DIMTVP
 40
0.0
  9
$DIMTIX
 70
     0
  9
$DIMSOXD
 70
     0
  9
$DIMSAH
 70
     0
  9
$DIMBLK1
  1

  9
$DIMBLK2
  1

  9
$DIMSTYLE
  2
STANDARD
  9
$DIMCLRD
 70
     0
  9
$DIMCLRE
 70
     0
  9
$DIMCLRT
 70
     0
  9
$DIMTFAC
 40
1.0
  9
$DIMGAP
 40
0.125
  9
$DIMJUST
 70
     0
  9
$DIMSD1
 70
     0
  9
$DIMSD2
 70
     0
  9
$DIMTOLJ
 70
     1
  9
$DIMTZIN
 70
     3
  9
$DIMALTZ
 70
     3
  9
$DIMALTTZ
 70
     3
  9
$DIMUPT
 70
     0
  9
$DIMDEC
 70
     4
  9
$DIMTDEC
 70
     4
  9
$DIMALTU
 70
     5
  9
$DIMALTTD
 70
     1
  9
$DIMTXSTY
  7
STANDARD
  9
$DIMAUNIT
 70
     0
  9
$DIMADEC
 70
     0
  9
$DIMALTRND
 40
0.0
  9
$DIMAZIN
 70
     0
  9
$DIMDSEP
 70
    46
  9
$DIMATFIT
 70
     3
  9
$DIMFRAC
 70
     0
  9
$DIMLDRBLK
  1

  9
$DIMLUNIT
 70
     5
  9
$DIMLWD
 70
    -2
  9
$DIMLWE
 70
    -2
  9
$DIMTMOVE
 70
     2
  9
$LUNITS
 70
     5
  9
$LUPREC
 70
     4
  9
$SKETCHINC
 40
0.1
  9
$FILLETRAD
 40
0.062
  9
$AUNITS
 70
     0
  9
$AUPREC
 70
     0
  9
$MENU
  1
acad
  9
$ELEVATION
 40
0.0
  9
$PELEVATION
 40
0.0
  9
$THICKNESS
 40
0.0
  9
$LIMCHECK
 70
     0
  9
$CHAMFERA
 40
0.0
  9
$CHAMFERB
 40
0.0
  9
$CHAMFERC
 40
0.0
  9
$CHAMFERD
 40
0.0
  9
$SKPOLY
 70
     0
  9
$TDCREATE
 40
2450247.557415891
  9
$TDUCREATE
 40
2450247.724082558
  9
$TDUPDATE
 40
2453962.032176262
  9
$TDUUPDATE
 40
2453962.198842928
  9
$TDINDWG
 40
0.0372527662
  9
$TDUSRTIMER
 40
0.0372527662
  9
$USRTIMER
 70
     1
  9
$ANGBASE
 50
0.0
  9
$ANGDIR
 70
     0
  9
$PDMODE
 70
     0
  9
$PDSIZE
 40
0.0
  9
$PLINEWID
 40
0.0
  9
$SPLFRAME
 70
     0
  9
$SPLINETYPE
 70
     6
  9
$SPLINESEGS
 70
     8
  9
$HANDSEED
  5
11B2
  9
$SURFTAB1
 70
     6
  9
$SURFTAB2
 70
     6
  9
$SURFTYPE
 70
     6
  9
$SURFU
 70
     6
  9
$SURFV
 70
     6
  9
$UCSBASE
  2

  9
$UCSNAME
  2

  9
$UCSORG
 10
0.0
 20
0.0
 30
0.0
  9
$UCSXDIR
 10
1.0
 20
0.0
 30
0.0
  9
$UCSYDIR
 10
0.0
 20
1.0
 30
0.0
  9
$UCSORTHOREF
  2

  9
$UCSORTHOVIEW
 70
     0
  9
$UCSORGTOP
 10
0.0
 20
0.0
 30
0.0
  9
$UCSORGBOTTOM
 10
0.0
 20
0.0
 30
0.0
  9
$UCSORGLEFT
 10
0.0
 20
0.0
 30
0.0
  9
$UCSORGRIGHT
 10
0.0
 20
0.0
 30
0.0
  9
$UCSORGFRONT
 10
0.0
 20
0.0
 30
0.0
  9
$UCSORGBACK
 10
0.0
 20
0.0
 30
0.0
  9
$PUCSBASE
  2

  9
$PUCSNAME
  2

  9
$PUCSORG
 10
0.0
 20
0.0
 30
0.0
  9
$PUCSXDIR
 10
1.0
 20
0.0
 30
0.0
  9
$PUCSYDIR
 10
0.0
 20
1.0
 30
0.0
  9
$PUCSORTHOREF
  2

  9
$PUCSORTHOVIEW
 70
     0
  9
$PUCSORGTOP
 10
0.0
 20
0.0
 30
0.0
  9
$PUCSORGBOTTOM
 10
0.0
 20
0.0
 30
0.0
  9
$PUCSORGLEFT
 10
0.0
 20
0.0
 30
0.0
  9
$PUCSORGRIGHT
 10
0.0
 20
0.0
 30
0.0
  9
$PUCSORGFRONT
 10
0.0
 20
0.0
 30
0.0
  9
$PUCSORGBACK
 10
0.0
 20
0.0
 30
0.0
  9
$USERI1
 70
     0
  9
$USERI2
 70
     0
  9
$USERI3
 70
     0
  9
$USERI4
 70
     0
  9
$USERI5
 70
     0
  9
$USERR1
 40
0.0
  9
$USERR2
 40
0.0
  9
$USERR3
 40
0.0
  9
$USERR4
 40
0.0
  9
$USERR5
 40
0.0
  9
$WORLDVIEW
 70
     1
  9
$SHADEDGE
 70
     3
  9
$SHADEDIF
 70
    70
  9
$TILEMODE
 70
     1
  9
$MAXACTVP
 70
    15
  9
$PINSBASE
 10
0.0
 20
0.0
 30
0.0
  9
$PLIMCHECK
 70
     0
  9
$PEXTMIN
 10
1.000000000000000E+20
 20
1.000000000000000E+20
 30
1.000000000000000E+20
  9
$PEXTMAX
 10
-1.000000000000000E+20
 20
-1.000000000000000E+20
 30
-1.000000000000000E+20
  9
$PLIMMIN
 10
0.0
 20
0.0
  9
$PLIMMAX
 10
12.0
 20
9.0
  9
$UNITMODE
 70
     0
  9
$VISRETAIN
 70
     0
  9
$PLINEGEN
 70
     0
  9
$PSLTSCALE
 70
     1
  9
$TREEDEPTH
 70
  3020
  9
$CMLSTYLE
  2
STANDARD
  9
$CMLJUST
 70
     0
  9
$CMLSCALE
 40
1.0
  9
$PROXYGRAPHICS
 70
     1
  9
$MEASUREMENT
 70
     0
  9
$CELWEIGHT
370
    -1
  9
$ENDCAPS
280
     0
  9
$JOINSTYLE
280
     0
  9
$LWDISPLAY
290
     0
  9
$INSUNITS
 70
     0
  9
$HYPERLINKBASE
  1

  9
$STYLESHEET
  1

  9
$XEDIT
290
     1
  9
$CEPSNTYPE
380
     0
  9
$PSTYLEMODE
290
     1
  9
$FINGERPRINTGUID
  2
{397D81CC-209E-47B8-9651-867F2972379D}
  9
$VERSIONGUID
  2
{51BDE816-181F-42E3-8B55-1D8419D403F6}
  9
$EXTNAMES
290
     1
  9
$PSVPSCALE
 40
0.0
  9
$OLESTARTUP
290
     0
  0
ENDSEC
  0
SECTION
  2
CLASSES
  0
CLASS
  1
DICTIONARYVAR
  2
AcDbDictionaryVar
  3
ObjectDBX Classes
 90
        0
280
     0
281
     0
  0
CLASS
  1
ACDBDICTIONARYWDFLT
  2
AcDbDictionaryWithDefault
  3
ObjectDBX Classes
 90
        0
280
     0
281
     0
  0
CLASS
  1
ACDBPLACEHOLDER
  2
AcDbPlaceHolder
  3
ObjectDBX Classes
 90
        0
280
     0
281
     0
  0
CLASS
  1
LAYOUT
  2
AcDbLayout
  3
ObjectDBX Classes
 90
        0
280
     0
281
     0
  0
CLASS
  1
MATERIAL
  2
AcDbMaterial
  3
ObjectDBX Classes
 90
     1024
280
     0
281
     0
  0
CLASS
  1
VISUALSTYLE
  2
AcDbVisualStyle
  3
ObjectDBX Classes
 90
     4095
280
     0
281
     0
  0
CLASS
  1
TABLESTYLE
  2
AcDbTableStyle
  3
ObjectDBX Classes
 90
     4095
280
     0
281
     0
  0
ENDSEC
  0
SECTION
  2
TABLES
  0
TABLE
  2
VPORT
  5
8
330
0
100
AcDbSymbolTable
 70
     1
  0
VPORT
  5
1109
330
8
100
AcDbSymbolTableRecord
100
AcDbViewportTableRecord
  2
*Active
 70
     0
 10
0.0
 20
0.0
 11
1.0
 21
1.0
 12
4.828903693782759
 22
6.566467205010047
 13
0.0
 23
0.0
 14
0.5740882589684922
 24
0.5740882589684922
 15
0.5
 25
0.5
 16
0.0
 26
0.0
 36
1.0
 17
0.0
 27
0.0
 37
0.0
 40
13.21828748343648
 41
1.726930320150659
 42
50.0
 43
0.0
 44
0.0
 50
0.0
 51
0.0
 71
     0
 72
   100
 73
     1
 74
     0
 75
     0
 76
     0
 77
     0
 78
     0
281
     0
 65
     1
110
0.0
120
0.0
130
0.0
111
1.0
121
0.0
131
0.0
112
0.0
122
1.0
132
0.0
 79
     0
146
0.0
  0
ENDTAB
  0
TABLE
  2
LTYPE
  5
5
330
0
100
AcDbSymbolTable
 70
     2
  0
LTYPE
  5
11
330
5
100
AcDbSymbolTableRecord
100
AcDbLinetypeTableRecord
  2
BYBLOCK
 70
     0
  3

 72
    65
 73
     0
 40
0.0
  0
LTYPE
  5
12
330
5
100
AcDbSymbolTableRecord
100
AcDbLinetypeTableRecord
  2
BYLAYER
 70
     0
  3

 72
    65
 73
     0
 40
0.0
  0
LTYPE
  5
13
330
5
100
AcDbSymbolTableRecord
100
AcDbLinetypeTableRecord
  2
CONTINUOUS
 70
     0
  3
Solid line
 72
    65
 73
     0
 40
0.0
  0
LTYPE
  5
115D
330
5
100
AcDbSymbolTableRecord
100
AcDbLinetypeTableRecord
  2
AI9-LType1
 70
     0
  3
Illustrator Dash Style No.1
 72
    65
 73
     2
 40
4.762499999999999
 49
3.174999999999999
 74
     0
 49
-1.587499999999999
 74
     0
  0
ENDTAB
  0
TABLE
  2
LAYER
  5
2
330
0
100
AcDbSymbolTable
 70
     3
  0
LAYER
  5
E
330
2
100
AcDbSymbolTableRecord
100
AcDbLayerTableRecord
  2
0
 70
     0
 62
     7
  6
CONTINUOUS
370
    -3
390
E3D
  0
LAYER
  5
25
330
2
100
AcDbSymbolTableRecord
100
AcDbLayerTableRecord
  2
ADPDIM
 70
     0
 62
     3
  6
CONTINUOUS
370
    -3
390
E3D
  0
LAYER
  5
29
330
2
100
AcDbSymbolTableRecord
100
AcDbLayerTableRecord
  2
DEFPOINTS
 70
     0
 62
     7
  6
CONTINUOUS
290
     0
370
    -3
390
E3D
  0
ENDTAB
  0
TABLE
  2
STYLE
  5
3
330
0
100
AcDbSymbolTable
 70
     2
  0
STYLE
  5
F
330
3
100
AcDbSymbolTableRecord
100
AcDbTextStyleTableRecord
  2
STANDARD
 70
     0
 40
0.0
 41
1.0
 50
0.0
 71
     0
 42
0.2
  3
txt
  4

  0
STYLE
  5
E44
330
3
100
AcDbSymbolTableRecord
100
AcDbTextStyleTableRecord
  2
ARIAL_WIDE
 70
     0
 40
0.0
 41
1.25
 50
0.0
 71
     0
 42
0.2
  3
ARIAL.TTF
  4

1001
ACAD
1000
Arial
1071
       34
  0
ENDTAB
  0
TABLE
  2
VIEW
  5
6
330
0
100
AcDbSymbolTable
 70
     0
  0
ENDTAB
  0
TABLE
  2
UCS
  5
7
330
0
100
AcDbSymbolTable
 70
     0
  0
ENDTAB
  0
TABLE
  2
APPID
  5
9
330
0
100
AcDbSymbolTable
 70
     2
  0
APPID
  5
10
330
9
100
AcDbSymbolTableRecord
100
AcDbRegAppTableRecord
  2
ACAD
 70
     0
  0
APPID
  5
115E
330
9
100
AcDbSymbolTableRecord
100
AcDbRegAppTableRecord
  2
DCO15
 70
     0
  0
ENDTAB
  0
TABLE
  2
DIMSTYLE
  5
A
330
0
100
AcDbSymbolTable
 70
     1
100
AcDbDimStyleTable
 71
     1
340
1BA
  0
DIMSTYLE
105
1BA
102
{ACAD_REACTORS
330
1165
102
}
330
A
100
AcDbSymbolTableRecord
100
AcDbDimStyleTableRecord
  2
STANDARD
 70
     0
340
F
  0
ENDTAB
  0
TABLE
  2
BLOCK_RECORD
  5
1
330
0
100
AcDbSymbolTable
 70
     3
  0
BLOCK_RECORD
  5
17
102
{ACAD_XDICTIONARY
360
E9A
102
}
330
1
100
AcDbSymbolTableRecord
100
AcDbBlockTableRecord
  2
*MODEL_SPACE
340
E40
  0
BLOCK_RECORD
  5
14
102
{ACAD_XDICTIONARY
360
E98
102
}
330
1
100
AcDbSymbolTableRecord
100
AcDbBlockTableRecord
  2
*PAPER_SPACE
340
E41
  0
BLOCK_RECORD
  5
114F
330
1
100
AcDbSymbolTableRecord
100
AcDbBlockTableRecord
  2
AI9-BLK1
340
0
102
{BLKREFS
331
1160
331
1164
102
}
  0
BLOCK_RECORD
  5
1166
330
1
100
AcDbSymbolTableRecord
100
AcDbBlockTableRecord
  2
*D2
340
0
  0
ENDTAB
  0
ENDSEC
  0
SECTION
  2
BLOCKS
  0
BLOCK
  5
2C
330
17
100
AcDbEntity
  8
0
100
AcDbBlockBegin
  2
*MODEL_SPACE
 70
     0
 10
0.0
 20
0.0
 30
0.0
  3
*MODEL_SPACE
  1

  0
ENDBLK
  5
2D
330
17
100
AcDbEntity
  8
0
100
AcDbBlockEnd
  0
BLOCK
  5
2A
330
14
100
AcDbEntity
 67
     1
  8
0
100
AcDbBlockBegin
  2
*PAPER_SPACE
 70
     0
 10
0.0
 20
0.0
 30
0.0
  3
*PAPER_SPACE
  1

  0
ENDBLK
  5
2B
330
14
100
AcDbEntity
 67
     1
  8
0
100
AcDbBlockEnd
  0
BLOCK
  5
1150
330
114F
100
AcDbEntity
  8
0
 62
     7
100
AcDbBlockBegin
  2
AI9-BLK1
 70
     0
 10
0.0
 20
0.0
 30
0.0
  3
AI9-BLK1
  1

  0
LINE
  5
1151
330
114F
100
AcDbEntity
  8
0
 62
     7
100
AcDbLine
 10
61.9125
 20
47.37135484483506
 30
0.0
 11
-61.9125
 21
47.37135484483506
 31
0.0
  0
LINE
  5
1152
330
114F
100
AcDbEntity
  8
0
 62
     7
100
AcDbLine
 10
-61.9125
 20
-47.37135484483506
 30
0.0
 11
61.9125
 21
-47.37135484483506
 31
0.0
  0
LINE
  5
1153
330
114F
100
AcDbEntity
  8
0
 62
     7
100
AcDbLine
 10
-61.9125
 20
47.37135484483506
 30
0.0
 11
-61.9125
 21
-47.37135484483506
 31
0.0
  0
LINE
  5
1154
330
114F
100
AcDbEntity
  8
0
 62
     7
100
AcDbLine
 10
-63.49999999999999
 20
45.22402682834201
 30
0.0
 11
-63.49999999999999
 21
-45.22402682834201
 31
0.0
  0
LINE
  5
1155
330
114F
100
AcDbEntity
  8
0
 62
     7
100
AcDbLine
 10
-63.49999999999999
 20
-45.22402682834201
 30
0.0
 11
-61.9125
 21
-47.37135484483506
 31
0.0
  0
LINE
  5
1156
330
114F
100
AcDbEntity
  8
0
 62
     7
100
AcDbLine
 10
-63.49999999999999
 20
45.22402682834201
 30
0.0
 11
-61.9125
 21
47.37135484483506
 31
0.0
  0
LINE
  5
1157
330
114F
100
AcDbEntity
  8
0
 62
     7
100
AcDbLine
 10
61.9125
 20
-47.37135484483506
 30
0.0
 11
61.9125
 21
47.37135484483506
 31
0.0
  0
LINE
  5
1158
330
114F
100
AcDbEntity
  8
0
 62
     7
100
AcDbLine
 10
63.49999999999999
 20
-45.22402682834201
 30
0.0
 11
63.49999999999999
 21
45.22402682834201
 31
0.0
  0
LINE
  5
1159
330
114F
100
AcDbEntity
  8
0
 62
     7
100
AcDbLine
 10
61.9125
 20
-47.37135484483506
 30
0.0
 11
63.49999999999999
 21
-45.22402682834201
 31
0.0
  0
LINE
  5
115A
330
114F
100
AcDbEntity
  8
0
 62
     7
100
AcDbLine
 10
61.9125
 20
47.37135484483506
 30
0.0
 11
63.49999999999999
 21
45.22402682834201
 31
0.0
  0
LINE
  5
115B
330
114F
100
AcDbEntity
  8
0
  6
AI9-LType1
 62
     5
100
AcDbLine
 10
-63.49999999999999
 20
-44.34725002712673
 30
0.0
 11
63.49999999999999
 21
-44.34725002712673
 31
0.0
  0
ENDBLK
  5
115C
330
114F
100
AcDbEntity
  8
0
100
AcDbBlockEnd
  0
BLOCK
  5
1171
330
1166
100
AcDbEntity
  8
0
 62
     3
100
AcDbBlockBegin
  2
*D2
 70
     1
 10
0.0
 20
0.0
 30
0.0
  3
*D2
  1

  0
LINE
  5
117D
330
1166
100
AcDbEntity
  8
ADPDIM
 62
     0
370
    -2
100
AcDbLine
 10
6.129618411271643
 20
7.391545678570906
 30
0.0
 11
6.129618411271643
 21
8.352103827271196
 31
0.0
  0
LINE
  5
117E
330
1166
100
AcDbEntity
  8
ADPDIM
 62
     0
370
    -2
100
AcDbLine
 10
11.12961841127164
 20
7.391545678570906
 30
0.0
 11
11.12961841127164
 21
8.352103827271196
 31
0.0
  0
LINE
  5
117F
330
1166
100
AcDbEntity
  8
ADPDIM
 62
     0
370
    -2
100
AcDbLine
 10
6.129618411271643
 20
8.172103827271197
 30
0.0
 11
8.462951744604977
 21
8.172103827271197
 31
0.0
  0
LINE
  5
1180
330
1166
100
AcDbEntity
  8
ADPDIM
 62
     0
370
    -2
100
AcDbLine
 10
11.12961841127164
 20
8.172103827271197
 30
0.0
 11
8.796285077938309
 21
8.172103827271197
 31
0.0
  0
LINE
  5
1181
330
1166
100
AcDbEntity
  8
ADPDIM
 62
     0
370
    -2
100
AcDbLine
 10
11.00461841127164
 20
8.047103827271197
 30
0.0
 11
11.25461841127164
 21
8.297103827271197
 31
0.0
  0
LINE
  5
1182
330
1166
100
AcDbEntity
  8
ADPDIM
 62
     0
370
    -2
100
AcDbLine
 10
6.004618411271643
 20
8.047103827271197
 30
0.0
 11
6.254618411271643
 21
8.297103827271197
 31
0.0
  0
MTEXT
  5
1183
330
1166
100
AcDbEntity
  8
ADPDIM
 62
     0
100
AcDbMText
 10
8.629618411271643
 20
8.172103827271197
 30
0.0
 40
0.125
 41
0.0
 71
     5
 72
     1
  1
\A1;5
 73
     1
 44
1.0
1001
ACAD
1000
MTEXTBEGIN
1070
    73
1070
     1
1070
    44
1040
1.0
1070
    74
1070
     0
1000
MTEXTEND
  0
POINT
  5
1184
330
1166
100
AcDbEntity
  8
DEFPOINTS
 62
     0
100
AcDbPoint
 10
6.129618411271643
 20
7.329045678570906
 30
0.0
  0
POINT
  5
1185
330
1166
100
AcDbEntity
  8
DEFPOINTS
 62
     0
100
AcDbPoint
 10
11.12961841127164
 20
7.329045678570906
 30
0.0
  0
POINT
  5
1186
330
1166
100
AcDbEntity
  8
DEFPOINTS
 62
     0
100
AcDbPoint
 10
11.12961841127164
 20
8.172103827271197
 30
0.0
  0
ENDBLK
  5
1172
330
1166
100
AcDbEntity
  8
0
 62
     3
100
AcDbBlockEnd
  0
ENDSEC
  0
SECTION
  2
ENTITIES
  0
TEXT
  5
E45
330
17
100
AcDbEntity
  8
ADPDIM
100
AcDbText
 10
-2.268947674326422
 20
1.710206567283702
 30
0.0
 40
0.15625
  1
J U L I U S  B L U M  &  C O . ,  I N C .      ( 8 0 0 )  5 2 6 - 6 2 9 3        W W W . J U L I U S B L U M . C O M        P A R T  N o .  1 4 7 4
 41
1.25
  7
ARIAL_WIDE
 72
     1
 11
5.888213606369347
 21
1.866456567283702
 31
0.0
100
AcDbText
 73
     3
  0
LINE
  5
ECF
330
17
100
AcDbEntity
  8
ADPDIM
100
AcDbLine
 10
1.476373428170428
 20
2.519242487585586
 30
0.0
 11
5.314373428170441
 21
2.519242487585587
 31
0.0
  0
TEXT
  5
ED0
330
17
100
AcDbEntity
  8
ADPDIM
100
AcDbText
 10
2.776524317025542
 20
2.636966343450755
 30
0.0
 40
0.25
  1
3.875"
100
AcDbText
  0
ARC
  5
ED1
330
17
100
AcDbEntity
  8
0
100
AcDbCircle
 10
3.661124558802445
 20
7.152697779699129
 30
0.0
 40
0.0140908800000005
100
AcDbArc
 50
350.7476635514004
 51
170.7476635514004
  0
ARC
  5
ED2
330
17
100
AcDbEntity
  8
0
100
AcDbCircle
 10
3.351873428170428
 20
5.254312576137429
 30
0.0
 40
1.8125
100
AcDbArc
 50
292.7869931670446
 51
247.2130068329554
  0
ARC
  5
ED3
330
17
100
AcDbEntity
  8
0
100
AcDbCircle
 10
1.435920817560339
 20
5.085113767644113
 30
0.0
 40
0.0140908800000005
100
AcDbArc
 50
95.04672897196263
 51
275.0467289719626
  0
ARC
  5
ED4
330
17
100
AcDbEntity
  8
0
100
AcDbCircle
 10
1.962200833227124
 20
3.924533375757638
 30
0.0
 40
0.0140908800000005
100
AcDbArc
 50
133.7383177570094
 51
313.7383177570093
  0
LINE
  5
ED5
330
17
100
AcDbEntity
  8
ADPDIM
  6
ByBlock
100
AcDbLine
 10
1.414373428170428
 20
2.247084496765467
 30
0.0
 11
1.414373428170428
 21
4.440799065488171
 31
0.0
  0
ARC
  5
ED6
330
17
100
AcDbEntity
  8
ADPDIM
100
AcDbCircle
 10
1.476373428170428
 20
2.581242487585586
 30
0.0
 40
0.062
100
AcDbArc
 50
180.0
 51
270.0
  0
LWPOLYLINE
  5
ED7
330
17
100
AcDbEntity
  8
ADPDIM
100
AcDbPolyline
 90
        2
 70
     1
 43
0.05
 10
1.389373428170422
 20
2.518532814166484
 42
1.0
 10
1.439373428170434
 20
2.518532814166484
 42
1.0
  0
ARC
  5
ED8
330
17
100
AcDbEntity
  8
0
100
AcDbCircle
 10
1.766475094796665
 20
4.165269524906272
 30
0.0
 40
0.0140908800000005
100
AcDbArc
 50
124.4859813084112
 51
304.4859813084112
  0
ARC
  5
ED9
330
17
100
AcDbEntity
  8
0
100
AcDbCircle
 10
1.942829667412155
 20
3.945076797842566
 30
0.0
 40
0.0140908800000005
100
AcDbArc
 50
132.8971962616822
 51
312.8971962616823
  0
ARC
  5
EDA
330
17
100
AcDbEntity
  8
0
100
AcDbCircle
 10
1.923762162500949
 20
3.965902371362919
 30
0.0
 40
0.0140908800000005
100
AcDbArc
 50
132.0560747663551
 51
312.0560747663552
  0
ARC
  5
EDB
330
17
100
AcDbEntity
  8
0
100
AcDbCircle
 10
1.905002427702841
 20
3.98700560823064
 30
0.0
 40
0.0140908800000005
100
AcDbArc
 50
131.214953271028
 51
311.214953271028
  0
ARC
  5
EDC
330
17
100
AcDbEntity
  8
0
100
AcDbCircle
 10
1.88655450590009
 20
4.008381960518859
 30
0.0
 40
0.0140908800000005
100
AcDbArc
 50
130.3738317757009
 51
310.3738317757009
  0
ARC
  5
EDD
330
17
100
AcDbEntity
  8
0
100
AcDbCircle
 10
1.868422372776604
 20
4.030026821442014
 30
0.0
 40
0.0140908800000005
100
AcDbArc
 50
129.5327102803738
 51
309.5327102803739
  0
ARC
  5
EDE
330
17
100
AcDbEntity
  8
0
100
AcDbCircle
 10
1.815959436455763
 20
4.096525526220953
 30
0.0
 40
0.0140908800000005
100
AcDbArc
 50
127.0093457943925
 51
307.0093457943924
  0
ARC
  5
EDF
330
17
100
AcDbEntity
  8
0
100
AcDbCircle
 10
1.799128841242916
 20
4.119197211662751
 30
0.0
 40
0.0140908800000005
100
AcDbArc
 50
126.1682242990654
 51
306.1682242990654
  0
ARC
  5
EE0
330
17
100
AcDbEntity
  8
0
100
AcDbCircle
 10
1.782632875682966
 20
4.142113524111212
 30
0.0
 40
0.0140908800000005
100
AcDbArc
 50
125.3271028037382
 51
305.3271028037383
  0
ARC
  5
EE1
330
17
100
AcDbEntity
  8
0
100
AcDbCircle
 10
1.850609935961149
 20
4.051935526348648
 30
0.0
 40
0.0140908800000005
100
AcDbArc
 50
128.6915887850467
 51
308.6915887850468
  0
ARC
  5
EE2
330
17
100
AcDbEntity
  8
0
100
AcDbCircle
 10
1.833121034185221
 20
4.074103353726684
 30
0.0
 40
0.0140908800000005
100
AcDbArc
 50
127.8504672897196
 51
307.8504672897196
  0
ARC
  5
EE3
330
17
100
AcDbEntity
  8
0
100
AcDbCircle
 10
1.556553836055616
 20
4.564145781030712
 30
0.0
 40
0.0140908800000005
100
AcDbArc
 50
111.0280373831775
 51
291.0280373831776
  0
ARC
  5
EE4
330
17
100
AcDbEntity
  8
0
100
AcDbCircle
 10
1.546615770424239
 20
4.590575103903177
 30
0.0
 40
0.0140908800000005
100
AcDbArc
 50
110.1869158878504
 51
290.1869158878504
  0
ARC
  5
EE5
330
17
100
AcDbEntity
  8
0
100
AcDbCircle
 10
1.537066753158246
 20
4.617147467841002
 30
0.0
 40
0.0140908800000005
100
AcDbArc
 50
109.3457943925233
 51
289.3457943925233
  0
ARC
  5
EE6
330
17
100
AcDbEntity
  8
0
100
AcDbCircle
 10
1.527908842151998
 20
4.643857146273963
 30
0.0
 40
0.0140908800000005
100
AcDbArc
 50
108.5046728971962
 51
288.5046728971962
  0
ARC
  5
EE7
330
17
100
AcDbEntity
  8
0
100
AcDbCircle
 10
1.519144011013139
 20
4.67069838303939
 30
0.0
 40
0.0140908800000005
100
AcDbArc
 50
107.6635514018691
 51
287.6635514018691
  0
ARC
  5
EE8
330
17
100
AcDbEntity
  8
0
100
AcDbCircle
 10
1.510774148637256
 20
4.697665393622681
 30
0.0
 40
0.0140908800000005
100
AcDbArc
 50
106.822429906542
 51
286.822429906542
  0
ARC
  5
EE9
330
17
100
AcDbEntity
  8
0
100
AcDbCircle
 10
1.502801058800815
 20
4.724752366403902
 30
0.0
 40
0.0140908800000005
100
AcDbArc
 50
105.9813084112149
 51
285.9813084112149
  0
ARC
  5
EEA
330
17
100
AcDbEntity
  8
0
100
AcDbCircle
 10
1.495226459772426
 20
4.751953463910245
 30
0.0
 40
0.0140908800000005
100
AcDbArc
 50
105.1401869158878
 51
285.1401869158877
  0
ARC
  5
EEB
330
17
100
AcDbEntity
  8
0
100
AcDbCircle
 10
1.468944324118663
 20
4.861781517475834
 30
0.0
 40
0.0140908800000005
100
AcDbArc
 50
101.7757009345794
 51
281.7757009345794
  0
ARC
  5
EEC
330
17
100
AcDbEntity
  8
0
100
AcDbCircle
 10
1.458232532203346
 20
4.917226830339482
 30
0.0
 40
0.0140908800000005
100
AcDbArc
 50
100.0934579439253
 51
280.0934579439251
  0
ARC
  5
EED
330
17
100
AcDbEntity
  8
0
100
AcDbCircle
 10
1.453488224608721
 20
4.945061445505461
 30
0.0
 40
0.0140908800000005
100
AcDbArc
 50
99.25233644859813
 51
279.2523364485981
  0
ARC
  5
EEE
330
17
100
AcDbEntity
  8
0
100
AcDbCircle
 10
1.449153035156953
 20
4.972962706917946
 30
0.0
 40
0.0140908800000005
100
AcDbArc
 50
98.41121495327106
 51
278.4112149532711
  0
ARC
  5
EEF
330
17
100
AcDbEntity
  8
0
100
AcDbCircle
 10
1.445227898118206
 20
5.000924601618011
 30
0.0
 40
0.0140908800000005
100
AcDbArc
 50
97.57009345794395
 51
277.5700934579439
  0
ARC
  5
EF0
330
17
100
AcDbEntity
  8
0
100
AcDbCircle
 10
1.441713659392865
 20
5.028941103579745
 30
0.0
 40
0.0140908800000005
100
AcDbArc
 50
96.72897196261686
 51
276.7289719626169
  0
ARC
  5
EF1
330
17
100
AcDbEntity
  8
0
100
AcDbCircle
 10
1.438611076329237
 20
5.057006175008904
 30
0.0
 40
0.0140908800000005
100
AcDbArc
 50
95.88785046728968
 51
275.8878504672896
  0
ARC
  5
EF2
330
17
100
AcDbEntity
  8
0
100
AcDbCircle
 10
1.488051983942547
 20
4.77926282407406
 30
0.0
 40
0.0140908800000005
100
AcDbArc
 50
104.2990654205607
 51
284.2990654205607
  0
ARC
  5
EF3
330
17
100
AcDbEntity
  8
0
100
AcDbCircle
 10
1.481279177471682
 20
4.806674561496171
 30
0.0
 40
0.0140908800000005
100
AcDbArc
 50
103.4579439252336
 51
283.4579439252336
  0
ARC
  5
EF4
330
17
100
AcDbEntity
  8
0
100
AcDbCircle
 10
1.474909499957178
 20
4.83418276871423
 30
0.0
 40
0.0140908800000005
100
AcDbArc
 50
102.6168224299065
 51
282.6168224299065
  0
ARC
  5
EF5
330
17
100
AcDbEntity
  8
0
100
AcDbCircle
 10
1.463384935502224
 20
4.889464860016103
 30
0.0
 40
0.0140908800000005
100
AcDbArc
 50
100.9345794392523
 51
280.9345794392523
  0
ARC
  5
EF6
330
17
100
AcDbEntity
  8
0
100
AcDbCircle
 10
1.750658980723097
 20
4.188660223732993
 30
0.0
 40
0.0140908800000005
100
AcDbArc
 50
123.6448598130841
 51
303.644859813084
  0
ARC
  5
EF7
330
17
100
AcDbEntity
  8
0
100
AcDbCircle
 10
1.735187941969239
 20
4.212280579697015
 30
0.0
 40
0.0140908800000005
100
AcDbArc
 50
122.803738317757
 51
302.803738317757
  0
ARC
  5
EF8
330
17
100
AcDbEntity
  8
0
100
AcDbCircle
 10
1.720065312675408
 20
4.236125502410915
 30
0.0
 40
0.0140908800000005
100
AcDbArc
 50
121.9626168224298
 51
301.96261682243
  0
ARC
  5
EF9
330
17
100
AcDbEntity
  8
0
100
AcDbCircle
 10
1.70529435189672
 20
4.260189853091227
 30
0.0
 40
0.0140908800000005
100
AcDbArc
 50
121.1214953271028
 51
301.1214953271028
  0
ARC
  5
EFA
330
17
100
AcDbEntity
  8
0
100
AcDbCircle
 10
1.690878242900742
 20
4.284468445665892
 30
0.0
 40
0.0140908800000005
100
AcDbArc
 50
120.2803738317757
 51
300.2803738317757
  0
ARC
  5
EFB
330
17
100
AcDbEntity
  8
0
100
AcDbCircle
 10
1.67682009248146
 20
4.308956047891902
 30
0.0
 40
0.0140908800000005
100
AcDbArc
 50
119.4392523364486
 51
299.4392523364486
  0
ARC
  5
EFC
330
17
100
AcDbEntity
  8
0
100
AcDbCircle
 10
1.663122930289751
 20
4.333647382482898
 30
0.0
 40
0.0140908800000005
100
AcDbArc
 50
118.5981308411214
 51
298.5981308411214
  0
ARC
  5
EFD
330
17
100
AcDbEntity
  8
0
100
AcDbCircle
 10
1.649789708180454
 20
4.358537128246459
 30
0.0
 40
0.0140908800000005
100
AcDbArc
 50
117.7570093457944
 51
297.7570093457944
  0
ARC
  5
EFE
330
17
100
AcDbEntity
  8
0
100
AcDbCircle
 10
1.636823299576239
 20
4.383619921230874
 30
0.0
 40
0.0140908800000005
100
AcDbArc
 50
116.9158878504673
 51
296.9158878504673
  0
ARC
  5
EFF
330
17
100
AcDbEntity
  8
0
100
AcDbCircle
 10
1.588680489337328
 20
4.485772854751301
 30
0.0
 40
0.0140908800000005
100
AcDbArc
 50
113.5514018691588
 51
293.5514018691588
  0
ARC
  5
F00
330
17
100
AcDbEntity
  8
0
100
AcDbCircle
 10
1.577588462082486
 20
4.511739009402469
 30
0.0
 40
0.0140908800000005
100
AcDbArc
 50
112.7102803738317
 51
292.7102803738318
  0
ARC
  5
F01
330
17
100
AcDbEntity
  8
0
100
AcDbCircle
 10
1.624226498848337
 20
4.408890355881113
 30
0.0
 40
0.0140908800000005
100
AcDbArc
 50
116.0747663551402
 51
296.0747663551402
  0
ARC
  5
F02
330
17
100
AcDbEntity
  8
0
100
AcDbCircle
 10
1.612002020714346
 20
4.434342986203775
 30
0.0
 40
0.0140908800000005
100
AcDbArc
 50
115.2336448598131
 51
295.2336448598131
  0
ARC
  5
F03
330
17
100
AcDbEntity
  8
0
100
AcDbCircle
 10
1.600152499653184
 20
4.459972326940743
 30
0.0
 40
0.0140908800000005
100
AcDbArc
 50
114.392523364486
 51
294.392523364486
  0
ARC
  5
F04
330
17
100
AcDbEntity
  8
0
100
AcDbCircle
 10
1.566878808314784
 20
4.537865194967271
 30
0.0
 40
0.0140908800000005
100
AcDbArc
 50
111.8691588785047
 51
291.8691588785047
  0
ARC
  5
F05
330
17
100
AcDbEntity
  8
0
100
AcDbCircle
 10
2.406516899924901
 20
3.579259240448463
 30
0.0
 40
0.0140908800000005
100
AcDbArc
 50
150.5607476635514
 51
330.5607476635513
  0
ARC
  5
F06
330
17
100
AcDbEntity
  8
0
100
AcDbCircle
 10
2.382029297698889
 20
3.593317390867744
 30
0.0
 40
0.0140908800000005
100
AcDbArc
 50
149.7196261682243
 51
329.7196261682243
  0
ARC
  5
F07
330
17
100
AcDbEntity
  8
0
100
AcDbCircle
 10
2.042637649875564
 20
3.845268815379157
 30
0.0
 40
0.0140908800000005
100
AcDbArc
 50
137.1028037383177
 51
317.1028037383178
  0
ARC
  5
F08
330
17
100
AcDbEntity
  8
0
100
AcDbCircle
 10
2.022094227790637
 20
3.864639981194126
 30
0.0
 40
0.0140908800000005
100
AcDbArc
 50
136.2616822429906
 51
316.2616822429907
  0
ARC
  5
F09
330
17
100
AcDbEntity
  8
0
100
AcDbCircle
 10
2.001837384423161
 20
3.884310633262018
 30
0.0
 40
0.0140908800000005
100
AcDbArc
 50
135.4205607476635
 51
315.4205607476635
  0
ARC
  5
F0A
330
17
100
AcDbEntity
  8
0
100
AcDbCircle
 10
1.981871485295016
 20
3.904276532390163
 30
0.0
 40
0.0140908800000005
100
AcDbArc
 50
134.5794392523364
 51
314.5794392523365
  0
ARC
  5
F0B
330
17
100
AcDbEntity
  8
0
100
AcDbCircle
 10
2.357750705124224
 20
3.607733499863722
 30
0.0
 40
0.0140908800000005
100
AcDbArc
 50
148.8785046728972
 51
328.8785046728972
  0
ARC
  5
F0C
330
17
100
AcDbEntity
  8
0
100
AcDbCircle
 10
2.333686354443913
 20
3.622504460642409
 30
0.0
 40
0.0140908800000005
100
AcDbArc
 50
148.03738317757
 51
328.0373831775701
  0
ARC
  5
F0D
330
17
100
AcDbEntity
  8
0
100
AcDbCircle
 10
2.286221075765991
 20
3.653098128690098
 30
0.0
 40
0.0140908800000005
100
AcDbArc
 50
146.3551401869159
 51
326.3551401869159
  0
ARC
  5
F0E
330
17
100
AcDbEntity
  8
0
100
AcDbCircle
 10
2.262830376939271
 20
3.668914242763668
 30
0.0
 40
0.0140908800000005
100
AcDbArc
 50
145.5140186915888
 51
325.5140186915888
  0
ARC
  5
F0F
330
17
100
AcDbEntity
  8
0
100
AcDbCircle
 10
2.239674376144209
 20
3.685072023649967
 30
0.0
 40
0.0140908800000005
100
AcDbArc
 50
144.6728971962616
 51
324.6728971962617
  0
ARC
  5
F10
330
17
100
AcDbEntity
  8
0
100
AcDbCircle
 10
2.309841431730013
 20
3.637627089936239
 30
0.0
 40
0.0140908800000005
100
AcDbArc
 50
147.196261682243
 51
327.1962616822429
  0
ARC
  5
F11
330
17
100
AcDbEntity
  8
0
100
AcDbCircle
 10
2.194086378253953
 20
3.718398584422764
 30
0.0
 40
0.0140908800000005
100
AcDbArc
 50
142.9906542056074
 51
322.9906542056075
  0
ARC
  5
F12
330
17
100
AcDbEntity
  8
0
100
AcDbCircle
 10
2.171664205759683
 20
3.735560182152223
 30
0.0
 40
0.0140908800000005
100
AcDbArc
 50
142.1495327102803
 51
322.1495327102804
  0
ARC
  5
F13
330
17
100
AcDbEntity
  8
0
100
AcDbCircle
 10
2.149496378381646
 20
3.75304908392815
 30
0.0
 40
0.0140908800000005
100
AcDbArc
 50
141.3084112149532
 51
321.3084112149533
  0
ARC
  5
F14
330
17
100
AcDbEntity
  8
0
100
AcDbCircle
 10
2.127587673475012
 20
3.770861520743605
 30
0.0
 40
0.0140908800000005
100
AcDbArc
 50
140.4672897196262
 51
320.4672897196262
  0
ARC
  5
F15
330
17
100
AcDbEntity
  8
0
100
AcDbCircle
 10
2.105942812551859
 20
3.788993653867091
 30
0.0
 40
0.0140908800000005
100
AcDbArc
 50
139.626168224299
 51
319.6261682242991
  0
ARC
  5
F16
330
17
100
AcDbEntity
  8
0
100
AcDbCircle
 10
2.084566460263639
 20
3.807441575669843
 30
0.0
 40
0.0140908800000005
100
AcDbArc
 50
138.7850467289719
 51
318.7850467289719
  0
ARC
  5
F17
330
17
100
AcDbEntity
  8
0
100
AcDbCircle
 10
2.21675806369575
 20
3.701567989209917
 30
0.0
 40
0.0140908800000005
100
AcDbArc
 50
143.8317757009346
 51
323.8317757009346
  0
ARC
  5
F18
330
17
100
AcDbEntity
  8
0
100
AcDbCircle
 10
2.063463223395918
 20
3.826201310467951
 30
0.0
 40
0.0140908800000005
100
AcDbArc
 50
137.9439252336448
 51
317.9439252336448
  0
ARC
  5
F19
330
17
100
AcDbEntity
  8
0
100
AcDbCircle
 10
2.696900404445343
 20
3.424476843495756
 30
0.0
 40
0.062
100
AcDbArc
 50
124.9487766565219
 51
143.8919444702648
  0
ARC
  5
F1A
330
17
100
AcDbEntity
  8
0
100
AcDbCircle
 10
2.635426047000267
 20
3.469317956281787
 30
0.0
 40
0.0140908800000005
100
AcDbArc
 50
158.1308411214952
 51
323.8919444702652
  0
ARC
  5
F1B
330
17
100
AcDbEntity
  8
0
100
AcDbCircle
 10
2.625867764292927
 20
3.526115241913762
 30
0.0
 40
0.062
100
AcDbArc
 50
304.9487766565217
 51
67.21300683295594
  0
ARC
  5
F1C
330
17
100
AcDbEntity
  8
0
100
AcDbCircle
 10
2.609299861435465
 20
3.480027610049487
 30
0.0
 40
0.0140908800000005
100
AcDbArc
 50
157.2897196261681
 51
337.2897196261681
  0
ARC
  5
F1D
330
17
100
AcDbEntity
  8
0
100
AcDbCircle
 10
2.55753317897374
 20
3.502591647620185
 30
0.0
 40
0.0140908800000005
100
AcDbArc
 50
155.6074766355139
 51
335.6074766355139
  0
ARC
  5
F1E
330
17
100
AcDbEntity
  8
0
100
AcDbCircle
 10
2.531903838236773
 20
3.514441168681348
 30
0.0
 40
0.0140908800000005
100
AcDbArc
 50
154.7663551401868
 51
334.7663551401868
  0
ARC
  5
F1F
330
17
100
AcDbEntity
  8
0
100
AcDbCircle
 10
2.506451207914111
 20
3.526665646815337
 30
0.0
 40
0.0140908800000005
100
AcDbArc
 50
153.9252336448598
 51
333.9252336448597
  0
ARC
  5
F20
330
17
100
AcDbEntity
  8
0
100
AcDbCircle
 10
2.48118077326387
 20
3.539262447543241
 30
0.0
 40
0.0140908800000005
100
AcDbArc
 50
153.0841121495327
 51
333.0841121495327
  0
ARC
  5
F21
330
17
100
AcDbEntity
  8
0
100
AcDbCircle
 10
2.456097980279458
 20
3.552228856147457
 30
0.0
 40
0.0140908800000005
100
AcDbArc
 50
152.2429906542056
 51
332.2429906542055
  0
ARC
  5
F22
330
17
100
AcDbEntity
  8
0
100
AcDbCircle
 10
2.431208234515896
 20
3.565562078256752
 30
0.0
 40
0.0140908800000005
100
AcDbArc
 50
151.4018691588785
 51
331.4018691588785
  0
ARC
  5
F23
330
17
100
AcDbEntity
  8
0
100
AcDbCircle
 10
2.583333706784298
 20
3.49111963730433
 30
0.0
 40
0.0140908800000005
100
AcDbArc
 50
156.448598130841
 51
336.4485981308411
  0
ARC
  5
F24
330
17
100
AcDbEntity
  8
0
100
AcDbCircle
 10
1.98187148529506
 20
6.60434861988474
 30
0.0
 40
0.0140908800000005
100
AcDbArc
 50
45.42056074766164
 51
225.4205607476616
  0
ARC
  5
F25
330
17
100
AcDbEntity
  8
0
100
AcDbCircle
 10
1.962200833227167
 20
6.584091776517267
 30
0.0
 40
0.0140908800000005
100
AcDbArc
 50
46.26168224298878
 51
226.2616822429887
  0
ARC
  5
F26
330
17
100
AcDbEntity
  8
0
100
AcDbCircle
 10
1.577588462082512
 20
5.996886142872451
 30
0.0
 40
0.0140908800000005
100
AcDbArc
 50
67.28971962616615
 51
247.2897196261662
  0
ARC
  5
F27
330
17
100
AcDbEntity
  8
0
100
AcDbCircle
 10
1.588680489337356
 20
6.02285229752362
 30
0.0
 40
0.0140908800000005
100
AcDbArc
 50
66.44859813083906
 51
246.4485981308391
  0
ARC
  5
F28
330
17
100
AcDbEntity
  8
0
100
AcDbCircle
 10
1.546615770424264
 20
5.918050048371748
 30
0.0
 40
0.0140908800000005
100
AcDbArc
 50
69.81308411214751
 51
249.8130841121476
  0
ARC
  5
F29
330
17
100
AcDbEntity
  8
0
100
AcDbCircle
 10
1.556553836055641
 20
5.944479371244212
 30
0.0
 40
0.0140908800000005
100
AcDbArc
 50
68.97196261682037
 51
248.9719626168204
  0
ARC
  5
F2A
330
17
100
AcDbEntity
  8
0
100
AcDbCircle
 10
1.495226459772446
 20
5.756671688364681
 30
0.0
 40
0.0140908800000005
100
AcDbArc
 50
74.8598130841101
 51
254.8598130841101
  0
ARC
  5
F2B
330
17
100
AcDbEntity
  8
0
100
AcDbCircle
 10
1.502801058800835
 20
5.783872785871025
 30
0.0
 40
0.0140908800000005
100
AcDbArc
 50
74.01869158878297
 51
254.018691588783
  0
ARC
  5
F2C
330
17
100
AcDbEntity
  8
0
100
AcDbCircle
 10
1.510774148637276
 20
5.810959758652245
 30
0.0
 40
0.0140908800000005
100
AcDbArc
 50
73.17757009345585
 51
253.1775700934559
  0
ARC
  5
F2D
330
17
100
AcDbEntity
  8
0
100
AcDbCircle
 10
1.51914401101316
 20
5.837926769235535
 30
0.0
 40
0.0140908800000005
100
AcDbArc
 50
72.33644859812873
 51
252.3364485981287
  0
ARC
  5
F2E
330
17
100
AcDbEntity
  8
0
100
AcDbCircle
 10
1.527908842152021
 20
5.864768006000963
 30
0.0
 40
0.0140908800000005
100
AcDbArc
 50
71.49532710280173
 51
251.4953271028017
  0
ARC
  5
F2F
330
17
100
AcDbEntity
  8
0
100
AcDbCircle
 10
1.537066753158268
 20
5.891477684433922
 30
0.0
 40
0.0140908800000005
100
AcDbArc
 50
70.65420560747461
 51
250.6542056074746
  0
ARC
  5
F30
330
17
100
AcDbEntity
  8
0
100
AcDbCircle
 10
1.428671563675173
 20
5.282547860820789
 30
0.0
 40
0.0140908800000005
100
AcDbArc
 50
89.1588785046707
 51
269.1588785046707
  0
ARC
  5
F31
330
17
100
AcDbEntity
  8
0
100
AcDbCircle
 10
1.429293285524085
 20
5.310777060560299
 30
0.0
 40
0.0140908800000005
100
AcDbArc
 50
88.31775700934356
 51
268.3177570093437
  0
ARC
  5
F32
330
17
100
AcDbEntity
  8
0
100
AcDbCircle
 10
1.430329339730821
 20
5.338994091723609
 30
0.0
 40
0.0140908800000005
100
AcDbArc
 50
87.47663551401648
 51
267.4766355140165
  0
ARC
  5
F33
330
17
100
AcDbEntity
  8
0
100
AcDbCircle
 10
1.431779503016896
 20
5.367192873300731
 30
0.0
 40
0.0140908800000005
100
AcDbArc
 50
86.63551401868938
 51
266.6355140186894
  0
ARC
  5
F34
330
17
100
AcDbEntity
  8
0
100
AcDbCircle
 10
1.433643462859799
 20
5.395367328214615
 30
0.0
 40
0.0140908800000005
100
AcDbArc
 50
85.79439252336227
 51
265.7943925233622
  0
ARC
  5
F35
330
17
100
AcDbEntity
  8
0
100
AcDbCircle
 10
1.435920817560345
 20
5.423511384630817
 30
0.0
 40
0.0140908800000005
100
AcDbArc
 50
84.95327102803521
 51
264.9532710280352
  0
ARC
  5
F36
330
17
100
AcDbEntity
  8
0
100
AcDbCircle
 10
1.438611076329245
 20
5.451618977266027
 30
0.0
 40
0.0140908800000005
100
AcDbArc
 50
84.11214953270818
 51
264.1121495327082
  0
ARC
  5
F37
330
17
100
AcDbEntity
  8
0
100
AcDbCircle
 10
1.441713659392874
 20
5.479684048695186
 30
0.0
 40
0.0140908800000005
100
AcDbArc
 50
83.27102803738098
 51
263.271028037381
  0
ARC
  5
F38
330
17
100
AcDbEntity
  8
0
100
AcDbCircle
 10
1.445227898118215
 20
5.507700550656918
 30
0.0
 40
0.0140908800000005
100
AcDbArc
 50
82.42990654205389
 51
262.429906542054
  0
ARC
  5
F39
330
17
100
AcDbEntity
  8
0
100
AcDbCircle
 10
1.449153035156964
 20
5.535662445356984
 30
0.0
 40
0.0140908800000005
100
AcDbArc
 50
81.5887850467268
 51
261.5887850467268
  0
ARC
  5
F3A
330
17
100
AcDbEntity
  8
0
100
AcDbCircle
 10
1.453488224608733
 20
5.563563706769468
 30
0.0
 40
0.0140908800000005
100
AcDbArc
 50
80.74766355139972
 51
260.7476635513997
  0
ARC
  5
F3B
330
17
100
AcDbEntity
  8
0
100
AcDbCircle
 10
1.458232532203358
 20
5.591398321935447
 30
0.0
 40
0.0140908800000005
100
AcDbArc
 50
79.90654205607267
 51
259.9065420560726
  0
ARC
  5
F3C
330
17
100
AcDbEntity
  8
0
100
AcDbCircle
 10
1.463384935502237
 20
5.619160292258825
 30
0.0
 40
0.0140908800000005
100
AcDbArc
 50
79.06542056074549
 51
259.0654205607456
  0
ARC
  5
F3D
330
17
100
AcDbEntity
  8
0
100
AcDbCircle
 10
1.468944324118679
 20
5.646843634799094
 30
0.0
 40
0.0140908800000005
100
AcDbArc
 50
78.22429906541841
 51
258.2242990654184
  0
ARC
  5
F3E
330
17
100
AcDbEntity
  8
0
100
AcDbCircle
 10
1.428464308170428
 20
5.254312576137429
 30
0.0
 40
0.0140908800000005
100
AcDbArc
 50
90.0
 51
270.0
  0
ARC
  5
F3F
330
17
100
AcDbEntity
  8
0
100
AcDbCircle
 10
1.474909499957192
 20
5.674442383560697
 30
0.0
 40
0.0140908800000005
100
AcDbArc
 50
77.38317757009131
 51
257.3831775700914
  0
ARC
  5
F40
330
17
100
AcDbEntity
  8
0
100
AcDbCircle
 10
1.481279177471698
 20
5.701950590778756
 30
0.0
 40
0.0140908800000005
100
AcDbArc
 50
76.54205607476423
 51
256.5420560747642
  0
ARC
  5
F41
330
17
100
AcDbEntity
  8
0
100
AcDbCircle
 10
1.488051983942565
 20
5.729362328200867
 30
0.0
 40
0.0140908800000005
100
AcDbArc
 50
75.7009345794371
 51
255.7009345794371
  0
ARC
  5
F42
330
17
100
AcDbEntity
  8
0
100
AcDbCircle
 10
1.433643462859794
 20
5.113257824060315
 30
0.0
 40
0.0140908800000005
100
AcDbArc
 50
94.20560747663547
 51
274.2056074766355
  0
ARC
  5
F43
330
17
100
AcDbEntity
  8
0
100
AcDbCircle
 10
1.431779503016891
 20
5.141432278974201
 30
0.0
 40
0.0140908800000005
100
AcDbArc
 50
93.36448598130838
 51
273.3644859813084
  0
ARC
  5
F44
330
17
100
AcDbEntity
  8
0
100
AcDbCircle
 10
1.430329339730818
 20
5.169631060551323
 30
0.0
 40
0.0140908800000005
100
AcDbArc
 50
92.52336448598127
 51
272.5233644859813
  0
ARC
  5
F45
330
17
100
AcDbEntity
  8
0
100
AcDbCircle
 10
1.429293285524083
 20
5.197848091714632
 30
0.0
 40
0.0140908800000005
100
AcDbArc
 50
91.68224299065419
 51
271.6822429906542
  0
ARC
  5
F46
330
17
100
AcDbEntity
  8
0
100
AcDbCircle
 10
1.428671563675172
 20
5.226077291454143
 30
0.0
 40
0.0140908800000005
100
AcDbArc
 50
90.84112149532705
 51
270.8411214953271
  0
ARC
  5
F47
330
17
100
AcDbEntity
  8
0
100
AcDbCircle
 10
1.56687880831481
 20
5.970759957307652
 30
0.0
 40
0.0140908800000005
100
AcDbArc
 50
68.13084112149332
 51
248.1308411214933
  0
ARC
  5
F48
330
17
100
AcDbEntity
  8
0
100
AcDbCircle
 10
1.868422372776645
 20
6.478598330832894
 30
0.0
 40
0.0140908800000005
100
AcDbArc
 50
50.46728971962427
 51
230.4672897196243
  0
ARC
  5
F49
330
17
100
AcDbEntity
  8
0
100
AcDbCircle
 10
1.88655450590013
 20
6.500243191756047
 30
0.0
 40
0.0140908800000005
100
AcDbArc
 50
49.62616822429716
 51
229.6261682242972
  0
ARC
  5
F4A
330
17
100
AcDbEntity
  8
0
100
AcDbCircle
 10
1.905002427702884
 20
6.521619544044265
 30
0.0
 40
0.0140908800000005
100
AcDbArc
 50
48.78504672897009
 51
228.7850467289701
  0
ARC
  5
F4B
330
17
100
AcDbEntity
  8
0
100
AcDbCircle
 10
1.923762162500993
 20
6.542722780911987
 30
0.0
 40
0.0140908800000005
100
AcDbArc
 50
47.94392523364299
 51
227.943925233643
  0
ARC
  5
F4C
330
17
100
AcDbEntity
  8
0
100
AcDbCircle
 10
1.942829667412199
 20
6.563548354432339
 30
0.0
 40
0.0140908800000005
100
AcDbArc
 50
47.10280373831589
 51
227.1028037383159
  0
ARC
  5
F4D
330
17
100
AcDbEntity
  8
0
100
AcDbCircle
 10
1.636823299576269
 20
6.125005231044045
 30
0.0
 40
0.0140908800000005
100
AcDbArc
 50
63.08411214953073
 51
243.0841121495307
  0
ARC
  5
F4E
330
17
100
AcDbEntity
  8
0
100
AcDbCircle
 10
1.649789708180486
 20
6.150088024028458
 30
0.0
 40
0.0140908800000005
100
AcDbArc
 50
62.24299065420362
 51
242.2429906542036
  0
ARC
  5
F4F
330
17
100
AcDbEntity
  8
0
100
AcDbCircle
 10
1.663122930289782
 20
6.174977769792021
 30
0.0
 40
0.0140908800000005
100
AcDbArc
 50
61.40186915887649
 51
241.4018691588765
  0
ARC
  5
F50
330
17
100
AcDbEntity
  8
0
100
AcDbCircle
 10
1.676820092481493
 20
6.199669104383015
 30
0.0
 40
0.0140908800000005
100
AcDbArc
 50
60.56074766354941
 51
240.5607476635494
  0
ARC
  5
F51
330
17
100
AcDbEntity
  8
0
100
AcDbCircle
 10
1.690878242900776
 20
6.224156706609025
 30
0.0
 40
0.0140908800000005
100
AcDbArc
 50
59.7196261682223
 51
239.7196261682223
  0
ARC
  5
F52
330
17
100
AcDbEntity
  8
0
100
AcDbCircle
 10
1.705294351896755
 20
6.24843529918369
 30
0.0
 40
0.0140908800000005
100
AcDbArc
 50
58.87850467289524
 51
238.8785046728953
  0
ARC
  5
F53
330
17
100
AcDbEntity
  8
0
100
AcDbCircle
 10
1.720065312675443
 20
6.272499649864
 30
0.0
 40
0.0140908800000005
100
AcDbArc
 50
58.03738317756812
 51
238.0373831775681
  0
ARC
  5
F54
330
17
100
AcDbEntity
  8
0
100
AcDbCircle
 10
1.735187941969273
 20
6.296344572577899
 30
0.0
 40
0.0140908800000005
100
AcDbArc
 50
57.19626168224106
 51
237.196261682241
  0
ARC
  5
F55
330
17
100
AcDbEntity
  8
0
100
AcDbCircle
 10
1.750658980723133
 20
6.319964928541921
 30
0.0
 40
0.0140908800000005
100
AcDbArc
 50
56.35514018691393
 51
236.3551401869139
  0
ARC
  5
F56
330
17
100
AcDbEntity
  8
0
100
AcDbCircle
 10
1.766475094796703
 20
6.343355627368641
 30
0.0
 40
0.0140908800000005
100
AcDbArc
 50
55.51401869158683
 51
235.5140186915869
  0
ARC
  5
F57
330
17
100
AcDbEntity
  8
0
100
AcDbCircle
 10
1.782632875683004
 20
6.366511628163701
 30
0.0
 40
0.0140908800000005
100
AcDbArc
 50
54.67289719625974
 51
234.6728971962598
  0
ARC
  5
F58
330
17
100
AcDbEntity
  8
0
100
AcDbCircle
 10
1.799128841242954
 20
6.38942794061216
 30
0.0
 40
0.0140908800000005
100
AcDbArc
 50
53.83177570093269
 51
233.8317757009327
  0
ARC
  5
F59
330
17
100
AcDbEntity
  8
0
100
AcDbCircle
 10
1.815959436455802
 20
6.412099626053956
 30
0.0
 40
0.0140908800000005
100
AcDbArc
 50
52.99065420560552
 51
232.9906542056055
  0
ARC
  5
F5A
330
17
100
AcDbEntity
  8
0
100
AcDbCircle
 10
1.600152499653211
 20
6.048652825334178
 30
0.0
 40
0.0140908800000005
100
AcDbArc
 50
65.60747663551198
 51
245.607476635512
  0
ARC
  5
F5B
330
17
100
AcDbEntity
  8
0
100
AcDbCircle
 10
1.612002020714375
 20
6.074282166071144
 30
0.0
 40
0.0140908800000005
100
AcDbArc
 50
64.76635514018487
 51
244.7663551401848
  0
ARC
  5
F5C
330
17
100
AcDbEntity
  8
0
100
AcDbCircle
 10
1.624226498848365
 20
6.099734796393805
 30
0.0
 40
0.0140908800000005
100
AcDbArc
 50
63.92523364485786
 51
243.9252336448578
  0
ARC
  5
F5D
330
17
100
AcDbEntity
  8
0
100
AcDbCircle
 10
1.833121034185261
 20
6.434521798548225
 30
0.0
 40
0.0140908800000005
100
AcDbArc
 50
52.14953271027846
 51
232.1495327102784
  0
ARC
  5
F5E
330
17
100
AcDbEntity
  8
0
100
AcDbCircle
 10
1.850609935961189
 20
6.45668962592626
 30
0.0
 40
0.0140908800000005
100
AcDbArc
 50
51.30841121495131
 51
231.3084112149513
  0
ARC
  5
F5F
330
17
100
AcDbEntity
  8
0
100
AcDbCircle
 10
2.406516899924952
 20
6.929365911826426
 30
0.0
 40
0.0140908800000005
100
AcDbArc
 50
29.43925233644687
 51
209.4392523364469
  0
ARC
  5
F60
330
17
100
AcDbEntity
  8
0
100
AcDbCircle
 10
2.431208234515947
 20
6.943063074018135
 30
0.0
 40
0.0140908800000005
100
AcDbArc
 50
28.59813084111975
 51
208.5981308411198
  0
ARC
  5
F61
330
17
100
AcDbEntity
  8
0
100
AcDbCircle
 10
2.38202929769894
 20
6.915307761407144
 30
0.0
 40
0.0140908800000005
100
AcDbArc
 50
30.28037383177394
 51
210.2803738317739
  0
ARC
  5
F62
330
17
100
AcDbEntity
  8
0
100
AcDbCircle
 10
2.333686354443964
 20
6.886120691632482
 30
0.0
 40
0.0140908800000005
100
AcDbArc
 50
31.96261682242812
 51
211.962616822428
  0
ARC
  5
F63
330
17
100
AcDbEntity
  8
0
100
AcDbCircle
 10
2.357750705124275
 20
6.900891652411168
 30
0.0
 40
0.0140908800000005
100
AcDbArc
 50
31.12149532710106
 51
211.1214953271011
  0
ARC
  5
F64
330
17
100
AcDbEntity
  8
0
100
AcDbCircle
 10
2.239674376144259
 20
6.823553128624927
 30
0.0
 40
0.0140908800000005
100
AcDbArc
 50
35.32710280373648
 51
215.3271028037365
  0
ARC
  5
F65
330
17
100
AcDbEntity
  8
0
100
AcDbCircle
 10
2.262830376939319
 20
6.839710909511225
 30
0.0
 40
0.0140908800000005
100
AcDbArc
 50
34.48598130840944
 51
214.4859813084095
  0
ARC
  5
F66
330
17
100
AcDbEntity
  8
0
100
AcDbCircle
 10
2.28622107576604
 20
6.855527023584794
 30
0.0
 40
0.0140908800000005
100
AcDbArc
 50
33.6448598130823
 51
213.6448598130824
  0
ARC
  5
F67
330
17
100
AcDbEntity
  8
0
100
AcDbCircle
 10
2.309841431730063
 20
6.870998062338651
 30
0.0
 40
0.0140908800000005
100
AcDbArc
 50
32.80373831775523
 51
212.8037383177552
  0
ARC
  5
F68
330
17
100
AcDbEntity
  8
0
100
AcDbCircle
 10
2.04263764987561
 20
6.663356336895743
 30
0.0
 40
0.0140908800000005
100
AcDbArc
 50
42.89719626168042
 51
222.8971962616804
  0
ARC
  5
F69
330
17
100
AcDbEntity
  8
0
100
AcDbCircle
 10
2.063463223395965
 20
6.682423841806949
 30
0.0
 40
0.0140908800000005
100
AcDbArc
 50
42.05607476635328
 51
222.0560747663533
  0
ARC
  5
F6A
330
17
100
AcDbEntity
  8
0
100
AcDbCircle
 10
2.084566460263687
 20
6.701183576605057
 30
0.0
 40
0.0140908800000005
100
AcDbArc
 50
41.21495327102623
 51
221.2149532710263
  0
ARC
  5
F6B
330
17
100
AcDbEntity
  8
0
100
AcDbCircle
 10
2.105942812551906
 20
6.719631498407808
 30
0.0
 40
0.0140908800000005
100
AcDbArc
 50
40.37383177569908
 51
220.3738317756991
  0
ARC
  5
F6C
330
17
100
AcDbEntity
  8
0
100
AcDbCircle
 10
2.127587673475061
 20
6.737763631531292
 30
0.0
 40
0.0140908800000005
100
AcDbArc
 50
39.53271028037202
 51
219.532710280372
  0
ARC
  5
F6D
330
17
100
AcDbEntity
  8
0
100
AcDbCircle
 10
2.149496378381694
 20
6.755576068346747
 30
0.0
 40
0.0140908800000005
100
AcDbArc
 50
38.69158878504491
 51
218.6915887850449
  0
ARC
  5
F6E
330
17
100
AcDbEntity
  8
0
100
AcDbCircle
 10
2.171664205759731
 20
6.773064970122675
 30
0.0
 40
0.0140908800000005
100
AcDbArc
 50
37.85046728971778
 51
217.8504672897178
  0
ARC
  5
F6F
330
17
100
AcDbEntity
  8
0
100
AcDbCircle
 10
2.194086378254
 20
6.790226567852132
 30
0.0
 40
0.0140908800000005
100
AcDbArc
 50
37.00934579439069
 51
217.0093457943907
  0
ARC
  5
F70
330
17
100
AcDbEntity
  8
0
100
AcDbCircle
 10
2.216758063695799
 20
6.807057163064976
 30
0.0
 40
0.0140908800000005
100
AcDbArc
 50
36.16822429906363
 51
216.1682242990637
  0
ARC
  5
F71
330
17
100
AcDbEntity
  8
0
100
AcDbCircle
 10
2.001837384423206
 20
6.624314519012884
 30
0.0
 40
0.0140908800000005
100
AcDbArc
 50
44.57943925233458
 51
224.5794392523346
  0
ARC
  5
F72
330
17
100
AcDbEntity
  8
0
100
AcDbCircle
 10
2.022094227790682
 20
6.643985171080776
 30
0.0
 40
0.0140908800000005
100
AcDbArc
 50
43.7383177570075
 51
223.7383177570075
  0
ARC
  5
F73
330
17
100
AcDbEntity
  8
0
100
AcDbCircle
 10
2.822313218436952
 20
7.103384945507058
 30
0.0
 40
0.0140908800000005
100
AcDbArc
 50
15.9813084112133
 51
195.9813084112133
  0
ARC
  5
F74
330
17
100
AcDbEntity
  8
0
100
AcDbCircle
 10
2.688135955936227
 20
7.059570233883637
 30
0.0
 40
0.0140908800000005
100
AcDbArc
 50
20.18691588784878
 51
200.1869158878488
  0
ARC
  5
F75
330
17
100
AcDbEntity
  8
0
100
AcDbCircle
 10
2.714708319874054
 20
7.069119251149631
 30
0.0
 40
0.0140908800000005
100
AcDbArc
 50
19.34579439252168
 51
199.3457943925217
  0
ARC
  5
F76
330
17
100
AcDbEntity
  8
0
100
AcDbCircle
 10
2.741417998307015
 20
7.078277162155877
 30
0.0
 40
0.0140908800000005
100
AcDbArc
 50
18.50467289719458
 51
198.5046728971946
  0
ARC
  5
F77
330
17
100
AcDbEntity
  8
0
100
AcDbCircle
 10
2.768259235072441
 20
7.087041993294738
 30
0.0
 40
0.0140908800000005
100
AcDbArc
 50
17.66355140186747
 51
197.6635514018674
  0
ARC
  5
F78
330
17
100
AcDbEntity
  8
0
100
AcDbCircle
 10
2.795226245655733
 20
7.095411855670619
 30
0.0
 40
0.0140908800000005
100
AcDbArc
 50
16.82242990654039
 51
196.8224299065404
  0
ARC
  5
F79
330
17
100
AcDbEntity
  8
0
100
AcDbCircle
 10
2.609299861435518
 20
7.028597542225393
 30
0.0
 40
0.0140908800000005
100
AcDbArc
 50
22.71028037383008
 51
202.7102803738301
  0
ARC
  5
F7A
330
17
100
AcDbEntity
  8
0
100
AcDbCircle
 10
2.635426047000322
 20
7.039307195993094
 30
0.0
 40
0.0140908800000005
100
AcDbArc
 50
21.86915887850298
 51
201.869158878503
  0
ARC
  5
F7B
330
17
100
AcDbEntity
  8
0
100
AcDbCircle
 10
2.661706633063763
 20
7.04963216825226
 30
0.0
 40
0.0140908800000005
100
AcDbArc
 50
21.02803738317588
 51
201.0280373831759
  0
ARC
  5
F7C
330
17
100
AcDbEntity
  8
0
100
AcDbCircle
 10
2.456097980279509
 20
6.956396296127429
 30
0.0
 40
0.0140908800000005
100
AcDbArc
 50
27.75700934579265
 51
207.7570093457926
  0
ARC
  5
F7D
330
17
100
AcDbEntity
  8
0
100
AcDbCircle
 10
2.481180773263923
 20
6.969362704731645
 30
0.0
 40
0.0140908800000005
100
AcDbArc
 50
26.91588785046554
 51
206.9158878504655
  0
ARC
  5
F7E
330
17
100
AcDbEntity
  8
0
100
AcDbCircle
 10
2.506451207914164
 20
6.981959505459547
 30
0.0
 40
0.0140908800000005
100
AcDbArc
 50
26.07476635513848
 51
206.0747663551385
  0
ARC
  5
F7F
330
17
100
AcDbEntity
  8
0
100
AcDbCircle
 10
2.531903838236827
 20
6.994183983593535
 30
0.0
 40
0.0140908800000005
100
AcDbArc
 50
25.23364485981135
 51
205.2336448598114
  0
ARC
  5
F80
330
17
100
AcDbEntity
  8
0
100
AcDbCircle
 10
2.557533178973793
 20
7.006033504654697
 30
0.0
 40
0.0140908800000005
100
AcDbArc
 50
24.39252336448426
 51
204.3925233644843
  0
ARC
  5
F81
330
17
100
AcDbEntity
  8
0
100
AcDbCircle
 10
2.583333706784353
 20
7.017505514970553
 30
0.0
 40
0.0140908800000005
100
AcDbArc
 50
23.55140186915717
 51
203.5514018691571
  0
ARC
  5
F82
330
17
100
AcDbEntity
  8
0
100
AcDbCircle
 10
3.238993131007252
 20
7.174406501290969
 30
0.0
 40
0.0140908800000005
100
AcDbArc
 50
3.364485981306848
 51
183.3644859813069
  0
ARC
  5
F83
330
17
100
AcDbEntity
  8
0
100
AcDbCircle
 10
3.042622297538513
 20
7.152697779699145
 30
0.0
 40
0.0140908800000005
100
AcDbArc
 50
9.252336448596517
 51
189.2523364485965
  0
ARC
  5
F84
330
17
100
AcDbEntity
  8
0
100
AcDbCircle
 10
3.070523558950998
 20
7.157032969150912
 30
0.0
 40
0.0140908800000005
100
AcDbArc
 50
8.411214953269436
 51
188.4112149532694
  0
ARC
  5
F85
330
17
100
AcDbEntity
  8
0
100
AcDbCircle
 10
3.098485453651063
 20
7.160958106189659
 30
0.0
 40
0.0140908800000005
100
AcDbArc
 50
7.570093457942317
 51
187.5700934579423
  0
ARC
  5
F86
330
17
100
AcDbEntity
  8
0
100
AcDbCircle
 10
3.126501955612797
 20
7.164472344914998
 30
0.0
 40
0.0140908800000005
100
AcDbArc
 50
6.728971962615219
 51
186.7289719626153
  0
ARC
  5
F87
330
17
100
AcDbEntity
  8
0
100
AcDbCircle
 10
3.154567027041955
 20
7.167574927978624
 30
0.0
 40
0.0140908800000005
100
AcDbArc
 50
5.887850467288146
 51
185.8878504672881
  0
ARC
  5
F88
330
17
100
AcDbEntity
  8
0
100
AcDbCircle
 10
3.182674619677164
 20
7.170265186747522
 30
0.0
 40
0.0140908800000005
100
AcDbArc
 50
5.046728971961029
 51
185.046728971961
  0
ARC
  5
F89
330
17
100
AcDbEntity
  8
0
100
AcDbCircle
 10
3.210818676093367
 20
7.172542541448067
 30
0.0
 40
0.0140908800000005
100
AcDbArc
 50
4.205607476633947
 51
184.2056074766339
  0
ARC
  5
F8A
330
17
100
AcDbEntity
  8
0
100
AcDbCircle
 10
2.959342369508886
 20
7.137241680189205
 30
0.0
 40
0.0140908800000005
100
AcDbArc
 50
11.7757009345778
 51
191.7757009345778
  0
ARC
  5
F8B
330
17
100
AcDbEntity
  8
0
100
AcDbCircle
 10
2.987025712049154
 20
7.142801068805645
 30
0.0
 40
0.0140908800000005
100
AcDbArc
 50
10.93457943925072
 51
190.9345794392507
  0
ARC
  5
F8C
330
17
100
AcDbEntity
  8
0
100
AcDbCircle
 10
3.014787682372535
 20
7.147953472104521
 30
0.0
 40
0.0140908800000005
100
AcDbArc
 50
10.09345794392362
 51
190.0934579439236
  0
ARC
  5
F8D
330
17
100
AcDbEntity
  8
0
100
AcDbCircle
 10
2.849514315943295
 20
7.110959544535445
 30
0.0
 40
0.0140908800000005
100
AcDbArc
 50
15.1401869158862
 51
195.1401869158862
  0
ARC
  5
F8E
330
17
100
AcDbEntity
  8
0
100
AcDbCircle
 10
2.876823676107113
 20
7.118134020365324
 30
0.0
 40
0.0140908800000005
100
AcDbArc
 50
14.29906542055911
 51
194.2990654205591
  0
ARC
  5
F8F
330
17
100
AcDbEntity
  8
0
100
AcDbCircle
 10
2.904235413529222
 20
7.124906826836189
 30
0.0
 40
0.0140908800000005
100
AcDbArc
 50
13.45794392523202
 51
193.457943925232
  0
ARC
  5
F90
330
17
100
AcDbEntity
  8
0
100
AcDbCircle
 10
2.931743620747281
 20
7.131276504350693
 30
0.0
 40
0.0140908800000005
100
AcDbArc
 50
12.61682242990491
 51
192.6168224299049
  0
ARC
  5
F91
330
17
100
AcDbEntity
  8
0
100
AcDbCircle
 10
3.380108712853766
 20
7.177514440632684
 30
0.0
 40
0.0140908800000005
100
AcDbArc
 50
359.1588785046714
 51
179.1588785046713
  0
ARC
  5
F92
330
17
100
AcDbEntity
  8
0
100
AcDbCircle
 10
3.408337912593275
 20
7.176892718783772
 30
0.0
 40
0.0140908800000005
100
AcDbArc
 50
358.3177570093443
 51
178.3177570093442
  0
ARC
  5
F93
330
17
100
AcDbEntity
  8
0
100
AcDbCircle
 10
3.436554943756584
 20
7.175856664577037
 30
0.0
 40
0.0140908800000005
100
AcDbArc
 50
357.4766355140172
 51
177.4766355140172
  0
ARC
  5
F94
330
17
100
AcDbEntity
  8
0
100
AcDbCircle
 10
3.464753725333706
 20
7.174406501290964
 30
0.0
 40
0.0140908800000005
100
AcDbArc
 50
356.63551401869
 51
176.6355140186901
  0
ARC
  5
F95
330
17
100
AcDbEntity
  8
0
100
AcDbCircle
 10
3.492928180247591
 20
7.172542541448061
 30
0.0
 40
0.0140908800000005
100
AcDbArc
 50
355.794392523363
 51
175.794392523363
  0
ARC
  5
F96
330
17
100
AcDbEntity
  8
0
100
AcDbCircle
 10
3.521072236663794
 20
7.170265186747514
 30
0.0
 40
0.0140908800000005
100
AcDbArc
 50
354.9532710280359
 51
174.9532710280359
  0
ARC
  5
F97
330
17
100
AcDbEntity
  8
0
100
AcDbCircle
 10
3.549179829299003
 20
7.167574927978614
 30
0.0
 40
0.0140908800000005
100
AcDbArc
 50
354.1121495327088
 51
174.1121495327088
  0
ARC
  5
F98
330
17
100
AcDbEntity
  8
0
100
AcDbCircle
 10
3.577244900728161
 20
7.164472344914987
 30
0.0
 40
0.0140908800000005
100
AcDbArc
 50
353.2710280373817
 51
173.2710280373817
  0
ARC
  5
F99
330
17
100
AcDbEntity
  8
0
100
AcDbCircle
 10
3.605261402689894
 20
7.160958106189645
 30
0.0
 40
0.0140908800000005
100
AcDbArc
 50
352.4299065420546
 51
172.4299065420546
  0
ARC
  5
F9A
330
17
100
AcDbEntity
  8
0
100
AcDbCircle
 10
3.633223297389959
 20
7.157032969150895
 30
0.0
 40
0.0140908800000005
100
AcDbArc
 50
351.5887850467275
 51
171.5887850467275
  0
ARC
  5
F9B
330
17
100
AcDbEntity
  8
0
100
AcDbCircle
 10
3.323638143487192
 20
7.177514440632685
 30
0.0
 40
0.0140908800000005
100
AcDbArc
 50
0.8411214953255601
 51
180.8411214953255
  0
ARC
  5
F9C
330
17
100
AcDbEntity
  8
0
100
AcDbCircle
 10
3.351873428170479
 20
7.177721696137429
 30
0.0
 40
0.0140908800000005
100
AcDbArc
 50
359.9999999999984
 51
179.9999999999984
  0
ARC
  5
F9D
330
17
100
AcDbEntity
  8
0
100
AcDbCircle
 10
3.267191912584374
 20
7.175856664577041
 30
0.0
 40
0.0140908800000005
100
AcDbArc
 50
2.523364485979747
 51
182.5233644859797
  0
ARC
  5
F9E
330
17
100
AcDbEntity
  8
0
100
AcDbCircle
 10
3.295408943747683
 20
7.176892718783776
 30
0.0
 40
0.0140908800000005
100
AcDbArc
 50
1.682242990652656
 51
181.6822429906526
  0
ARC
  5
F9F
330
17
100
AcDbEntity
  8
0
100
AcDbCircle
 10
5.267826038780514
 20
5.085113767644085
 30
0.0
 40
0.0140908800000005
100
AcDbArc
 50
264.9532710280364
 51
84.95327102803654
  0
LINE
  5
FA0
330
17
100
AcDbEntity
  8
ADPDIM
  6
ByBlock
100
AcDbLine
 10
5.289373428170449
 20
2.247084496765467
 30
0.0
 11
5.289373428170428
 21
4.435991130182107
 31
0.0
  0
LWPOLYLINE
  5
FA1
330
17
100
AcDbEntity
  8
ADPDIM
100
AcDbPolyline
 90
        2
 70
     1
 43
0.05
 10
5.264373428170429
 20
2.519242487585587
 42
1.0
 10
5.314373428170441
 20
2.519242487585587
 42
1.0
  0
ARC
  5
FA2
330
17
100
AcDbEntity
  8
0
100
AcDbCircle
 10
4.509660478086889
 20
3.718398584422754
 30
0.0
 40
0.0140908800000005
100
AcDbArc
 50
217.009345794392
 51
37.00934579439201
  0
ARC
  5
FA3
330
17
100
AcDbEntity
  8
0
100
AcDbCircle
 10
4.094446994905377
 20
3.480027610049482
 30
0.0
 40
0.0140908800000005
100
AcDbArc
 50
202.7102803738314
 51
22.71028037383138
  0
ARC
  5
FA4
330
17
100
AcDbEntity
  8
0
100
AcDbCircle
 10
4.006846451895478
 20
3.42447684349578
 30
0.0
 40
0.062
100
AcDbArc
 50
36.10805552970762
 51
55.051223343459
  0
ARC
  5
FA5
330
17
100
AcDbEntity
  8
0
100
AcDbCircle
 10
4.068320809340576
 20
3.469317956281781
 30
0.0
 40
0.0140908800000005
100
AcDbArc
 50
216.108055529708
 51
21.8691588785043
  0
ARC
  5
FA6
330
17
100
AcDbEntity
  8
0
100
AcDbCircle
 10
4.077879092047929
 20
3.526115241913762
 30
0.0
 40
0.062
100
AcDbArc
 50
112.786993167044
 51
235.0512233434592
  0
ARC
  5
FA7
330
17
100
AcDbEntity
  8
0
100
AcDbCircle
 10
4.486988792645092
 20
3.701567989209906
 30
0.0
 40
0.0140908800000005
100
AcDbArc
 50
216.1682242990649
 51
36.16822429906491
  0
ARC
  5
FA8
330
17
100
AcDbEntity
  8
0
100
AcDbCircle
 10
4.464072480196633
 20
3.685072023649959
 30
0.0
 40
0.0140908800000005
100
AcDbArc
 50
215.3271028037378
 51
35.32710280373786
  0
ARC
  5
FA9
330
17
100
AcDbEntity
  8
0
100
AcDbCircle
 10
4.440916479401574
 20
3.668914242763659
 30
0.0
 40
0.0140908800000005
100
AcDbArc
 50
214.4859813084107
 51
34.48598130841072
  0
ARC
  5
FAA
330
17
100
AcDbEntity
  8
0
100
AcDbCircle
 10
4.370060501896928
 20
3.6225044606424
 30
0.0
 40
0.0140908800000005
100
AcDbArc
 50
211.9626168224294
 51
31.96261682242943
  0
ARC
  5
FAB
330
17
100
AcDbEntity
  8
0
100
AcDbCircle
 10
4.345996151216618
 20
3.607733499863715
 30
0.0
 40
0.0140908800000005
100
AcDbArc
 50
211.1214953271023
 51
31.12149532710231
  0
ARC
  5
FAC
330
17
100
AcDbEntity
  8
0
100
AcDbCircle
 10
4.321717558641955
 20
3.593317390867737
 30
0.0
 40
0.0140908800000005
100
AcDbArc
 50
210.2803738317752
 51
30.28037383177517
  0
ARC
  5
FAD
330
17
100
AcDbEntity
  8
0
100
AcDbCircle
 10
4.297229956415943
 20
3.579259240448455
 30
0.0
 40
0.0140908800000005
100
AcDbArc
 50
209.4392523364482
 51
29.43925233644812
  0
ARC
  5
FAE
330
17
100
AcDbEntity
  8
0
100
AcDbCircle
 10
4.272538621824946
 20
3.565562078256744
 30
0.0
 40
0.0140908800000005
100
AcDbArc
 50
208.598130841121
 51
28.5981308411211
  0
ARC
  5
FAF
330
17
100
AcDbEntity
  8
0
100
AcDbCircle
 10
4.247648876061385
 20
3.552228856147451
 30
0.0
 40
0.0140908800000005
100
AcDbArc
 50
207.7570093457939
 51
27.75700934579396
  0
ARC
  5
FB0
330
17
100
AcDbEntity
  8
0
100
AcDbCircle
 10
4.22256608307697
 20
3.539262447543233
 30
0.0
 40
0.0140908800000005
100
AcDbArc
 50
206.9158878504668
 51
26.91588785046687
  0
ARC
  5
FB1
330
17
100
AcDbEntity
  8
0
100
AcDbCircle
 10
4.197295648426733
 20
3.526665646815331
 30
0.0
 40
0.0140908800000005
100
AcDbArc
 50
206.0747663551397
 51
26.07476635513973
  0
ARC
  5
FB2
330
17
100
AcDbEntity
  8
0
100
AcDbCircle
 10
4.17184301810407
 20
3.514441168681341
 30
0.0
 40
0.0140908800000005
100
AcDbArc
 50
205.2336448598126
 51
25.23364485981267
  0
ARC
  5
FB3
330
17
100
AcDbEntity
  8
0
100
AcDbCircle
 10
4.146213677367102
 20
3.502591647620179
 30
0.0
 40
0.0140908800000005
100
AcDbArc
 50
204.3925233644855
 51
24.3925233644855
  0
ARC
  5
FB4
330
17
100
AcDbEntity
  8
0
100
AcDbCircle
 10
4.120413149556546
 20
3.491119637304325
 30
0.0
 40
0.0140908800000005
100
AcDbArc
 50
203.5514018691585
 51
23.55140186915852
  0
ARC
  5
FB5
330
17
100
AcDbEntity
  8
0
100
AcDbCircle
 10
4.393905424610828
 20
3.637627089936231
 30
0.0
 40
0.0140908800000005
100
AcDbArc
 50
212.8037383177566
 51
32.80373831775652
  0
ARC
  5
FB6
330
17
100
AcDbEntity
  8
0
100
AcDbCircle
 10
4.417525780574854
 20
3.653098128690089
 30
0.0
 40
0.0140908800000005
100
AcDbArc
 50
213.6448598130836
 51
33.64485981308365
  0
ARC
  5
FB7
330
17
100
AcDbEntity
  8
0
100
AcDbCircle
 10
4.937271761544177
 20
4.165269524906254
 30
0.0
 40
0.0140908800000005
100
AcDbArc
 50
235.5140186915882
 51
55.51401869158817
  0
ARC
  5
FB8
330
17
100
AcDbEntity
  8
0
100
AcDbCircle
 10
4.921113980657877
 20
4.142113524111193
 30
0.0
 40
0.0140908800000005
100
AcDbArc
 50
234.672897196261
 51
54.672897196261
  0
ARC
  5
FB9
330
17
100
AcDbEntity
  8
0
100
AcDbCircle
 10
4.904618015097927
 20
4.119197211662734
 30
0.0
 40
0.0140908800000005
100
AcDbArc
 50
233.831775700934
 51
53.83177570093394
  0
ARC
  5
FBA
330
17
100
AcDbEntity
  8
0
100
AcDbCircle
 10
4.887787419885082
 20
4.09652552622094
 30
0.0
 40
0.0140908800000005
100
AcDbArc
 50
232.9906542056068
 51
52.9906542056068
  0
ARC
  5
FBB
330
17
100
AcDbEntity
  8
0
100
AcDbCircle
 10
4.870625822155622
 20
4.074103353726667
 30
0.0
 40
0.0140908800000005
100
AcDbArc
 50
232.1495327102798
 51
52.14953271027976
  0
ARC
  5
FBC
330
17
100
AcDbEntity
  8
0
100
AcDbCircle
 10
4.853136920379693
 20
4.051935526348632
 30
0.0
 40
0.0140908800000005
100
AcDbArc
 50
231.3084112149526
 51
51.30841121495262
  0
ARC
  5
FBD
330
17
100
AcDbEntity
  8
0
100
AcDbCircle
 10
4.83532448356424
 20
4.030026821442
 30
0.0
 40
0.0140908800000005
100
AcDbArc
 50
230.4672897196256
 51
50.46728971962559
  0
ARC
  5
FBE
330
17
100
AcDbEntity
  8
0
100
AcDbCircle
 10
4.817192350440753
 20
4.008381960518845
 30
0.0
 40
0.0140908800000005
100
AcDbArc
 50
229.6261682242985
 51
49.62616822429838
  0
ARC
  5
FBF
330
17
100
AcDbEntity
  8
0
100
AcDbCircle
 10
4.798744428638002
 20
3.987005608230627
 30
0.0
 40
0.0140908800000005
100
AcDbArc
 50
228.7850467289713
 51
48.78504672897145
  0
ARC
  5
FC0
330
17
100
AcDbEntity
  8
0
100
AcDbCircle
 10
4.74154602311372
 20
3.924533375757626
 30
0.0
 40
0.0140908800000005
100
AcDbArc
 50
226.2616822429901
 51
46.26168224299004
  0
ARC
  5
FC1
330
17
100
AcDbEntity
  8
0
100
AcDbCircle
 10
4.721875371045825
 20
3.90427653239015
 30
0.0
 40
0.0140908800000005
100
AcDbArc
 50
225.420560747663
 51
45.42056074766301
  0
ARC
  5
FC2
330
17
100
AcDbEntity
  8
0
100
AcDbCircle
 10
4.701909471917682
 20
3.884310633262005
 30
0.0
 40
0.0140908800000005
100
AcDbArc
 50
224.5794392523359
 51
44.57943925233589
  0
ARC
  5
FC3
330
17
100
AcDbEntity
  8
0
100
AcDbCircle
 10
4.681652628550207
 20
3.864639981194113
 30
0.0
 40
0.0140908800000005
100
AcDbArc
 50
223.7383177570087
 51
43.73831775700884
  0
ARC
  5
FC4
330
17
100
AcDbEntity
  8
0
100
AcDbCircle
 10
4.661109206465278
 20
3.845268815379145
 30
0.0
 40
0.0140908800000005
100
AcDbArc
 50
222.8971962616817
 51
42.89719626168166
  0
ARC
  5
FC5
330
17
100
AcDbEntity
  8
0
100
AcDbCircle
 10
4.779984693839892
 20
3.965902371362905
 30
0.0
 40
0.0140908800000005
100
AcDbArc
 50
227.9439252336442
 51
47.94392523364426
  0
ARC
  5
FC6
330
17
100
AcDbEntity
  8
0
100
AcDbCircle
 10
4.760917188928687
 20
3.945076797842553
 30
0.0
 40
0.0140908800000005
100
AcDbArc
 50
227.1028037383171
 51
47.10280373831718
  0
ARC
  5
FC7
330
17
100
AcDbEntity
  8
0
100
AcDbCircle
 10
4.619180396077203
 20
3.80744157566983
 30
0.0
 40
0.0140908800000005
100
AcDbArc
 50
221.2149532710275
 51
41.21495327102747
  0
ARC
  5
FC8
330
17
100
AcDbEntity
  8
0
100
AcDbCircle
 10
4.597804043788982
 20
3.788993653867079
 30
0.0
 40
0.0140908800000005
100
AcDbArc
 50
220.3738317757004
 51
40.37383177570041
  0
ARC
  5
FC9
330
17
100
AcDbEntity
  8
0
100
AcDbCircle
 10
4.576159182865829
 20
3.770861520743593
 30
0.0
 40
0.0140908800000005
100
AcDbArc
 50
219.5327102803733
 51
39.53271028037331
  0
ARC
  5
FCA
330
17
100
AcDbEntity
  8
0
100
AcDbCircle
 10
4.554250477959197
 20
3.753049083928141
 30
0.0
 40
0.0140908800000005
100
AcDbArc
 50
218.6915887850462
 51
38.69158878504618
  0
ARC
  5
FCB
330
17
100
AcDbEntity
  8
0
100
AcDbCircle
 10
4.532082650581161
 20
3.735560182152213
 30
0.0
 40
0.0140908800000005
100
AcDbArc
 50
217.8504672897191
 51
37.85046728971908
  0
ARC
  5
FCC
330
17
100
AcDbEntity
  8
0
100
AcDbCircle
 10
4.640283632944923
 20
3.82620131046794
 30
0.0
 40
0.0140908800000005
100
AcDbArc
 50
222.0560747663546
 51
42.05607476635464
  0
POINT
  5
FCD
330
17
100
AcDbEntity
  8
DEFPOINTS
  6
ByBlock
 62
     0
100
AcDbPoint
 10
5.289373428170435
 20
4.831092483976676
 30
0.0
  0
ARC
  5
FCE
330
17
100
AcDbEntity
  8
0
100
AcDbCircle
 10
5.265135780011615
 20
5.057006175008877
 30
0.0
 40
0.0140908800000005
100
AcDbArc
 50
264.1121495327095
 51
84.1121495327094
  0
ARC
  5
FCF
330
17
100
AcDbEntity
  8
0
100
AcDbCircle
 10
5.262033196947988
 20
5.028941103579718
 30
0.0
 40
0.0140908800000005
100
AcDbArc
 50
263.2710280373824
 51
83.27102803738233
  0
ARC
  5
FD0
330
17
100
AcDbEntity
  8
0
100
AcDbCircle
 10
5.258518958222646
 20
5.000924601617986
 30
0.0
 40
0.0140908800000005
100
AcDbArc
 50
262.4299065420552
 51
82.42990654205533
  0
ARC
  5
FD1
330
17
100
AcDbEntity
  8
0
100
AcDbCircle
 10
5.254593821183899
 20
4.972962706917918
 30
0.0
 40
0.0140908800000005
100
AcDbArc
 50
261.5887850467281
 51
81.58878504672813
  0
ARC
  5
FD2
330
17
100
AcDbEntity
  8
0
100
AcDbCircle
 10
5.25025863173213
 20
4.945061445505436
 30
0.0
 40
0.0140908800000005
100
AcDbArc
 50
260.747663551401
 51
80.74766355140106
  0
ARC
  5
FD3
330
17
100
AcDbEntity
  8
0
100
AcDbCircle
 10
5.245514324137506
 20
4.917226830339455
 30
0.0
 40
0.0140908800000005
100
AcDbArc
 50
259.9065420560739
 51
79.9065420560739
  0
ARC
  5
FD4
330
17
100
AcDbEntity
  8
0
100
AcDbCircle
 10
5.240361920838627
 20
4.889464860016079
 30
0.0
 40
0.0140908800000005
100
AcDbArc
 50
259.0654205607468
 51
79.06542056074684
  0
ARC
  5
FD5
330
17
100
AcDbEntity
  8
0
100
AcDbCircle
 10
5.234802532222187
 20
4.86178151747581
 30
0.0
 40
0.0140908800000005
100
AcDbArc
 50
258.2242990654198
 51
78.22429906541976
  0
ARC
  5
FD6
330
17
100
AcDbEntity
  8
0
100
AcDbCircle
 10
5.228837356383673
 20
4.834182768714204
 30
0.0
 40
0.0140908800000005
100
AcDbArc
 50
257.3831775700927
 51
77.38317757009276
  0
ARC
  5
FD7
330
17
100
AcDbEntity
  8
0
100
AcDbCircle
 10
5.222467678869167
 20
4.806674561496144
 30
0.0
 40
0.0140908800000005
100
AcDbArc
 50
256.5420560747655
 51
76.54205607476558
  0
ARC
  5
FD8
330
17
100
AcDbEntity
  8
0
100
AcDbCircle
 10
5.215694872398302
 20
4.779262824074034
 30
0.0
 40
0.0140908800000005
100
AcDbArc
 50
255.7009345794385
 51
75.70093457943848
  0
ARC
  5
FD9
330
17
100
AcDbEntity
  8
0
100
AcDbCircle
 10
5.208520396568422
 20
4.75195346391022
 30
0.0
 40
0.0140908800000005
100
AcDbArc
 50
254.8598130841114
 51
74.85981308411135
  0
ARC
  5
FDA
330
17
100
AcDbEntity
  8
0
100
AcDbCircle
 10
5.200945797540034
 20
4.72475236640388
 30
0.0
 40
0.0140908800000005
100
AcDbArc
 50
254.0186915887842
 51
74.01869158878437
  0
ARC
  5
FDB
330
17
100
AcDbEntity
  8
0
100
AcDbCircle
 10
5.192972707703592
 20
4.697665393622656
 30
0.0
 40
0.0140908800000005
100
AcDbArc
 50
253.1775700934571
 51
73.17757009345713
  0
ARC
  5
FDC
330
17
100
AcDbEntity
  8
0
100
AcDbCircle
 10
5.184602845327709
 20
4.670698383039367
 30
0.0
 40
0.0140908800000005
100
AcDbArc
 50
252.3364485981301
 51
72.33644859813011
  0
ARC
  5
FDD
330
17
100
AcDbEntity
  8
0
100
AcDbCircle
 10
5.175838014188849
 20
4.643857146273937
 30
0.0
 40
0.0140908800000005
100
AcDbArc
 50
251.4953271028029
 51
71.49532710280301
  0
ARC
  5
FDE
330
17
100
AcDbEntity
  8
0
100
AcDbCircle
 10
5.166680103182601
 20
4.617147467840974
 30
0.0
 40
0.0140908800000005
100
AcDbArc
 50
250.6542056074759
 51
70.65420560747591
  0
ARC
  5
FDF
330
17
100
AcDbEntity
  8
0
100
AcDbCircle
 10
5.157131085916607
 20
4.59057510390315
 30
0.0
 40
0.0140908800000005
100
AcDbArc
 50
249.8130841121488
 51
69.8130841121487
  0
ARC
  5
FE0
330
17
100
AcDbEntity
  8
0
100
AcDbCircle
 10
5.14719302028523
 20
4.564145781030688
 30
0.0
 40
0.0140908800000005
100
AcDbArc
 50
248.9719626168216
 51
68.97196261682168
  0
ARC
  5
FE1
330
17
100
AcDbEntity
  8
0
100
AcDbCircle
 10
5.103594356687663
 20
4.459972326940721
 30
0.0
 40
0.0140908800000005
100
AcDbArc
 50
245.6074766355133
 51
65.60747663551332
  0
ARC
  5
FE2
330
17
100
AcDbEntity
  8
0
100
AcDbCircle
 10
5.091744835626499
 20
4.434342986203754
 30
0.0
 40
0.0140908800000005
100
AcDbArc
 50
244.7663551401862
 51
64.76635514018622
  0
ARC
  5
FE3
330
17
100
AcDbEntity
  8
0
100
AcDbCircle
 10
5.079520357492509
 20
4.408890355881093
 30
0.0
 40
0.0140908800000005
100
AcDbArc
 50
243.9252336448591
 51
63.9252336448591
  0
ARC
  5
FE4
330
17
100
AcDbEntity
  8
0
100
AcDbCircle
 10
5.066923556764606
 20
4.383619921230855
 30
0.0
 40
0.0140908800000005
100
AcDbArc
 50
243.084112149532
 51
63.08411214953198
  0
ARC
  5
FE5
330
17
100
AcDbEntity
  8
0
100
AcDbCircle
 10
5.05395714816039
 20
4.358537128246439
 30
0.0
 40
0.0140908800000005
100
AcDbArc
 50
242.242990654205
 51
62.24299065420492
  0
ARC
  5
FE6
330
17
100
AcDbEntity
  8
0
100
AcDbCircle
 10
5.040623926051094
 20
4.333647382482877
 30
0.0
 40
0.0140908800000005
100
AcDbArc
 50
241.4018691588778
 51
61.40186915887777
  0
ARC
  5
FE7
330
17
100
AcDbEntity
  8
0
100
AcDbCircle
 10
5.026926763859384
 20
4.308956047891884
 30
0.0
 40
0.0140908800000005
100
AcDbArc
 50
240.5607476635507
 51
60.5607476635507
  0
ARC
  5
FE8
330
17
100
AcDbEntity
  8
0
100
AcDbCircle
 10
5.012868613440103
 20
4.284468445665869
 30
0.0
 40
0.0140908800000005
100
AcDbArc
 50
239.7196261682236
 51
59.71962616822358
  0
ARC
  5
FE9
330
17
100
AcDbEntity
  8
0
100
AcDbCircle
 10
4.998452504444123
 20
4.260189853091208
 30
0.0
 40
0.0140908800000005
100
AcDbArc
 50
238.8785046728965
 51
58.87850467289655
  0
ARC
  5
FEA
330
17
100
AcDbEntity
  8
0
100
AcDbCircle
 10
4.983681543665437
 20
4.236125502410898
 30
0.0
 40
0.0140908800000005
100
AcDbArc
 50
238.0373831775694
 51
58.03738317756944
  0
ARC
  5
FEB
330
17
100
AcDbEntity
  8
0
100
AcDbCircle
 10
4.968558914371605
 20
4.212280579696996
 30
0.0
 40
0.0140908800000005
100
AcDbArc
 50
237.1962616822423
 51
57.19626168224243
  0
ARC
  5
FEC
330
17
100
AcDbEntity
  8
0
100
AcDbCircle
 10
4.953087875617747
 20
4.188660223732974
 30
0.0
 40
0.0140908800000005
100
AcDbArc
 50
236.3551401869152
 51
56.35514018691528
  0
ARC
  5
FED
330
17
100
AcDbEntity
  8
0
100
AcDbCircle
 10
5.115066367003519
 20
4.485772854751281
 30
0.0
 40
0.0140908800000005
100
AcDbArc
 50
246.4485981308404
 51
66.44859813084039
  0
ARC
  5
FEE
330
17
100
AcDbEntity
  8
0
100
AcDbCircle
 10
5.126158394258361
 20
4.511739009402449
 30
0.0
 40
0.0140908800000005
100
AcDbArc
 50
247.2897196261675
 51
67.28971962616746
  0
ARC
  5
FEF
330
17
100
AcDbEntity
  8
0
100
AcDbCircle
 10
5.136868048026062
 20
4.537865194967249
 30
0.0
 40
0.0140908800000005
100
AcDbArc
 50
248.1308411214946
 51
68.13084112149453
  0
ARC
  5
FF0
330
17
100
AcDbEntity
  8
0
100
AcDbCircle
 10
4.272538621824999
 20
6.943063074018085
 30
0.0
 40
0.0140908800000005
100
AcDbArc
 50
331.4018691588771
 51
151.4018691588772
  0
ARC
  5
FF1
330
17
100
AcDbEntity
  8
0
100
AcDbCircle
 10
4.297229956415994
 20
6.929365911826375
 30
0.0
 40
0.0140908800000005
100
AcDbArc
 50
330.5607476635501
 51
150.5607476635501
  0
ARC
  5
FF2
330
17
100
AcDbEntity
  8
0
100
AcDbCircle
 10
4.509660478086937
 20
6.790226567852069
 30
0.0
 40
0.0140908800000005
100
AcDbArc
 50
322.9906542056062
 51
142.9906542056062
  0
ARC
  5
FF3
330
17
100
AcDbEntity
  8
0
100
AcDbCircle
 10
4.440916479401621
 20
6.839710909511167
 30
0.0
 40
0.0140908800000005
100
AcDbArc
 50
325.5140186915875
 51
145.5140186915875
  0
ARC
  5
FF4
330
17
100
AcDbEntity
  8
0
100
AcDbCircle
 10
4.464072480196682
 20
6.823553128624867
 30
0.0
 40
0.0140908800000005
100
AcDbArc
 50
324.6728971962604
 51
144.6728971962604
  0
ARC
  5
FF5
330
17
100
AcDbEntity
  8
0
100
AcDbCircle
 10
4.48698879264514
 20
6.807057163064916
 30
0.0
 40
0.0140908800000005
100
AcDbArc
 50
323.8317757009333
 51
143.8317757009333
  0
ARC
  5
FF6
330
17
100
AcDbEntity
  8
0
100
AcDbCircle
 10
4.321717558642005
 20
6.915307761407094
 30
0.0
 40
0.0140908800000005
100
AcDbArc
 50
329.719626168223
 51
149.719626168223
  0
ARC
  5
FF7
330
17
100
AcDbEntity
  8
0
100
AcDbCircle
 10
4.345996151216668
 20
6.900891652411114
 30
0.0
 40
0.0140908800000005
100
AcDbArc
 50
328.8785046728959
 51
148.8785046728959
  0
ARC
  5
FF8
330
17
100
AcDbEntity
  8
0
100
AcDbCircle
 10
4.37006050189698
 20
6.886120691632427
 30
0.0
 40
0.0140908800000005
100
AcDbArc
 50
328.0373831775688
 51
148.0373831775688
  0
ARC
  5
FF9
330
17
100
AcDbEntity
  8
0
100
AcDbCircle
 10
4.39390542461088
 20
6.870998062338594
 30
0.0
 40
0.0140908800000005
100
AcDbArc
 50
327.1962616822417
 51
147.1962616822417
  0
ARC
  5
FFA
330
17
100
AcDbEntity
  8
0
100
AcDbCircle
 10
4.417525780574901
 20
6.855527023584735
 30
0.0
 40
0.0140908800000005
100
AcDbArc
 50
326.3551401869146
 51
146.3551401869146
  0
ARC
  5
FFB
330
17
100
AcDbEntity
  8
0
100
AcDbCircle
 10
5.115066367003543
 20
6.022852297523524
 30
0.0
 40
0.0140908800000005
100
AcDbArc
 50
293.5514018691577
 51
113.5514018691578
  0
ARC
  5
FFC
330
17
100
AcDbEntity
  8
0
100
AcDbCircle
 10
5.126158394258384
 20
5.996886142872357
 30
0.0
 40
0.0140908800000005
100
AcDbArc
 50
292.7102803738307
 51
112.7102803738306
  0
ARC
  5
FFD
330
17
100
AcDbEntity
  8
0
100
AcDbCircle
 10
5.136868048026085
 20
5.970759957307555
 30
0.0
 40
0.0140908800000005
100
AcDbArc
 50
291.8691588785036
 51
111.8691588785036
  0
ARC
  5
FFE
330
17
100
AcDbEntity
  8
0
100
AcDbCircle
 10
5.166680103182622
 20
5.891477684433825
 30
0.0
 40
0.0140908800000005
100
AcDbArc
 50
289.3457943925223
 51
109.3457943925224
  0
ARC
  5
FFF
330
17
100
AcDbEntity
  8
0
100
AcDbCircle
 10
5.175838014188869
 20
5.864768006000866
 30
0.0
 40
0.0140908800000005
100
AcDbArc
 50
288.5046728971951
 51
108.5046728971952
  0
ARC
  5
1000
330
17
100
AcDbEntity
  8
0
100
AcDbCircle
 10
5.184602845327728
 20
5.837926769235434
 30
0.0
 40
0.0140908800000005
100
AcDbArc
 50
287.6635514018682
 51
107.663551401868
  0
ARC
  5
1001
330
17
100
AcDbEntity
  8
0
100
AcDbCircle
 10
5.192972707703609
 20
5.810959758652149
 30
0.0
 40
0.0140908800000005
100
AcDbArc
 50
286.8224299065411
 51
106.822429906541
  0
ARC
  5
1002
330
17
100
AcDbEntity
  8
0
100
AcDbCircle
 10
5.20094579754005
 20
5.783872785870924
 30
0.0
 40
0.0140908800000005
100
AcDbArc
 50
285.9813084112139
 51
105.9813084112139
  0
ARC
  5
1003
330
17
100
AcDbEntity
  8
0
100
AcDbCircle
 10
5.208520396568437
 20
5.756671688364584
 30
0.0
 40
0.0140908800000005
100
AcDbArc
 50
285.1401869158868
 51
105.1401869158868
  0
ARC
  5
1004
330
17
100
AcDbEntity
  8
0
100
AcDbCircle
 10
5.215694872398317
 20
5.729362328200765
 30
0.0
 40
0.0140908800000005
100
AcDbArc
 50
284.2990654205597
 51
104.2990654205597
  0
ARC
  5
1005
330
17
100
AcDbEntity
  8
0
100
AcDbCircle
 10
5.222467678869181
 20
5.701950590778658
 30
0.0
 40
0.0140908800000005
100
AcDbArc
 50
283.4579439252327
 51
103.4579439252326
  0
ARC
  5
1006
330
17
100
AcDbEntity
  8
0
100
AcDbCircle
 10
5.228837356383686
 20
5.674442383560598
 30
0.0
 40
0.0140908800000005
100
AcDbArc
 50
282.6168224299056
 51
102.6168224299055
  0
ARC
  5
1007
330
17
100
AcDbEntity
  8
0
100
AcDbCircle
 10
5.234802532222199
 20
5.64684363479899
 30
0.0
 40
0.0140908800000005
100
AcDbArc
 50
281.7757009345783
 51
101.7757009345785
  0
ARC
  5
1008
330
17
100
AcDbEntity
  8
0
100
AcDbCircle
 10
5.240361920838638
 20
5.619160292258722
 30
0.0
 40
0.0140908800000005
100
AcDbArc
 50
280.9345794392513
 51
100.9345794392514
  0
ARC
  5
1009
330
17
100
AcDbEntity
  8
0
100
AcDbCircle
 10
5.245514324137516
 20
5.591398321935344
 30
0.0
 40
0.0140908800000005
100
AcDbArc
 50
280.0934579439243
 51
100.0934579439242
  0
ARC
  5
100A
330
17
100
AcDbEntity
  8
0
100
AcDbCircle
 10
5.250258631732139
 20
5.563563706769368
 30
0.0
 40
0.0140908800000005
100
AcDbArc
 50
279.2523364485972
 51
99.25233644859719
  0
ARC
  5
100B
330
17
100
AcDbEntity
  8
0
100
AcDbCircle
 10
5.254593821183908
 20
5.535662445356882
 30
0.0
 40
0.0140908800000005
100
AcDbArc
 50
278.4112149532701
 51
98.41121495327001
  0
ARC
  5
100C
330
17
100
AcDbEntity
  8
0
100
AcDbCircle
 10
5.258518958222653
 20
5.507700550656817
 30
0.0
 40
0.0140908800000005
100
AcDbArc
 50
277.570093457943
 51
97.57009345794294
  0
ARC
  5
100D
330
17
100
AcDbEntity
  8
0
100
AcDbCircle
 10
5.262033196947995
 20
5.479684048695084
 30
0.0
 40
0.0140908800000005
100
AcDbArc
 50
276.7289719626158
 51
96.7289719626158
  0
ARC
  5
100E
330
17
100
AcDbEntity
  8
0
100
AcDbCircle
 10
5.265135780011621
 20
5.451618977265925
 30
0.0
 40
0.0140908800000005
100
AcDbArc
 50
275.8878504672888
 51
95.88785046728872
  0
ARC
  5
100F
330
17
100
AcDbEntity
  8
0
100
AcDbCircle
 10
5.267826038780519
 20
5.423511384630715
 30
0.0
 40
0.0140908800000005
100
AcDbArc
 50
275.0467289719615
 51
95.0467289719617
  0
ARC
  5
1010
330
17
100
AcDbEntity
  8
0
100
AcDbCircle
 10
5.270103393481064
 20
5.39536732821451
 30
0.0
 40
0.0140908800000005
100
AcDbArc
 50
274.2056074766345
 51
94.20560747663452
  0
ARC
  5
1011
330
17
100
AcDbEntity
  8
0
100
AcDbCircle
 10
5.271967353323966
 20
5.367192873300628
 30
0.0
 40
0.0140908800000005
100
AcDbArc
 50
273.3644859813075
 51
93.36448598130745
  0
ARC
  5
1012
330
17
100
AcDbEntity
  8
0
100
AcDbCircle
 10
5.27341751661004
 20
5.338994091723503
 30
0.0
 40
0.0140908800000005
100
AcDbArc
 50
272.5233644859805
 51
92.52336448598036
  0
ARC
  5
1013
330
17
100
AcDbEntity
  8
0
100
AcDbCircle
 10
5.274453570816774
 20
5.310777060560196
 30
0.0
 40
0.0140908800000005
100
AcDbArc
 50
271.6822429906533
 51
91.68224299065329
  0
ARC
  5
1014
330
17
100
AcDbEntity
  8
0
100
AcDbCircle
 10
5.275075292665684
 20
5.282547860820685
 30
0.0
 40
0.0140908800000005
100
AcDbArc
 50
270.8411214953262
 51
90.84112149532627
  0
ARC
  5
1015
330
17
100
AcDbEntity
  8
0
100
AcDbCircle
 10
5.275282548170427
 20
5.254312576137398
 30
0.0
 40
0.0140908800000005
100
AcDbArc
 50
269.9999999999991
 51
89.99999999999909
  0
ARC
  5
1016
330
17
100
AcDbEntity
  8
0
100
AcDbCircle
 10
5.147193020285252
 20
5.944479371244115
 30
0.0
 40
0.0140908800000005
100
AcDbArc
 50
291.0280373831765
 51
111.0280373831765
  0
ARC
  5
1017
330
17
100
AcDbEntity
  8
0
100
AcDbCircle
 10
5.157131085916628
 20
5.918050048371653
 30
0.0
 40
0.0140908800000005
100
AcDbArc
 50
290.1869158878493
 51
110.1869158878494
  0
ARC
  5
1018
330
17
100
AcDbEntity
  8
0
100
AcDbCircle
 10
5.274453570816772
 20
5.197848091714604
 30
0.0
 40
0.0140908800000005
100
AcDbArc
 50
268.3177570093449
 51
88.31775700934487
  0
ARC
  5
1019
330
17
100
AcDbEntity
  8
0
100
AcDbCircle
 10
5.273417516610036
 20
5.169631060551294
 30
0.0
 40
0.0140908800000005
100
AcDbArc
 50
267.4766355140178
 51
87.4766355140178
  0
ARC
  5
101A
330
17
100
AcDbEntity
  8
0
100
AcDbCircle
 10
5.271967353323963
 20
5.141432278974175
 30
0.0
 40
0.0140908800000005
100
AcDbArc
 50
266.6355140186907
 51
86.63551401869071
  0
ARC
  5
101B
330
17
100
AcDbEntity
  8
0
100
AcDbCircle
 10
5.270103393481059
 20
5.113257824060287
 30
0.0
 40
0.0140908800000005
100
AcDbArc
 50
265.7943925233636
 51
85.79439252336371
  0
ARC
  5
101C
330
17
100
AcDbEntity
  8
0
100
AcDbCircle
 10
5.275075292665682
 20
5.226077291454114
 30
0.0
 40
0.0140908800000005
100
AcDbArc
 50
269.158878504672
 51
89.15887850467203
  0
ARC
  5
101D
330
17
100
AcDbEntity
  8
0
100
AcDbCircle
 10
4.921113980657913
 20
6.366511628163615
 30
0.0
 40
0.0140908800000005
100
AcDbArc
 50
305.3271028037372
 51
125.3271028037371
  0
ARC
  5
101E
330
17
100
AcDbEntity
  8
0
100
AcDbCircle
 10
4.937271761544211
 20
6.343355627368557
 30
0.0
 40
0.0140908800000005
100
AcDbArc
 50
304.48598130841
 51
124.48598130841
  0
ARC
  5
101F
330
17
100
AcDbEntity
  8
0
100
AcDbCircle
 10
4.532082650581203
 20
6.773064970122611
 30
0.0
 40
0.0140908800000005
100
AcDbArc
 50
322.1495327102791
 51
142.1495327102791
  0
ARC
  5
1020
330
17
100
AcDbEntity
  8
0
100
AcDbCircle
 10
4.554250477959243
 20
6.75557606834668
 30
0.0
 40
0.0140908800000005
100
AcDbArc
 50
321.308411214952
 51
141.308411214952
  0
ARC
  5
1021
330
17
100
AcDbEntity
  8
0
100
AcDbCircle
 10
4.576159182865874
 20
6.737763631531228
 30
0.0
 40
0.0140908800000005
100
AcDbArc
 50
320.467289719625
 51
140.4672897196249
  0
ARC
  5
1022
330
17
100
AcDbEntity
  8
0
100
AcDbCircle
 10
4.597804043789029
 20
6.719631498407741
 30
0.0
 40
0.0140908800000005
100
AcDbArc
 50
319.6261682242978
 51
139.6261682242978
  0
ARC
  5
1023
330
17
100
AcDbEntity
  8
0
100
AcDbCircle
 10
4.619180396077247
 20
6.701183576604989
 30
0.0
 40
0.0140908800000005
100
AcDbArc
 50
318.7850467289707
 51
138.7850467289707
  0
ARC
  5
1024
330
17
100
AcDbEntity
  8
0
100
AcDbCircle
 10
4.640283632944969
 20
6.682423841806878
 30
0.0
 40
0.0140908800000005
100
AcDbArc
 50
317.9439252336436
 51
137.9439252336436
  0
ARC
  5
1025
330
17
100
AcDbEntity
  8
0
100
AcDbCircle
 10
4.661109206465322
 20
6.663356336895674
 30
0.0
 40
0.0140908800000005
100
AcDbArc
 50
317.1028037383165
 51
137.1028037383165
  0
ARC
  5
1026
330
17
100
AcDbEntity
  8
0
100
AcDbCircle
 10
4.798744428638041
 20
6.521619544044189
 30
0.0
 40
0.0140908800000005
100
AcDbArc
 50
311.2149532710268
 51
131.2149532710269
  0
ARC
  5
1027
330
17
100
AcDbEntity
  8
0
100
AcDbCircle
 10
4.817192350440792
 20
6.500243191755969
 30
0.0
 40
0.0140908800000005
100
AcDbArc
 50
310.3738317756997
 51
130.3738317756997
  0
ARC
  5
1028
330
17
100
AcDbEntity
  8
0
100
AcDbCircle
 10
4.835324483564278
 20
6.478598330832813
 30
0.0
 40
0.0140908800000005
100
AcDbArc
 50
309.5327102803726
 51
129.5327102803726
  0
ARC
  5
1029
330
17
100
AcDbEntity
  8
0
100
AcDbCircle
 10
4.85313692037973
 20
6.456689625926181
 30
0.0
 40
0.0140908800000005
100
AcDbArc
 50
308.6915887850456
 51
128.6915887850455
  0
ARC
  5
102A
330
17
100
AcDbEntity
  8
0
100
AcDbCircle
 10
4.870625822155659
 20
6.434521798548141
 30
0.0
 40
0.0140908800000005
100
AcDbArc
 50
307.8504672897185
 51
127.8504672897184
  0
ARC
  5
102B
330
17
100
AcDbEntity
  8
0
100
AcDbCircle
 10
4.887787419885117
 20
6.412099626053874
 30
0.0
 40
0.0140908800000005
100
AcDbArc
 50
307.0093457943913
 51
127.0093457943913
  0
ARC
  5
102C
330
17
100
AcDbEntity
  8
0
100
AcDbCircle
 10
4.904618015097963
 20
6.389427940612076
 30
0.0
 40
0.0140908800000005
100
AcDbArc
 50
306.1682242990642
 51
126.1682242990643
  0
ARC
  5
102D
330
17
100
AcDbEntity
  8
0
100
AcDbCircle
 10
4.721875371045868
 20
6.604348619884666
 30
0.0
 40
0.0140908800000005
100
AcDbArc
 50
314.5794392523352
 51
134.5794392523352
  0
ARC
  5
102E
330
17
100
AcDbEntity
  8
0
100
AcDbCircle
 10
4.74154602311376
 20
6.58409177651719
 30
0.0
 40
0.0140908800000005
100
AcDbArc
 50
313.7383177570082
 51
133.7383177570081
  0
ARC
  5
102F
330
17
100
AcDbEntity
  8
0
100
AcDbCircle
 10
4.779984693839933
 20
6.542722780911908
 30
0.0
 40
0.0140908800000005
100
AcDbArc
 50
312.0560747663539
 51
132.0560747663539
  0
ARC
  5
1030
330
17
100
AcDbEntity
  8
0
100
AcDbCircle
 10
4.760917188928727
 20
6.563548354432262
 30
0.0
 40
0.0140908800000005
100
AcDbArc
 50
312.8971962616811
 51
132.897196261681
  0
ARC
  5
1031
330
17
100
AcDbEntity
  8
0
100
AcDbCircle
 10
4.681652628550248
 20
6.643985171080703
 30
0.0
 40
0.0140908800000005
100
AcDbArc
 50
316.2616822429894
 51
136.2616822429894
  0
ARC
  5
1032
330
17
100
AcDbEntity
  8
0
100
AcDbCircle
 10
4.701909471917725
 20
6.624314519012811
 30
0.0
 40
0.0140908800000005
100
AcDbArc
 50
315.4205607476622
 51
135.4205607476623
  0
ARC
  5
1033
330
17
100
AcDbEntity
  8
0
100
AcDbCircle
 10
4.95308787561778
 20
6.319964928541835
 30
0.0
 40
0.0140908800000005
100
AcDbArc
 50
303.6448598130829
 51
123.644859813083
  0
ARC
  5
1034
330
17
100
AcDbEntity
  8
0
100
AcDbCircle
 10
4.968558914371638
 20
6.296344572577813
 30
0.0
 40
0.0140908800000005
100
AcDbArc
 50
302.8037383177558
 51
122.8037383177559
  0
ARC
  5
1035
330
17
100
AcDbEntity
  8
0
100
AcDbCircle
 10
4.983681543665467
 20
6.272499649863912
 30
0.0
 40
0.0140908800000005
100
AcDbArc
 50
301.9626168224287
 51
121.9626168224287
  0
ARC
  5
1036
330
17
100
AcDbEntity
  8
0
100
AcDbCircle
 10
4.998452504444154
 20
6.248435299183601
 30
0.0
 40
0.0140908800000005
100
AcDbArc
 50
301.1214953271016
 51
121.1214953271016
  0
ARC
  5
1037
330
17
100
AcDbEntity
  8
0
100
AcDbCircle
 10
5.012868613440133
 20
6.224156706608933
 30
0.0
 40
0.0140908800000005
100
AcDbArc
 50
300.2803738317746
 51
120.2803738317745
  0
ARC
  5
1038
330
17
100
AcDbEntity
  8
0
100
AcDbCircle
 10
5.026926763859414
 20
6.199669104382922
 30
0.0
 40
0.0140908800000005
100
AcDbArc
 50
299.4392523364475
 51
119.4392523364474
  0
ARC
  5
1039
330
17
100
AcDbEntity
  8
0
100
AcDbCircle
 10
5.040623926051122
 20
6.174977769791929
 30
0.0
 40
0.0140908800000005
100
AcDbArc
 50
298.5981308411204
 51
118.5981308411203
  0
ARC
  5
103A
330
17
100
AcDbEntity
  8
0
100
AcDbCircle
 10
5.053957148160417
 20
6.150088024028368
 30
0.0
 40
0.0140908800000005
100
AcDbArc
 50
297.7570093457933
 51
117.7570093457932
  0
ARC
  5
103B
330
17
100
AcDbEntity
  8
0
100
AcDbCircle
 10
5.066923556764633
 20
6.125005231043953
 30
0.0
 40
0.0140908800000005
100
AcDbArc
 50
296.9158878504662
 51
116.9158878504662
  0
ARC
  5
103C
330
17
100
AcDbEntity
  8
0
100
AcDbCircle
 10
5.079520357492535
 20
6.099734796393714
 30
0.0
 40
0.0140908800000005
100
AcDbArc
 50
296.0747663551391
 51
116.074766355139
  0
ARC
  5
103D
330
17
100
AcDbEntity
  8
0
100
AcDbCircle
 10
5.091744835626525
 20
6.074282166071049
 30
0.0
 40
0.0140908800000005
100
AcDbArc
 50
295.233644859812
 51
115.233644859812
  0
ARC
  5
103E
330
17
100
AcDbEntity
  8
0
100
AcDbCircle
 10
5.103594356687688
 20
6.048652825334084
 30
0.0
 40
0.0140908800000005
100
AcDbArc
 50
294.3925233644848
 51
114.3925233644849
  0
ARC
  5
103F
330
17
100
AcDbEntity
  8
0
100
AcDbCircle
 10
4.09444699490543
 20
7.028597542225355
 30
0.0
 40
0.0140908800000005
100
AcDbArc
 50
337.2897196261668
 51
157.2897196261668
  0
ARC
  5
1040
330
17
100
AcDbEntity
  8
0
100
AcDbCircle
 10
4.06832080934063
 20
7.039307195993056
 30
0.0
 40
0.0140908800000005
100
AcDbArc
 50
338.130841121494
 51
158.130841121494
  0
ARC
  5
1041
330
17
100
AcDbEntity
  8
0
100
AcDbCircle
 10
3.74440448683207
 20
7.137241680189183
 30
0.0
 40
0.0140908800000005
100
AcDbArc
 50
348.2242990654191
 51
168.2242990654191
  0
ARC
  5
1042
330
17
100
AcDbEntity
  8
0
100
AcDbCircle
 10
3.772003235593675
 20
7.131276504350671
 30
0.0
 40
0.0140908800000005
100
AcDbArc
 50
347.383177570092
 51
167.383177570092
  0
ARC
  5
1043
330
17
100
AcDbEntity
  8
0
100
AcDbCircle
 10
3.799511442811734
 20
7.124906826836165
 30
0.0
 40
0.0140908800000005
100
AcDbArc
 50
346.5420560747649
 51
166.5420560747649
  0
ARC
  5
1044
330
17
100
AcDbEntity
  8
0
100
AcDbCircle
 10
3.826923180233844
 20
7.1181340203653
 30
0.0
 40
0.0140908800000005
100
AcDbArc
 50
345.7009345794379
 51
165.7009345794378
  0
ARC
  5
1045
330
17
100
AcDbEntity
  8
0
100
AcDbCircle
 10
3.854232540397657
 20
7.110959544535418
 30
0.0
 40
0.0140908800000005
100
AcDbArc
 50
344.8598130841107
 51
164.8598130841107
  0
ARC
  5
1046
330
17
100
AcDbEntity
  8
0
100
AcDbCircle
 10
3.881433637904002
 20
7.103384945507031
 30
0.0
 40
0.0140908800000005
100
AcDbArc
 50
344.0186915887836
 51
164.0186915887836
  0
ARC
  5
1047
330
17
100
AcDbEntity
  8
0
100
AcDbCircle
 10
3.908520610685222
 20
7.095411855670588
 30
0.0
 40
0.0140908800000005
100
AcDbArc
 50
343.1775700934565
 51
163.1775700934565
  0
ARC
  5
1048
330
17
100
AcDbEntity
  8
0
100
AcDbCircle
 10
3.935487621268511
 20
7.087041993294704
 30
0.0
 40
0.0140908800000005
100
AcDbArc
 50
342.3364485981295
 51
162.3364485981294
  0
ARC
  5
1049
330
17
100
AcDbEntity
  8
0
100
AcDbCircle
 10
3.96232885803394
 20
7.078277162155845
 30
0.0
 40
0.0140908800000005
100
AcDbArc
 50
341.4953271028023
 51
161.4953271028023
  0
ARC
  5
104A
330
17
100
AcDbEntity
  8
0
100
AcDbCircle
 10
3.9890385364669
 20
7.069119251149598
 30
0.0
 40
0.0140908800000005
100
AcDbArc
 50
340.6542056074752
 51
160.6542056074752
  0
ARC
  5
104B
330
17
100
AcDbEntity
  8
0
100
AcDbCircle
 10
4.015610900404726
 20
7.059570233883603
 30
0.0
 40
0.0140908800000005
100
AcDbArc
 50
339.8130841121481
 51
159.8130841121482
  0
ARC
  5
104C
330
17
100
AcDbEntity
  8
0
100
AcDbCircle
 10
3.688959173968421
 20
7.147953472104505
 30
0.0
 40
0.0140908800000005
100
AcDbArc
 50
349.9065420560733
 51
169.9065420560733
  0
ARC
  5
104D
330
17
100
AcDbEntity
  8
0
100
AcDbCircle
 10
3.716721144291801
 20
7.142801068805624
 30
0.0
 40
0.0140908800000005
100
AcDbArc
 50
349.0654205607462
 51
169.0654205607462
  0
ARC
  5
104E
330
17
100
AcDbEntity
  8
0
100
AcDbCircle
 10
4.042040223277188
 20
7.049632168252225
 30
0.0
 40
0.0140908800000005
100
AcDbArc
 50
338.971962616821
 51
158.971962616821
  0
ARC
  5
104F
330
17
100
AcDbEntity
  8
0
100
AcDbCircle
 10
4.120413149556599
 20
7.017505514970512
 30
0.0
 40
0.0140908800000005
100
AcDbArc
 50
336.4485981308397
 51
156.4485981308397
  0
ARC
  5
1050
330
17
100
AcDbEntity
  8
0
100
AcDbCircle
 10
4.146213677367156
 20
7.006033504654655
 30
0.0
 40
0.0140908800000005
100
AcDbArc
 50
335.6074766355127
 51
155.6074766355127
  0
ARC
  5
1051
330
17
100
AcDbEntity
  8
0
100
AcDbCircle
 10
4.171843018104122
 20
6.994183983593493
 30
0.0
 40
0.0140908800000005
100
AcDbArc
 50
334.7663551401856
 51
154.7663551401855
  0
ARC
  5
1052
330
17
100
AcDbEntity
  8
0
100
AcDbCircle
 10
4.197295648426784
 20
6.981959505459502
 30
0.0
 40
0.0140908800000005
100
AcDbArc
 50
333.9252336448585
 51
153.9252336448585
  0
ARC
  5
1053
330
17
100
AcDbEntity
  8
0
100
AcDbCircle
 10
4.222566083077023
 20
6.969362704731597
 30
0.0
 40
0.0140908800000005
100
AcDbArc
 50
333.0841121495314
 51
153.0841121495314
  0
ARC
  5
1054
330
17
100
AcDbEntity
  8
0
100
AcDbCircle
 10
4.247648876061438
 20
6.956396296127381
 30
0.0
 40
0.0140908800000005
100
AcDbArc
 50
332.2429906542043
 51
152.2429906542043
  0
INSERT
  5
1164
330
17
100
AcDbEntity
  8
0
 62
     7
100
AcDbBlockReference
  2
AI9-BLK1
 10
8.626548022840829
 20
5.315933353096066
 30
0.0
 41
0.0392524833616896
 42
0.0392524833616612
 43
0.0392524833616695
  0
DIMENSION
  5
1165
330
17
100
AcDbEntity
  8
ADPDIM
 62
     3
100
AcDbDimension
  2
*D2
 10
11.12961841127164
 20
8.172103827271197
 30
0.0
 11
8.629618411271643
 21
8.172103827271197
 31
0.0
 70
    32
 71
     5
 42
5.0
  3
STANDARD
100
AcDbAlignedDimension
 13
6.129618411271643
 23
7.329045678570906
 33
0.0
 14
11.12961841127164
 24
7.329045678570906
 34
0.0
100
AcDbRotatedDimension
1001
ACAD
1000
DSTYLE
1002
{
1070
    41
1040
0.125
1070
    73
1070
     0
1070
    74
1070
     0
1070
    78
1070
     3
1070
   140
1040
0.125
1070
   141
1040
0.1875
1070
   142
1040
0.125
1070
   147
1040
0.125
1070
   171
1070
     1
1070
   273
1070
     5
1070
   274
1070
     1
1070
   277
1070
     5
1070
   279
1070
     2
1070
   284
1070
     3
1070
   285
1070
     3
1070
   286
1070
     3
1002
}
  0
ENDSEC
  0
SECTION
  2
OBJECTS
  0
DICTIONARY
  5
C
330
0
100
AcDbDictionary
281
     1
  3
ACAD_COLOR
350
1149
  3
ACAD_GROUP
350
D
  3
ACAD_LAYOUT
350
E3E
  3
ACAD_MATERIAL
350
1134
  3
ACAD_MLINESTYLE
350
1A
  3
ACAD_PLOTSETTINGS
350
E3F
  3
ACAD_PLOTSTYLENAME
350
E3C
  3
ACAD_TABLESTYLE
350
114A
  3
ACAD_VISUALSTYLE
350
1138
  3
ACDBVARIABLEDICTIONARY
350
2E
  3
ASE_INDEX_DICTIONARY
350
1188
  3
DWGPROPS
350
11A5
  0
DICTIONARY
  5
E9A
330
17
100
AcDbDictionary
280
     1
281
     1
  3
ACAD_LAYOUTSELFREF
360
112E
  0
DICTIONARY
  5
E98
330
14
100
AcDbDictionary
280
     1
281
     1
  3
ACAD_LAYOUTSELFREF
360
112D
  0
DICTIONARY
  5
1149
102
{ACAD_REACTORS
330
C
102
}
330
C
100
AcDbDictionary
281
     1
  0
DICTIONARY
  5
D
102
{ACAD_REACTORS
330
C
102
}
330
C
100
AcDbDictionary
281
     1
  0
DICTIONARY
  5
E3E
102
{ACAD_REACTORS
330
C
102
}
330
C
100
AcDbDictionary
281
     1
  3
Layout1
350
E41
  3
Model
350
E40
  0
DICTIONARY
  5
1134
102
{ACAD_REACTORS
330
C
102
}
330
C
100
AcDbDictionary
281
     1
  3
ByBlock
350
1136
  3
ByLayer
350
1135
  3
Global
350
1137
  0
DICTIONARY
  5
1A
102
{ACAD_REACTORS
330
C
102
}
330
C
100
AcDbDictionary
281
     1
  3
STANDARD
350
1B
  0
DICTIONARY
  5
E3F
102
{ACAD_REACTORS
330
C
102
}
330
C
100
AcDbDictionary
281
     1
  0
ACDBDICTIONARYWDFLT
  5
E3C
102
{ACAD_REACTORS
330
C
102
}
330
C
100
AcDbDictionary
281
     1
  3
Normal
350
E3D
100
AcDbDictionaryWithDefault
340
E3D
  0
DICTIONARY
  5
114A
102
{ACAD_REACTORS
330
C
102
}
330
C
100
AcDbDictionary
281
     1
  3
Standard
350
114B
  0
DICTIONARY
  5
1138
102
{ACAD_REACTORS
330
C
102
}
330
C
100
AcDbDictionary
281
     1
  3
2dWireframe
350
113E
  3
3D Hidden
350
1140
  3
3dWireframe
350
113F
  3
Basic
350
113D
  3
Brighten
350
1144
  3
ColorChange
350
1148
  3
Conceptual
350
1141
  3
Dim
350
1143
  3
Facepattern
350
1147
  3
Flat
350
1139
  3
FlatWithEdges
350
113A
  3
Gouraud
350
113B
  3
GouraudWithEdges
350
113C
  3
Linepattern
350
1146
  3
Realistic
350
1142
  3
Thicken
350
1145
  0
DICTIONARY
  5
2E
102
{ACAD_REACTORS
330
C
102
}
330
C
100
AcDbDictionary
281
     1
  3
CTABLESTYLE
350
11A2
  3
DIMADEC
350
2F
  3
DIMASSOC
350
EA0
  3
INDEXCTL
350
11A4
  3
SORTENTS
350
11A3
  0
DICTIONARY
  5
1188
102
{ACAD_REACTORS
330
C
102
}
330
C
100
AcDbDictionary
281
     1
  3
ASEBlockHierarchyIndexRecord
350
1189
1001
DCO15
1040
1568922076.029
  0
XRECORD
  5
11A5
102
{ACAD_REACTORS
330
C
102
}
330
C
100
AcDbXrecord
280
     1
  1
DWGPROPS COOKIE
  2

  3

  4

  6

  7

  8
Yu Hu
  9

300
=
301
=
302
=
303
=
304
=
305
=
306
=
307
=
308
=
309
=
 40
0.037252650462963
 41
2450247.557415891
 42
2453962.032176262
  1

 90
        0
  0
XRECORD
  5
112E
102
{ACAD_REACTORS
330
E9A
102
}
330
E9A
100
AcDbXrecord
280
     1
340
17
  0
XRECORD
  5
112D
102
{ACAD_REACTORS
330
E98
102
}
330
E98
100
AcDbXrecord
280
     1
340
14
  0
LAYOUT
  5
E41
102
{ACAD_XDICTIONARY
360
11A8
102
}
102
{ACAD_REACTORS
330
E3E
102
}
330
E3E
100
AcDbPlotSettings
  1

  2
Fax
  4

  6

 40
0.0
 41
0.0
 42
0.0
 43
0.0
 44
0.0
 45
0.0
 46
0.0
 47
0.0
 48
0.0
 49
0.0
140
0.0
141
0.0
142
1.0
143
1.0
 70
   688
 72
     0
 73
     0
 74
     5
  7
Default R14 pen assignments.ctb
 75
    16
147
1.0
148
0.0
149
0.0
100
AcDbLayout
  1
Layout1
 70
     1
 71
     1
 10
0.0
 20
0.0
 11
12.0
 21
9.0
 12
0.0
 22
0.0
 32
0.0
 14
1.000000000000000E+20
 24
1.000000000000000E+20
 34
1.000000000000000E+20
 15
-1.000000000000000E+20
 25
-1.000000000000000E+20
 35
-1.000000000000000E+20
146
0.0
 13
0.0
 23
0.0
 33
0.0
 16
1.0
 26
0.0
 36
0.0
 17
0.0
 27
1.0
 37
0.0
 76
     0
330
14
  0
LAYOUT
  5
E40
102
{ACAD_XDICTIONARY
360
11A6
102
}
102
{ACAD_REACTORS
330
E3E
102
}
330
E3E
100
AcDbPlotSettings
  1

  2
Fax
  4

  6

 40
0.0
 41
0.0
 42
0.0
 43
0.0
 44
0.0
 45
0.0
 46
0.0
 47
0.0
 48
0.0
 49
0.0
140
0.0
141
0.0
142
1.0
143
1.0
 70
  1712
 72
     0
 73
     0
 74
     0
  7
Default R14 pen assignments.ctb
 75
     0
147
1.0
148
0.0
149
0.0
100
AcDbLayout
  1
Model
 70
     1
 71
     0
 10
0.0
 20
0.0
 11
12.0
 21
9.0
 12
0.0
 22
0.0
 32
0.0
 14
0.0
 24
0.0
 34
0.0
 15
0.0
 25
0.0
 35
0.0
146
0.0
 13
0.0
 23
0.0
 33
0.0
 16
1.0
 26
0.0
 36
0.0
 17
0.0
 27
1.0
 37
0.0
 76
     0
330
17
331
1109
  0
MATERIAL
  5
1136
102
{ACAD_XDICTIONARY
360
11AC
102
}
102
{ACAD_REACTORS
330
1134
102
}
330
1134
100
AcDbMaterial
  1
ByBlock
  0
MATERIAL
  5
1135
102
{ACAD_XDICTIONARY
360
11AA
102
}
102
{ACAD_REACTORS
330
1134
102
}
330
1134
100
AcDbMaterial
  1
ByLayer
  0
MATERIAL
  5
1137
102
{ACAD_XDICTIONARY
360
11AE
102
}
102
{ACAD_REACTORS
330
1134
102
}
330
1134
100
AcDbMaterial
  1
Global
  0
MLINESTYLE
  5
1B
102
{ACAD_REACTORS
330
1A
102
}
330
1A
100
AcDbMlineStyle
  2
STANDARD
 70
     0
  3

 62
   256
 51
90.0
 52
90.0
 71
     2
 49
0.5
 62
   256
  6
BYLAYER
 49
-0.5
 62
   256
  6
BYLAYER
  0
ACDBPLACEHOLDER
  5
E3D
102
{ACAD_REACTORS
330
E3C
102
}
330
E3C
  0
TABLESTYLE
  5
114B
102
{ACAD_XDICTIONARY
360
11B0
102
}
102
{ACAD_REACTORS
330
114A
102
}
330
114A
100
AcDbTableStyle
  3
Standard
 70
     0
 71
     0
 40
0.06
 41
0.06
280
     0
281
     0
  7
STANDARD
140
0.18
170
     2
 62
     0
 63
     7
283
     0
274
    -2
284
     1
 64
     0
275
    -2
285
     1
 65
     0
276
    -2
286
     1
 66
     0
277
    -2
287
     1
 67
     0
278
    -2
288
     1
 68
     0
279
    -2
289
     1
 69
     0
  7
STANDARD
140
0.25
170
     5
 62
     0
 63
     7
283
     0
274
    -2
284
     1
 64
     0
275
    -2
285
     1
 65
     0
276
    -2
286
     1
 66
     0
277
    -2
287
     1
 67
     0
278
    -2
288
     1
 68
     0
279
    -2
289
     1
 69
     0
  7
STANDARD
140
0.18
170
     5
 62
     0
 63
     7
283
     0
274
    -2
284
     1
 64
     0
275
    -2
285
     1
 65
     0
276
    -2
286
     1
 66
     0
277
    -2
287
     1
 67
     0
278
    -2
288
     1
 68
     0
279
    -2
289
     1
 69
     0
  0
VISUALSTYLE
  5
113E
102
{ACAD_REACTORS
330
1138
102
}
330
1138
100
AcDbVisualStyle
  2
2dWireframe
 70
     4
 71
     0
 72
     2
 73
     0
 90
        0
 40
-0.6
 41
-30.0
 62
     5
 63
     7
 74
     1
 91
        4
 64
     7
 65
   257
 75
     1
175
     1
 42
1.0
 92
        0
 66
   257
 43
1.0
 76
     1
 77
     6
 78
     2
 67
     7
 79
     5
170
     0
171
     0
290
     0
174
     0
 93
        1
 44
0.0
173
     0
291
     0
 45
0.0
1001
ACAD
1000
AcDbSavedByObjectVersion
1070
     0
  0
VISUALSTYLE
  5
1140
102
{ACAD_REACTORS
330
1138
102
}
330
1138
100
AcDbVisualStyle
  2
3D Hidden
 70
     6
 71
     1
 72
     2
 73
     2
 90
        0
 40
-0.6
 41
-30.0
 62
     5
 63
     7
 74
     2
 91
        2
 64
     7
 65
   257
 75
     2
175
     1
 42
40.0
 92
        0
 66
   257
 43
1.0
 76
     1
 77
     6
 78
     2
 67
     7
 79
     3
170
     0
171
     0
290
     0
174
     0
 93
        1
 44
0.0
173
     0
291
     0
 45
0.0
1001
ACAD
1000
AcDbSavedByObjectVersion
1070
     0
  0
VISUALSTYLE
  5
113F
102
{ACAD_REACTORS
330
1138
102
}
330
1138
100
AcDbVisualStyle
  2
3dWireframe
 70
     5
 71
     0
 72
     2
 73
     0
 90
        0
 40
-0.6
 41
-30.0
 62
     5
 63
     7
 74
     1
 91
        4
 64
     7
 65
   257
 75
     1
175
     1
 42
1.0
 92
        0
 66
   257
 43
1.0
 76
     1
 77
     6
 78
     2
 67
     7
 79
     5
170
     0
171
     0
290
     0
174
     0
 93
        1
 44
0.0
173
     0
291
     0
 45
0.0
1001
ACAD
1000
AcDbSavedByObjectVersion
1070
     0
  0
VISUALSTYLE
  5
113D
102
{ACAD_REACTORS
330
1138
102
}
330
1138
100
AcDbVisualStyle
  2
Basic
 70
     7
 71
     1
 72
     0
 73
     1
 90
        0
 40
-0.6
 41
-30.0
 62
     5
 63
     7
 74
     0
 91
        4
 64
     7
 65
   257
 75
     1
175
     1
 42
1.0
 92
        8
 66
     7
 43
1.0
 76
     1
 77
     6
 78
     2
 67
     7
 79
     5
170
     0
171
     0
290
     0
174
     0
 93
        1
 44
0.0
173
     0
291
     1
 45
0.0
1001
ACAD
1000
AcDbSavedByObjectVersion
1070
     0
  0
VISUALSTYLE
  5
1144
102
{ACAD_REACTORS
330
1138
102
}
330
1138
100
AcDbVisualStyle
  2
Brighten
 70
    12
 71
     2
 72
     2
 73
     0
 90
        0
 40
-0.6
 41
-30.0
 62
     5
 63
     7
 74
     1
 91
        4
 64
     7
 65
   257
 75
     1
175
     1
 42
1.0
 92
        8
 66
     7
 43
1.0
 76
     1
 77
     6
 78
     2
 67
     7
 79
     5
170
     0
171
     0
290
     0
174
     0
 93
        1
 44
50.0
173
     0
291
     1
 45
0.0
1001
ACAD
1000
AcDbSavedByObjectVersion
1070
     0
  0
VISUALSTYLE
  5
1148
102
{ACAD_REACTORS
330
1138
102
}
330
1138
100
AcDbVisualStyle
  2
ColorChange
 70
    16
 71
     2
 72
     2
 73
     3
 90
        0
 40
-0.6
 41
-30.0
 62
     5
 63
     8
 74
     1
 91
        4
 64
     7
 65
   257
 75
     1
175
     1
 42
1.0
 92
        8
 66
     8
 43
1.0
 76
     1
 77
     6
 78
     2
 67
     7
 79
     5
170
     0
171
     0
290
     0
174
     0
 93
        1
 44
0.0
173
     0
291
     1
 45
0.0
1001
ACAD
1000
AcDbSavedByObjectVersion
1070
     0
  0
VISUALSTYLE
  5
1141
102
{ACAD_REACTORS
330
1138
102
}
330
1138
100
AcDbVisualStyle
  2
Conceptual
 70
     9
 71
     3
 72
     2
 73
     0
 90
        0
 40
-0.6
 41
-30.0
 62
     5
 63
     7
 74
     2
 91
        2
 64
     7
 65
   257
 75
     1
175
     1
 42
40.0
 92
        8
 66
     7
 43
1.0
 76
     1
 77
     6
 78
     2
 67
     7
 79
     3
170
     0
171
     0
290
     0
174
     0
 93
        1
 44
0.0
173
     0
291
     0
 45
0.0
1001
ACAD
1000
AcDbSavedByObjectVersion
1070
     0
  0
VISUALSTYLE
  5
1143
102
{ACAD_REACTORS
330
1138
102
}
330
1138
100
AcDbVisualStyle
  2
Dim
 70
    11
 71
     2
 72
     2
 73
     0
 90
        0
 40
-0.6
 41
-30.0
 62
     5
 63
     7
 74
     1
 91
        4
 64
     7
 65
   257
 75
     1
175
     1
 42
1.0
 92
        8
 66
     7
 43
1.0
 76
     1
 77
     6
 78
     2
 67
     7
 79
     5
170
     0
171
     0
290
     0
174
     0
 93
        1
 44
-50.0
173
     0
291
     1
 45
0.0
1001
ACAD
1000
AcDbSavedByObjectVersion
1070
     0
  0
VISUALSTYLE
  5
1147
102
{ACAD_REACTORS
330
1138
102
}
330
1138
100
AcDbVisualStyle
  2
Facepattern
 70
    15
 71
     2
 72
     2
 73
     0
 90
        0
 40
-0.6
 41
-30.0
 62
     5
 63
     7
 74
     1
 91
        4
 64
     7
 65
   257
 75
     1
175
     1
 42
1.0
 92
        8
 66
     7
 43
1.0
 76
     1
 77
     6
 78
     2
 67
     7
 79
     5
170
     0
171
     0
290
     0
174
     0
 93
        1
 44
0.0
173
     0
291
     1
 45
0.0
1001
ACAD
1000
AcDbSavedByObjectVersion
1070
     0
  0
VISUALSTYLE
  5
1139
102
{ACAD_REACTORS
330
1138
102
}
330
1138
100
AcDbVisualStyle
  2
Flat
 70
     0
 71
     2
 72
     1
 73
     1
 90
        2
 40
-0.6
 41
30.0
 62
     5
 63
     7
 74
     0
 91
        4
 64
     7
 65
   257
 75
     1
175
     1
 42
1.0
 92
        8
 66
     7
 43
1.0
 76
     1
 77
     6
 78
     2
 67
     7
 79
     5
170
     0
171
     0
290
     0
174
     0
 93
       13
 44
0.0
173
     0
291
     1
 45
0.0
1001
ACAD
1000
AcDbSavedByObjectVersion
1070
     0
  0
VISUALSTYLE
  5
113A
102
{ACAD_REACTORS
330
1138
102
}
330
1138
100
AcDbVisualStyle
  2
FlatWithEdges
 70
     1
 71
     2
 72
     1
 73
     1
 90
        2
 40
-0.6
 41
30.0
 62
     5
 63
     7
 74
     1
 91
        4
 64
     7
 65
   257
 75
     1
175
     1
 42
1.0
 92
        0
 66
   257
 43
1.0
 76
     1
 77
     6
 78
     2
 67
     7
 79
     5
170
     0
171
     0
290
     0
174
     0
 93
       13
 44
0.0
173
     0
291
     1
 45
0.0
1001
ACAD
1000
AcDbSavedByObjectVersion
1070
     0
  0
VISUALSTYLE
  5
113B
102
{ACAD_REACTORS
330
1138
102
}
330
1138
100
AcDbVisualStyle
  2
Gouraud
 70
     2
 71
     2
 72
     2
 73
     1
 90
        2
 40
-0.6
 41
30.0
 62
     5
 63
     7
 74
     0
 91
        4
 64
     7
 65
   257
 75
     1
175
     1
 42
1.0
 92
        0
 66
     7
 43
1.0
 76
     1
 77
     6
 78
     2
 67
     7
 79
     5
170
     0
171
     0
290
     0
174
     0
 93
       13
 44
0.0
173
     0
291
     1
 45
0.0
1001
ACAD
1000
AcDbSavedByObjectVersion
1070
     0
  0
VISUALSTYLE
  5
113C
102
{ACAD_REACTORS
330
1138
102
}
330
1138
100
AcDbVisualStyle
  2
GouraudWithEdges
 70
     3
 71
     2
 72
     2
 73
     1
 90
        2
 40
-0.6
 41
30.0
 62
     5
 63
     7
 74
     1
 91
        4
 64
     7
 65
   257
 75
     1
175
     1
 42
1.0
 92
        0
 66
   257
 43
1.0
 76
     1
 77
     6
 78
     2
 67
     7
 79
     5
170
     0
171
     0
290
     0
174
     0
 93
       13
 44
0.0
173
     0
291
     1
 45
0.0
1001
ACAD
1000
AcDbSavedByObjectVersion
1070
     0
  0
VISUALSTYLE
  5
1146
102
{ACAD_REACTORS
330
1138
102
}
330
1138
100
AcDbVisualStyle
  2
Linepattern
 70
    14
 71
     2
 72
     2
 73
     0
 90
        0
 40
-0.6
 41
-30.0
 62
     5
 63
     7
 74
     1
 91
        4
 64
     7
 65
   257
 75
     7
175
     7
 42
1.0
 92
        8
 66
     7
 43
1.0
 76
     1
 77
     6
 78
     2
 67
     7
 79
     5
170
     0
171
     0
290
     0
174
     0
 93
        1
 44
0.0
173
     0
291
     1
 45
0.0
1001
ACAD
1000
AcDbSavedByObjectVersion
1070
     0
  0
VISUALSTYLE
  5
1142
102
{ACAD_REACTORS
330
1138
102
}
330
1138
100
AcDbVisualStyle
  2
Realistic
 70
     8
 71
     2
 72
     2
 73
     0
 90
        0
 40
-0.6
 41
-30.0
 62
     5
 63
     7
 74
     1
 91
        0
 64
     7
 65
   257
 75
     1
175
     1
 42
1.0
 92
        8
 66
     8
 43
1.0
 76
     1
 77
     6
 78
     2
 67
     7
 79
     5
170
     0
171
     0
290
     0
174
     0
 93
       13
 44
0.0
173
     0
291
     0
 45
0.0
1001
ACAD
1000
AcDbSavedByObjectVersion
1070
     0
  0
VISUALSTYLE
  5
1145
102
{ACAD_REACTORS
330
1138
102
}
330
1138
100
AcDbVisualStyle
  2
Thicken
 70
    13
 71
     2
 72
     2
 73
     0
 90
        0
 40
-0.6
 41
-30.0
 62
     5
 63
     7
 74
     1
 91
        4
 64
     7
 65
   257
 75
     1
175
     1
 42
1.0
 92
       12
 66
     7
 43
1.0
 76
     1
 77
     6
 78
     2
 67
     7
 79
     5
170
     0
171
     0
290
     0
174
     0
 93
        1
 44
0.0
173
     0
291
     1
 45
0.0
1001
ACAD
1000
AcDbSavedByObjectVersion
1070
     0
  0
DICTIONARYVAR
  5
11A2
102
{ACAD_REACTORS
330
2E
102
}
330
2E
100
DictionaryVariables
280
     0
  1
STANDARD
  0
DICTIONARYVAR
  5
2F
102
{ACAD_REACTORS
330
2E
102
}
330
2E
100
DictionaryVariables
280
     0
  1
0
  0
DICTIONARYVAR
  5
EA0
102
{ACAD_REACTORS
330
2E
102
}
330
2E
100
DictionaryVariables
280
     0
  1
1
  0
DICTIONARYVAR
  5
11A4
102
{ACAD_REACTORS
330
2E
102
}
330
2E
100
DictionaryVariables
280
     0
  1
0
  0
DICTIONARYVAR
  5
11A3
102
{ACAD_REACTORS
330
2E
102
}
330
2E
100
DictionaryVariables
280
     0
  1
127
  0
XRECORD
  5
1189
102
{ACAD_REACTORS
330
1188
102
}
330
1188
100
AcDbXrecord
280
     1
330
1164
  0
DICTIONARY
  5
11A8
330
E41
100
AcDbDictionary
280
     1
281
     1
  3
ACAD_XREC_ROUNDTRIP
360
11A9
  0
DICTIONARY
  5
11A6
330
E40
100
AcDbDictionary
280
     1
281
     1
  3
ACAD_XREC_ROUNDTRIP
360
11A7
  0
DICTIONARY
  5
11AC
330
1136
100
AcDbDictionary
280
     1
281
     1
  3
ACAD_XREC_ROUNDTRIP
360
11AD
  0
DICTIONARY
  5
11AA
330
1135
100
AcDbDictionary
280
     1
281
     1
  3
ACAD_XREC_ROUNDTRIP
360
11AB
  0
DICTIONARY
  5
11AE
330
1137
100
AcDbDictionary
280
     1
281
     1
  3
ACAD_XREC_ROUNDTRIP
360
11AF
  0
DICTIONARY
  5
11B0
330
114B
100
AcDbDictionary
280
     1
281
     1
  3
ACAD_XREC_ROUNDTRIP
360
11B1
  0
XRECORD
  5
11A9
102
{ACAD_REACTORS
330
11A8
102
}
330
11A8
100
AcDbXrecord
280
     1
102
SHADEPLOT
 70
     0
102
SHADEPLOTRESLEVEL
 70
     2
102
SHADEPLOTCUSTOMDPI
 70
   300
  0
XRECORD
  5
11A7
102
{ACAD_REACTORS
330
11A6
102
}
330
11A6
100
AcDbXrecord
280
     1
102
SHADEPLOT
 70
     0
102
SHADEPLOTRESLEVEL
 70
     2
102
SHADEPLOTCUSTOMDPI
 70
   300
  0
XRECORD
  5
11AD
102
{ACAD_REACTORS
330
11AC
102
}
330
11AC
100
AcDbXrecord
280
     1
102
MATERIAL
148
0.0
149
0.0
149
0.0
 93
        0
 94
       63
282
     0
 72
     1
 77
     1
171
     1
175
     1
179
     1
273
     0
  0
XRECORD
  5
11AB
102
{ACAD_REACTORS
330
11AA
102
}
330
11AA
100
AcDbXrecord
280
     1
102
MATERIAL
148
0.0
149
0.0
149
0.0
 93
        0
 94
       63
282
     0
 72
     1
 77
     1
171
     1
175
     1
179
     1
273
     0
  0
XRECORD
  5
11AF
102
{ACAD_REACTORS
330
11AE
102
}
330
11AE
100
AcDbXrecord
280
     1
102
MATERIAL
148
0.0
149
0.0
149
0.0
 93
        0
 94
       63
282
     0
 72
     1
 77
     1
171
     1
175
     1
179
     1
273
     0
  0
XRECORD
  5
11B1
102
{ACAD_REACTORS
330
11B0
102
}
330
11B0
100
AcDbXrecord
280
     1
102
ACAD_ROUNDTRIP_PRE2007_TABLESTYLE
 90
      512
 91
        0
  1

 92
      512
 93
        0
  2

 94
      512
 95
        0
  3

  0
ENDSEC
  0
EOF
