  0
SECTION
  2
HEADER
  9
$ACADVER
  1
AC1015
  9
$ACADMAINTVER
 70
    20
  9
$DWGCODEPAGE
  3
ANSI_1252
  9
$INSBASE
 10
5.553238201636235
 20
4.359653264159277
 30
0.0
  9
$EXTMIN
 10
-0.6222590215267303
 20
3.454101650340135
 30
-0.0015258207003583
  9
$EXTMAX
 10
12.43117518361382
 20
7.181213429175798
 30
0.0000000349246037
  9
$LIMMIN
 10
0.0
 20
0.0
  9
$LIMMAX
 10
36.0
 20
36.0
  9
$ORTHOMODE
 70
     1
  9
$REGENMODE
 70
     1
  9
$FILLMODE
 70
     1
  9
$QTEXTMODE
 70
     0
  9
$MIRRTEXT
 70
     1
  9
$LTSCALE
 40
1.0
  9
$ATTMODE
 70
     1
  9
$TEXTSIZE
 40
0.2
  9
$TRACEWID
 40
0.05
  9
$TEXTSTYLE
  7
STANDARD
  9
$CLAYER
  8
ADPDIM
  9
$CELTYPE
  6
BYLAYER
  9
$CECOLOR
 62
   256
  9
$CELTSCALE
 40
1.0
  9
$DISPSILH
 70
     0
  9
$DIMSCALE
 40
1.0
  9
$DIMASZ
 40
0.125
  9
$DIMEXO
 40
0.0625
  9
$DIMDLI
 40
0.38
  9
$DIMRND
 40
0.0
  9
$DIMDLE
 40
0.0
  9
$DIMEXE
 40
0.18
  9
$DIMTP
 40
0.0
  9
$DIMTM
 40
0.0
  9
$DIMTXT
 40
0.125
  9
$DIMCEN
 40
0.1875
  9
$DIMTSZ
 40
0.125
  9
$DIMTOL
 70
     0
  9
$DIMLIM
 70
     0
  9
$DIMTIH
 70
     0
  9
$DIMTOH
 70
     0
  9
$DIMSE1
 70
     0
  9
$DIMSE2
 70
     0
  9
$DIMTAD
 70
     0
  9
$DIMZIN
 70
     3
  9
$DIMBLK
  1

  9
$DIMASO
 70
     1
  9
$DIMSHO
 70
     1
  9
$DIMPOST
  1

  9
$DIMAPOST
  1

  9
$DIMALT
 70
     0
  9
$DIMALTD
 70
     1
  9
$DIMALTF
 40
25.4
  9
$DIMLFAC
 40
1.0
  9
$DIMTOFL
 70
     0
  9
$DIMTVP
 40
0.0
  9
$DIMTIX
 70
     0
  9
$DIMSOXD
 70
     0
  9
$DIMSAH
 70
     0
  9
$DIMBLK1
  1

  9
$DIMBLK2
  1

  9
$DIMSTYLE
  2
STANDARD
  9
$DIMCLRD
 70
     0
  9
$DIMCLRE
 70
     0
  9
$DIMCLRT
 70
     0
  9
$DIMTFAC
 40
1.0
  9
$DIMGAP
 40
0.125
  9
$DIMJUST
 70
     0
  9
$DIMSD1
 70
     0
  9
$DIMSD2
 70
     0
  9
$DIMTOLJ
 70
     1
  9
$DIMTZIN
 70
     0
  9
$DIMALTZ
 70
     0
  9
$DIMALTTZ
 70
     0
  9
$DIMUPT
 70
     0
  9
$DIMDEC
 70
     4
  9
$DIMTDEC
 70
     4
  9
$DIMALTU
 70
     2
  9
$DIMALTTD
 70
     2
  9
$DIMTXSTY
  7
STANDARD
  9
$DIMAUNIT
 70
     0
  9
$DIMADEC
 70
     0
  9
$DIMALTRND
 40
0.0
  9
$DIMAZIN
 70
     0
  9
$DIMDSEP
 70
    46
  9
$DIMATFIT
 70
     3
  9
$DIMFRAC
 70
     0
  9
$DIMLDRBLK
  1

  9
$DIMLUNIT
 70
     2
  9
$DIMLWD
 70
    -2
  9
$DIMLWE
 70
    -2
  9
$DIMTMOVE
 70
     0
  9
$LUNITS
 70
     5
  9
$LUPREC
 70
     4
  9
$SKETCHINC
 40
0.1
  9
$FILLETRAD
 40
0.05
  9
$AUNITS
 70
     0
  9
$AUPREC
 70
     0
  9
$MENU
  1
acad
  9
$ELEVATION
 40
0.0
  9
$PELEVATION
 40
0.0
  9
$THICKNESS
 40
0.0
  9
$LIMCHECK
 70
     0
  9
$CHAMFERA
 40
0.0
  9
$CHAMFERB
 40
0.0
  9
$CHAMFERC
 40
0.0
  9
$CHAMFERD
 40
0.0
  9
$SKPOLY
 70
     0
  9
$TDCREATE
 40
2450242.502070209
  9
$TDUCREATE
 40
2450242.668736875
  9
$TDUPDATE
 40
2453962.026075012
  9
$TDUUPDATE
 40
2453962.192741678
  9
$TDINDWG
 40
0.0140964468
  9
$TDUSRTIMER
 40
0.0140964468
  9
$USRTIMER
 70
     1
  9
$ANGBASE
 50
0.0
  9
$ANGDIR
 70
     0
  9
$PDMODE
 70
     0
  9
$PDSIZE
 40
0.0
  9
$PLINEWID
 40
0.0
  9
$SPLFRAME
 70
     0
  9
$SPLINETYPE
 70
     6
  9
$SPLINESEGS
 70
     8
  9
$HANDSEED
  5
3B5
  9
$SURFTAB1
 70
     6
  9
$SURFTAB2
 70
     6
  9
$SURFTYPE
 70
     6
  9
$SURFU
 70
     6
  9
$SURFV
 70
     6
  9
$UCSBASE
  2

  9
$UCSNAME
  2

  9
$UCSORG
 10
0.0
 20
0.0
 30
0.0
  9
$UCSXDIR
 10
1.0
 20
0.0
 30
0.0
  9
$UCSYDIR
 10
0.0
 20
1.0
 30
0.0
  9
$UCSORTHOREF
  2

  9
$UCSORTHOVIEW
 70
     0
  9
$UCSORGTOP
 10
0.0
 20
0.0
 30
0.0
  9
$UCSORGBOTTOM
 10
0.0
 20
0.0
 30
0.0
  9
$UCSORGLEFT
 10
0.0
 20
0.0
 30
0.0
  9
$UCSORGRIGHT
 10
0.0
 20
0.0
 30
0.0
  9
$UCSORGFRONT
 10
0.0
 20
0.0
 30
0.0
  9
$UCSORGBACK
 10
0.0
 20
0.0
 30
0.0
  9
$PUCSBASE
  2

  9
$PUCSNAME
  2

  9
$PUCSORG
 10
0.0
 20
0.0
 30
0.0
  9
$PUCSXDIR
 10
1.0
 20
0.0
 30
0.0
  9
$PUCSYDIR
 10
0.0
 20
1.0
 30
0.0
  9
$PUCSORTHOREF
  2

  9
$PUCSORTHOVIEW
 70
     0
  9
$PUCSORGTOP
 10
0.0
 20
0.0
 30
0.0
  9
$PUCSORGBOTTOM
 10
0.0
 20
0.0
 30
0.0
  9
$PUCSORGLEFT
 10
0.0
 20
0.0
 30
0.0
  9
$PUCSORGRIGHT
 10
0.0
 20
0.0
 30
0.0
  9
$PUCSORGFRONT
 10
0.0
 20
0.0
 30
0.0
  9
$PUCSORGBACK
 10
0.0
 20
0.0
 30
0.0
  9
$USERI1
 70
     0
  9
$USERI2
 70
     0
  9
$USERI3
 70
     0
  9
$USERI4
 70
     0
  9
$USERI5
 70
     0
  9
$USERR1
 40
0.0
  9
$USERR2
 40
0.0
  9
$USERR3
 40
0.0
  9
$USERR4
 40
0.0
  9
$USERR5
 40
0.0
  9
$WORLDVIEW
 70
     1
  9
$SHADEDGE
 70
     3
  9
$SHADEDIF
 70
    70
  9
$TILEMODE
 70
     1
  9
$MAXACTVP
 70
    15
  9
$PINSBASE
 10
0.0004882961511612
 20
1.000276130627782
 30
0.0
  9
$PLIMCHECK
 70
     0
  9
$PEXTMIN
 10
1.000000000000000E+20
 20
1.000000000000000E+20
 30
1.000000000000000E+20
  9
$PEXTMAX
 10
-1.000000000000000E+20
 20
-1.000000000000000E+20
 30
-1.000000000000000E+20
  9
$PLIMMIN
 10
0.0
 20
0.0
  9
$PLIMMAX
 10
12.0
 20
9.0
  9
$UNITMODE
 70
     0
  9
$VISRETAIN
 70
     0
  9
$PLINEGEN
 70
     0
  9
$PSLTSCALE
 70
     1
  9
$TREEDEPTH
 70
  3020
  9
$CMLSTYLE
  2
STANDARD
  9
$CMLJUST
 70
     0
  9
$CMLSCALE
 40
1.0
  9
$PROXYGRAPHICS
 70
     1
  9
$MEASUREMENT
 70
     0
  9
$CELWEIGHT
370
    -1
  9
$ENDCAPS
280
     0
  9
$JOINSTYLE
280
     0
  9
$LWDISPLAY
290
     0
  9
$INSUNITS
 70
     0
  9
$HYPERLINKBASE
  1

  9
$STYLESHEET
  1

  9
$XEDIT
290
     1
  9
$CEPSNTYPE
380
     0
  9
$PSTYLEMODE
290
     1
  9
$FINGERPRINTGUID
  2
{26DFFBB8-83FC-4B06-A487-3D57054250D8}
  9
$VERSIONGUID
  2
{5726736D-6B94-45D5-B419-75CD0F44DB08}
  9
$EXTNAMES
290
     1
  9
$PSVPSCALE
 40
0.0
  9
$OLESTARTUP
290
     0
  0
ENDSEC
  0
SECTION
  2
CLASSES
  0
CLASS
  1
ACDBDICTIONARYWDFLT
  2
AcDbDictionaryWithDefault
  3
ObjectDBX Classes
 90
        0
280
     0
281
     0
  0
CLASS
  1
ACDBPLACEHOLDER
  2
AcDbPlaceHolder
  3
ObjectDBX Classes
 90
        0
280
     0
281
     0
  0
CLASS
  1
LAYOUT
  2
AcDbLayout
  3
ObjectDBX Classes
 90
        0
280
     0
281
     0
  0
CLASS
  1
DICTIONARYVAR
  2
AcDbDictionaryVar
  3
ObjectDBX Classes
 90
        0
280
     0
281
     0
  0
CLASS
  1
MATERIAL
  2
AcDbMaterial
  3
ObjectDBX Classes
 90
     1024
280
     0
281
     0
  0
CLASS
  1
VISUALSTYLE
  2
AcDbVisualStyle
  3
ObjectDBX Classes
 90
     4095
280
     0
281
     0
  0
CLASS
  1
TABLESTYLE
  2
AcDbTableStyle
  3
ObjectDBX Classes
 90
     4095
280
     0
281
     0
  0
ENDSEC
  0
SECTION
  2
TABLES
  0
TABLE
  2
VPORT
  5
8
330
0
100
AcDbSymbolTable
 70
     1
  0
VPORT
  5
330
330
8
100
AcDbSymbolTableRecord
100
AcDbViewportTableRecord
  2
*Active
 70
     0
 10
0.0
 20
0.0
 11
1.0
 21
1.0
 12
5.904458081043543
 22
5.317657539757966
 13
0.0
 23
0.0
 14
0.5740882589684922
 24
0.5740882589684922
 15
0.5
 25
0.5
 16
0.0
 26
0.0
 36
1.0
 17
0.0
 27
0.0
 37
0.0
 40
7.608114299506832
 41
1.726930320150659
 42
50.0
 43
0.0
 44
0.0
 50
0.0
 51
0.0
 71
     0
 72
   100
 73
     1
 74
     0
 75
     0
 76
     0
 77
     0
 78
     0
281
     0
 65
     1
110
0.0
120
0.0
130
0.0
111
1.0
121
0.0
131
0.0
112
0.0
122
1.0
132
0.0
 79
     0
146
0.0
  0
ENDTAB
  0
TABLE
  2
LTYPE
  5
5
330
0
100
AcDbSymbolTable
 70
     2
  0
LTYPE
  5
12
330
5
100
AcDbSymbolTableRecord
100
AcDbLinetypeTableRecord
  2
BYBLOCK
 70
     0
  3

 72
    65
 73
     0
 40
0.0
  0
LTYPE
  5
13
330
5
100
AcDbSymbolTableRecord
100
AcDbLinetypeTableRecord
  2
BYLAYER
 70
     0
  3

 72
    65
 73
     0
 40
0.0
  0
LTYPE
  5
14
330
5
100
AcDbSymbolTableRecord
100
AcDbLinetypeTableRecord
  2
CONTINUOUS
 70
     0
  3
Solid line
 72
    65
 73
     0
 40
0.0
  0
LTYPE
  5
2E
330
5
100
AcDbSymbolTableRecord
100
AcDbLinetypeTableRecord
  2
HIDDEN2
 70
     0
  3
_ _ _ _ _ _ _ _ _ _ _ _ _ _ _ _ _ _ _ _ _ _ _ _
 72
    65
 73
     2
 40
0.1875
 49
0.125
 74
     0
 49
-0.0625
 74
     0
  0
ENDTAB
  0
TABLE
  2
LAYER
  5
2
330
0
100
AcDbSymbolTable
 70
     5
  0
LAYER
  5
F
330
2
100
AcDbSymbolTableRecord
100
AcDbLayerTableRecord
  2
0
 70
     0
 62
     7
  6
CONTINUOUS
370
    -3
390
1BA
  0
LAYER
  5
2F
330
2
100
AcDbSymbolTableRecord
100
AcDbLayerTableRecord
  2
ADP2DETAIL
 70
     0
 62
     5
  6
CONTINUOUS
370
    -3
390
1BA
  0
LAYER
  5
30
330
2
100
AcDbSymbolTableRecord
100
AcDbLayerTableRecord
  2
ADPDIM
 70
     0
 62
     3
  6
CONTINUOUS
370
    -3
390
1BA
  0
LAYER
  5
32
330
2
100
AcDbSymbolTableRecord
100
AcDbLayerTableRecord
  2
ADP1DETAIL
 70
     0
 62
     7
  6
CONTINUOUS
370
    -3
390
1BA
  0
LAYER
  5
34
330
2
100
AcDbSymbolTableRecord
100
AcDbLayerTableRecord
  2
DEFPOINTS
 70
     0
 62
     7
  6
CONTINUOUS
290
     0
370
    -3
390
1BA
  0
ENDTAB
  0
TABLE
  2
STYLE
  5
3
330
0
100
AcDbSymbolTable
 70
     2
  0
STYLE
  5
10
330
3
100
AcDbSymbolTableRecord
100
AcDbTextStyleTableRecord
  2
STANDARD
 70
     0
 40
0.0
 41
1.0
 50
0.0
 71
     0
 42
0.2
  3
txt
  4

  0
STYLE
  5
1C1
330
3
100
AcDbSymbolTableRecord
100
AcDbTextStyleTableRecord
  2
ARIAL_WIDE
 70
     0
 40
0.0
 41
1.25
 50
0.0
 71
     0
 42
0.2
  3
ARIAL.TTF
  4

1001
ACAD
1000
Arial
1071
       34
  0
ENDTAB
  0
TABLE
  2
VIEW
  5
6
330
0
100
AcDbSymbolTable
 70
     0
  0
ENDTAB
  0
TABLE
  2
UCS
  5
7
330
0
100
AcDbSymbolTable
 70
     0
  0
ENDTAB
  0
TABLE
  2
APPID
  5
9
330
0
100
AcDbSymbolTable
 70
     2
  0
APPID
  5
11
330
9
100
AcDbSymbolTableRecord
100
AcDbRegAppTableRecord
  2
ACAD
 70
     0
  0
APPID
  5
387
330
9
100
AcDbSymbolTableRecord
100
AcDbRegAppTableRecord
  2
DCO15
 70
     0
  0
ENDTAB
  0
TABLE
  2
DIMSTYLE
  5
A
330
0
100
AcDbSymbolTable
 70
     1
100
AcDbDimStyleTable
 71
     1
340
1B5
  0
DIMSTYLE
105
1B5
102
{ACAD_REACTORS
330
377
102
}
330
A
100
AcDbSymbolTableRecord
100
AcDbDimStyleTableRecord
  2
STANDARD
 70
     0
340
10
  0
ENDTAB
  0
TABLE
  2
BLOCK_RECORD
  5
1
330
0
100
AcDbSymbolTable
 70
     4
  0
BLOCK_RECORD
  5
18
102
{ACAD_XDICTIONARY
360
216
102
}
330
1
100
AcDbSymbolTableRecord
100
AcDbBlockTableRecord
  2
*MODEL_SPACE
340
1BD
  0
BLOCK_RECORD
  5
15
102
{ACAD_XDICTIONARY
360
214
102
}
330
1
100
AcDbSymbolTableRecord
100
AcDbBlockTableRecord
  2
*PAPER_SPACE
340
1BE
  0
BLOCK_RECORD
  5
1C
330
1
100
AcDbSymbolTableRecord
100
AcDbBlockTableRecord
  2
*D0
340
0
  0
BLOCK_RECORD
  5
1D
330
1
100
AcDbSymbolTableRecord
100
AcDbBlockTableRecord
  2
*D1
340
0
  0
BLOCK_RECORD
  5
2C
330
1
100
AcDbSymbolTableRecord
100
AcDbBlockTableRecord
  2
*D2
340
0
  0
BLOCK_RECORD
  5
378
330
1
100
AcDbSymbolTableRecord
100
AcDbBlockTableRecord
  2
*D3
340
0
  0
ENDTAB
  0
ENDSEC
  0
SECTION
  2
BLOCKS
  0
BLOCK
  5
37
330
18
100
AcDbEntity
  8
0
100
AcDbBlockBegin
  2
*MODEL_SPACE
 70
     0
 10
0.0
 20
0.0
 30
0.0
  3
*MODEL_SPACE
  1

  0
ENDBLK
  5
38
330
18
100
AcDbEntity
  8
0
100
AcDbBlockEnd
  0
BLOCK
  5
35
330
15
100
AcDbEntity
 67
     1
  8
0
100
AcDbBlockBegin
  2
*PAPER_SPACE
 70
     0
 10
0.0
 20
0.0
 30
0.0
  3
*PAPER_SPACE
  1

  0
ENDBLK
  5
36
330
15
100
AcDbEntity
 67
     1
  8
0
100
AcDbBlockEnd
  0
BLOCK
  5
3A
330
1C
100
AcDbEntity
  8
0
100
AcDbBlockBegin
  2
*D0
 70
     1
 10
0.0
 20
0.0
 30
0.0
  3
*D0
  1

  0
LINE
  5
3B
330
1C
100
AcDbEntity
  8
0
  6
ByBlock
 62
     0
100
AcDbLine
 10
8.343074361627767
 20
4.662698726386918
 30
0.0
 11
8.343074361627767
 21
6.026686839316894
 31
0.0
  0
LINE
  5
3C
330
1C
100
AcDbEntity
  8
0
  6
ByBlock
 62
     0
100
AcDbLine
 10
10.73942021436247
 20
4.620870353936968
 30
0.0
 11
10.73942021436247
 21
6.026686839316894
 31
0.0
  0
LINE
  5
3D
330
1C
100
AcDbEntity
  8
0
  6
ByBlock
 62
     0
100
AcDbLine
 10
8.343074361627767
 20
5.846686839316895
 30
0.0
 11
9.239163954661785
 21
5.846686839316895
 31
0.0
  0
LINE
  5
3E
330
1C
100
AcDbEntity
  8
0
  6
ByBlock
 62
     0
100
AcDbLine
 10
10.73942021436247
 20
5.846686839316895
 30
0.0
 11
9.843330621328453
 21
5.846686839316895
 31
0.0
  0
LINE
  5
3F
330
1C
100
AcDbEntity
  8
0
  6
ByBlock
 62
     0
100
AcDbLine
 10
8.218074361627767
 20
5.721686839316895
 30
0.0
 11
8.468074361627767
 21
5.971686839316895
 31
0.0
  0
LINE
  5
40
330
1C
100
AcDbEntity
  8
0
  6
ByBlock
 62
     0
100
AcDbLine
 10
10.61442021436247
 20
5.721686839316895
 30
0.0
 11
10.86442021436247
 21
5.971686839316895
 31
0.0
  0
TEXT
  5
41
330
1C
100
AcDbEntity
  8
0
  6
ByBlock
 62
     0
100
AcDbText
 10
9.364163954661785
 20
5.784186839316895
 30
0.0
 40
0.125
  1
2.40
 72
     1
 11
9.541247287995119
 21
5.846686839316895
 31
0.0
100
AcDbText
 73
     2
  0
POINT
  5
42
330
1C
100
AcDbEntity
  8
DEFPOINTS
  6
ByBlock
 62
     0
100
AcDbPoint
 10
8.343074361627767
 20
4.600198726386918
 30
0.0
  0
POINT
  5
43
330
1C
100
AcDbEntity
  8
DEFPOINTS
  6
ByBlock
 62
     0
100
AcDbPoint
 10
10.73942021436247
 20
4.558370353936968
 30
0.0
  0
POINT
  5
44
330
1C
100
AcDbEntity
  8
DEFPOINTS
  6
ByBlock
 62
     0
100
AcDbPoint
 10
10.73942021436247
 20
5.846686839316895
 30
0.0
  0
ENDBLK
  5
45
330
1C
100
AcDbEntity
  8
0
100
AcDbBlockEnd
  0
BLOCK
  5
46
330
1D
100
AcDbEntity
  8
0
100
AcDbBlockBegin
  2
*D1
 70
     1
 10
0.0
 20
0.0
 30
0.0
  3
*D1
  1

  0
LINE
  5
47
330
1D
100
AcDbEntity
  8
0
  6
ByBlock
 62
     0
100
AcDbLine
 10
8.94175927959184
 20
3.473212143209768
 30
0.0
 11
8.94175927959184
 21
3.224987547515547
 31
0.0
  0
LINE
  5
48
330
1D
100
AcDbEntity
  8
0
  6
ByBlock
 62
     0
100
AcDbLine
 10
10.13854316428727
 20
3.473212143209772
 30
0.0
 11
10.13854316428727
 21
3.224987547515547
 31
0.0
  0
LINE
  5
49
330
1D
100
AcDbEntity
  8
0
  6
ByBlock
 62
     0
100
AcDbLine
 10
8.94175927959184
 20
3.404987547515547
 30
0.0
 11
8.69175927959184
 21
3.404987547515547
 31
0.0
  0
LINE
  5
4A
330
1D
100
AcDbEntity
  8
0
  6
ByBlock
 62
     0
100
AcDbLine
 10
10.13854316428727
 20
3.404987547515547
 30
0.0
 11
10.38854316428726
 21
3.404987547515547
 31
0.0
  0
LINE
  5
4B
330
1D
100
AcDbEntity
  8
0
  6
ByBlock
 62
     0
100
AcDbLine
 10
8.81675927959184
 20
3.279987547515547
 30
0.0
 11
9.06675927959184
 21
3.529987547515547
 31
0.0
  0
LINE
  5
4C
330
1D
100
AcDbEntity
  8
0
  6
ByBlock
 62
     0
100
AcDbLine
 10
10.01354316428726
 20
3.279987547515547
 30
0.0
 11
10.26354316428726
 21
3.529987547515547
 31
0.0
  0
TEXT
  5
4D
330
1D
100
AcDbEntity
  8
0
  6
ByBlock
 62
     0
100
AcDbText
 10
10.51354316428726
 20
3.342487547515547
 30
0.0
 40
0.125
  1
1 3/16
 72
     1
 11
10.82604316428726
 21
3.404987547515547
 31
0.0
100
AcDbText
 73
     2
  0
POINT
  5
4E
330
1D
100
AcDbEntity
  8
DEFPOINTS
  6
ByBlock
 62
     0
100
AcDbPoint
 10
8.94175927959184
 20
3.535712143209768
 30
0.0
  0
POINT
  5
4F
330
1D
100
AcDbEntity
  8
DEFPOINTS
  6
ByBlock
 62
     0
100
AcDbPoint
 10
10.13854316428727
 20
3.535712143209772
 30
0.0
  0
POINT
  5
50
330
1D
100
AcDbEntity
  8
DEFPOINTS
  6
ByBlock
 62
     0
100
AcDbPoint
 10
10.13854316428727
 20
3.404987547515547
 30
0.0
  0
ENDBLK
  5
51
330
1D
100
AcDbEntity
  8
0
100
AcDbBlockEnd
  0
BLOCK
  5
52
330
2C
100
AcDbEntity
  8
0
100
AcDbBlockBegin
  2
*D2
 70
     1
 10
0.0
 20
0.0
 30
0.0
  3
*D2
  1

  0
LINE
  5
53
330
2C
100
AcDbEntity
  8
0
  6
ByBlock
 62
     0
100
AcDbLine
 10
6.049475359496208
 20
11.47269113652163
 30
0.0
 11
6.049475359496208
 21
11.92755667454064
 31
0.0
  0
LINE
  5
54
330
2C
100
AcDbEntity
  8
0
  6
ByBlock
 62
     0
100
AcDbLine
 10
11.0494753594962
 20
11.47269113652163
 30
0.0
 11
11.0494753594962
 21
11.92755667454064
 31
0.0
  0
LINE
  5
55
330
2C
100
AcDbEntity
  8
0
  6
ByBlock
 62
     0
100
AcDbLine
 10
6.049475359496208
 20
11.74755667454064
 30
0.0
 11
8.382808692829541
 21
11.74755667454064
 31
0.0
  0
LINE
  5
56
330
2C
100
AcDbEntity
  8
0
  6
ByBlock
 62
     0
100
AcDbLine
 10
11.0494753594962
 20
11.74755667454064
 30
0.0
 11
8.716142026162874
 21
11.74755667454064
 31
0.0
  0
LINE
  5
57
330
2C
100
AcDbEntity
  8
0
  6
ByBlock
 62
     0
100
AcDbLine
 10
5.924475359496208
 20
11.62255667454064
 30
0.0
 11
6.174475359496208
 21
11.87255667454063
 31
0.0
  0
LINE
  5
58
330
2C
100
AcDbEntity
  8
0
  6
ByBlock
 62
     0
100
AcDbLine
 10
10.9244753594962
 20
11.62255667454064
 30
0.0
 11
11.1744753594962
 21
11.87255667454063
 31
0.0
  0
TEXT
  5
59
330
2C
100
AcDbEntity
  8
0
  6
ByBlock
 62
     0
100
AcDbText
 10
8.507808692829541
 20
11.68505667454064
 30
0.0
 40
0.125
  1
5
 72
     1
 11
8.549475359496208
 21
11.74755667454064
 31
0.0
100
AcDbText
 73
     2
  0
POINT
  5
5A
330
2C
100
AcDbEntity
  8
DEFPOINTS
  6
ByBlock
 62
     0
100
AcDbPoint
 10
6.049475359496208
 20
11.41019113652163
 30
0.0
  0
POINT
  5
5B
330
2C
100
AcDbEntity
  8
DEFPOINTS
  6
ByBlock
 62
     0
100
AcDbPoint
 10
11.0494753594962
 20
11.41019113652163
 30
0.0
  0
POINT
  5
5C
330
2C
100
AcDbEntity
  8
DEFPOINTS
  6
ByBlock
 62
     0
100
AcDbPoint
 10
11.0494753594962
 20
11.74755667454064
 30
0.0
  0
ENDBLK
  5
5D
330
2C
100
AcDbEntity
  8
0
100
AcDbBlockEnd
  0
BLOCK
  5
383
330
378
100
AcDbEntity
  8
0
 62
     3
100
AcDbBlockBegin
  2
*D3
 70
     1
 10
0.0
 20
0.0
 30
0.0
  3
*D3
  1

  0
LINE
  5
379
330
378
100
AcDbEntity
  8
ADPDIM
 62
     0
370
    -2
100
AcDbLine
 10
3.794271646921664
 20
5.395545787404582
 30
0.0
 11
3.794271646921664
 21
7.179844680557383
 31
0.0
  0
LINE
  5
37A
330
378
100
AcDbEntity
  8
ADPDIM
 62
     0
370
    -2
100
AcDbLine
 10
1.419271646921664
 20
5.395545787404582
 30
0.0
 11
1.419271646921665
 21
7.179844680557383
 31
0.0
  0
LINE
  5
37B
330
378
100
AcDbEntity
  8
ADPDIM
 62
     0
370
    -2
100
AcDbLine
 10
3.794271646921664
 20
6.999844680557384
 30
0.0
 11
3.033854980254998
 21
6.999844680557384
 31
0.0
  0
LINE
  5
37C
330
378
100
AcDbEntity
  8
ADPDIM
 62
     0
370
    -2
100
AcDbLine
 10
1.419271646921664
 20
6.999844680557384
 30
0.0
 11
2.179688313588331
 21
6.999844680557384
 31
0.0
  0
LINE
  5
37D
330
378
100
AcDbEntity
  8
ADPDIM
 62
     0
370
    -2
100
AcDbLine
 10
1.294271646921664
 20
6.874844680557384
 30
0.0
 11
1.544271646921664
 21
7.124844680557384
 31
0.0
  0
LINE
  5
37E
330
378
100
AcDbEntity
  8
ADPDIM
 62
     0
370
    -2
100
AcDbLine
 10
3.669271646921664
 20
6.874844680557384
 30
0.0
 11
3.919271646921664
 21
7.124844680557384
 31
0.0
  0
MTEXT
  5
37F
330
378
100
AcDbEntity
  8
ADPDIM
 62
     0
100
AcDbMText
 10
2.606771646921664
 20
6.999844680557384
 30
0.0
 40
0.125
 41
0.0
 71
     5
 72
     1
  1
\A1;2.3750
 73
     1
 44
1.0
1001
ACAD
1000
MTEXTBEGIN
1070
    73
1070
     1
1070
    44
1040
1.0
1070
    74
1070
     0
1000
MTEXTEND
  0
POINT
  5
380
330
378
100
AcDbEntity
  8
DEFPOINTS
 62
     0
100
AcDbPoint
 10
3.794271646921664
 20
5.333045787404582
 30
0.0
  0
POINT
  5
381
330
378
100
AcDbEntity
  8
DEFPOINTS
 62
     0
100
AcDbPoint
 10
1.419271646921664
 20
5.333045787404582
 30
0.0
  0
POINT
  5
382
330
378
100
AcDbEntity
  8
DEFPOINTS
 62
     0
100
AcDbPoint
 10
1.419271646921664
 20
6.999844680557384
 30
0.0
  0
ENDBLK
  5
384
330
378
100
AcDbEntity
  8
0
 62
     3
100
AcDbBlockEnd
  0
ENDSEC
  0
SECTION
  2
ENTITIES
  0
LINE
  5
5E
330
18
100
AcDbEntity
  8
ADP1DETAIL
100
AcDbLine
 10
5.511902054339706
 20
4.357483869909726
 30
0.0
 11
10.3869020543397
 21
4.357483869909726
 31
0.0
  0
LINE
  5
5F
330
18
100
AcDbEntity
  8
ADP2DETAIL
  6
HIDDEN2
100
AcDbLine
 10
5.449402054339706
 20
4.467272674970937
 30
0.0
 11
10.4494020543397
 21
4.467272674970937
 31
0.0
  0
LINE
  5
60
330
18
100
AcDbEntity
  8
ADP1DETAIL
100
AcDbLine
 10
10.3869020543397
 20
6.589554381369637
 30
0.0
 11
5.511902054339706
 21
6.589554381369637
 31
0.0
  0
DIMENSION
  5
61
330
18
100
AcDbEntity
  8
ADPDIM
100
AcDbDimension
  2
*D2
 10
10.4494020543397
 20
6.864419919388643
 30
0.0
 11
7.949402054339705
 21
6.864419919388643
 31
0.0
 12
-0.6000733051565029
 22
-4.883136755151994
 32
0.0
 71
     5
 42
-1.0
100
AcDbAlignedDimension
 13
5.449402054339706
 23
6.527054381369637
 33
0.0
 14
10.4494020543397
 24
6.527054381369637
 34
0.0
100
AcDbRotatedDimension
  0
LINE
  5
63
330
18
100
AcDbEntity
  8
ADP1DETAIL
100
AcDbLine
 10
1.684486530839595
 20
6.127252765753169
 30
0.0
 11
1.682021394170947
 21
6.155429406809279
 31
0.0
  0
LINE
  5
64
330
18
100
AcDbEntity
  8
ADP1DETAIL
100
AcDbLine
 10
1.682021394170947
 20
6.155429406809279
 30
0.0
 11
1.710198035227058
 21
6.157894543477928
 31
0.0
  0
LINE
  5
65
330
18
100
AcDbEntity
  8
ADP1DETAIL
100
AcDbLine
 10
1.655661821585654
 20
6.122878045576221
 30
0.0
 11
1.683735266164301
 21
6.126325031141844
 31
0.0
  0
LINE
  5
66
330
18
100
AcDbEntity
  8
ADP1DETAIL
100
AcDbLine
 10
1.683735266164301
 20
4.641843519229023
 30
0.0
 11
1.655661821585654
 21
4.645290504794644
 31
0.0
  0
LINE
  5
67
330
18
100
AcDbEntity
  8
ADP1DETAIL
100
AcDbLine
 10
1.710198035227056
 20
4.610274006892936
 30
0.0
 11
1.682021394170947
 21
4.612739143561586
 31
0.0
  0
LINE
  5
68
330
18
100
AcDbEntity
  8
ADP1DETAIL
100
AcDbLine
 10
1.682021394170947
 20
4.612739143561586
 30
0.0
 11
1.684486530839595
 21
4.640915784617696
 31
0.0
  0
ARC
  5
69
330
18
100
AcDbEntity
  8
ADP1DETAIL
100
AcDbCircle
 10
2.601274725913722
 20
5.359084275185432
 30
0.0
 40
1.074999999999999
100
AcDbArc
 50
304.5994721985026
 51
235.4005278014974
  0
LINE
  5
6A
330
18
100
AcDbEntity
  8
ADP1DETAIL
100
AcDbLine
 10
1.402005733490808
 20
5.342204879142432
 30
0.0
 11
1.421295560097139
 21
5.362890685616862
 31
0.0
  0
LINE
  5
6B
330
18
100
AcDbEntity
  8
ADP1DETAIL
100
AcDbLine
 10
1.655661821585654
 20
4.645290504794644
 30
0.0
 11
1.659108807151275
 21
4.673363949373291
 31
0.0
  0
LINE
  5
6C
330
18
100
AcDbEntity
  8
ADP1DETAIL
100
AcDbLine
 10
1.407848451471794
 20
5.258650119264249
 30
0.0
 11
1.425648320113806
 21
5.280631126436967
 31
0.0
  0
LINE
  5
6D
330
18
100
AcDbEntity
  8
ADP1DETAIL
100
AcDbLine
 10
1.451218790864185
 20
5.119185528005804
 30
0.0
 11
1.427497605033154
 21
5.134590246204123
 31
0.0
  0
LINE
  5
6E
330
18
100
AcDbEntity
  8
ADP1DETAIL
100
AcDbLine
 10
1.461164206820038
 20
5.079210523852307
 30
0.0
 11
1.436919854382527
 21
5.093778000465833
 31
0.0
  0
LINE
  5
6F
330
18
100
AcDbEntity
  8
ADP1DETAIL
100
AcDbLine
 10
1.436919854382527
 20
5.093778000465833
 30
0.0
 11
1.451487330996053
 21
5.118022352903345
 31
0.0
  0
LINE
  5
70
330
18
100
AcDbEntity
  8
ADP1DETAIL
100
AcDbLine
 10
1.472498671822846
 20
5.039606961402609
 30
0.0
 11
1.44776069078774
 21
5.053319448205035
 31
0.0
  0
LINE
  5
71
330
18
100
AcDbEntity
  8
ADP1DETAIL
100
AcDbLine
 10
1.44776069078774
 20
5.053319448205035
 30
0.0
 11
1.461473177590166
 21
5.078057429240141
 31
0.0
  0
LINE
  5
72
330
18
100
AcDbEntity
  8
ADP1DETAIL
100
AcDbLine
 10
1.429829458644512
 20
5.240850250622237
 30
0.0
 11
1.407848451471794
 21
5.258650119264249
 31
0.0
  0
LINE
  5
73
330
18
100
AcDbEntity
  8
ADP1DETAIL
100
AcDbLine
 10
1.419505422299073
 20
5.175706461985118
 30
0.0
 11
1.435728613805977
 21
5.1988755805987
 31
0.0
  0
LINE
  5
74
330
18
100
AcDbEntity
  8
ADP1DETAIL
100
AcDbLine
 10
1.442674540912653
 20
5.159483270478212
 30
0.0
 11
1.419505422299073
 21
5.175706461985118
 31
0.0
  0
LINE
  5
75
330
18
100
AcDbEntity
  8
ADP1DETAIL
100
AcDbLine
 10
1.427497605033154
 20
5.134590246204123
 30
0.0
 11
1.442902323231475
 21
5.158311432035155
 31
0.0
  0
LINE
  5
76
330
18
100
AcDbEntity
  8
ADP1DETAIL
100
AcDbLine
 10
1.442674540912655
 20
5.159483270478212
 30
0.0
 11
1.419505422299073
 21
5.175706461985116
 31
0.0
  0
LINE
  5
77
330
18
100
AcDbEntity
  8
ADP1DETAIL
100
AcDbLine
 10
1.435541866817869
 20
5.200054654677725
 30
0.0
 11
1.412953043423838
 21
5.217076554033354
 31
0.0
  0
LINE
  5
78
330
18
100
AcDbEntity
  8
ADP1DETAIL
100
AcDbLine
 10
1.412953043423838
 20
5.217076554033354
 30
0.0
 11
1.429974942779468
 21
5.239665377427385
 31
0.0
  0
LINE
  5
79
330
18
100
AcDbEntity
  8
ADP1DETAIL
100
AcDbLine
 10
1.419505422299073
 20
5.175706461985116
 30
0.0
 11
1.435728613805975
 21
5.198875580598699
 31
0.0
  0
LINE
  5
7A
330
18
100
AcDbEntity
  8
ADP1DETAIL
100
AcDbLine
 10
1.562044241372394
 20
4.784084275185433
 30
0.0
 11
1.569364749448084
 21
4.811404783261123
 31
0.0
  0
LINE
  5
7B
330
18
100
AcDbEntity
  8
ADP1DETAIL
100
AcDbLine
 10
1.589364749448083
 20
4.776763767109745
 30
0.0
 11
1.562044241372394
 21
4.784084275185433
 31
0.0
  0
LINE
  5
7C
330
18
100
AcDbEntity
  8
ADP1DETAIL
100
AcDbLine
 10
1.589364749448083
 20
4.776763767109747
 30
0.0
 11
1.562044241372396
 21
4.784084275185433
 31
0.0
  0
LINE
  5
7D
330
18
100
AcDbEntity
  8
ADP1DETAIL
100
AcDbLine
 10
1.562044241372396
 20
4.784084275185433
 30
0.0
 11
1.569364749448082
 21
4.811404783261121
 31
0.0
  0
LINE
  5
7E
330
18
100
AcDbEntity
  8
ADP1DETAIL
100
AcDbLine
 10
1.48520837657294
 20
5.000423091497093
 30
0.0
 11
1.460006906359538
 21
5.013263881935497
 31
0.0
  0
LINE
  5
7F
330
18
100
AcDbEntity
  8
ADP1DETAIL
100
AcDbLine
 10
1.460006906359538
 20
5.013263881935497
 30
0.0
 11
1.472847696797941
 21
5.038465352148898
 31
0.0
  0
LINE
  5
80
330
18
100
AcDbEntity
  8
ADP1DETAIL
100
AcDbLine
 10
1.499277836252863
 20
4.961706653645425
 30
0.0
 11
1.473643580970632
 21
4.973660103194632
 31
0.0
  0
LINE
  5
81
330
18
100
AcDbEntity
  8
ADP1DETAIL
100
AcDbLine
 10
1.473643580970632
 20
4.973660103194632
 30
0.0
 11
1.485597030519835
 21
4.999294358476863
 31
0.0
  0
LINE
  5
82
330
18
100
AcDbEntity
  8
ADP1DETAIL
100
AcDbLine
 10
1.514689909393231
 20
4.923504817863321
 30
0.0
 11
1.488654100433576
 21
4.934556363086338
 31
0.0
  0
LINE
  5
83
330
18
100
AcDbEntity
  8
ADP1DETAIL
100
AcDbLine
 10
1.488654100433576
 20
4.934556363086338
 30
0.0
 11
1.499705645656595
 21
4.960592172045991
 31
0.0
  0
LINE
  5
84
330
18
100
AcDbEntity
  8
ADP1DETAIL
100
AcDbLine
 10
1.531425818756968
 20
4.885864127203138
 30
0.0
 11
1.505020176742601
 21
4.896000303494474
 31
0.0
  0
LINE
  5
85
330
18
100
AcDbEntity
  8
ADP1DETAIL
100
AcDbLine
 10
1.505020176742601
 20
4.896000303494474
 30
0.0
 11
1.515156353033935
 21
4.922405945508842
 31
0.0
  0
LINE
  5
86
330
18
100
AcDbEntity
  8
ADP1DETAIL
100
AcDbLine
 10
1.549465174216486
 20
4.84883044104834
 30
0.0
 11
1.522721870354722
 21
4.858038899038541
 31
0.0
  0
LINE
  5
87
330
18
100
AcDbEntity
  8
ADP1DETAIL
100
AcDbLine
 10
1.568785997595904
 20
4.812448879240903
 30
0.0
 11
1.541737614483009
 21
4.820718399842364
 31
0.0
  0
LINE
  5
88
330
18
100
AcDbEntity
  8
ADP1DETAIL
100
AcDbLine
 10
1.541737614483009
 20
4.820718399842364
 30
0.0
 11
1.550007135084468
 21
4.847766782955259
 31
0.0
  0
LINE
  5
89
330
18
100
AcDbEntity
  8
ADP1DETAIL
100
AcDbLine
 10
1.522721870354722
 20
4.858038899038541
 30
0.0
 11
1.531930328344923
 21
4.884782202900305
 31
0.0
  0
LINE
  5
8A
330
18
100
AcDbEntity
  8
ADP1DETAIL
100
AcDbLine
 10
1.422691539965239
 20
5.322915052536099
 30
0.0
 11
1.402005733490808
 21
5.342204879142432
 31
0.0
  0
LINE
  5
8B
330
18
100
AcDbEntity
  8
ADP1DETAIL
100
AcDbLine
 10
1.425544276082012
 20
5.281820355162169
 30
0.0
 11
1.404197865601933
 21
5.300376506692483
 31
0.0
  0
LINE
  5
8C
330
18
100
AcDbEntity
  8
ADP1DETAIL
100
AcDbLine
 10
1.404197865601933
 20
5.300376506692483
 30
0.0
 11
1.422754017132247
 21
5.321722917172563
 31
0.0
  0
LINE
  5
8D
330
18
100
AcDbEntity
  8
ADP1DETAIL
100
AcDbLine
 10
1.6111763577338
 20
4.741818581467125
 30
0.0
 11
1.583617010526008
 21
4.748181158105587
 31
0.0
  0
LINE
  5
8E
330
18
100
AcDbEntity
  8
ADP1DETAIL
100
AcDbLine
 10
1.634194248368187
 20
4.707655897638852
 30
0.0
 11
1.606429638847671
 21
4.713052791020539
 31
0.0
  0
LINE
  5
8F
330
18
100
AcDbEntity
  8
ADP1DETAIL
100
AcDbLine
 10
1.606429638847671
 20
4.713052791020539
 30
0.0
 11
1.611826532229358
 21
4.740817400541052
 31
0.0
  0
LINE
  5
90
330
18
100
AcDbEntity
  8
ADP1DETAIL
100
AcDbLine
 10
1.630454332663784
 20
4.678741972434467
 30
0.0
 11
1.634878967505434
 21
4.706678017367813
 31
0.0
  0
LINE
  5
91
330
18
100
AcDbEntity
  8
ADP1DETAIL
100
AcDbLine
 10
1.583617010526008
 20
4.748181158105587
 30
0.0
 11
1.589979587164473
 21
4.775740505313381
 31
0.0
  0
LINE
  5
92
330
18
100
AcDbEntity
  8
ADP1DETAIL
100
AcDbLine
 10
1.658390377597132
 20
4.674317337592817
 30
0.0
 11
1.630454332663784
 21
4.678741972434467
 31
0.0
  0
LINE
  5
93
330
18
100
AcDbEntity
  8
ADP1DETAIL
100
AcDbLine
 10
1.611826532229358
 20
6.027351149829813
 30
0.0
 11
1.606429638847671
 21
6.055115759350329
 31
0.0
  0
LINE
  5
94
330
18
100
AcDbEntity
  8
ADP1DETAIL
100
AcDbLine
 10
1.562044241372396
 20
5.984084275185434
 30
0.0
 11
1.589364749448083
 21
5.991404783261122
 31
0.0
  0
LINE
  5
95
330
18
100
AcDbEntity
  8
ADP1DETAIL
100
AcDbLine
 10
1.562044241372396
 20
5.984084275185432
 30
0.0
 11
1.589364749448082
 21
5.991404783261122
 31
0.0
  0
LINE
  5
96
330
18
100
AcDbEntity
  8
ADP1DETAIL
100
AcDbLine
 10
1.461473177590166
 20
5.690111121130726
 30
0.0
 11
1.44776069078774
 21
5.714849102165834
 31
0.0
  0
LINE
  5
97
330
18
100
AcDbEntity
  8
ADP1DETAIL
100
AcDbLine
 10
1.44776069078774
 20
5.714849102165834
 30
0.0
 11
1.472498671822846
 21
5.728561588968259
 31
0.0
  0
LINE
  5
98
330
18
100
AcDbEntity
  8
ADP1DETAIL
100
AcDbLine
 10
1.451487330996053
 20
5.650146197467522
 30
0.0
 11
1.436919854382527
 21
5.674390549905034
 31
0.0
  0
LINE
  5
99
330
18
100
AcDbEntity
  8
ADP1DETAIL
100
AcDbLine
 10
1.427497605033154
 20
5.633578304166745
 30
0.0
 11
1.451218790864185
 21
5.648983022365065
 31
0.0
  0
LINE
  5
9A
330
18
100
AcDbEntity
  8
ADP1DETAIL
100
AcDbLine
 10
1.436919854382527
 20
5.674390549905034
 30
0.0
 11
1.461164206820038
 21
5.688958026518561
 31
0.0
  0
LINE
  5
9B
330
18
100
AcDbEntity
  8
ADP1DETAIL
100
AcDbLine
 10
1.419505422299073
 20
5.592462088385749
 30
0.0
 11
1.442674540912655
 21
5.608685279892654
 31
0.0
  0
LINE
  5
9C
330
18
100
AcDbEntity
  8
ADP1DETAIL
100
AcDbLine
 10
1.435728613805977
 20
5.569292969772167
 30
0.0
 11
1.419505422299073
 21
5.592462088385749
 31
0.0
  0
LINE
  5
9D
330
18
100
AcDbEntity
  8
ADP1DETAIL
100
AcDbLine
 10
1.429974942779468
 20
5.52850317294348
 30
0.0
 11
1.412953043423838
 21
5.551091996337511
 31
0.0
  0
LINE
  5
9E
330
18
100
AcDbEntity
  8
ADP1DETAIL
100
AcDbLine
 10
1.412953043423838
 20
5.551091996337511
 30
0.0
 11
1.435541866817869
 21
5.568113895693143
 31
0.0
  0
LINE
  5
9F
330
18
100
AcDbEntity
  8
ADP1DETAIL
100
AcDbLine
 10
1.425648320113806
 20
5.487537423933899
 30
0.0
 11
1.407848451471794
 21
5.509518431106618
 31
0.0
  0
LINE
  5
A0
330
18
100
AcDbEntity
  8
ADP1DETAIL
100
AcDbLine
 10
1.407848451471794
 20
5.509518431106618
 30
0.0
 11
1.429829458644514
 21
5.527318299748628
 31
0.0
  0
LINE
  5
A1
330
18
100
AcDbEntity
  8
ADP1DETAIL
100
AcDbLine
 10
1.435728613805977
 20
5.569292969772169
 30
0.0
 11
1.419505422299073
 21
5.592462088385749
 31
0.0
  0
LINE
  5
A2
330
18
100
AcDbEntity
  8
ADP1DETAIL
100
AcDbLine
 10
1.442902323231475
 20
5.609857118335714
 30
0.0
 11
1.427497605033154
 21
5.633578304166745
 31
0.0
  0
LINE
  5
A3
330
18
100
AcDbEntity
  8
ADP1DETAIL
100
AcDbLine
 10
1.419505422299073
 20
5.592462088385749
 30
0.0
 11
1.442674540912653
 21
5.608685279892656
 31
0.0
  0
LINE
  5
A4
330
18
100
AcDbEntity
  8
ADP1DETAIL
100
AcDbLine
 10
1.569364749448084
 20
5.956763767109745
 30
0.0
 11
1.562044241372396
 21
5.984084275185434
 31
0.0
  0
LINE
  5
A5
330
18
100
AcDbEntity
  8
ADP1DETAIL
100
AcDbLine
 10
1.569364749448084
 20
5.956763767109745
 30
0.0
 11
1.562044241372396
 21
5.984084275185432
 31
0.0
  0
LINE
  5
A6
330
18
100
AcDbEntity
  8
ADP1DETAIL
100
AcDbLine
 10
1.55000713508447
 20
5.920401767415608
 30
0.0
 11
1.541737614483009
 21
5.947450150528503
 31
0.0
  0
LINE
  5
A7
330
18
100
AcDbEntity
  8
ADP1DETAIL
100
AcDbLine
 10
1.541737614483009
 20
5.947450150528503
 30
0.0
 11
1.568785997595906
 21
5.955719671129964
 31
0.0
  0
LINE
  5
A8
330
18
100
AcDbEntity
  8
ADP1DETAIL
100
AcDbLine
 10
1.531930328344923
 20
5.883386347470562
 30
0.0
 11
1.522721870354722
 21
5.910129651332328
 31
0.0
  0
LINE
  5
A9
330
18
100
AcDbEntity
  8
ADP1DETAIL
100
AcDbLine
 10
1.522721870354722
 20
5.910129651332328
 30
0.0
 11
1.549465174216486
 21
5.919338109322527
 31
0.0
  0
LINE
  5
AA
330
18
100
AcDbEntity
  8
ADP1DETAIL
100
AcDbLine
 10
1.515156353033937
 20
5.845762604862027
 30
0.0
 11
1.505020176742602
 21
5.872168246876393
 31
0.0
  0
LINE
  5
AB
330
18
100
AcDbEntity
  8
ADP1DETAIL
100
AcDbLine
 10
1.505020176742602
 20
5.872168246876393
 30
0.0
 11
1.531425818756968
 21
5.882304423167729
 31
0.0
  0
LINE
  5
AC
330
18
100
AcDbEntity
  8
ADP1DETAIL
100
AcDbLine
 10
1.499705645656595
 20
5.807576378324874
 30
0.0
 11
1.488654100433578
 21
5.833612187284527
 31
0.0
  0
LINE
  5
AD
330
18
100
AcDbEntity
  8
ADP1DETAIL
100
AcDbLine
 10
1.488654100433578
 20
5.833612187284527
 30
0.0
 11
1.514689909393231
 21
5.844663732507546
 31
0.0
  0
LINE
  5
AE
330
18
100
AcDbEntity
  8
ADP1DETAIL
100
AcDbLine
 10
1.485597030519835
 20
5.768874191894004
 30
0.0
 11
1.473643580970632
 21
5.794508447176236
 31
0.0
  0
LINE
  5
AF
330
18
100
AcDbEntity
  8
ADP1DETAIL
100
AcDbLine
 10
1.473643580970632
 20
5.794508447176236
 30
0.0
 11
1.499277836252863
 21
5.806461896725441
 31
0.0
  0
LINE
  5
B0
330
18
100
AcDbEntity
  8
ADP1DETAIL
100
AcDbLine
 10
1.472847696797941
 20
5.729703198221969
 30
0.0
 11
1.460006906359538
 21
5.75490466843537
 31
0.0
  0
LINE
  5
B1
330
18
100
AcDbEntity
  8
ADP1DETAIL
100
AcDbLine
 10
1.460006906359538
 20
5.75490466843537
 30
0.0
 11
1.485208376572938
 21
5.767745458873774
 31
0.0
  0
LINE
  5
B2
330
18
100
AcDbEntity
  8
ADP1DETAIL
100
AcDbLine
 10
1.589979587164474
 20
5.992428045057486
 30
0.0
 11
1.58361701052601
 21
6.019987392265278
 31
0.0
  0
LINE
  5
B3
330
18
100
AcDbEntity
  8
ADP1DETAIL
100
AcDbLine
 10
1.58361701052601
 20
6.019987392265278
 30
0.0
 11
1.611176357733802
 21
6.026349968903742
 31
0.0
  0
LINE
  5
B4
330
18
100
AcDbEntity
  8
ADP1DETAIL
100
AcDbLine
 10
1.422754017132247
 20
5.446445633198305
 30
0.0
 11
1.404197865601934
 21
5.467792043678384
 31
0.0
  0
LINE
  5
B5
330
18
100
AcDbEntity
  8
ADP1DETAIL
100
AcDbLine
 10
1.421295560097139
 20
5.405277864754003
 30
0.0
 11
1.402005733490808
 21
5.425963671228434
 31
0.0
  0
LINE
  5
B6
330
18
100
AcDbEntity
  8
ADP1DETAIL
100
AcDbLine
 10
1.402005733490808
 20
5.425963671228434
 30
0.0
 11
1.422691539965239
 21
5.445253497834766
 31
0.0
  0
LINE
  5
B7
330
18
100
AcDbEntity
  8
ADP1DETAIL
100
AcDbLine
 10
1.421274725913722
 20
5.364084275185431
 30
0.0
 11
1.401274725913722
 21
5.384084275185433
 31
0.0
  0
LINE
  5
B8
330
18
100
AcDbEntity
  8
ADP1DETAIL
100
AcDbLine
 10
1.401274725913722
 20
5.384084275185433
 30
0.0
 11
1.421274725913722
 21
5.404084275185432
 31
0.0
  0
LINE
  5
B9
330
18
100
AcDbEntity
  8
ADP1DETAIL
100
AcDbLine
 10
1.404197865601934
 20
5.467792043678384
 30
0.0
 11
1.425544276082012
 21
5.486348195208696
 31
0.0
  0
LINE
  5
BA
330
18
100
AcDbEntity
  8
ADP1DETAIL
100
AcDbLine
 10
1.659108807151275
 20
6.094804600997575
 30
0.0
 11
1.655661821585654
 21
6.122878045576221
 31
0.0
  0
LINE
  5
BB
330
18
100
AcDbEntity
  8
ADP1DETAIL
100
AcDbLine
 10
1.634878967505434
 20
6.061490533003052
 30
0.0
 11
1.630454332663784
 21
6.0894265779364
 31
0.0
  0
LINE
  5
BC
330
18
100
AcDbEntity
  8
ADP1DETAIL
100
AcDbLine
 10
1.606429638847671
 20
6.055115759350329
 30
0.0
 11
1.634194248368187
 21
6.060512652732015
 31
0.0
  0
LINE
  5
BD
330
18
100
AcDbEntity
  8
ADP1DETAIL
100
AcDbLine
 10
1.630454332663784
 20
6.0894265779364
 30
0.0
 11
1.658390377597132
 21
6.09385121277805
 31
0.0
  0
LINE
  5
BE
330
18
100
AcDbEntity
  8
ADP1DETAIL
100
AcDbLine
 10
3.717341075254505
 20
5.767745458873772
 30
0.0
 11
3.742542545467907
 21
5.754904668435369
 31
0.0
  0
LINE
  5
BF
330
18
100
AcDbEntity
  8
ADP1DETAIL
100
AcDbLine
 10
3.703271615574582
 20
5.806461896725441
 30
0.0
 11
3.728905870856813
 21
5.794508447176234
 31
0.0
  0
LINE
  5
C0
330
18
100
AcDbEntity
  8
ADP1DETAIL
100
AcDbLine
 10
3.728905870856813
 20
5.794508447176234
 30
0.0
 11
3.716952421307608
 21
5.768874191894003
 31
0.0
  0
LINE
  5
C1
330
18
100
AcDbEntity
  8
ADP1DETAIL
100
AcDbLine
 10
3.716952421307608
 20
4.999294358476861
 30
0.0
 11
3.728905870856813
 21
4.97366010319463
 31
0.0
  0
LINE
  5
C2
330
18
100
AcDbEntity
  8
ADP1DETAIL
100
AcDbLine
 10
3.728905870856813
 20
4.97366010319463
 30
0.0
 11
3.70327161557458
 21
4.961706653645425
 31
0.0
  0
LINE
  5
C3
330
18
100
AcDbEntity
  8
ADP1DETAIL
100
AcDbLine
 10
3.742542545467907
 20
5.013263881935495
 30
0.0
 11
3.717341075254505
 21
5.000423091497092
 31
0.0
  0
DIMENSION
  5
C4
330
18
100
AcDbEntity
  8
ADPDIM
100
AcDbDimension
  2
*D1
 10
3.199666668261434
 20
4.272580864807013
 30
0.0
 11
3.887166668261434
 21
4.272580864807013
 31
0.0
 12
-6.938876496025832
 22
0.8675933172914662
 32
0.0
 71
     5
 42
-1.0
100
AcDbAlignedDimension
 13
2.002882783566008
 23
4.403305460501234
 33
0.0
 14
3.199666668261434
 24
4.403305460501238
 34
0.0
100
AcDbRotatedDimension
  0
LINE
  5
C5
330
18
100
AcDbEntity
  8
ADP1DETAIL
100
AcDbLine
 10
1.826563506919816
 20
4.493790768994932
 30
0.0
 11
1.79831799828309
 21
4.492310484612559
 31
0.0
  0
LINE
  5
C6
330
18
100
AcDbEntity
  8
ADP1DETAIL
100
AcDbLine
 10
1.767684681362924
 20
4.520876514779052
 30
0.0
 11
1.767191052765332
 21
4.549156478195005
 31
0.0
  0
LINE
  5
C7
330
18
100
AcDbEntity
  8
ADP1DETAIL
100
AcDbLine
 10
1.795964644778877
 20
4.521370143376646
 30
0.0
 11
1.767684681362924
 21
4.520876514779052
 31
0.0
  0
LINE
  5
C8
330
18
100
AcDbEntity
  8
ADP1DETAIL
100
AcDbLine
 10
1.79831799828309
 20
4.492310484612559
 30
0.0
 11
1.796837713900719
 21
4.520555993249285
 31
0.0
  0
LINE
  5
C9
330
18
100
AcDbEntity
  8
ADP1DETAIL
100
AcDbLine
 10
1.737746443977572
 20
4.579647263172432
 30
0.0
 11
1.709500935340848
 21
4.581127547554803
 31
0.0
  0
LINE
  5
CA
330
18
100
AcDbEntity
  8
ADP1DETAIL
100
AcDbLine
 10
1.709500935340848
 20
4.581127547554803
 30
0.0
 11
1.710981219723219
 21
4.609373056191527
 31
0.0
  0
LINE
  5
CB
330
18
100
AcDbEntity
  8
ADP1DETAIL
100
AcDbLine
 10
1.766346928923292
 20
4.550000602037043
 30
0.0
 11
1.738066965507339
 21
4.550494230634637
 31
0.0
  0
LINE
  5
CC
330
18
100
AcDbEntity
  8
ADP1DETAIL
100
AcDbLine
 10
1.738066965507339
 20
4.550494230634637
 30
0.0
 11
1.738560594104932
 21
4.578774194050589
 31
0.0
  0
LINE
  5
CD
330
18
100
AcDbEntity
  8
ADP1DETAIL
100
AcDbLine
 10
1.923868468096101
 20
4.417688516777147
 30
0.0
 11
1.895932423162753
 21
4.413263881935497
 31
0.0
  0
LINE
  5
CE
330
18
100
AcDbEntity
  8
ADP1DETAIL
100
AcDbLine
 10
1.829929594289874
 20
4.46483094344266
 30
0.0
 11
1.827464457621225
 21
4.493007584498769
 31
0.0
  0
LINE
  5
CF
330
18
100
AcDbEntity
  8
ADP1DETAIL
100
AcDbLine
 10
1.858106235345983
 20
4.467296080111308
 30
0.0
 11
1.829929594289874
 21
4.46483094344266
 31
0.0
  0
LINE
  5
D0
330
18
100
AcDbEntity
  8
ADP1DETAIL
100
AcDbLine
 10
1.890554400101576
 20
4.441918356422988
 30
0.0
 11
1.862480955522931
 21
4.438471370857367
 31
0.0
  0
LINE
  5
D1
330
18
100
AcDbEntity
  8
ADP1DETAIL
100
AcDbLine
 10
1.862480955522931
 20
4.438471370857367
 30
0.0
 11
1.859033969957309
 21
4.466544815436014
 31
0.0
  0
LINE
  5
D2
330
18
100
AcDbEntity
  8
ADP1DETAIL
100
AcDbLine
 10
1.895932423162753
 20
4.413263881935497
 30
0.0
 11
1.891507788321105
 21
4.441199926868844
 31
0.0
  0
LINE
  5
D3
330
18
100
AcDbEntity
  8
ADP1DETAIL
100
AcDbLine
 10
1.858106235345983
 20
4.46729608011131
 30
0.0
 11
1.829929594289874
 21
4.46483094344266
 31
0.0
  0
LINE
  5
D4
330
18
100
AcDbEntity
  8
ADP1DETAIL
100
AcDbLine
 10
1.829929594289874
 20
4.46483094344266
 30
0.0
 11
1.827464457621223
 21
4.493007584498769
 31
0.0
  0
ARC
  5
D5
330
18
100
AcDbEntity
  8
ADP1DETAIL
100
AcDbCircle
 10
1.962459043213096
 20
4.433049975855364
 30
0.0
 40
0.05
100
AcDbArc
 50
328.611833535651
 51
55.40052780149732
  0
LINE
  5
D6
330
18
100
AcDbEntity
  8
ADP1DETAIL
100
AcDbLine
 10
2.005141962480903
 20
4.407008309188697
 30
0.0
 11
2.002882783566009
 21
4.403305460501238
 31
0.0
  0
ARC
  5
D7
330
18
100
AcDbEntity
  8
ADP1DETAIL
100
AcDbCircle
 10
1.960199864298202
 20
4.429347127167904
 30
0.0
 40
0.05
100
AcDbArc
 50
236.1199271666716
 51
328.6118335356505
  0
LINE
  5
D8
330
18
100
AcDbEntity
  8
ADP1DETAIL
100
AcDbLine
 10
1.930243241748824
 20
4.389239188119384
 30
0.0
 11
1.92484634836714
 21
4.417003797639898
 31
0.0
  0
LINE
  5
D9
330
18
100
AcDbEntity
  8
ADP1DETAIL
100
AcDbLine
 10
3.518062920987848
 20
4.640915784617696
 30
0.0
 11
3.520528057656497
 21
4.612739143561586
 31
0.0
  0
ARC
  5
DA
330
18
100
AcDbEntity
  8
ADP1DETAIL
100
AcDbCircle
 10
3.242349587529242
 20
4.429347127167906
 30
0.0
 40
0.05
100
AcDbArc
 50
211.3881664643491
 51
303.8800728333281
  0
LINE
  5
DB
330
18
100
AcDbEntity
  8
ADP1DETAIL
100
AcDbLine
 10
3.197407489346542
 20
4.407008309188697
 30
0.0
 11
3.199666668261434
 21
4.403305460501238
 31
0.0
  0
ARC
  5
DC
330
18
100
AcDbEntity
  8
ADP1DETAIL
100
AcDbCircle
 10
3.240090408614349
 20
4.433049975855364
 30
0.0
 40
0.05
100
AcDbArc
 50
124.599472198504
 51
211.3881664643499
  0
LINE
  5
DD
330
18
100
AcDbEntity
  8
ADP1DETAIL
100
AcDbLine
 10
3.435358399062112
 20
4.549156478195005
 30
0.0
 11
3.434864770464518
 21
4.520876514779052
 31
0.0
  0
LINE
  5
DE
330
18
100
AcDbEntity
  8
ADP1DETAIL
100
AcDbLine
 10
3.340068496304514
 20
4.438471370857367
 30
0.0
 11
3.311995051725867
 21
4.441918356422988
 31
0.0
  0
LINE
  5
DF
330
18
100
AcDbEntity
  8
ADP1DETAIL
100
AcDbLine
 10
3.277703103460305
 20
4.417003797639898
 30
0.0
 11
3.272306210078619
 21
4.389239188119383
 31
0.0
  0
LINE
  5
E0
330
18
100
AcDbEntity
  8
ADP1DETAIL
100
AcDbLine
 10
3.31104166350634
 20
4.441199926868844
 30
0.0
 11
3.306617028664691
 21
4.413263881935497
 31
0.0
  0
LINE
  5
E1
330
18
100
AcDbEntity
  8
ADP1DETAIL
100
AcDbLine
 10
3.306617028664691
 20
4.413263881935497
 30
0.0
 11
3.278680983731343
 21
4.417688516777145
 31
0.0
  0
LINE
  5
E2
330
18
100
AcDbEntity
  8
ADP1DETAIL
100
AcDbLine
 10
3.37261985753757
 20
4.46483094344266
 30
0.0
 11
3.34444321648146
 21
4.467296080111308
 31
0.0
  0
LINE
  5
E3
330
18
100
AcDbEntity
  8
ADP1DETAIL
100
AcDbLine
 10
3.375084994206217
 20
4.493007584498769
 30
0.0
 11
3.37261985753757
 21
4.46483094344266
 31
0.0
  0
LINE
  5
E4
330
18
100
AcDbEntity
  8
ADP1DETAIL
100
AcDbLine
 10
3.405711737926722
 20
4.520555993249283
 30
0.0
 11
3.404231453544351
 21
4.492310484612559
 31
0.0
  0
LINE
  5
E5
330
18
100
AcDbEntity
  8
ADP1DETAIL
100
AcDbLine
 10
3.404231453544351
 20
4.492310484612559
 30
0.0
 11
3.375985944907627
 21
4.49379076899493
 31
0.0
  0
LINE
  5
E6
330
18
100
AcDbEntity
  8
ADP1DETAIL
100
AcDbLine
 10
3.434864770464518
 20
4.520876514779052
 30
0.0
 11
3.406584807048565
 21
4.521370143376644
 31
0.0
  0
LINE
  5
E7
330
18
100
AcDbEntity
  8
ADP1DETAIL
100
AcDbLine
 10
3.375084994206218
 20
4.493007584498769
 30
0.0
 11
3.37261985753757
 21
4.46483094344266
 31
0.0
  0
LINE
  5
E8
330
18
100
AcDbEntity
  8
ADP1DETAIL
100
AcDbLine
 10
3.343515481870134
 20
4.466544815436014
 30
0.0
 11
3.340068496304514
 21
4.438471370857367
 31
0.0
  0
LINE
  5
E9
330
18
100
AcDbEntity
  8
ADP1DETAIL
100
AcDbLine
 10
3.37261985753757
 20
4.46483094344266
 30
0.0
 11
3.344443216481462
 21
4.467296080111307
 31
0.0
  0
LINE
  5
EA
330
18
100
AcDbEntity
  8
ADP1DETAIL
100
AcDbLine
 10
3.46398885772251
 20
4.578774194050588
 30
0.0
 11
3.464482486320102
 21
4.550494230634637
 31
0.0
  0
LINE
  5
EB
330
18
100
AcDbEntity
  8
ADP1DETAIL
100
AcDbLine
 10
3.464482486320102
 20
4.550494230634637
 30
0.0
 11
3.436202522904151
 21
4.550000602037043
 31
0.0
  0
LINE
  5
EC
330
18
100
AcDbEntity
  8
ADP1DETAIL
100
AcDbLine
 10
3.491568232104224
 20
4.609373056191527
 30
0.0
 11
3.493048516486595
 21
4.581127547554803
 31
0.0
  0
LINE
  5
ED
330
18
100
AcDbEntity
  8
ADP1DETAIL
100
AcDbLine
 10
3.493048516486595
 20
4.581127547554803
 30
0.0
 11
3.464803007849869
 21
4.579647263172432
 31
0.0
  0
LINE
  5
EE
330
18
100
AcDbEntity
  8
ADP1DETAIL
100
AcDbLine
 10
3.520528057656497
 20
4.612739143561586
 30
0.0
 11
3.492351416600385
 21
4.610274006892938
 31
0.0
  0
LINE
  5
EF
330
18
100
AcDbEntity
  8
ADP1DETAIL
100
AcDbLine
 10
3.70284380617085
 20
4.960592172045991
 30
0.0
 11
3.713895351393867
 21
4.934556363086338
 31
0.0
  0
LINE
  5
F0
330
18
100
AcDbEntity
  8
ADP1DETAIL
100
AcDbLine
 10
3.67061912348252
 20
4.884782202900304
 30
0.0
 11
3.679827581472721
 21
4.85803889903854
 31
0.0
  0
LINE
  5
F1
330
18
100
AcDbEntity
  8
ADP1DETAIL
100
AcDbLine
 10
3.679827581472721
 20
4.85803889903854
 30
0.0
 11
3.653084277610957
 21
4.848830441048338
 31
0.0
  0
LINE
  5
F2
330
18
100
AcDbEntity
  8
ADP1DETAIL
100
AcDbLine
 10
3.640505210455048
 20
4.784084275185433
 30
0.0
 11
3.61318470237936
 21
4.776763767109743
 31
0.0
  0
LINE
  5
F3
330
18
100
AcDbEntity
  8
ADP1DETAIL
100
AcDbLine
 10
3.633184702379359
 20
4.811404783261121
 30
0.0
 11
3.640505210455048
 21
4.784084275185433
 31
0.0
  0
LINE
  5
F4
330
18
100
AcDbEntity
  8
ADP1DETAIL
100
AcDbLine
 10
3.652542316742973
 20
4.847766782955257
 30
0.0
 11
3.660811837344434
 21
4.820718399842363
 31
0.0
  0
LINE
  5
F5
330
18
100
AcDbEntity
  8
ADP1DETAIL
100
AcDbLine
 10
3.660811837344434
 20
4.820718399842363
 30
0.0
 11
3.633763454231539
 21
4.812448879240902
 31
0.0
  0
LINE
  5
F6
330
18
100
AcDbEntity
  8
ADP1DETAIL
100
AcDbLine
 10
3.633184702379359
 20
4.811404783261121
 30
0.0
 11
3.640505210455048
 21
4.784084275185433
 31
0.0
  0
LINE
  5
F7
330
18
100
AcDbEntity
  8
ADP1DETAIL
100
AcDbLine
 10
3.640505210455048
 20
4.784084275185433
 30
0.0
 11
3.613184702379362
 21
4.776763767109743
 31
0.0
  0
LINE
  5
F8
330
18
100
AcDbEntity
  8
ADP1DETAIL
100
AcDbLine
 10
3.572095119163659
 20
4.678741972434465
 30
0.0
 11
3.544159074230311
 21
4.674317337592816
 31
0.0
  0
LINE
  5
F9
330
18
100
AcDbEntity
  8
ADP1DETAIL
100
AcDbLine
 10
3.543440644676168
 20
4.673363949373291
 30
0.0
 11
3.546887630241789
 21
4.645290504794644
 31
0.0
  0
LINE
  5
FA
330
18
100
AcDbEntity
  8
ADP1DETAIL
100
AcDbLine
 10
3.546887630241789
 20
4.645290504794644
 30
0.0
 11
3.518814185663142
 21
4.641843519229022
 31
0.0
  0
LINE
  5
FB
330
18
100
AcDbEntity
  8
ADP1DETAIL
100
AcDbLine
 10
3.567670484322009
 20
4.706678017367813
 30
0.0
 11
3.572095119163659
 21
4.678741972434465
 31
0.0
  0
LINE
  5
FC
330
18
100
AcDbEntity
  8
ADP1DETAIL
100
AcDbLine
 10
3.590722919598086
 20
4.740817400541052
 30
0.0
 11
3.596119812979772
 21
4.713052791020537
 31
0.0
  0
LINE
  5
FD
330
18
100
AcDbEntity
  8
ADP1DETAIL
100
AcDbLine
 10
3.618932441301433
 20
4.748181158105587
 30
0.0
 11
3.591373094093642
 21
4.741818581467123
 31
0.0
  0
LINE
  5
FE
330
18
100
AcDbEntity
  8
ADP1DETAIL
100
AcDbLine
 10
3.596119812979772
 20
4.713052791020537
 30
0.0
 11
3.568355203459256
 21
4.707655897638851
 31
0.0
  0
LINE
  5
FF
330
18
100
AcDbEntity
  8
ADP1DETAIL
100
AcDbLine
 10
3.612569864662969
 20
4.775740505313379
 30
0.0
 11
3.618932441301433
 21
4.748181158105587
 31
0.0
  0
LINE
  5
100
330
18
100
AcDbEntity
  8
ADP1DETAIL
100
AcDbLine
 10
3.697529275084843
 20
4.896000303494473
 30
0.0
 11
3.671123633070475
 21
4.885864127203136
 31
0.0
  0
LINE
  5
101
330
18
100
AcDbEntity
  8
ADP1DETAIL
100
AcDbLine
 10
3.687393098793506
 20
4.922405945508838
 30
0.0
 11
3.697529275084843
 21
4.896000303494473
 31
0.0
  0
LINE
  5
102
330
18
100
AcDbEntity
  8
ADP1DETAIL
100
AcDbLine
 10
3.713895351393867
 20
4.934556363086338
 30
0.0
 11
3.687859542434214
 21
4.923504817863319
 31
0.0
  0
LINE
  5
103
330
18
100
AcDbEntity
  8
ADP1DETAIL
100
AcDbLine
 10
2.190850553922919
 20
6.511715420128524
 30
0.0
 11
2.21648480920515
 21
6.499761970579321
 31
0.0
  0
LINE
  5
104
330
18
100
AcDbEntity
  8
ADP1DETAIL
100
AcDbLine
 10
2.190850553922919
 20
6.511715420128524
 30
0.0
 11
2.21648480920515
 21
6.499761970579321
 31
0.0
  0
LINE
  5
105
330
18
100
AcDbEntity
  8
ADP1DETAIL
100
AcDbLine
 10
2.178897104373715
 20
6.486081164846293
 30
0.0
 11
2.190850553922919
 21
6.511715420128524
 31
0.0
  0
LINE
  5
106
330
18
100
AcDbEntity
  8
ADP1DETAIL
100
AcDbLine
 10
2.178897104373715
 20
6.486081164846293
 30
0.0
 11
2.190850553922919
 21
6.511715420128524
 31
0.0
  0
LINE
  5
107
330
18
100
AcDbEntity
  8
ADP1DETAIL
100
AcDbLine
 10
1.798317998283092
 20
6.275858065758306
 30
0.0
 11
1.826563506919816
 21
6.274377781375935
 31
0.0
  0
LINE
  5
108
330
18
100
AcDbEntity
  8
ADP1DETAIL
100
AcDbLine
 10
1.796837713900721
 20
6.247612557121582
 30
0.0
 11
1.798317998283092
 21
6.275858065758306
 31
0.0
  0
LINE
  5
109
330
18
100
AcDbEntity
  8
ADP1DETAIL
100
AcDbLine
 10
1.767191052765332
 20
6.219012072175861
 30
0.0
 11
1.767684681362926
 21
6.247292035591813
 31
0.0
  0
LINE
  5
10A
330
18
100
AcDbEntity
  8
ADP1DETAIL
100
AcDbLine
 10
1.767684681362926
 20
6.247292035591813
 30
0.0
 11
1.795964644778878
 21
6.246798406994221
 31
0.0
  0
LINE
  5
10B
330
18
100
AcDbEntity
  8
ADP1DETAIL
100
AcDbLine
 10
1.738560594104933
 20
6.189394356320278
 30
0.0
 11
1.738066965507341
 21
6.217674319736229
 31
0.0
  0
LINE
  5
10C
330
18
100
AcDbEntity
  8
ADP1DETAIL
100
AcDbLine
 10
1.738066965507341
 20
6.217674319736229
 30
0.0
 11
1.766346928923292
 21
6.218167948333823
 31
0.0
  0
LINE
  5
10D
330
18
100
AcDbEntity
  8
ADP1DETAIL
100
AcDbLine
 10
1.709500935340848
 20
6.187041002816062
 30
0.0
 11
1.737746443977574
 21
6.188521287198433
 31
0.0
  0
LINE
  5
10E
330
18
100
AcDbEntity
  8
ADP1DETAIL
100
AcDbLine
 10
2.140695268591612
 20
6.470669091705927
 30
0.0
 11
2.151746813814627
 21
6.49670490066558
 31
0.0
  0
LINE
  5
10F
330
18
100
AcDbEntity
  8
ADP1DETAIL
100
AcDbLine
 10
1.895932423162753
 20
6.354904668435372
 30
0.0
 11
1.923868468096101
 21
6.350480033593722
 31
0.0
  0
LINE
  5
110
330
18
100
AcDbEntity
  8
ADP1DETAIL
100
AcDbLine
 10
1.829929594289874
 20
6.303337606928206
 30
0.0
 11
1.858106235345983
 21
6.300872470259557
 31
0.0
  0
LINE
  5
111
330
18
100
AcDbEntity
  8
ADP1DETAIL
100
AcDbLine
 10
1.827464457621227
 20
6.275160965872096
 30
0.0
 11
1.829929594289874
 21
6.303337606928206
 31
0.0
  0
LINE
  5
112
330
18
100
AcDbEntity
  8
ADP1DETAIL
100
AcDbLine
 10
1.827464457621227
 20
6.2751609658721
 30
0.0
 11
1.829929594289874
 21
6.303337606928208
 31
0.0
  0
LINE
  5
113
330
18
100
AcDbEntity
  8
ADP1DETAIL
100
AcDbLine
 10
1.891507788321105
 20
6.326968623502024
 30
0.0
 11
1.895932423162753
 21
6.354904668435372
 31
0.0
  0
LINE
  5
114
330
18
100
AcDbEntity
  8
ADP1DETAIL
100
AcDbLine
 10
1.859033969957311
 20
6.301623734934853
 30
0.0
 11
1.862480955522931
 21
6.3296971795135
 31
0.0
  0
LINE
  5
115
330
18
100
AcDbEntity
  8
ADP1DETAIL
100
AcDbLine
 10
1.862480955522931
 20
6.3296971795135
 30
0.0
 11
1.890554400101578
 21
6.326250193947879
 31
0.0
  0
LINE
  5
116
330
18
100
AcDbEntity
  8
ADP1DETAIL
100
AcDbLine
 10
1.829929594289874
 20
6.303337606928208
 30
0.0
 11
1.858106235345983
 21
6.300872470259561
 31
0.0
  0
LINE
  5
117
330
18
100
AcDbEntity
  8
ADP1DETAIL
100
AcDbLine
 10
2.103054577931425
 20
6.453933182342188
 30
0.0
 11
2.113190754222761
 21
6.480338824356556
 31
0.0
  0
LINE
  5
118
330
18
100
AcDbEntity
  8
ADP1DETAIL
100
AcDbLine
 10
2.113190754222761
 20
6.480338824356556
 30
0.0
 11
2.139596396237129
 21
6.470202648065219
 31
0.0
  0
LINE
  5
119
330
18
100
AcDbEntity
  8
ADP1DETAIL
100
AcDbLine
 10
2.066020891776629
 20
6.43589382688267
 30
0.0
 11
2.07522934976683
 21
6.462637130744434
 31
0.0
  0
LINE
  5
11A
330
18
100
AcDbEntity
  8
ADP1DETAIL
100
AcDbLine
 10
2.07522934976683
 20
6.462637130744434
 30
0.0
 11
2.101972653628594
 21
6.453428672754233
 31
0.0
  0
LINE
  5
11B
330
18
100
AcDbEntity
  8
ADP1DETAIL
100
AcDbLine
 10
2.029639329969192
 20
6.416573003503252
 30
0.0
 11
2.037908850570653
 21
6.443621386616147
 31
0.0
  0
LINE
  5
11C
330
18
100
AcDbEntity
  8
ADP1DETAIL
100
AcDbLine
 10
2.037908850570653
 20
6.443621386616147
 30
0.0
 11
2.064957233683548
 21
6.435351866014686
 31
0.0
  0
LINE
  5
11D
330
18
100
AcDbEntity
  8
ADP1DETAIL
100
AcDbLine
 10
1.993954217838032
 20
6.395994251651073
 30
0.0
 11
2.001274725913722
 21
6.423314759726761
 31
0.0
  0
LINE
  5
11E
330
18
100
AcDbEntity
  8
ADP1DETAIL
100
AcDbLine
 10
2.001274725913722
 20
6.423314759726761
 30
0.0
 11
2.02859523398941
 21
6.415994251651072
 31
0.0
  0
LINE
  5
11F
330
18
100
AcDbEntity
  8
ADP1DETAIL
100
AcDbLine
 10
1.95900903219541
 20
6.374182643365355
 30
0.0
 11
1.965371608833875
 21
6.401741990573146
 31
0.0
  0
LINE
  5
120
330
18
100
AcDbEntity
  8
ADP1DETAIL
100
AcDbLine
 10
1.965371608833875
 20
6.401741990573146
 30
0.0
 11
1.992930956041666
 21
6.395379413934682
 31
0.0
  0
LINE
  5
121
330
18
100
AcDbEntity
  8
ADP1DETAIL
100
AcDbLine
 10
1.924846348367138
 20
6.351164752730969
 30
0.0
 11
1.930243241748826
 21
6.378929362251485
 31
0.0
  0
LINE
  5
122
330
18
100
AcDbEntity
  8
ADP1DETAIL
100
AcDbLine
 10
1.930243241748826
 20
6.378929362251485
 30
0.0
 11
1.958007851269341
 21
6.373532468869798
 31
0.0
  0
LINE
  5
123
330
18
100
AcDbEntity
  8
ADP1DETAIL
100
AcDbLine
 10
2.151746813814627
 20
6.49670490066558
 30
0.0
 11
2.177782622774282
 21
6.485653355442563
 31
0.0
  0
LINE
  5
124
330
18
100
AcDbEntity
  8
ADP1DETAIL
100
AcDbLine
 10
1.710981219723219
 20
6.158795494179338
 30
0.0
 11
1.709500935340848
 21
6.187041002816062
 31
0.0
  0
LINE
  5
125
330
18
100
AcDbEntity
  8
ADP1DETAIL
100
AcDbLine
 10
2.684982494406675
 20
6.581161135497222
 30
0.0
 11
2.703538645936987
 21
6.559814725017144
 31
0.0
  0
LINE
  5
126
330
18
100
AcDbEntity
  8
ADP1DETAIL
100
AcDbLine
 10
2.499010805890458
 20
6.559814725017144
 30
0.0
 11
2.517566957420772
 21
6.581161135497222
 31
0.0
  0
LINE
  5
127
330
18
100
AcDbEntity
  8
ADP1DETAIL
100
AcDbLine
 10
2.270509898933323
 20
6.537598310311416
 30
0.0
 11
2.295247879968428
 21
6.52388582350899
 31
0.0
  0
LINE
  5
128
330
18
100
AcDbEntity
  8
ADP1DETAIL
100
AcDbLine
 10
2.230454332663784
 20
6.525352094739618
 30
0.0
 11
2.255655802877186
 21
6.512511304301215
 31
0.0
  0
LINE
  5
129
330
18
100
AcDbEntity
  8
ADP1DETAIL
100
AcDbLine
 10
2.217613542225381
 20
6.500150624526217
 30
0.0
 11
2.230454332663784
 21
6.525352094739618
 31
0.0
  0
LINE
  5
12A
330
18
100
AcDbEntity
  8
ADP1DETAIL
100
AcDbLine
 10
2.256797412130897
 20
6.51286032927631
 30
0.0
 11
2.270509898933323
 21
6.537598310311416
 31
0.0
  0
LINE
  5
12B
330
18
100
AcDbEntity
  8
ADP1DETAIL
100
AcDbLine
 10
2.310968451194121
 20
6.54843914671663
 30
0.0
 11
2.335212803631634
 21
6.533871670103103
 31
0.0
  0
LINE
  5
12C
330
18
100
AcDbEntity
  8
ADP1DETAIL
100
AcDbLine
 10
2.296400974580594
 20
6.524194794279116
 30
0.0
 11
2.310968451194121
 21
6.54843914671663
 31
0.0
  0
LINE
  5
12D
330
18
100
AcDbEntity
  8
ADP1DETAIL
100
AcDbLine
 10
2.35178069693241
 20
6.557861396066
 30
0.0
 11
2.37550188276344
 21
6.542456677867679
 31
0.0
  0
LINE
  5
12E
330
18
100
AcDbEntity
  8
ADP1DETAIL
100
AcDbLine
 10
2.336375978734089
 20
6.534140210234969
 30
0.0
 11
2.35178069693241
 21
6.557861396066
 31
0.0
  0
LINE
  5
12F
330
18
100
AcDbEntity
  8
ADP1DETAIL
100
AcDbLine
 10
2.392896912713405
 20
6.565853578800084
 30
0.0
 11
2.416066031326987
 21
6.549630387293177
 31
0.0
  0
LINE
  5
130
330
18
100
AcDbEntity
  8
ADP1DETAIL
100
AcDbLine
 10
2.376673721206499
 20
6.542684460186501
 30
0.0
 11
2.392896912713405
 21
6.565853578800084
 31
0.0
  0
LINE
  5
131
330
18
100
AcDbEntity
  8
ADP1DETAIL
100
AcDbLine
 10
2.434267004761643
 20
6.572405957675318
 30
0.0
 11
2.456855828155676
 21
6.555384058319688
 31
0.0
  0
LINE
  5
132
330
18
100
AcDbEntity
  8
ADP1DETAIL
100
AcDbLine
 10
2.417245105406014
 20
6.549817134281285
 30
0.0
 11
2.434267004761643
 21
6.572405957675318
 31
0.0
  0
LINE
  5
133
330
18
100
AcDbEntity
  8
ADP1DETAIL
100
AcDbLine
 10
2.475840569992538
 20
6.57751054962736
 30
0.0
 11
2.497821577165256
 21
6.559710680985348
 31
0.0
  0
LINE
  5
134
330
18
100
AcDbEntity
  8
ADP1DETAIL
100
AcDbLine
 10
2.458040701350526
 20
6.555529542454642
 30
0.0
 11
2.475840569992538
 21
6.57751054962736
 31
0.0
  0
LINE
  5
135
330
18
100
AcDbEntity
  8
ADP1DETAIL
100
AcDbLine
 10
2.622468315482294
 20
6.564063441002017
 30
0.0
 11
2.643154121956724
 21
6.583353267608348
 31
0.0
  0
LINE
  5
136
330
18
100
AcDbEntity
  8
ADP1DETAIL
100
AcDbLine
 10
2.581274725913726
 20
6.564084275185434
 30
0.0
 11
2.601274725913723
 21
6.584084275185434
 31
0.0
  0
LINE
  5
137
330
18
100
AcDbEntity
  8
ADP1DETAIL
100
AcDbLine
 10
2.601274725913723
 20
6.584084275185434
 30
0.0
 11
2.621274725913723
 21
6.564084275185436
 31
0.0
  0
LINE
  5
138
330
18
100
AcDbEntity
  8
ADP1DETAIL
100
AcDbLine
 10
2.517566957420772
 20
6.581161135497222
 30
0.0
 11
2.53891336790085
 21
6.562604983966908
 31
0.0
  0
LINE
  5
139
330
18
100
AcDbEntity
  8
ADP1DETAIL
100
AcDbLine
 10
2.559395329870721
 20
6.583353267608348
 30
0.0
 11
2.580081136345153
 21
6.564063441002017
 31
0.0
  0
LINE
  5
13A
330
18
100
AcDbEntity
  8
ADP1DETAIL
100
AcDbLine
 10
2.54010550326439
 20
6.562667461133917
 30
0.0
 11
2.559395329870721
 21
6.583353267608348
 31
0.0
  0
LINE
  5
13B
330
18
100
AcDbEntity
  8
ADP1DETAIL
100
AcDbLine
 10
2.581274725913722
 20
6.564084275185434
 30
0.0
 11
2.601274725913722
 21
6.584084275185434
 31
0.0
  0
LINE
  5
13C
330
18
100
AcDbEntity
  8
ADP1DETAIL
100
AcDbLine
 10
2.601274725913722
 20
6.584084275185434
 30
0.0
 11
2.621274725913721
 21
6.564084275185434
 31
0.0
  0
LINE
  5
13D
330
18
100
AcDbEntity
  8
ADP1DETAIL
100
AcDbLine
 10
2.643154121956724
 20
6.583353267608348
 30
0.0
 11
2.662443948563057
 21
6.562667461133917
 31
0.0
  0
LINE
  5
13E
330
18
100
AcDbEntity
  8
ADP1DETAIL
100
AcDbLine
 10
2.663636083926595
 20
6.562604983966908
 30
0.0
 11
2.684982494406675
 21
6.581161135497222
 31
0.0
  0
LINE
  5
13F
330
18
100
AcDbEntity
  8
ADP1DETAIL
100
AcDbLine
 10
3.596119812979772
 20
6.055115759350327
 30
0.0
 11
3.590722919598086
 21
6.027351149829812
 31
0.0
  0
LINE
  5
140
330
18
100
AcDbEntity
  8
ADP1DETAIL
100
AcDbLine
 10
3.713895351393867
 20
5.833612187284527
 30
0.0
 11
3.70284380617085
 21
5.807576378324874
 31
0.0
  0
LINE
  5
141
330
18
100
AcDbEntity
  8
ADP1DETAIL
100
AcDbLine
 10
3.61318470237936
 20
5.991404783261119
 30
0.0
 11
3.640505210455049
 21
5.984084275185431
 31
0.0
  0
LINE
  5
142
330
18
100
AcDbEntity
  8
ADP1DETAIL
100
AcDbLine
 10
3.613184702379362
 20
5.991404783261119
 30
0.0
 11
3.640505210455049
 21
5.984084275185432
 31
0.0
  0
LINE
  5
143
330
18
100
AcDbEntity
  8
ADP1DETAIL
100
AcDbLine
 10
3.640505210455049
 20
5.984084275185431
 30
0.0
 11
3.633184702379359
 21
5.956763767109743
 31
0.0
  0
LINE
  5
144
330
18
100
AcDbEntity
  8
ADP1DETAIL
100
AcDbLine
 10
3.640505210455049
 20
5.984084275185432
 30
0.0
 11
3.633184702379361
 21
5.956763767109745
 31
0.0
  0
LINE
  5
145
330
18
100
AcDbEntity
  8
ADP1DETAIL
100
AcDbLine
 10
3.653084277610959
 20
5.919338109322525
 30
0.0
 11
3.679827581472723
 21
5.910129651332324
 31
0.0
  0
LINE
  5
146
330
18
100
AcDbEntity
  8
ADP1DETAIL
100
AcDbLine
 10
3.679827581472723
 20
5.910129651332324
 30
0.0
 11
3.670619123482522
 21
5.88338634747056
 31
0.0
  0
LINE
  5
147
330
18
100
AcDbEntity
  8
ADP1DETAIL
100
AcDbLine
 10
3.633763454231539
 20
5.955719671129962
 30
0.0
 11
3.660811837344436
 21
5.947450150528501
 31
0.0
  0
LINE
  5
148
330
18
100
AcDbEntity
  8
ADP1DETAIL
100
AcDbLine
 10
3.660811837344436
 20
5.947450150528501
 30
0.0
 11
3.652542316742975
 21
5.920401767415606
 31
0.0
  0
LINE
  5
149
330
18
100
AcDbEntity
  8
ADP1DETAIL
100
AcDbLine
 10
3.591373094093642
 20
6.02634996890374
 30
0.0
 11
3.618932441301435
 21
6.019987392265276
 31
0.0
  0
LINE
  5
14A
330
18
100
AcDbEntity
  8
ADP1DETAIL
100
AcDbLine
 10
3.618932441301435
 20
6.019987392265276
 30
0.0
 11
3.612569864662971
 21
5.992428045057483
 31
0.0
  0
LINE
  5
14B
330
18
100
AcDbEntity
  8
ADP1DETAIL
100
AcDbLine
 10
3.671123633070477
 20
5.882304423167727
 30
0.0
 11
3.697529275084844
 21
5.872168246876391
 31
0.0
  0
LINE
  5
14C
330
18
100
AcDbEntity
  8
ADP1DETAIL
100
AcDbLine
 10
3.687859542434214
 20
5.844663732507545
 30
0.0
 11
3.713895351393867
 21
5.833612187284527
 31
0.0
  0
LINE
  5
14D
330
18
100
AcDbEntity
  8
ADP1DETAIL
100
AcDbLine
 10
3.697529275084844
 20
5.872168246876391
 30
0.0
 11
3.687393098793508
 21
5.845762604862024
 31
0.0
  0
LINE
  5
14E
330
18
100
AcDbEntity
  8
ADP1DETAIL
100
AcDbLine
 10
3.209618495785779
 20
6.395379413934678
 30
0.0
 11
3.23717784299357
 21
6.401741990573142
 31
0.0
  0
LINE
  5
14F
330
18
100
AcDbEntity
  8
ADP1DETAIL
100
AcDbLine
 10
3.201274725913725
 20
6.423314759726759
 30
0.0
 11
3.208595233989413
 21
6.395994251651069
 31
0.0
  0
LINE
  5
150
330
18
100
AcDbEntity
  8
ADP1DETAIL
100
AcDbLine
 10
2.850768754895035
 20
6.557861396066
 30
0.0
 11
2.866173473093356
 21
6.534140210234967
 31
0.0
  0
LINE
  5
151
330
18
100
AcDbEntity
  8
ADP1DETAIL
100
AcDbLine
 10
2.827047569064005
 20
6.542456677867679
 30
0.0
 11
2.850768754895035
 21
6.557861396066
 31
0.0
  0
LINE
  5
152
330
18
100
AcDbEntity
  8
ADP1DETAIL
100
AcDbLine
 10
2.786483420500458
 20
6.549630387293177
 30
0.0
 11
2.80965253911404
 21
6.565853578800082
 31
0.0
  0
LINE
  5
153
330
18
100
AcDbEntity
  8
ADP1DETAIL
100
AcDbLine
 10
2.80965253911404
 20
6.565853578800082
 30
0.0
 11
2.825875730620944
 21
6.542684460186499
 31
0.0
  0
LINE
  5
154
330
18
100
AcDbEntity
  8
ADP1DETAIL
100
AcDbLine
 10
2.745693623671769
 20
6.555384058319688
 30
0.0
 11
2.768282447065802
 21
6.572405957675318
 31
0.0
  0
LINE
  5
155
330
18
100
AcDbEntity
  8
ADP1DETAIL
100
AcDbLine
 10
2.768282447065802
 20
6.572405957675318
 30
0.0
 11
2.785304346421431
 21
6.549817134281285
 31
0.0
  0
LINE
  5
156
330
18
100
AcDbEntity
  8
ADP1DETAIL
100
AcDbLine
 10
2.704727874662189
 20
6.55971068098535
 30
0.0
 11
2.726708881834909
 21
6.57751054962736
 31
0.0
  0
LINE
  5
157
330
18
100
AcDbEntity
  8
ADP1DETAIL
100
AcDbLine
 10
2.726708881834909
 20
6.57751054962736
 30
0.0
 11
2.744508750476921
 21
6.555529542454642
 31
0.0
  0
LINE
  5
158
330
18
100
AcDbEntity
  8
ADP1DETAIL
100
AcDbLine
 10
2.972095119163661
 20
6.525352094739616
 30
0.0
 11
2.984935909602066
 21
6.500150624526215
 31
0.0
  0
LINE
  5
159
330
18
100
AcDbEntity
  8
ADP1DETAIL
100
AcDbLine
 10
2.946893648950261
 20
6.512511304301213
 30
0.0
 11
2.972095119163661
 21
6.525352094739616
 31
0.0
  0
LINE
  5
15A
330
18
100
AcDbEntity
  8
ADP1DETAIL
100
AcDbLine
 10
2.907301571859017
 20
6.523885823508988
 30
0.0
 11
2.932039552894122
 21
6.537598310311414
 31
0.0
  0
LINE
  5
15B
330
18
100
AcDbEntity
  8
ADP1DETAIL
100
AcDbLine
 10
2.932039552894122
 20
6.537598310311414
 30
0.0
 11
2.945752039696548
 21
6.512860329276309
 31
0.0
  0
LINE
  5
15C
330
18
100
AcDbEntity
  8
ADP1DETAIL
100
AcDbLine
 10
2.867336648195813
 20
6.533871670103101
 30
0.0
 11
2.891581000633324
 21
6.548439146716628
 31
0.0
  0
LINE
  5
15D
330
18
100
AcDbEntity
  8
ADP1DETAIL
100
AcDbLine
 10
2.891581000633324
 20
6.548439146716628
 30
0.0
 11
2.906148477246851
 21
6.524194794279114
 31
0.0
  0
LINE
  5
15E
330
18
100
AcDbEntity
  8
ADP1DETAIL
100
AcDbLine
 10
3.011698897904526
 20
6.511715420128522
 30
0.0
 11
3.023652347453731
 21
6.486081164846291
 31
0.0
  0
LINE
  5
15F
330
18
100
AcDbEntity
  8
ADP1DETAIL
100
AcDbLine
 10
2.986064642622295
 20
6.499761970579317
 30
0.0
 11
3.011698897904526
 21
6.511715420128522
 31
0.0
  0
LINE
  5
160
330
18
100
AcDbEntity
  8
ADP1DETAIL
100
AcDbLine
 10
2.986064642622297
 20
6.499761970579317
 30
0.0
 11
3.011698897904528
 21
6.511715420128522
 31
0.0
  0
LINE
  5
161
330
18
100
AcDbEntity
  8
ADP1DETAIL
100
AcDbLine
 10
3.137592218143897
 20
6.435351866014684
 30
0.0
 11
3.164640601256794
 21
6.443621386616145
 31
0.0
  0
LINE
  5
162
330
18
100
AcDbEntity
  8
ADP1DETAIL
100
AcDbLine
 10
3.164640601256794
 20
6.443621386616145
 30
0.0
 11
3.172910121858254
 21
6.416573003503248
 31
0.0
  0
LINE
  5
163
330
18
100
AcDbEntity
  8
ADP1DETAIL
100
AcDbLine
 10
3.100576798198853
 20
6.453428672754231
 30
0.0
 11
3.127320102060618
 21
6.462637130744433
 31
0.0
  0
LINE
  5
164
330
18
100
AcDbEntity
  8
ADP1DETAIL
100
AcDbLine
 10
3.127320102060618
 20
6.462637130744433
 30
0.0
 11
3.13652856005082
 21
6.435893826882669
 31
0.0
  0
LINE
  5
165
330
18
100
AcDbEntity
  8
ADP1DETAIL
100
AcDbLine
 10
3.062953055590318
 20
6.470202648065217
 30
0.0
 11
3.089358697604685
 21
6.480338824356554
 31
0.0
  0
LINE
  5
166
330
18
100
AcDbEntity
  8
ADP1DETAIL
100
AcDbLine
 10
3.024766829053165
 20
6.485653355442559
 30
0.0
 11
3.050802638012818
 21
6.496704900665578
 31
0.0
  0
LINE
  5
167
330
18
100
AcDbEntity
  8
ADP1DETAIL
100
AcDbLine
 10
3.050802638012818
 20
6.496704900665578
 30
0.0
 11
3.061854183235837
 21
6.470669091705925
 31
0.0
  0
LINE
  5
168
330
18
100
AcDbEntity
  8
ADP1DETAIL
100
AcDbLine
 10
3.011698897904528
 20
6.511715420128522
 30
0.0
 11
3.023652347453733
 21
6.486081164846293
 31
0.0
  0
LINE
  5
169
330
18
100
AcDbEntity
  8
ADP1DETAIL
100
AcDbLine
 10
3.089358697604685
 20
6.480338824356554
 30
0.0
 11
3.09949487389602
 21
6.453933182342186
 31
0.0
  0
LINE
  5
16A
330
18
100
AcDbEntity
  8
ADP1DETAIL
100
AcDbLine
 10
3.173954217838035
 20
6.415994251651071
 30
0.0
 11
3.201274725913725
 21
6.423314759726759
 31
0.0
  0
LINE
  5
16B
330
18
100
AcDbEntity
  8
ADP1DETAIL
100
AcDbLine
 10
3.311995051725869
 20
6.326250193947876
 30
0.0
 11
3.340068496304514
 21
6.329697179513498
 31
0.0
  0
LINE
  5
16C
330
18
100
AcDbEntity
  8
ADP1DETAIL
100
AcDbLine
 10
3.278680983731344
 20
6.350480033593719
 30
0.0
 11
3.306617028664692
 21
6.354904668435368
 31
0.0
  0
LINE
  5
16D
330
18
100
AcDbEntity
  8
ADP1DETAIL
100
AcDbLine
 10
3.306617028664692
 20
6.354904668435368
 30
0.0
 11
3.31104166350634
 21
6.32696862350202
 31
0.0
  0
LINE
  5
16E
330
18
100
AcDbEntity
  8
ADP1DETAIL
100
AcDbLine
 10
3.244541600558106
 20
6.373532468869795
 30
0.0
 11
3.272306210078621
 21
6.378929362251481
 31
0.0
  0
LINE
  5
16F
330
18
100
AcDbEntity
  8
ADP1DETAIL
100
AcDbLine
 10
3.272306210078621
 20
6.378929362251481
 30
0.0
 11
3.277703103460305
 21
6.351164752730966
 31
0.0
  0
LINE
  5
170
330
18
100
AcDbEntity
  8
ADP1DETAIL
100
AcDbLine
 10
3.23717784299357
 20
6.401741990573142
 30
0.0
 11
3.243540419632035
 21
6.374182643365351
 31
0.0
  0
LINE
  5
171
330
18
100
AcDbEntity
  8
ADP1DETAIL
100
AcDbLine
 10
3.372619857537571
 20
6.303337606928206
 30
0.0
 11
3.37508499420622
 21
6.275160965872096
 31
0.0
  0
LINE
  5
172
330
18
100
AcDbEntity
  8
ADP1DETAIL
100
AcDbLine
 10
3.344443216481462
 20
6.300872470259557
 30
0.0
 11
3.372619857537571
 21
6.303337606928206
 31
0.0
  0
LINE
  5
173
330
18
100
AcDbEntity
  8
ADP1DETAIL
100
AcDbLine
 10
3.340068496304514
 20
6.329697179513498
 30
0.0
 11
3.343515481870136
 21
6.30162373493485
 31
0.0
  0
LINE
  5
174
330
18
100
AcDbEntity
  8
ADP1DETAIL
100
AcDbLine
 10
3.344443216481462
 20
6.300872470259555
 30
0.0
 11
3.37261985753757
 21
6.303337606928206
 31
0.0
  0
LINE
  5
175
330
18
100
AcDbEntity
  8
ADP1DETAIL
100
AcDbLine
 10
3.464803007849871
 20
6.188521287198433
 30
0.0
 11
3.493048516486595
 21
6.187041002816062
 31
0.0
  0
LINE
  5
176
330
18
100
AcDbEntity
  8
ADP1DETAIL
100
AcDbLine
 10
3.436202522904151
 20
6.218167948333821
 30
0.0
 11
3.464482486320104
 21
6.217674319736227
 31
0.0
  0
LINE
  5
177
330
18
100
AcDbEntity
  8
ADP1DETAIL
100
AcDbLine
 10
3.464482486320104
 20
6.217674319736227
 30
0.0
 11
3.463988857722512
 21
6.189394356320274
 31
0.0
  0
LINE
  5
178
330
18
100
AcDbEntity
  8
ADP1DETAIL
100
AcDbLine
 10
3.406584807048567
 20
6.246798406994219
 30
0.0
 11
3.434864770464519
 21
6.247292035591812
 31
0.0
  0
LINE
  5
179
330
18
100
AcDbEntity
  8
ADP1DETAIL
100
AcDbLine
 10
3.375985944907629
 20
6.274377781375934
 30
0.0
 11
3.404231453544353
 21
6.275858065758304
 31
0.0
  0
LINE
  5
17A
330
18
100
AcDbEntity
  8
ADP1DETAIL
100
AcDbLine
 10
3.404231453544353
 20
6.275858065758304
 30
0.0
 11
3.405711737926724
 21
6.247612557121581
 31
0.0
  0
LINE
  5
17B
330
18
100
AcDbEntity
  8
ADP1DETAIL
100
AcDbLine
 10
3.37261985753757
 20
6.303337606928206
 30
0.0
 11
3.37508499420622
 21
6.275160965872096
 31
0.0
  0
LINE
  5
17C
330
18
100
AcDbEntity
  8
ADP1DETAIL
100
AcDbLine
 10
3.434864770464519
 20
6.247292035591812
 30
0.0
 11
3.435358399062112
 21
6.219012072175861
 31
0.0
  0
LINE
  5
17D
330
18
100
AcDbEntity
  8
ADP1DETAIL
100
AcDbLine
 10
3.544159074230311
 20
6.093851212778048
 30
0.0
 11
3.572095119163659
 21
6.089426577936398
 31
0.0
  0
LINE
  5
17E
330
18
100
AcDbEntity
  8
ADP1DETAIL
100
AcDbLine
 10
3.518814185663142
 20
6.126325031141842
 30
0.0
 11
3.546887630241789
 21
6.122878045576221
 31
0.0
  0
LINE
  5
17F
330
18
100
AcDbEntity
  8
ADP1DETAIL
100
AcDbLine
 10
3.546887630241789
 20
6.122878045576221
 30
0.0
 11
3.543440644676168
 21
6.094804600997573
 31
0.0
  0
LINE
  5
180
330
18
100
AcDbEntity
  8
ADP1DETAIL
100
AcDbLine
 10
3.492351416600387
 20
6.157894543477928
 30
0.0
 11
3.520528057656497
 21
6.155429406809279
 31
0.0
  0
LINE
  5
181
330
18
100
AcDbEntity
  8
ADP1DETAIL
100
AcDbLine
 10
3.520528057656497
 20
6.155429406809279
 30
0.0
 11
3.518062920987848
 21
6.127252765753167
 31
0.0
  0
LINE
  5
182
330
18
100
AcDbEntity
  8
ADP1DETAIL
100
AcDbLine
 10
3.568355203459256
 20
6.060512652732013
 30
0.0
 11
3.596119812979772
 21
6.055115759350327
 31
0.0
  0
LINE
  5
183
330
18
100
AcDbEntity
  8
ADP1DETAIL
100
AcDbLine
 10
3.572095119163659
 20
6.089426577936398
 30
0.0
 11
3.567670484322009
 21
6.06149053300305
 31
0.0
  0
LINE
  5
184
330
18
100
AcDbEntity
  8
ADP1DETAIL
100
AcDbLine
 10
3.493048516486595
 20
6.187041002816062
 30
0.0
 11
3.491568232104224
 21
6.158795494179337
 31
0.0
  0
LINE
  5
185
330
18
100
AcDbEntity
  8
ADP1DETAIL
100
AcDbLine
 10
5.449402054339706
 20
6.527054381369637
 30
0.0
 11
5.449402054339706
 21
4.419983869909726
 31
0.0
  0
LINE
  5
186
330
18
100
AcDbEntity
  8
ADP1DETAIL
100
AcDbLine
 10
5.511902054339706
 20
6.589554381369637
 30
0.0
 11
5.511902054339706
 21
4.357483869909726
 31
0.0
  0
LINE
  5
187
330
18
100
AcDbEntity
  8
ADP1DETAIL
100
AcDbLine
 10
3.781253891730306
 20
5.362890685616862
 30
0.0
 11
3.800543718336637
 21
5.342204879142432
 31
0.0
  0
LINE
  5
188
330
18
100
AcDbEntity
  8
ADP1DETAIL
100
AcDbLine
 10
3.776901131713637
 20
5.280631126436967
 30
0.0
 11
3.794701000355649
 21
5.258650119264247
 31
0.0
  0
LINE
  5
189
330
18
100
AcDbEntity
  8
ADP1DETAIL
100
AcDbLine
 10
3.794701000355649
 20
5.258650119264247
 30
0.0
 11
3.772719993182931
 21
5.240850250622237
 31
0.0
  0
LINE
  5
18A
330
18
100
AcDbEntity
  8
ADP1DETAIL
100
AcDbLine
 10
3.783044029528371
 20
5.175706461985116
 30
0.0
 11
3.75987491091479
 21
5.159483270478212
 31
0.0
  0
LINE
  5
18B
330
18
100
AcDbEntity
  8
ADP1DETAIL
100
AcDbLine
 10
3.766820838021466
 20
5.198875580598699
 30
0.0
 11
3.783044029528371
 21
5.175706461985116
 31
0.0
  0
LINE
  5
18C
330
18
100
AcDbEntity
  8
ADP1DETAIL
100
AcDbLine
 10
3.772574509047977
 20
5.239665377427385
 30
0.0
 11
3.789596408403607
 21
5.217076554033354
 31
0.0
  0
LINE
  5
18D
330
18
100
AcDbEntity
  8
ADP1DETAIL
100
AcDbLine
 10
3.789596408403607
 20
5.217076554033354
 30
0.0
 11
3.767007585009574
 21
5.200054654677723
 31
0.0
  0
LINE
  5
18E
330
18
100
AcDbEntity
  8
ADP1DETAIL
100
AcDbLine
 10
3.766820838021466
 20
5.198875580598697
 30
0.0
 11
3.783044029528372
 21
5.175706461985116
 31
0.0
  0
LINE
  5
18F
330
18
100
AcDbEntity
  8
ADP1DETAIL
100
AcDbLine
 10
3.729701755029504
 20
5.038465352148897
 30
0.0
 11
3.742542545467907
 21
5.013263881935495
 31
0.0
  0
LINE
  5
190
330
18
100
AcDbEntity
  8
ADP1DETAIL
100
AcDbLine
 10
3.741076274237279
 20
5.078057429240139
 30
0.0
 11
3.754788761039705
 21
5.053319448205034
 31
0.0
  0
LINE
  5
191
330
18
100
AcDbEntity
  8
ADP1DETAIL
100
AcDbLine
 10
3.754788761039705
 20
5.053319448205034
 30
0.0
 11
3.730050780004599
 21
5.039606961402606
 31
0.0
  0
LINE
  5
192
330
18
100
AcDbEntity
  8
ADP1DETAIL
100
AcDbLine
 10
3.751062120831392
 20
5.118022352903343
 30
0.0
 11
3.765629597444918
 21
5.093778000465832
 31
0.0
  0
LINE
  5
193
330
18
100
AcDbEntity
  8
ADP1DETAIL
100
AcDbLine
 10
3.759647128595968
 20
5.158311432035151
 30
0.0
 11
3.775051846794289
 21
5.134590246204121
 31
0.0
  0
LINE
  5
194
330
18
100
AcDbEntity
  8
ADP1DETAIL
100
AcDbLine
 10
3.775051846794289
 20
5.134590246204121
 30
0.0
 11
3.75133066096326
 21
5.1191855280058
 31
0.0
  0
LINE
  5
195
330
18
100
AcDbEntity
  8
ADP1DETAIL
100
AcDbLine
 10
3.783044029528372
 20
5.175706461985116
 30
0.0
 11
3.75987491091479
 21
5.15948327047821
 31
0.0
  0
LINE
  5
196
330
18
100
AcDbEntity
  8
ADP1DETAIL
100
AcDbLine
 10
3.765629597444918
 20
5.093778000465832
 30
0.0
 11
3.741385245007405
 21
5.079210523852305
 31
0.0
  0
LINE
  5
197
330
18
100
AcDbEntity
  8
ADP1DETAIL
100
AcDbLine
 10
3.779795434695197
 20
5.321722917172561
 30
0.0
 11
3.798351586225511
 21
5.300376506692483
 31
0.0
  0
LINE
  5
198
330
18
100
AcDbEntity
  8
ADP1DETAIL
100
AcDbLine
 10
3.798351586225511
 20
5.300376506692483
 30
0.0
 11
3.777005175745431
 21
5.281820355162169
 31
0.0
  0
LINE
  5
199
330
18
100
AcDbEntity
  8
ADP1DETAIL
100
AcDbLine
 10
3.800543718336637
 20
5.342204879142432
 30
0.0
 11
3.779857911862205
 21
5.322915052536099
 31
0.0
  0
LINE
  5
19A
330
18
100
AcDbEntity
  8
ADP1DETAIL
100
AcDbLine
 10
5.449402054339706
 20
4.419983869909726
 30
0.0
 11
5.511902054339706
 21
4.357483869909726
 31
0.0
  0
LINE
  5
19B
330
18
100
AcDbEntity
  8
ADP1DETAIL
100
AcDbLine
 10
3.783044029528372
 20
5.592462088385747
 30
0.0
 11
3.766820838021466
 21
5.569292969772165
 31
0.0
  0
LINE
  5
19C
330
18
100
AcDbEntity
  8
ADP1DETAIL
100
AcDbLine
 10
3.75987491091479
 20
5.608685279892654
 30
0.0
 11
3.783044029528372
 21
5.592462088385747
 31
0.0
  0
LINE
  5
19D
330
18
100
AcDbEntity
  8
ADP1DETAIL
100
AcDbLine
 10
3.751330660963258
 20
5.648983022365062
 30
0.0
 11
3.775051846794289
 21
5.633578304166743
 31
0.0
  0
LINE
  5
19E
330
18
100
AcDbEntity
  8
ADP1DETAIL
100
AcDbLine
 10
3.775051846794289
 20
5.633578304166743
 30
0.0
 11
3.759647128595968
 21
5.60985711833571
 31
0.0
  0
LINE
  5
19F
330
18
100
AcDbEntity
  8
ADP1DETAIL
100
AcDbLine
 10
3.741385245007405
 20
5.688958026518559
 30
0.0
 11
3.765629597444918
 21
5.674390549905032
 31
0.0
  0
LINE
  5
1A0
330
18
100
AcDbEntity
  8
ADP1DETAIL
100
AcDbLine
 10
3.765629597444918
 20
5.674390549905032
 30
0.0
 11
3.751062120831392
 21
5.65014619746752
 31
0.0
  0
LINE
  5
1A1
330
18
100
AcDbEntity
  8
ADP1DETAIL
100
AcDbLine
 10
3.730050780004599
 20
5.728561588968256
 30
0.0
 11
3.754788761039705
 21
5.71484910216583
 31
0.0
  0
LINE
  5
1A2
330
18
100
AcDbEntity
  8
ADP1DETAIL
100
AcDbLine
 10
3.754788761039705
 20
5.71484910216583
 30
0.0
 11
3.741076274237279
 21
5.690111121130724
 31
0.0
  0
LINE
  5
1A3
330
18
100
AcDbEntity
  8
ADP1DETAIL
100
AcDbLine
 10
3.742542545467907
 20
5.754904668435369
 30
0.0
 11
3.729701755029502
 21
5.729703198221967
 31
0.0
  0
LINE
  5
1A4
330
18
100
AcDbEntity
  8
ADP1DETAIL
100
AcDbLine
 10
3.75987491091479
 20
5.608685279892654
 30
0.0
 11
3.783044029528372
 21
5.592462088385749
 31
0.0
  0
LINE
  5
1A5
330
18
100
AcDbEntity
  8
ADP1DETAIL
100
AcDbLine
 10
3.772719993182931
 20
5.527318299748628
 30
0.0
 11
3.794701000355649
 21
5.509518431106616
 31
0.0
  0
LINE
  5
1A6
330
18
100
AcDbEntity
  8
ADP1DETAIL
100
AcDbLine
 10
3.767007585009574
 20
5.568113895693141
 30
0.0
 11
3.789596408403607
 21
5.551091996337513
 31
0.0
  0
LINE
  5
1A7
330
18
100
AcDbEntity
  8
ADP1DETAIL
100
AcDbLine
 10
3.789596408403607
 20
5.551091996337513
 30
0.0
 11
3.772574509047977
 21
5.52850317294348
 31
0.0
  0
LINE
  5
1A8
330
18
100
AcDbEntity
  8
ADP1DETAIL
100
AcDbLine
 10
3.783044029528372
 20
5.592462088385749
 30
0.0
 11
3.766820838021468
 21
5.569292969772167
 31
0.0
  0
LINE
  5
1A9
330
18
100
AcDbEntity
  8
ADP1DETAIL
100
AcDbLine
 10
3.794701000355649
 20
5.509518431106616
 30
0.0
 11
3.776901131713637
 21
5.487537423933899
 31
0.0
  0
LINE
  5
1AA
330
18
100
AcDbEntity
  8
ADP1DETAIL
100
AcDbLine
 10
3.781274725913723
 20
5.404084275185434
 30
0.0
 11
3.801274725913723
 21
5.384084275185433
 31
0.0
  0
LINE
  5
1AB
330
18
100
AcDbEntity
  8
ADP1DETAIL
100
AcDbLine
 10
3.801274725913723
 20
5.384084275185433
 30
0.0
 11
3.781274725913723
 21
5.364084275185433
 31
0.0
  0
LINE
  5
1AC
330
18
100
AcDbEntity
  8
ADP1DETAIL
100
AcDbLine
 10
3.779857911862206
 20
5.445253497834766
 30
0.0
 11
3.800543718336637
 21
5.425963671228435
 31
0.0
  0
LINE
  5
1AD
330
18
100
AcDbEntity
  8
ADP1DETAIL
100
AcDbLine
 10
3.800543718336637
 20
5.425963671228435
 30
0.0
 11
3.781253891730306
 21
5.405277864754003
 31
0.0
  0
LINE
  5
1AE
330
18
100
AcDbEntity
  8
ADP1DETAIL
100
AcDbLine
 10
3.798351586225511
 20
5.467792043678382
 30
0.0
 11
3.779795434695197
 21
5.446445633198305
 31
0.0
  0
LINE
  5
1AF
330
18
100
AcDbEntity
  8
ADP1DETAIL
100
AcDbLine
 10
3.777005175745433
 20
5.486348195208696
 30
0.0
 11
3.798351586225511
 21
5.467792043678382
 31
0.0
  0
LINE
  5
1B0
330
18
100
AcDbEntity
  8
ADP1DETAIL
100
AcDbLine
 10
5.449402054339706
 20
6.527054381369637
 30
0.0
 11
5.511902054339706
 21
6.589554381369637
 31
0.0
  0
LINE
  5
1B1
330
18
100
AcDbEntity
  8
ADP1DETAIL
100
AcDbLine
 10
10.4494020543397
 20
4.419983869909726
 30
0.0
 11
10.4494020543397
 21
6.527054381369637
 31
0.0
  0
LINE
  5
1B2
330
18
100
AcDbEntity
  8
ADP1DETAIL
100
AcDbLine
 10
10.3869020543397
 20
4.357483869909726
 30
0.0
 11
10.3869020543397
 21
6.589554381369637
 31
0.0
  0
LINE
  5
1B3
330
18
100
AcDbEntity
  8
ADP1DETAIL
100
AcDbLine
 10
10.3869020543397
 20
4.357483869909726
 30
0.0
 11
10.4494020543397
 21
4.419983869909726
 31
0.0
  0
LINE
  5
1B4
330
18
100
AcDbEntity
  8
ADP1DETAIL
100
AcDbLine
 10
10.3869020543397
 20
6.589554381369637
 30
0.0
 11
10.4494020543397
 21
6.527054381369637
 31
0.0
  0
TEXT
  5
1C2
330
18
100
AcDbEntity
  8
ADPDIM
100
AcDbText
 10
-0.6211415182433609
 20
3.492077748996836
 30
0.0
 40
0.125
  1
J U L I U S  B L U M  &  C O . ,  I N C .      ( 8 0 0 )  5 2 6 - 6 2 9 3        W W W . J U L I U S B L U M . C O M        P A R T  N o .  1 4 6 3
 41
1.25
  7
ARIAL_WIDE
 72
     1
 11
5.904587506313255
 21
3.617077748996836
 31
0.0
100
AcDbText
 73
     3
  0
DIMENSION
  5
377
330
18
100
AcDbEntity
  8
ADPDIM
 62
     3
100
AcDbDimension
  2
*D3
 10
1.419271646921664
 20
6.999844680557384
 30
0.0
 11
2.606771646921664
 21
6.999844680557384
 31
0.0
 70
    32
 71
     5
 42
2.375
  3
STANDARD
100
AcDbAlignedDimension
 13
3.794271646921664
 23
5.333045787404582
 33
0.0
 14
1.419271646921664
 24
5.333045787404582
 34
0.0
100
AcDbRotatedDimension
1001
ACAD
1000
DSTYLE
1002
{
1070
    41
1040
0.125
1070
    73
1070
     0
1070
    74
1070
     0
1070
    78
1070
     3
1070
   140
1040
0.125
1070
   141
1040
0.1875
1070
   142
1040
0.125
1070
   147
1040
0.125
1070
   171
1070
     1
1002
}
  0
ENDSEC
  0
SECTION
  2
OBJECTS
  0
DICTIONARY
  5
C
330
0
100
AcDbDictionary
281
     1
  3
ACAD_COLOR
350
371
  3
ACAD_GROUP
350
D
  3
ACAD_LAYOUT
350
1BB
  3
ACAD_MATERIAL
350
35C
  3
ACAD_MLINESTYLE
350
E
  3
ACAD_PLOTSETTINGS
350
1BC
  3
ACAD_PLOTSTYLENAME
350
1B9
  3
ACAD_TABLESTYLE
350
372
  3
ACAD_VISUALSTYLE
350
360
  3
AcDbVariableDictionary
350
21C
  3
ASE_INDEX_DICTIONARY
350
386
  3
DWGPROPS
350
3A8
  0
DICTIONARY
  5
216
330
18
100
AcDbDictionary
280
     1
281
     1
  3
ACAD_LAYOUTSELFREF
360
356
  0
DICTIONARY
  5
214
330
15
100
AcDbDictionary
280
     1
281
     1
  3
ACAD_LAYOUTSELFREF
360
355
  0
DICTIONARY
  5
371
102
{ACAD_REACTORS
330
C
102
}
330
C
100
AcDbDictionary
281
     1
  0
DICTIONARY
  5
D
102
{ACAD_REACTORS
330
C
102
}
330
C
100
AcDbDictionary
281
     1
  0
DICTIONARY
  5
1BB
102
{ACAD_REACTORS
330
C
102
}
330
C
100
AcDbDictionary
281
     1
  3
Layout1
350
1BE
  3
Model
350
1BD
  0
DICTIONARY
  5
35C
102
{ACAD_REACTORS
330
C
102
}
330
C
100
AcDbDictionary
281
     1
  3
ByBlock
350
35E
  3
ByLayer
350
35D
  3
Global
350
35F
  0
DICTIONARY
  5
E
102
{ACAD_REACTORS
330
C
102
}
330
C
100
AcDbDictionary
281
     1
  3
STANDARD
350
1B
  0
DICTIONARY
  5
1BC
102
{ACAD_REACTORS
330
C
102
}
330
C
100
AcDbDictionary
281
     1
  0
ACDBDICTIONARYWDFLT
  5
1B9
102
{ACAD_REACTORS
330
C
102
}
330
C
100
AcDbDictionary
281
     1
  3
Normal
350
1BA
100
AcDbDictionaryWithDefault
340
1BA
  0
DICTIONARY
  5
372
102
{ACAD_REACTORS
330
C
102
}
330
C
100
AcDbDictionary
281
     1
  3
Standard
350
373
  0
DICTIONARY
  5
360
102
{ACAD_REACTORS
330
C
102
}
330
C
100
AcDbDictionary
281
     1
  3
2dWireframe
350
366
  3
3D Hidden
350
368
  3
3dWireframe
350
367
  3
Basic
350
365
  3
Brighten
350
36C
  3
ColorChange
350
370
  3
Conceptual
350
369
  3
Dim
350
36B
  3
Facepattern
350
36F
  3
Flat
350
361
  3
FlatWithEdges
350
362
  3
Gouraud
350
363
  3
GouraudWithEdges
350
364
  3
Linepattern
350
36E
  3
Realistic
350
36A
  3
Thicken
350
36D
  0
DICTIONARY
  5
21C
102
{ACAD_REACTORS
330
C
102
}
330
C
100
AcDbDictionary
281
     1
  3
CTABLESTYLE
350
3A5
  3
DIMASSOC
350
21D
  3
INDEXCTL
350
3A7
  3
SORTENTS
350
3A6
  0
DICTIONARY
  5
386
102
{ACAD_REACTORS
330
C
102
}
330
C
100
AcDbDictionary
281
     1
  3
ASEBlockHierarchyIndexRecord
350
388
1001
DCO15
1040
1568921548.881
  0
XRECORD
  5
3A8
102
{ACAD_REACTORS
330
C
102
}
330
C
100
AcDbXrecord
280
     1
  1
DWGPROPS COOKIE
  2

  3

  4

  6

  7

  8
Yu Hu
  9

300
=
301
=
302
=
303
=
304
=
305
=
306
=
307
=
308
=
309
=
 40
0.0140963310185185
 41
2450242.502070209
 42
2453962.026075012
  1

 90
        0
  0
XRECORD
  5
356
102
{ACAD_REACTORS
330
216
102
}
330
216
100
AcDbXrecord
280
     1
340
18
  0
XRECORD
  5
355
102
{ACAD_REACTORS
330
214
102
}
330
214
100
AcDbXrecord
280
     1
340
15
  0
LAYOUT
  5
1BE
102
{ACAD_XDICTIONARY
360
3AB
102
}
102
{ACAD_REACTORS
330
1BB
102
}
330
1BB
100
AcDbPlotSettings
  1

  2
Fax
  4

  6

 40
0.0
 41
0.0
 42
0.0
 43
0.0
 44
0.0
 45
0.0
 46
0.0
 47
0.0
 48
0.0
 49
0.0
140
0.0
141
0.0
142
1.0
143
1.0
 70
   688
 72
     0
 73
     0
 74
     5
  7
Default R14 pen assignments.ctb
 75
    16
147
1.0
148
0.0
149
0.0
100
AcDbLayout
  1
Layout1
 70
     1
 71
     1
 10
0.0
 20
0.0
 11
12.0
 21
9.0
 12
0.0004882961511612
 22
1.000276130627782
 32
0.0
 14
1.000000000000000E+20
 24
1.000000000000000E+20
 34
1.000000000000000E+20
 15
-1.000000000000000E+20
 25
-1.000000000000000E+20
 35
-1.000000000000000E+20
146
0.0
 13
0.0
 23
0.0
 33
0.0
 16
1.0
 26
0.0
 36
0.0
 17
0.0
 27
1.0
 37
0.0
 76
     0
330
15
  0
LAYOUT
  5
1BD
102
{ACAD_XDICTIONARY
360
3A9
102
}
102
{ACAD_REACTORS
330
1BB
102
}
330
1BB
100
AcDbPlotSettings
  1

  2
Fax
  4

  6

 40
0.0
 41
0.0
 42
0.0
 43
0.0
 44
0.0
 45
0.0
 46
0.0
 47
0.0
 48
0.0
 49
0.0
140
0.0
141
0.0
142
1.0
143
1.0
 70
  1712
 72
     0
 73
     0
 74
     0
  7
Default R14 pen assignments.ctb
 75
     0
147
1.0
148
0.0
149
0.0
100
AcDbLayout
  1
Model
 70
     1
 71
     0
 10
0.0
 20
0.0
 11
12.0
 21
9.0
 12
0.0
 22
0.0
 32
0.0
 14
0.0
 24
0.0
 34
0.0
 15
0.0
 25
0.0
 35
0.0
146
0.0
 13
0.0
 23
0.0
 33
0.0
 16
1.0
 26
0.0
 36
0.0
 17
0.0
 27
1.0
 37
0.0
 76
     0
330
18
331
330
  0
MATERIAL
  5
35E
102
{ACAD_XDICTIONARY
360
3AF
102
}
102
{ACAD_REACTORS
330
35C
102
}
330
35C
100
AcDbMaterial
  1
ByBlock
  0
MATERIAL
  5
35D
102
{ACAD_XDICTIONARY
360
3AD
102
}
102
{ACAD_REACTORS
330
35C
102
}
330
35C
100
AcDbMaterial
  1
ByLayer
  0
MATERIAL
  5
35F
102
{ACAD_XDICTIONARY
360
3B1
102
}
102
{ACAD_REACTORS
330
35C
102
}
330
35C
100
AcDbMaterial
  1
Global
  0
MLINESTYLE
  5
1B
102
{ACAD_REACTORS
330
E
102
}
330
E
100
AcDbMlineStyle
  2
STANDARD
 70
     0
  3

 62
     0
 51
90.0
 52
90.0
 71
     2
 49
0.5
 62
   256
  6
BYLAYER
 49
-0.5
 62
   256
  6
BYLAYER
  0
ACDBPLACEHOLDER
  5
1BA
102
{ACAD_REACTORS
330
1B9
102
}
330
1B9
  0
TABLESTYLE
  5
373
102
{ACAD_XDICTIONARY
360
3B3
102
}
102
{ACAD_REACTORS
330
372
102
}
330
372
100
AcDbTableStyle
  3
Standard
 70
     0
 71
     0
 40
0.06
 41
0.06
280
     0
281
     0
  7
STANDARD
140
0.18
170
     2
 62
     0
 63
     7
283
     0
274
    -2
284
     1
 64
     0
275
    -2
285
     1
 65
     0
276
    -2
286
     1
 66
     0
277
    -2
287
     1
 67
     0
278
    -2
288
     1
 68
     0
279
    -2
289
     1
 69
     0
  7
STANDARD
140
0.25
170
     5
 62
     0
 63
     7
283
     0
274
    -2
284
     1
 64
     0
275
    -2
285
     1
 65
     0
276
    -2
286
     1
 66
     0
277
    -2
287
     1
 67
     0
278
    -2
288
     1
 68
     0
279
    -2
289
     1
 69
     0
  7
STANDARD
140
0.18
170
     5
 62
     0
 63
     7
283
     0
274
    -2
284
     1
 64
     0
275
    -2
285
     1
 65
     0
276
    -2
286
     1
 66
     0
277
    -2
287
     1
 67
     0
278
    -2
288
     1
 68
     0
279
    -2
289
     1
 69
     0
  0
VISUALSTYLE
  5
366
102
{ACAD_REACTORS
330
360
102
}
330
360
100
AcDbVisualStyle
  2
2dWireframe
 70
     4
 71
     0
 72
     2
 73
     0
 90
        0
 40
-0.6
 41
-30.0
 62
     5
 63
     7
 74
     1
 91
        4
 64
     7
 65
   257
 75
     1
175
     1
 42
1.0
 92
        0
 66
   257
 43
1.0
 76
     1
 77
     6
 78
     2
 67
     7
 79
     5
170
     0
171
     0
290
     0
174
     0
 93
        1
 44
0.0
173
     0
291
     0
 45
0.0
1001
ACAD
1000
AcDbSavedByObjectVersion
1070
     0
  0
VISUALSTYLE
  5
368
102
{ACAD_REACTORS
330
360
102
}
330
360
100
AcDbVisualStyle
  2
3D Hidden
 70
     6
 71
     1
 72
     2
 73
     2
 90
        0
 40
-0.6
 41
-30.0
 62
     5
 63
     7
 74
     2
 91
        2
 64
     7
 65
   257
 75
     2
175
     1
 42
40.0
 92
        0
 66
   257
 43
1.0
 76
     1
 77
     6
 78
     2
 67
     7
 79
     3
170
     0
171
     0
290
     0
174
     0
 93
        1
 44
0.0
173
     0
291
     0
 45
0.0
1001
ACAD
1000
AcDbSavedByObjectVersion
1070
     0
  0
VISUALSTYLE
  5
367
102
{ACAD_REACTORS
330
360
102
}
330
360
100
AcDbVisualStyle
  2
3dWireframe
 70
     5
 71
     0
 72
     2
 73
     0
 90
        0
 40
-0.6
 41
-30.0
 62
     5
 63
     7
 74
     1
 91
        4
 64
     7
 65
   257
 75
     1
175
     1
 42
1.0
 92
        0
 66
   257
 43
1.0
 76
     1
 77
     6
 78
     2
 67
     7
 79
     5
170
     0
171
     0
290
     0
174
     0
 93
        1
 44
0.0
173
     0
291
     0
 45
0.0
1001
ACAD
1000
AcDbSavedByObjectVersion
1070
     0
  0
VISUALSTYLE
  5
365
102
{ACAD_REACTORS
330
360
102
}
330
360
100
AcDbVisualStyle
  2
Basic
 70
     7
 71
     1
 72
     0
 73
     1
 90
        0
 40
-0.6
 41
-30.0
 62
     5
 63
     7
 74
     0
 91
        4
 64
     7
 65
   257
 75
     1
175
     1
 42
1.0
 92
        8
 66
     7
 43
1.0
 76
     1
 77
     6
 78
     2
 67
     7
 79
     5
170
     0
171
     0
290
     0
174
     0
 93
        1
 44
0.0
173
     0
291
     1
 45
0.0
1001
ACAD
1000
AcDbSavedByObjectVersion
1070
     0
  0
VISUALSTYLE
  5
36C
102
{ACAD_REACTORS
330
360
102
}
330
360
100
AcDbVisualStyle
  2
Brighten
 70
    12
 71
     2
 72
     2
 73
     0
 90
        0
 40
-0.6
 41
-30.0
 62
     5
 63
     7
 74
     1
 91
        4
 64
     7
 65
   257
 75
     1
175
     1
 42
1.0
 92
        8
 66
     7
 43
1.0
 76
     1
 77
     6
 78
     2
 67
     7
 79
     5
170
     0
171
     0
290
     0
174
     0
 93
        1
 44
50.0
173
     0
291
     1
 45
0.0
1001
ACAD
1000
AcDbSavedByObjectVersion
1070
     0
  0
VISUALSTYLE
  5
370
102
{ACAD_REACTORS
330
360
102
}
330
360
100
AcDbVisualStyle
  2
ColorChange
 70
    16
 71
     2
 72
     2
 73
     3
 90
        0
 40
-0.6
 41
-30.0
 62
     5
 63
     8
 74
     1
 91
        4
 64
     7
 65
   257
 75
     1
175
     1
 42
1.0
 92
        8
 66
     8
 43
1.0
 76
     1
 77
     6
 78
     2
 67
     7
 79
     5
170
     0
171
     0
290
     0
174
     0
 93
        1
 44
0.0
173
     0
291
     1
 45
0.0
1001
ACAD
1000
AcDbSavedByObjectVersion
1070
     0
  0
VISUALSTYLE
  5
369
102
{ACAD_REACTORS
330
360
102
}
330
360
100
AcDbVisualStyle
  2
Conceptual
 70
     9
 71
     3
 72
     2
 73
     0
 90
        0
 40
-0.6
 41
-30.0
 62
     5
 63
     7
 74
     2
 91
        2
 64
     7
 65
   257
 75
     1
175
     1
 42
40.0
 92
        8
 66
     7
 43
1.0
 76
     1
 77
     6
 78
     2
 67
     7
 79
     3
170
     0
171
     0
290
     0
174
     0
 93
        1
 44
0.0
173
     0
291
     0
 45
0.0
1001
ACAD
1000
AcDbSavedByObjectVersion
1070
     0
  0
VISUALSTYLE
  5
36B
102
{ACAD_REACTORS
330
360
102
}
330
360
100
AcDbVisualStyle
  2
Dim
 70
    11
 71
     2
 72
     2
 73
     0
 90
        0
 40
-0.6
 41
-30.0
 62
     5
 63
     7
 74
     1
 91
        4
 64
     7
 65
   257
 75
     1
175
     1
 42
1.0
 92
        8
 66
     7
 43
1.0
 76
     1
 77
     6
 78
     2
 67
     7
 79
     5
170
     0
171
     0
290
     0
174
     0
 93
        1
 44
-50.0
173
     0
291
     1
 45
0.0
1001
ACAD
1000
AcDbSavedByObjectVersion
1070
     0
  0
VISUALSTYLE
  5
36F
102
{ACAD_REACTORS
330
360
102
}
330
360
100
AcDbVisualStyle
  2
Facepattern
 70
    15
 71
     2
 72
     2
 73
     0
 90
        0
 40
-0.6
 41
-30.0
 62
     5
 63
     7
 74
     1
 91
        4
 64
     7
 65
   257
 75
     1
175
     1
 42
1.0
 92
        8
 66
     7
 43
1.0
 76
     1
 77
     6
 78
     2
 67
     7
 79
     5
170
     0
171
     0
290
     0
174
     0
 93
        1
 44
0.0
173
     0
291
     1
 45
0.0
1001
ACAD
1000
AcDbSavedByObjectVersion
1070
     0
  0
VISUALSTYLE
  5
361
102
{ACAD_REACTORS
330
360
102
}
330
360
100
AcDbVisualStyle
  2
Flat
 70
     0
 71
     2
 72
     1
 73
     1
 90
        2
 40
-0.6
 41
30.0
 62
     5
 63
     7
 74
     0
 91
        4
 64
     7
 65
   257
 75
     1
175
     1
 42
1.0
 92
        8
 66
     7
 43
1.0
 76
     1
 77
     6
 78
     2
 67
     7
 79
     5
170
     0
171
     0
290
     0
174
     0
 93
       13
 44
0.0
173
     0
291
     1
 45
0.0
1001
ACAD
1000
AcDbSavedByObjectVersion
1070
     0
  0
VISUALSTYLE
  5
362
102
{ACAD_REACTORS
330
360
102
}
330
360
100
AcDbVisualStyle
  2
FlatWithEdges
 70
     1
 71
     2
 72
     1
 73
     1
 90
        2
 40
-0.6
 41
30.0
 62
     5
 63
     7
 74
     1
 91
        4
 64
     7
 65
   257
 75
     1
175
     1
 42
1.0
 92
        0
 66
   257
 43
1.0
 76
     1
 77
     6
 78
     2
 67
     7
 79
     5
170
     0
171
     0
290
     0
174
     0
 93
       13
 44
0.0
173
     0
291
     1
 45
0.0
1001
ACAD
1000
AcDbSavedByObjectVersion
1070
     0
  0
VISUALSTYLE
  5
363
102
{ACAD_REACTORS
330
360
102
}
330
360
100
AcDbVisualStyle
  2
Gouraud
 70
     2
 71
     2
 72
     2
 73
     1
 90
        2
 40
-0.6
 41
30.0
 62
     5
 63
     7
 74
     0
 91
        4
 64
     7
 65
   257
 75
     1
175
     1
 42
1.0
 92
        0
 66
     7
 43
1.0
 76
     1
 77
     6
 78
     2
 67
     7
 79
     5
170
     0
171
     0
290
     0
174
     0
 93
       13
 44
0.0
173
     0
291
     1
 45
0.0
1001
ACAD
1000
AcDbSavedByObjectVersion
1070
     0
  0
VISUALSTYLE
  5
364
102
{ACAD_REACTORS
330
360
102
}
330
360
100
AcDbVisualStyle
  2
GouraudWithEdges
 70
     3
 71
     2
 72
     2
 73
     1
 90
        2
 40
-0.6
 41
30.0
 62
     5
 63
     7
 74
     1
 91
        4
 64
     7
 65
   257
 75
     1
175
     1
 42
1.0
 92
        0
 66
   257
 43
1.0
 76
     1
 77
     6
 78
     2
 67
     7
 79
     5
170
     0
171
     0
290
     0
174
     0
 93
       13
 44
0.0
173
     0
291
     1
 45
0.0
1001
ACAD
1000
AcDbSavedByObjectVersion
1070
     0
  0
VISUALSTYLE
  5
36E
102
{ACAD_REACTORS
330
360
102
}
330
360
100
AcDbVisualStyle
  2
Linepattern
 70
    14
 71
     2
 72
     2
 73
     0
 90
        0
 40
-0.6
 41
-30.0
 62
     5
 63
     7
 74
     1
 91
        4
 64
     7
 65
   257
 75
     7
175
     7
 42
1.0
 92
        8
 66
     7
 43
1.0
 76
     1
 77
     6
 78
     2
 67
     7
 79
     5
170
     0
171
     0
290
     0
174
     0
 93
        1
 44
0.0
173
     0
291
     1
 45
0.0
1001
ACAD
1000
AcDbSavedByObjectVersion
1070
     0
  0
VISUALSTYLE
  5
36A
102
{ACAD_REACTORS
330
360
102
}
330
360
100
AcDbVisualStyle
  2
Realistic
 70
     8
 71
     2
 72
     2
 73
     0
 90
        0
 40
-0.6
 41
-30.0
 62
     5
 63
     7
 74
     1
 91
        0
 64
     7
 65
   257
 75
     1
175
     1
 42
1.0
 92
        8
 66
     8
 43
1.0
 76
     1
 77
     6
 78
     2
 67
     7
 79
     5
170
     0
171
     0
290
     0
174
     0
 93
       13
 44
0.0
173
     0
291
     0
 45
0.0
1001
ACAD
1000
AcDbSavedByObjectVersion
1070
     0
  0
VISUALSTYLE
  5
36D
102
{ACAD_REACTORS
330
360
102
}
330
360
100
AcDbVisualStyle
  2
Thicken
 70
    13
 71
     2
 72
     2
 73
     0
 90
        0
 40
-0.6
 41
-30.0
 62
     5
 63
     7
 74
     1
 91
        4
 64
     7
 65
   257
 75
     1
175
     1
 42
1.0
 92
       12
 66
     7
 43
1.0
 76
     1
 77
     6
 78
     2
 67
     7
 79
     5
170
     0
171
     0
290
     0
174
     0
 93
        1
 44
0.0
173
     0
291
     1
 45
0.0
1001
ACAD
1000
AcDbSavedByObjectVersion
1070
     0
  0
DICTIONARYVAR
  5
3A5
102
{ACAD_REACTORS
330
21C
102
}
330
21C
100
DictionaryVariables
280
     0
  1
STANDARD
  0
DICTIONARYVAR
  5
21D
102
{ACAD_REACTORS
330
21C
102
}
330
21C
100
DictionaryVariables
280
     0
  1
1
  0
DICTIONARYVAR
  5
3A7
102
{ACAD_REACTORS
330
21C
102
}
330
21C
100
DictionaryVariables
280
     0
  1
0
  0
DICTIONARYVAR
  5
3A6
102
{ACAD_REACTORS
330
21C
102
}
330
21C
100
DictionaryVariables
280
     0
  1
127
  0
XRECORD
  5
388
102
{ACAD_REACTORS
330
386
102
}
330
386
100
AcDbXrecord
280
     1
  0
DICTIONARY
  5
3AB
330
1BE
100
AcDbDictionary
280
     1
281
     1
  3
ACAD_XREC_ROUNDTRIP
360
3AC
  0
DICTIONARY
  5
3A9
330
1BD
100
AcDbDictionary
280
     1
281
     1
  3
ACAD_XREC_ROUNDTRIP
360
3AA
  0
DICTIONARY
  5
3AF
330
35E
100
AcDbDictionary
280
     1
281
     1
  3
ACAD_XREC_ROUNDTRIP
360
3B0
  0
DICTIONARY
  5
3AD
330
35D
100
AcDbDictionary
280
     1
281
     1
  3
ACAD_XREC_ROUNDTRIP
360
3AE
  0
DICTIONARY
  5
3B1
330
35F
100
AcDbDictionary
280
     1
281
     1
  3
ACAD_XREC_ROUNDTRIP
360
3B2
  0
DICTIONARY
  5
3B3
330
373
100
AcDbDictionary
280
     1
281
     1
  3
ACAD_XREC_ROUNDTRIP
360
3B4
  0
XRECORD
  5
3AC
102
{ACAD_REACTORS
330
3AB
102
}
330
3AB
100
AcDbXrecord
280
     1
102
SHADEPLOT
 70
     0
102
SHADEPLOTRESLEVEL
 70
     2
102
SHADEPLOTCUSTOMDPI
 70
   300
  0
XRECORD
  5
3AA
102
{ACAD_REACTORS
330
3A9
102
}
330
3A9
100
AcDbXrecord
280
     1
102
SHADEPLOT
 70
     0
102
SHADEPLOTRESLEVEL
 70
     2
102
SHADEPLOTCUSTOMDPI
 70
   300
  0
XRECORD
  5
3B0
102
{ACAD_REACTORS
330
3AF
102
}
330
3AF
100
AcDbXrecord
280
     1
102
MATERIAL
148
0.0
149
0.0
149
0.0
 93
        0
 94
       63
282
     0
 72
     1
 77
     1
171
     1
175
     1
179
     1
273
     0
  0
XRECORD
  5
3AE
102
{ACAD_REACTORS
330
3AD
102
}
330
3AD
100
AcDbXrecord
280
     1
102
MATERIAL
148
0.0
149
0.0
149
0.0
 93
        0
 94
       63
282
     0
 72
     1
 77
     1
171
     1
175
     1
179
     1
273
     0
  0
XRECORD
  5
3B2
102
{ACAD_REACTORS
330
3B1
102
}
330
3B1
100
AcDbXrecord
280
     1
102
MATERIAL
148
0.0
149
0.0
149
0.0
 93
        0
 94
       63
282
     0
 72
     1
 77
     1
171
     1
175
     1
179
     1
273
     0
  0
XRECORD
  5
3B4
102
{ACAD_REACTORS
330
3B3
102
}
330
3B3
100
AcDbXrecord
280
     1
102
ACAD_ROUNDTRIP_PRE2007_TABLESTYLE
 90
      512
 91
        0
  1

 92
      512
 93
        0
  2

 94
      512
 95
        0
  3

  0
ENDSEC
  0
EOF
