  0
SECTION
  2
HEADER
  9
$ACADVER
  1
AC1014
  9
$ACADMAINTVER
 70
     9
  9
$DWGCODEPAGE
  3
ANSI_1252
  9
$INSBASE
 10
-77.06097007339785
 20
23.20064830314644
 30
0.0
  9
$EXTMIN
 10
-83.98884222368982
 20
22.05346673071633
 30
0.0
  9
$EXTMAX
 10
-70.93738417457657
 20
25.73835044333093
 30
0.0
  9
$LIMMIN
 10
0.0
 20
0.0
  9
$LIMMAX
 10
36.0
 20
36.0
  9
$ORTHOMODE
 70
     1
  9
$REGENMODE
 70
     1
  9
$FILLMODE
 70
     1
  9
$QTEXTMODE
 70
     0
  9
$MIRRTEXT
 70
     1
  9
$DRAGMODE
 70
     0
  9
$LTSCALE
 40
1.0
  9
$OSMODE
 70
    37
  9
$ATTMODE
 70
     1
  9
$TEXTSIZE
 40
0.2
  9
$TRACEWID
 40
0.05
  9
$TEXTSTYLE
  7
STANDARD
  9
$CLAYER
  8
ADPDIM
  9
$CELTYPE
  6
BYLAYER
  9
$CECOLOR
 62
   256
  9
$CELTSCALE
 40
1.0
  9
$DELOBJ
 70
     1
  9
$DISPSILH
 70
     0
  9
$DIMSCALE
 40
1.0
  9
$DIMASZ
 40
0.125
  9
$DIMEXO
 40
0.0625
  9
$DIMDLI
 40
0.38
  9
$DIMRND
 40
0.0
  9
$DIMDLE
 40
0.0
  9
$DIMEXE
 40
0.18
  9
$DIMTP
 40
0.0
  9
$DIMTM
 40
0.0
  9
$DIMTXT
 40
0.125
  9
$DIMCEN
 40
0.1875
  9
$DIMTSZ
 40
0.125
  9
$DIMTOL
 70
     0
  9
$DIMLIM
 70
     0
  9
$DIMTIH
 70
     0
  9
$DIMTOH
 70
     0
  9
$DIMSE1
 70
     0
  9
$DIMSE2
 70
     0
  9
$DIMTAD
 70
     0
  9
$DIMZIN
 70
     3
  9
$DIMBLK
  1

  9
$DIMASO
 70
     1
  9
$DIMSHO
 70
     1
  9
$DIMPOST
  1

  9
$DIMAPOST
  1

  9
$DIMALT
 70
     0
  9
$DIMALTD
 70
     1
  9
$DIMALTF
 40
25.4
  9
$DIMLFAC
 40
1.0
  9
$DIMTOFL
 70
     0
  9
$DIMTVP
 40
0.0
  9
$DIMTIX
 70
     0
  9
$DIMSOXD
 70
     0
  9
$DIMSAH
 70
     0
  9
$DIMBLK1
  1

  9
$DIMBLK2
  1

  9
$DIMSTYLE
  2
STANDARD
  9
$DIMCLRD
 70
     0
  9
$DIMCLRE
 70
     0
  9
$DIMCLRT
 70
     0
  9
$DIMTFAC
 40
1.0
  9
$DIMGAP
 40
0.125
  9
$DIMJUST
 70
     0
  9
$DIMSD1
 70
     0
  9
$DIMSD2
 70
     0
  9
$DIMTOLJ
 70
     1
  9
$DIMTZIN
 70
     0
  9
$DIMALTZ
 70
     0
  9
$DIMALTTZ
 70
     0
  9
$DIMFIT
 70
     3
  9
$DIMUPT
 70
     0
  9
$DIMUNIT
 70
     2
  9
$DIMDEC
 70
     4
  9
$DIMTDEC
 70
     4
  9
$DIMALTU
 70
     2
  9
$DIMALTTD
 70
     2
  9
$DIMTXSTY
  7
STANDARD
  9
$DIMAUNIT
 70
     0
  9
$LUNITS
 70
     5
  9
$LUPREC
 70
     4
  9
$SKETCHINC
 40
0.1
  9
$FILLETRAD
 40
0.187
  9
$AUNITS
 70
     0
  9
$AUPREC
 70
     0
  9
$MENU
  1
acad
  9
$ELEVATION
 40
0.0
  9
$PELEVATION
 40
0.0
  9
$THICKNESS
 40
0.0
  9
$LIMCHECK
 70
     0
  9
$BLIPMODE
 70
     0
  9
$CHAMFERA
 40
0.0
  9
$CHAMFERB
 40
0.0
  9
$CHAMFERC
 40
0.0
  9
$CHAMFERD
 40
0.0
  9
$SKPOLY
 70
     0
  9
$TDCREATE
 40
2450406.512064421
  9
$TDUPDATE
 40
2452297.081811701
  9
$TDINDWG
 40
0.0141097338
  9
$TDUSRTIMER
 40
0.0141097338
  9
$USRTIMER
 70
     1
  9
$ANGBASE
 50
0.0
  9
$ANGDIR
 70
     0
  9
$PDMODE
 70
     0
  9
$PDSIZE
 40
0.0
  9
$PLINEWID
 40
0.0
  9
$COORDS
 70
     2
  9
$SPLFRAME
 70
     0
  9
$SPLINETYPE
 70
     6
  9
$SPLINESEGS
 70
     8
  9
$ATTDIA
 70
     0
  9
$ATTREQ
 70
     1
  9
$HANDLING
 70
 22529
  9
$HANDSEED
  5
305
  9
$SURFTAB1
 70
     6
  9
$SURFTAB2
 70
     6
  9
$SURFTYPE
 70
     6
  9
$SURFU
 70
     6
  9
$SURFV
 70
     6
  9
$UCSNAME
  2

  9
$UCSORG
 10
0.0
 20
0.0
 30
0.0
  9
$UCSXDIR
 10
1.0
 20
0.0
 30
0.0
  9
$UCSYDIR
 10
0.0
 20
1.0
 30
0.0
  9
$PUCSNAME
  2

  9
$PUCSORG
 10
0.0
 20
0.0
 30
0.0
  9
$PUCSXDIR
 10
1.0
 20
0.0
 30
0.0
  9
$PUCSYDIR
 10
0.0
 20
1.0
 30
0.0
  9
$USERI1
 70
     0
  9
$USERI2
 70
     0
  9
$USERI3
 70
     0
  9
$USERI4
 70
     0
  9
$USERI5
 70
     0
  9
$USERR1
 40
0.0
  9
$USERR2
 40
0.0
  9
$USERR3
 40
0.0
  9
$USERR4
 40
0.0
  9
$USERR5
 40
0.0
  9
$WORLDVIEW
 70
     1
  9
$SHADEDGE
 70
     3
  9
$SHADEDIF
 70
    70
  9
$TILEMODE
 70
     1
  9
$MAXACTVP
 70
    15
  9
$PINSBASE
 10
0.0008545024320483
 20
1.750284242913068
 30
0.0
  9
$PLIMCHECK
 70
     0
  9
$PEXTMIN
 10
1.000000000000000E+20
 20
1.000000000000000E+20
 30
1.000000000000000E+20
  9
$PEXTMAX
 10
-1.000000000000000E+20
 20
-1.000000000000000E+20
 30
-1.000000000000000E+20
  9
$PLIMMIN
 10
0.0
 20
0.0
  9
$PLIMMAX
 10
12.0
 20
9.0
  9
$UNITMODE
 70
     0
  9
$VISRETAIN
 70
     0
  9
$PLINEGEN
 70
     0
  9
$PSLTSCALE
 70
     1
  9
$TREEDEPTH
 70
  3020
  9
$PICKSTYLE
 70
     1
  9
$CMLSTYLE
  2
STANDARD
  9
$CMLJUST
 70
     0
  9
$CMLSCALE
 40
1.0
  9
$PROXYGRAPHICS
 70
     1
  9
$MEASUREMENT
 70
     0
  0
ENDSEC
  0
SECTION
  2
CLASSES
  0
CLASS
  1
ACDBDICTIONARYWDFLT
  2
AcDbDictionaryWithDefault
  3
AutoCAD 2000
 90
        0
280
     0
281
     0
  0
CLASS
  1
ACDBPLACEHOLDER
  2
AcDbPlaceHolder
  3
AutoCAD 2000
 90
        0
280
     0
281
     0
  0
CLASS
  1
LAYOUT
  2
AcDbLayout
  3
AutoCAD 2000
 90
        0
280
     0
281
     0
  0
CLASS
  1
DICTIONARYVAR
  2
AcDbDictionaryVar
  3
AutoCAD 2000
 90
        0
280
     0
281
     0
  0
CLASS
  1
LONG_TRANSACTION
  2
AcDbLongTransaction
  3
AutoCAD 2000
 90
        0
280
     0
281
     0
  0
CLASS
  1
LWPOLYLINE
  2
AcDbPolyline
  3
AutoCAD 2000
 90
        0
280
     0
281
     1
  0
CLASS
  1
HATCH
  2
AcDbHatch
  3
AutoCAD 2000
 90
        0
280
     0
281
     1
  0
CLASS
  1
XRECORD
  2
AcDbXrecord
  3
AutoCAD 2000
 90
        0
280
     0
281
     0
  0
CLASS
  1
LONG_TRANSACTION
  2
AcDbLongTransaction
  3
AutoCAD 2000
 90
        0
280
     0
281
     0
  0
CLASS
  1
LWPOLYLINE
  2
AcDbPolyline
  3
AutoCAD 2000
 90
        0
280
     0
281
     1
  0
CLASS
  1
HATCH
  2
AcDbHatch
  3
AutoCAD 2000
 90
        0
280
     0
281
     1
  0
CLASS
  1
XRECORD
  2
AcDbXrecord
  3
AutoCAD 2000
 90
        0
280
     0
281
     0
  0
CLASS
  1
LONG_TRANSACTION
  2
AcDbLongTransaction
  3
AutoCAD 2000
 90
        0
280
     0
281
     0
  0
CLASS
  1
LWPOLYLINE
  2
AcDbPolyline
  3
AutoCAD 2000
 90
        0
280
     0
281
     1
  0
CLASS
  1
HATCH
  2
AcDbHatch
  3
AutoCAD 2000
 90
        0
280
     0
281
     1
  0
CLASS
  1
XRECORD
  2
AcDbXrecord
  3
AutoCAD 2000
 90
        0
280
     0
281
     0
  0
CLASS
  1
LONG_TRANSACTION
  2
AcDbLongTransaction
  3
AutoCAD 2000
 90
        0
280
     0
281
     0
  0
CLASS
  1
LWPOLYLINE
  2
AcDbPolyline
  3
AutoCAD 2000
 90
        0
280
     0
281
     1
  0
CLASS
  1
HATCH
  2
AcDbHatch
  3
AutoCAD 2000
 90
        0
280
     0
281
     1
  0
CLASS
  1
XRECORD
  2
AcDbXrecord
  3
AutoCAD 2000
 90
        0
280
     0
281
     0
  0
CLASS
  1
LONG_TRANSACTION
  2
AcDbLongTransaction
  3
AutoCAD 2000
 90
        0
280
     0
281
     0
  0
CLASS
  1
LWPOLYLINE
  2
AcDbPolyline
  3
AutoCAD 2000
 90
        0
280
     0
281
     1
  0
CLASS
  1
HATCH
  2
AcDbHatch
  3
AutoCAD 2000
 90
        0
280
     0
281
     1
  0
CLASS
  1
XRECORD
  2
AcDbXrecord
  3
AutoCAD 2000
 90
        0
280
     0
281
     0
  0
CLASS
  1
LONG_TRANSACTION
  2
AcDbLongTransaction
  3
AutoCAD 2000
 90
        0
280
     0
281
     0
  0
CLASS
  1
LWPOLYLINE
  2
AcDbPolyline
  3
AutoCAD 2000
 90
        0
280
     0
281
     1
  0
CLASS
  1
HATCH
  2
AcDbHatch
  3
AutoCAD 2000
 90
        0
280
     0
281
     1
  0
CLASS
  1
XRECORD
  2
AcDbXrecord
  3
AutoCAD 2000
 90
        0
280
     0
281
     0
  0
ENDSEC
  0
SECTION
  2
TABLES
  0
TABLE
  2
VPORT
  5
8
330
0
100
AcDbSymbolTable
 70
     2
  0
VPORT
  5
2E2
330
8
100
AcDbSymbolTableRecord
100
AcDbViewportTableRecord
  2
*ACTIVE
 70
     0
 10
0.0
 20
0.0
 11
1.0
 21
1.0
 12
-77.452231617609
 22
23.89553842076046
 13
0.0
 23
0.0
 14
0.5740882589684922
 24
0.5740882589684922
 15
0.5
 25
0.5
 16
0.0
 26
0.0
 36
1.0
 17
0.0
 27
0.0
 37
0.0
 40
8.373219522642029
 41
1.570528967254408
 42
50.0
 43
0.0
 44
0.0
 50
0.0
 51
0.0
 71
     0
 72
   100
 73
     1
 74
     0
 75
     0
 76
     0
 77
     0
 78
     0
  0
ENDTAB
  0
TABLE
  2
LTYPE
  5
5
330
0
100
AcDbSymbolTable
 70
     1
  0
LTYPE
  5
12
330
5
100
AcDbSymbolTableRecord
100
AcDbLinetypeTableRecord
  2
BYBLOCK
 70
     0
  3

 72
    65
 73
     0
 40
0.0
  0
LTYPE
  5
13
330
5
100
AcDbSymbolTableRecord
100
AcDbLinetypeTableRecord
  2
BYLAYER
 70
     0
  3

 72
    65
 73
     0
 40
0.0
  0
LTYPE
  5
14
330
5
100
AcDbSymbolTableRecord
100
AcDbLinetypeTableRecord
  2
CONTINUOUS
 70
     0
  3
Solid line
 72
    65
 73
     0
 40
0.0
  0
ENDTAB
  0
TABLE
  2
LAYER
  5
2
330
0
100
AcDbSymbolTable
 70
     4
  0
LAYER
  5
F
330
2
100
AcDbSymbolTableRecord
100
AcDbLayerTableRecord
  2
0
 70
     0
 62
     7
  6
CONTINUOUS
  0
LAYER
  5
10B
330
2
100
AcDbSymbolTableRecord
100
AcDbLayerTableRecord
  2
ADP1DETAIL
 70
     0
 62
     7
  6
CONTINUOUS
  0
LAYER
  5
10D
330
2
100
AcDbSymbolTableRecord
100
AcDbLayerTableRecord
  2
DEFPOINTS
 70
     0
 62
     7
  6
CONTINUOUS
  0
LAYER
  5
111
330
2
100
AcDbSymbolTableRecord
100
AcDbLayerTableRecord
  2
ADPDIM
 70
     0
 62
     3
  6
CONTINUOUS
  0
ENDTAB
  0
TABLE
  2
STYLE
  5
3
330
0
100
AcDbSymbolTable
 70
     2
  0
STYLE
  5
10
330
3
100
AcDbSymbolTableRecord
100
AcDbTextStyleTableRecord
  2
STANDARD
 70
     0
 40
0.0
 41
1.0
 50
0.0
 71
     0
 42
0.2
  3
txt
  4

  0
STYLE
  5
16F
330
3
100
AcDbSymbolTableRecord
100
AcDbTextStyleTableRecord
  2
ARIAL_WIDE
 70
     0
 40
0.0
 41
1.25
 50
0.0
 71
     0
 42
0.2
  3
ARIAL.TTF
  4

1001
ACAD
1000
Arial
1071
       34
  0
ENDTAB
  0
TABLE
  2
VIEW
  5
6
330
0
100
AcDbSymbolTable
 70
     0
  0
ENDTAB
  0
TABLE
  2
UCS
  5
7
330
0
100
AcDbSymbolTable
 70
     0
  0
ENDTAB
  0
TABLE
  2
APPID
  5
9
330
0
100
AcDbSymbolTable
 70
     1
  0
APPID
  5
11
330
9
100
AcDbSymbolTableRecord
100
AcDbRegAppTableRecord
  2
ACAD
 70
     0
  0
ENDTAB
  0
TABLE
  2
DIMSTYLE
  5
A
330
0
100
AcDbSymbolTable
 70
     1
  0
DIMSTYLE
105
163
330
A
100
AcDbSymbolTableRecord
100
AcDbDimStyleTableRecord
  2
STANDARD
 70
     0
  3

  4

  5

  6

  7

 40
1.0
 41
0.18
 42
0.0625
 43
0.38
 44
0.18
 45
0.0
 46
0.0
 47
0.0
 48
0.0
140
0.18
141
0.09
142
0.0
143
25.4
144
1.0
145
0.0
146
1.0
147
0.09
 71
     0
 72
     0
 73
     1
 74
     1
 75
     0
 76
     0
 77
     0
 78
     0
170
     0
171
     2
172
     0
173
     0
174
     0
175
     0
176
     0
177
     0
178
     0
270
     2
271
     4
272
     4
273
     2
274
     2
340
10
275
     0
280
     0
281
     0
282
     0
283
     1
284
     0
285
     0
286
     0
287
     3
288
     0
  0
ENDTAB
  0
TABLE
  2
BLOCK_RECORD
  5
1
330
0
100
AcDbSymbolTable
 70
     5
  0
BLOCK_RECORD
  5
18
102
{ACAD_XDICTIONARY
360
1C4
102
}
330
1
100
AcDbSymbolTableRecord
100
AcDbBlockTableRecord
  2
*MODEL_SPACE
  0
BLOCK_RECORD
  5
15
102
{ACAD_XDICTIONARY
360
1C2
102
}
330
1
100
AcDbSymbolTableRecord
100
AcDbBlockTableRecord
  2
*PAPER_SPACE
  0
BLOCK_RECORD
  5
C9
330
1
100
AcDbSymbolTableRecord
100
AcDbBlockTableRecord
  2
1432
  0
BLOCK_RECORD
  5
103
330
1
100
AcDbSymbolTableRecord
100
AcDbBlockTableRecord
  2
*D1
  0
BLOCK_RECORD
  5
104
330
1
100
AcDbSymbolTableRecord
100
AcDbBlockTableRecord
  2
*D2
  0
BLOCK_RECORD
  5
105
330
1
100
AcDbSymbolTableRecord
100
AcDbBlockTableRecord
  2
*D3
  0
BLOCK_RECORD
  5
107
330
1
100
AcDbSymbolTableRecord
100
AcDbBlockTableRecord
  2
*D4
  0
ENDTAB
  0
ENDSEC
  0
SECTION
  2
BLOCKS
  0
BLOCK
  5
114
330
18
100
AcDbEntity
  8
0
100
AcDbBlockBegin
  2
*MODEL_SPACE
 70
     0
 10
0.0
 20
0.0
 30
0.0
  3
*MODEL_SPACE
  1

  0
ENDBLK
  5
115
330
18
100
AcDbEntity
  8
0
100
AcDbBlockEnd
  0
BLOCK
  5
112
330
15
100
AcDbEntity
 67
     1
  8
0
100
AcDbBlockBegin
  2
*PAPER_SPACE
 70
     0
 10
0.0
 20
0.0
 30
0.0
  3
*PAPER_SPACE
  1

  0
ENDBLK
  5
113
330
15
100
AcDbEntity
 67
     1
  8
0
100
AcDbBlockEnd
  0
BLOCK
  5
117
330
C9
100
AcDbEntity
  8
0
100
AcDbBlockBegin
  2
1432
 70
     0
 10
0.0
 20
0.0
 30
0.0
  3
1432
  1

  0
ARC
  5
118
330
C9
100
AcDbEntity
  8
0
100
AcDbCircle
 10
1.242308775876624
 20
1.163252439507662
 30
0.0
 40
1.25
100
AcDbArc
 50
291.5827813619775
 51
248.4172186380225
  0
ARC
  5
119
330
C9
100
AcDbEntity
  8
0
100
AcDbCircle
 10
1.242308775876624
 20
1.163252439507662
 30
0.0
 40
1.1875
100
AcDbArc
 50
293.9737218386331
 51
246.0262781613668
  0
LINE
  5
11A
330
C9
100
AcDbEntity
  8
0
100
AcDbLine
 10
1.617308775876624
 20
1.190163378597866
 30
0.0
 11
1.617308775876624
 21
0.0585465963077461
 31
0.0
  0
LINE
  5
11B
330
C9
100
AcDbEntity
  8
0
100
AcDbLine
 10
0.8673087758766246
 20
0.0585465963077461
 30
0.0
 11
0.8673087758766246
 21
1.190163378597866
 31
0.0
  0
LINE
  5
11C
330
C9
100
AcDbEntity
  8
0
100
AcDbLine
 10
0.8048087758766246
 20
0.107435220477802
 30
0.0
 11
0.8048087758766246
 21
1.222663378597864
 31
0.0
  0
LINE
  5
11D
330
C9
100
AcDbEntity
  8
0
100
AcDbLine
 10
1.679808775876628
 20
1.222663378597864
 30
0.0
 11
1.679808775876624
 21
0.107435220477802
 31
0.0
  0
ARC
  5
11E
330
C9
100
AcDbEntity
  8
0
100
AcDbCircle
 10
0.8053087758766235
 20
0.0585465963077461
 30
0.0
 40
0.062
100
AcDbArc
 50
248.4172186380237
 51
0.0
  0
ARC
  5
11F
330
C9
100
AcDbEntity
  8
0
100
AcDbCircle
 10
0.7728087758766247
 20
0.107435220477802
 30
0.0
 40
0.032
100
AcDbArc
 50
246.0262781613646
 51
0.0
  0
ARC
  5
120
330
C9
100
AcDbEntity
  8
0
100
AcDbCircle
 10
1.679308775876625
 20
0.0585465963077461
 30
0.0
 40
0.062
100
AcDbArc
 50
180.0
 51
291.5827813619762
  0
ARC
  5
121
330
C9
100
AcDbEntity
  8
0
100
AcDbCircle
 10
1.711808775876624
 20
0.107435220477802
 30
0.0
 40
0.032
100
AcDbArc
 50
180.0
 51
293.9737218386353
  0
LINE
  5
122
330
C9
100
AcDbEntity
  8
0
100
AcDbLine
 10
0.8993087758766247
 20
1.222163378597866
 30
0.0
 11
1.166896956437147
 21
1.222163378597862
 31
0.0
  0
LINE
  5
123
330
C9
100
AcDbEntity
  8
0
100
AcDbLine
 10
0.8668087758766258
 20
1.284663378597866
 30
0.0
 11
1.166896956437147
 21
1.284663378597866
 31
0.0
  0
ARC
  5
124
330
C9
100
AcDbEntity
  8
0
100
AcDbCircle
 10
0.8668087758766258
 20
1.222663378597864
 30
0.0
 40
0.062
100
AcDbArc
 50
90.0
 51
180.0
  0
ARC
  5
125
330
C9
100
AcDbEntity
  8
0
100
AcDbCircle
 10
0.8993087758766247
 20
1.190163378597866
 30
0.0
 40
0.032
100
AcDbArc
 50
90.0
 51
180.0
  0
LINE
  5
126
330
C9
100
AcDbEntity
  8
0
100
AcDbLine
 10
1.31189695643715
 20
1.222163378597866
 30
0.0
 11
1.585308775876624
 21
1.222163378597866
 31
0.0
  0
LINE
  5
127
330
C9
100
AcDbEntity
  8
0
100
AcDbLine
 10
1.31189695643715
 20
1.284663378597866
 30
0.0
 11
1.617808775876627
 21
1.284663378597866
 31
0.0
  0
ARC
  5
128
330
C9
100
AcDbEntity
  8
0
100
AcDbCircle
 10
1.166896956437147
 20
1.232163378597864
 30
0.0
 40
0.01
100
AcDbArc
 50
270.0
 51
0.0
  0
LINE
  5
129
330
C9
100
AcDbEntity
  8
0
100
AcDbLine
 10
1.176896956437149
 20
1.232163378597864
 30
0.0
 11
1.176896956437149
 21
1.274663378597864
 31
0.0
  0
ARC
  5
12A
330
C9
100
AcDbEntity
  8
0
100
AcDbCircle
 10
1.166896956437147
 20
1.274663378597864
 30
0.0
 40
0.01
100
AcDbArc
 50
0.0
 51
90.0
  0
ARC
  5
12B
330
C9
100
AcDbEntity
  8
0
100
AcDbCircle
 10
1.31189695643715
 20
1.232163378597867
 30
0.0
 40
0.01
100
AcDbArc
 50
180.0
 51
270.0
  0
LINE
  5
12C
330
C9
100
AcDbEntity
  8
0
100
AcDbLine
 10
1.301896956437149
 20
1.274663378597864
 30
0.0
 11
1.301896956437149
 21
1.232163378597867
 31
0.0
  0
ARC
  5
12D
330
C9
100
AcDbEntity
  8
0
100
AcDbCircle
 10
1.31189695643715
 20
1.274663378597864
 30
0.0
 40
0.01
100
AcDbArc
 50
90.0
 51
180.0
  0
ARC
  5
12E
330
C9
100
AcDbEntity
  8
0
100
AcDbCircle
 10
1.617808775876627
 20
1.222663378597864
 30
0.0
 40
0.062
100
AcDbArc
 50
0.0
 51
90.0
  0
ARC
  5
12F
330
C9
100
AcDbEntity
  8
0
100
AcDbCircle
 10
1.585308775876624
 20
1.190163378597866
 30
0.0
 40
0.032
100
AcDbArc
 50
0.0
 51
90.0
  0
ENDBLK
  5
130
330
C9
100
AcDbEntity
  8
0
100
AcDbBlockEnd
  0
BLOCK
  5
131
330
103
100
AcDbEntity
  8
0
100
AcDbBlockBegin
  2
*D1
 70
     1
 10
0.0
 20
0.0
 30
0.0
  3
*D1
  1

  0
LINE
  5
132
330
103
100
AcDbEntity
  8
0
  6
BYBLOCK
 62
     0
100
AcDbLine
 10
-76.59347439410829
 20
25.1498679075936
 30
0.0
 11
-76.70524910819574
 21
25.26164262168105
 31
0.0
  0
LINE
  5
133
330
103
100
AcDbEntity
  8
0
  6
BYBLOCK
 62
     0
100
AcDbLine
 10
-76.54928022028413
 20
25.19406208141776
 30
0.0
 11
-76.66105493437157
 21
25.30583679550522
 31
0.0
  0
LINE
  5
134
330
103
100
AcDbEntity
  8
0
  6
BYBLOCK
 62
     0
100
AcDbLine
 10
-76.57796988758217
 20
25.13436340106746
 30
0.0
 11
-76.75474658287882
 21
24.95758670577084
 31
0.0
  0
LINE
  5
135
330
103
100
AcDbEntity
  8
0
  6
BYBLOCK
 62
     0
100
AcDbLine
 10
-76.533775713758
 20
25.17855757489162
 30
0.0
 11
-76.35699901846135
 21
25.35533427018824
 31
0.0
  0
LINE
  5
136
330
103
100
AcDbEntity
  8
0
  6
BYBLOCK
 62
     0
100
AcDbLine
 10
-76.57796988758218
 20
24.95758670577083
 30
0.0
 11
-76.57796988758216
 21
25.3111400963641
 31
0.0
  0
LINE
  5
137
330
103
100
AcDbEntity
  8
0
  6
BYBLOCK
 62
     0
100
AcDbLine
 10
-76.53377571375802
 20
25.00178087959499
 30
0.0
 11
-76.53377571375798
 21
25.35533427018826
 31
0.0
  0
TEXT
  5
138
330
103
100
AcDbEntity
  8
0
  6
BYBLOCK
 62
     0
100
AcDbText
 10
-76.22441649698886
 20
25.3995284440124
 30
0.0
 40
0.125
  1
1/16
 50
44.99999999999539
 72
     1
 11
-76.13602814934053
 21
25.57630513930902
 31
0.0
100
AcDbText
 73
     2
  0
POINT
  5
139
330
103
100
AcDbEntity
  8
DEFPOINTS
  6
BYBLOCK
 62
     0
100
AcDbPoint
 10
-76.54928022028414
 20
25.10567373376943
 30
0.0
  0
POINT
  5
13A
330
103
100
AcDbEntity
  8
DEFPOINTS
  6
BYBLOCK
 62
     0
100
AcDbPoint
 10
-76.50508604645998
 20
25.1498679075936
 30
0.0
  0
POINT
  5
13B
330
103
100
AcDbEntity
  8
DEFPOINTS
  6
BYBLOCK
 62
     0
100
AcDbPoint
 10
-76.533775713758
 20
25.17855757489162
 30
0.0
  0
ENDBLK
  5
13C
330
103
100
AcDbEntity
  8
0
100
AcDbBlockEnd
  0
BLOCK
  5
13D
330
104
100
AcDbEntity
  8
0
100
AcDbBlockBegin
  2
*D2
 70
     1
 10
0.0
 20
0.0
 30
0.0
  3
*D2
  1

  0
LINE
  5
13E
330
104
100
AcDbEntity
  8
0
  6
BYBLOCK
 62
     0
100
AcDbLine
 10
-76.60660771025188
 20
23.44618935809348
 30
0.0
 11
-76.43530661247561
 21
23.26410164873163
 31
0.0
  0
LINE
  5
13F
330
104
100
AcDbEntity
  8
0
  6
BYBLOCK
 62
     0
100
AcDbLine
 10
-76.78330211382093
 20
23.45158266388628
 30
0.0
 11
-76.42991330668282
 21
23.44079605230069
 31
0.0
  0
LINE
  5
140
330
104
100
AcDbEntity
  8
0
  6
BYBLOCK
 62
     0
100
AcDbLine
 10
-77.6506131991332
 20
24.35662790490276
 30
0.0
 11
-77.2756131991332
 21
24.35662790490276
 31
0.0
  0
LINE
  5
141
330
104
100
AcDbEntity
  8
0
  6
BYBLOCK
 62
     0
100
AcDbLine
 10
-77.46311319913321
 20
24.16912790490275
 30
0.0
 11
-77.46311319913321
 21
24.54412790490275
 31
0.0
  0
TEXT
  5
142
330
104
100
AcDbEntity
  8
0
  6
BYBLOCK
 62
     0
100
AcDbText
 10
-76.39517799092795
 20
23.13023251960664
 30
0.0
 40
0.125
  1
%%c2 1/2
 50
313.2516834707784
 72
     1
 11
-76.1212545998858
 21
22.93027418156824
 31
0.0
100
AcDbText
 73
     2
  0
POINT
  5
143
330
104
100
AcDbEntity
  8
DEFPOINTS
  6
BYBLOCK
 62
     0
100
AcDbPoint
 10
-76.60660771025188
 20
23.44618935809348
 30
0.0
  0
POINT
  5
144
330
104
100
AcDbEntity
  8
DEFPOINTS
  6
BYBLOCK
 62
     0
100
AcDbPoint
 10
-78.31961868801451
 20
25.26706645171203
 30
0.0
  0
ENDBLK
  5
145
330
104
100
AcDbEntity
  8
0
100
AcDbBlockEnd
  0
BLOCK
  5
146
330
105
100
AcDbEntity
  8
0
100
AcDbBlockBegin
  2
*D3
 70
     1
 10
0.0
 20
0.0
 30
0.0
  3
*D3
  1

  0
LINE
  5
147
330
105
100
AcDbEntity
  8
0
  6
BYBLOCK
 62
     0
100
AcDbLine
 10
-77.83640390008186
 20
23.10211841019812
 30
0.0
 11
-77.83640390008186
 21
22.5956252403461
 31
0.0
  0
LINE
  5
148
330
105
100
AcDbEntity
  8
0
  6
BYBLOCK
 62
     0
100
AcDbLine
 10
-77.08640390008186
 20
23.10211841019812
 30
0.0
 11
-77.08640390008186
 21
22.5956252403461
 31
0.0
  0
LINE
  5
149
330
105
100
AcDbEntity
  8
0
  6
BYBLOCK
 62
     0
100
AcDbLine
 10
-77.83640390008186
 20
22.7756252403461
 30
0.0
 11
-78.08640390008186
 21
22.7756252403461
 31
0.0
  0
LINE
  5
14A
330
105
100
AcDbEntity
  8
0
  6
BYBLOCK
 62
     0
100
AcDbLine
 10
-77.08640390008186
 20
22.7756252403461
 30
0.0
 11
-76.83640390008186
 21
22.7756252403461
 31
0.0
  0
LINE
  5
14B
330
105
100
AcDbEntity
  8
0
  6
BYBLOCK
 62
     0
100
AcDbLine
 10
-77.96140390008186
 20
22.6506252403461
 30
0.0
 11
-77.71140390008186
 21
22.9006252403461
 31
0.0
  0
LINE
  5
14C
330
105
100
AcDbEntity
  8
0
  6
BYBLOCK
 62
     0
100
AcDbLine
 10
-77.21140390008186
 20
22.6506252403461
 30
0.0
 11
-76.96140390008186
 21
22.9006252403461
 31
0.0
  0
TEXT
  5
14D
330
105
100
AcDbEntity
  8
0
  6
BYBLOCK
 62
     0
100
AcDbText
 10
-76.71140390008186
 20
22.7131252403461
 30
0.0
 40
0.125
  1
3/4
 72
     1
 11
-76.54473723341519
 21
22.7756252403461
 31
0.0
100
AcDbText
 73
     2
  0
POINT
  5
14E
330
105
100
AcDbEntity
  8
DEFPOINTS
  6
BYBLOCK
 62
     0
100
AcDbPoint
 10
-77.83640390008186
 20
23.16461841019812
 30
0.0
  0
POINT
  5
14F
330
105
100
AcDbEntity
  8
DEFPOINTS
  6
BYBLOCK
 62
     0
100
AcDbPoint
 10
-77.08640390008186
 20
23.16461841019812
 30
0.0
  0
POINT
  5
150
330
105
100
AcDbEntity
  8
DEFPOINTS
  6
BYBLOCK
 62
     0
100
AcDbPoint
 10
-77.08640390008186
 20
22.7756252403461
 30
0.0
  0
ENDBLK
  5
151
330
105
100
AcDbEntity
  8
0
100
AcDbBlockEnd
  0
BLOCK
  5
152
330
107
100
AcDbEntity
  8
0
100
AcDbBlockBegin
  2
*D4
 70
     1
 10
0.0
 20
0.0
 30
0.0
  3
*D4
  1

  0
LINE
  5
153
330
107
100
AcDbEntity
  8
0
  6
BYBLOCK
 62
     0
100
AcDbLine
 10
-77.89890390008186
 20
23.16461841019812
 30
0.0
 11
-79.34148509326556
 21
23.16461841019812
 31
0.0
  0
LINE
  5
154
330
107
100
AcDbEntity
  8
0
  6
BYBLOCK
 62
     0
100
AcDbLine
 10
-77.89890390008186
 20
24.41461841019812
 30
0.0
 11
-79.34148509326556
 21
24.41461841019812
 31
0.0
  0
LINE
  5
155
330
107
100
AcDbEntity
  8
0
  6
BYBLOCK
 62
     0
100
AcDbLine
 10
-79.16148509326555
 20
23.16461841019812
 30
0.0
 11
-79.16148509326555
 21
22.91461841019812
 31
0.0
  0
LINE
  5
156
330
107
100
AcDbEntity
  8
0
  6
BYBLOCK
 62
     0
100
AcDbLine
 10
-79.16148509326555
 20
24.41461841019812
 30
0.0
 11
-79.16148509326555
 21
24.66461841019812
 31
0.0
  0
LINE
  5
157
330
107
100
AcDbEntity
  8
0
  6
BYBLOCK
 62
     0
100
AcDbLine
 10
-79.03648509326555
 20
23.03961841019812
 30
0.0
 11
-79.28648509326555
 21
23.28961841019812
 31
0.0
  0
LINE
  5
158
330
107
100
AcDbEntity
  8
0
  6
BYBLOCK
 62
     0
100
AcDbLine
 10
-79.03648509326555
 20
24.28961841019812
 30
0.0
 11
-79.28648509326555
 21
24.53961841019812
 31
0.0
  0
TEXT
  5
159
330
107
100
AcDbEntity
  8
0
  6
BYBLOCK
 62
     0
100
AcDbText
 10
-79.09898509326556
 20
24.78961841019811
 30
0.0
 40
0.125
  1
1 1/4
 50
90.0
 72
     1
 11
-79.16148509326555
 21
25.03961841019812
 31
0.0
100
AcDbText
 73
     2
  0
POINT
  5
15A
330
107
100
AcDbEntity
  8
DEFPOINTS
  6
BYBLOCK
 62
     0
100
AcDbPoint
 10
-77.83640390008186
 20
23.16461841019812
 30
0.0
  0
POINT
  5
15B
330
107
100
AcDbEntity
  8
DEFPOINTS
  6
BYBLOCK
 62
     0
100
AcDbPoint
 10
-77.83640390008186
 20
24.41461841019812
 30
0.0
  0
POINT
  5
15C
330
107
100
AcDbEntity
  8
DEFPOINTS
  6
BYBLOCK
 62
     0
100
AcDbPoint
 10
-79.16148509326555
 20
24.41461841019812
 30
0.0
  0
ENDBLK
  5
15D
330
107
100
AcDbEntity
  8
0
100
AcDbBlockEnd
  0
ENDSEC
  0
SECTION
  2
ENTITIES
  0
DIMENSION
  5
15E
330
18
100
AcDbEntity
  8
ADPDIM
100
AcDbDimension
  2
*D1
 10
-76.533775713758
 20
25.17855757489162
 30
0.0
 11
-76.13602814934053
 21
25.57630513930902
 31
0.0
 70
     1
100
AcDbAlignedDimension
 13
-76.54928022028414
 23
25.10567373376943
 33
0.0
 14
-76.50508604645998
 24
25.14986790759359
 34
0.0
  0
DIMENSION
  5
15F
330
18
100
AcDbEntity
  8
ADPDIM
100
AcDbDimension
  2
*D2
 10
-78.31961868801451
 20
25.26706645171203
 30
0.0
 11
-76.1212545998858
 21
22.93027418156824
 31
0.0
 70
     3
100
AcDbDiametricDimension
 15
-76.60660771025188
 25
23.44618935809348
 35
0.0
 40
0.0
  0
INSERT
  5
160
330
18
100
AcDbEntity
  8
ADP1DETAIL
100
AcDbBlockReference
  2
1432
 10
-78.70542197500983
 20
23.19337546539508
 30
0.0
  0
DIMENSION
  5
161
330
18
100
AcDbEntity
  8
ADPDIM
100
AcDbDimension
  2
*D4
 10
-79.16148509326555
 20
24.41461841019812
 30
0.0
 11
-79.16148509326555
 21
25.03961841019812
 31
0.0
100
AcDbAlignedDimension
 13
-77.83640390008186
 23
23.16461841019812
 33
0.0
 14
-77.83640390008186
 24
24.41461841019812
 34
0.0
 50
90.0
100
AcDbRotatedDimension
  0
DIMENSION
  5
162
330
18
100
AcDbEntity
  8
ADPDIM
100
AcDbDimension
  2
*D3
 10
-77.08640390008186
 20
22.7756252403461
 30
0.0
 11
-76.54473723341519
 21
22.7756252403461
 31
0.0
100
AcDbAlignedDimension
 13
-77.83640390008186
 23
23.16461841019812
 33
0.0
 14
-77.08640390008186
 24
23.16461841019812
 34
0.0
100
AcDbRotatedDimension
  0
TEXT
  5
170
330
18
100
AcDbEntity
  8
ADPDIM
100
AcDbText
 10
-83.98884222368982
 20
22.09047218774224
 30
0.0
 40
0.125
  1
J U L I U S  B L U M  &  C O . ,  I N C .      ( 8 0 0 )  5 2 6 - 6 2 9 3        W W W . J U L I U S B L U M . C O M        P A R T  N o .  1 4 5 2
 41
1.25
  7
ARIAL_WIDE
 72
     1
 11
-77.46311319913321
 21
22.21547218774225
 31
0.0
100
AcDbText
 73
     3
  0
ENDSEC
  0
SECTION
  2
OBJECTS
  0
DICTIONARY
  5
C
330
0
100
AcDbDictionary
  3
ACAD_GROUP
350
D
  3
ACAD_LAYOUT
350
169
  3
ACAD_MLINESTYLE
350
E
  3
ACAD_PLOTSETTINGS
350
16A
  3
ACAD_PLOTSTYLENAME
350
167
  3
ACDBHEADERROUNDTRIPXREC
350
2E3
  3
ACDBVARIABLEDICTIONARY
350
1CA
  0
DICTIONARY
  5
1C4
330
18
100
AcDbDictionary
280
     1
  3
ACAD_LAYOUTSELFREF
360
304
  0
DICTIONARY
  5
1C2
330
15
100
AcDbDictionary
280
     1
  3
ACAD_LAYOUTSELFREF
360
303
  0
DICTIONARY
  5
D
102
{ACAD_REACTORS
330
C
102
}
330
C
100
AcDbDictionary
  0
DICTIONARY
  5
169
102
{ACAD_REACTORS
330
C
102
}
330
C
100
AcDbDictionary
  0
DICTIONARY
  5
E
102
{ACAD_REACTORS
330
C
102
}
330
C
100
AcDbDictionary
  3
STANDARD
350
1B
  0
DICTIONARY
  5
16A
102
{ACAD_REACTORS
330
C
102
}
330
C
100
AcDbDictionary
  0
ACDBDICTIONARYWDFLT
  5
167
102
{ACAD_REACTORS
330
C
102
}
330
C
100
AcDbDictionary
281
     1
  3
Normal
350
168
100
AcDbDictionaryWithDefault
340
168
  0
DICTIONARY
  5
2E3
102
{ACAD_REACTORS
330
C
102
}
330
C
100
AcDbDictionary
  3
CEPSNTYPE
350
2ED
  3
FINGERPRINTGUID
350
2EE
  3
HYPERLINKBASE
350
2E6
  3
INSUNITS
350
2EC
  3
LAYOUTDICT
350
2E8
  3
LWETCUNION
350
2EB
  3
PLOTSETDICT
350
2E9
  3
PLOTSTYLNAMDICT
350
2EA
  3
PSVPSCALE
350
2F0
  3
PUCSBASE
350
2F3
  3
PUCSORGBACK
350
2F9
  3
PUCSORGBOTTOM
350
2F5
  3
PUCSORGFRONT
350
2F8
  3
PUCSORGLEFT
350
2F6
  3
PUCSORGRIGHT
350
2F7
  3
PUCSORGTOP
350
2F4
  3
PUCSORTHOREF
350
2F1
  3
PUCSORTHOVIEW
350
2F2
  3
STYLESHEET
350
2E7
  3
TSTACKALIGN
350
2E4
  3
TSTACKSIZE
350
2E5
  3
UCSBASE
350
2FC
  3
UCSORGBACK
350
302
  3
UCSORGBOTTOM
350
2FE
  3
UCSORGFRONT
350
301
  3
UCSORGLEFT
350
2FF
  3
UCSORGRIGHT
350
300
  3
UCSORGTOP
350
2FD
  3
UCSORTHOREF
350
2FA
  3
UCSORTHOVIEW
350
2FB
  3
VERSIONGUID
350
2EF
  0
DICTIONARY
  5
1CA
102
{ACAD_REACTORS
330
C
102
}
330
C
100
AcDbDictionary
  3
DIMASSOC
350
1CB
  0
XRECORD
  5
304
102
{ACAD_REACTORS
330
1C4
102
}
330
1C4
100
AcDbXrecord
340
18
  0
XRECORD
  5
303
102
{ACAD_REACTORS
330
1C2
102
}
330
1C2
100
AcDbXrecord
340
15
  0
MLINESTYLE
  5
1B
102
{ACAD_REACTORS
330
E
102
}
330
E
100
AcDbMlineStyle
  2
STANDARD
 70
     0
  3

 62
     0
 51
90.0
 52
90.0
 71
     2
 49
0.5
 62
   256
  6
BYLAYER
 49
-0.5
 62
   256
  6
BYLAYER
  0
ACDBPLACEHOLDER
  5
168
102
{ACAD_REACTORS
330
167
102
}
330
167
100
AcDbPlaceHolder
280
     0
  0
XRECORD
  5
2ED
102
{ACAD_REACTORS
330
2E3
102
}
330
2E3
100
AcDbXrecord
 90
        0
  0
XRECORD
  5
2EE
102
{ACAD_REACTORS
330
2E3
102
}
330
2E3
100
AcDbXrecord
  1
{AF0598CE-F14D-41A7-BC7F-7F5EE2287C34}
  0
XRECORD
  5
2E6
102
{ACAD_REACTORS
330
2E3
102
}
330
2E3
100
AcDbXrecord
  1

  0
XRECORD
  5
2EC
102
{ACAD_REACTORS
330
2E3
102
}
330
2E3
100
AcDbXrecord
 90
        0
  0
XRECORD
  5
2E8
102
{ACAD_REACTORS
330
2E3
102
}
330
2E3
100
AcDbXrecord
340
169
  0
XRECORD
  5
2EB
102
{ACAD_REACTORS
330
2E3
102
}
330
2E3
100
AcDbXrecord
 90
    14877
  0
XRECORD
  5
2E9
102
{ACAD_REACTORS
330
2E3
102
}
330
2E3
100
AcDbXrecord
340
16A
  0
XRECORD
  5
2EA
102
{ACAD_REACTORS
330
2E3
102
}
330
2E3
100
AcDbXrecord
340
167
  0
XRECORD
  5
2F0
102
{ACAD_REACTORS
330
2E3
102
}
330
2E3
100
AcDbXrecord
 40
0.0
  0
XRECORD
  5
2F3
102
{ACAD_REACTORS
330
2E3
102
}
330
2E3
100
AcDbXrecord
340
0
  0
XRECORD
  5
2F9
102
{ACAD_REACTORS
330
2E3
102
}
330
2E3
100
AcDbXrecord
 10
0.0
 20
0.0
 30
0.0
  0
XRECORD
  5
2F5
102
{ACAD_REACTORS
330
2E3
102
}
330
2E3
100
AcDbXrecord
 10
0.0
 20
0.0
 30
0.0
  0
XRECORD
  5
2F8
102
{ACAD_REACTORS
330
2E3
102
}
330
2E3
100
AcDbXrecord
 10
0.0
 20
0.0
 30
0.0
  0
XRECORD
  5
2F6
102
{ACAD_REACTORS
330
2E3
102
}
330
2E3
100
AcDbXrecord
 10
0.0
 20
0.0
 30
0.0
  0
XRECORD
  5
2F7
102
{ACAD_REACTORS
330
2E3
102
}
330
2E3
100
AcDbXrecord
 10
0.0
 20
0.0
 30
0.0
  0
XRECORD
  5
2F4
102
{ACAD_REACTORS
330
2E3
102
}
330
2E3
100
AcDbXrecord
 10
0.0
 20
0.0
 30
0.0
  0
XRECORD
  5
2F1
102
{ACAD_REACTORS
330
2E3
102
}
330
2E3
100
AcDbXrecord
340
0
  0
XRECORD
  5
2F2
102
{ACAD_REACTORS
330
2E3
102
}
330
2E3
100
AcDbXrecord
 70
     0
  0
XRECORD
  5
2E7
102
{ACAD_REACTORS
330
2E3
102
}
330
2E3
100
AcDbXrecord
  1

  0
XRECORD
  5
2E4
102
{ACAD_REACTORS
330
2E3
102
}
330
2E3
100
AcDbXrecord
 90
        1
  0
XRECORD
  5
2E5
102
{ACAD_REACTORS
330
2E3
102
}
330
2E3
100
AcDbXrecord
 90
       70
  0
XRECORD
  5
2FC
102
{ACAD_REACTORS
330
2E3
102
}
330
2E3
100
AcDbXrecord
340
0
  0
XRECORD
  5
302
102
{ACAD_REACTORS
330
2E3
102
}
330
2E3
100
AcDbXrecord
 10
0.0
 20
0.0
 30
0.0
  0
XRECORD
  5
2FE
102
{ACAD_REACTORS
330
2E3
102
}
330
2E3
100
AcDbXrecord
 10
0.0
 20
0.0
 30
0.0
  0
XRECORD
  5
301
102
{ACAD_REACTORS
330
2E3
102
}
330
2E3
100
AcDbXrecord
 10
0.0
 20
0.0
 30
0.0
  0
XRECORD
  5
2FF
102
{ACAD_REACTORS
330
2E3
102
}
330
2E3
100
AcDbXrecord
 10
0.0
 20
0.0
 30
0.0
  0
XRECORD
  5
300
102
{ACAD_REACTORS
330
2E3
102
}
330
2E3
100
AcDbXrecord
 10
0.0
 20
0.0
 30
0.0
  0
XRECORD
  5
2FD
102
{ACAD_REACTORS
330
2E3
102
}
330
2E3
100
AcDbXrecord
 10
0.0
 20
0.0
 30
0.0
  0
XRECORD
  5
2FA
102
{ACAD_REACTORS
330
2E3
102
}
330
2E3
100
AcDbXrecord
340
0
  0
XRECORD
  5
2FB
102
{ACAD_REACTORS
330
2E3
102
}
330
2E3
100
AcDbXrecord
 70
     0
  0
XRECORD
  5
2EF
102
{ACAD_REACTORS
330
2E3
102
}
330
2E3
100
AcDbXrecord
  1
{D74DE53B-951B-483F-A915-CCAFD828CE24}
  0
DICTIONARYVAR
  5
1CB
102
{ACAD_REACTORS
330
1CA
102
}
330
1CA
100
DictionaryVariables
280
     0
  1
1
  0
ENDSEC
  0
EOF
