  0
SECTION
  2
HEADER
  9
$ACADVER
  1
AC1015
  9
$ACADMAINTVER
 70
    20
  9
$DWGCODEPAGE
  3
ANSI_1252
  9
$INSBASE
 10
10.73919169076857
 20
3.436137965926227
 30
0.0
  9
$EXTMIN
 10
-28.64214146212202
 20
-3.017726420489151
 30
0.0
  9
$EXTMAX
 10
48.86467982027908
 20
45.91783393004191
 30
0.0
  9
$LIMMIN
 10
0.0
 20
0.0
  9
$LIMMAX
 10
36.0
 20
36.0
  9
$ORTHOMODE
 70
     0
  9
$REGENMODE
 70
     1
  9
$FILLMODE
 70
     1
  9
$QTEXTMODE
 70
     0
  9
$MIRRTEXT
 70
     1
  9
$LTSCALE
 40
1.0
  9
$ATTMODE
 70
     1
  9
$TEXTSIZE
 40
0.2
  9
$TRACEWID
 40
0.05
  9
$TEXTSTYLE
  7
STANDARD
  9
$CLAYER
  8
ADP1DETAIL
  9
$CELTYPE
  6
BYLAYER
  9
$CECOLOR
 62
   256
  9
$CELTSCALE
 40
1.0
  9
$DISPSILH
 70
     0
  9
$DIMSCALE
 40
1.0
  9
$DIMASZ
 40
0.125
  9
$DIMEXO
 40
0.0625
  9
$DIMDLI
 40
0.38
  9
$DIMRND
 40
0.0
  9
$DIMDLE
 40
0.0
  9
$DIMEXE
 40
0.18
  9
$DIMTP
 40
0.0
  9
$DIMTM
 40
0.0
  9
$DIMTXT
 40
0.125
  9
$DIMCEN
 40
0.1875
  9
$DIMTSZ
 40
0.125
  9
$DIMTOL
 70
     0
  9
$DIMLIM
 70
     0
  9
$DIMTIH
 70
     0
  9
$DIMTOH
 70
     0
  9
$DIMSE1
 70
     0
  9
$DIMSE2
 70
     0
  9
$DIMTAD
 70
     0
  9
$DIMZIN
 70
     3
  9
$DIMBLK
  1

  9
$DIMASO
 70
     1
  9
$DIMSHO
 70
     1
  9
$DIMPOST
  1

  9
$DIMAPOST
  1

  9
$DIMALT
 70
     0
  9
$DIMALTD
 70
     1
  9
$DIMALTF
 40
25.4
  9
$DIMLFAC
 40
1.0
  9
$DIMTOFL
 70
     0
  9
$DIMTVP
 40
0.0
  9
$DIMTIX
 70
     0
  9
$DIMSOXD
 70
     0
  9
$DIMSAH
 70
     0
  9
$DIMBLK1
  1

  9
$DIMBLK2
  1

  9
$DIMSTYLE
  2
STANDARD
  9
$DIMCLRD
 70
     0
  9
$DIMCLRE
 70
     0
  9
$DIMCLRT
 70
     0
  9
$DIMTFAC
 40
1.0
  9
$DIMGAP
 40
0.125
  9
$DIMJUST
 70
     0
  9
$DIMSD1
 70
     0
  9
$DIMSD2
 70
     0
  9
$DIMTOLJ
 70
     1
  9
$DIMTZIN
 70
     3
  9
$DIMALTZ
 70
     3
  9
$DIMALTTZ
 70
     3
  9
$DIMUPT
 70
     0
  9
$DIMDEC
 70
     4
  9
$DIMTDEC
 70
     4
  9
$DIMALTU
 70
     5
  9
$DIMALTTD
 70
     1
  9
$DIMTXSTY
  7
STANDARD
  9
$DIMAUNIT
 70
     0
  9
$DIMADEC
 70
     0
  9
$DIMALTRND
 40
0.0
  9
$DIMAZIN
 70
     0
  9
$DIMDSEP
 70
    46
  9
$DIMATFIT
 70
     3
  9
$DIMFRAC
 70
     0
  9
$DIMLDRBLK
  1

  9
$DIMLUNIT
 70
     5
  9
$DIMLWD
 70
    -2
  9
$DIMLWE
 70
    -2
  9
$DIMTMOVE
 70
     2
  9
$LUNITS
 70
     5
  9
$LUPREC
 70
     4
  9
$SKETCHINC
 40
0.1
  9
$FILLETRAD
 40
0.062
  9
$AUNITS
 70
     0
  9
$AUPREC
 70
     0
  9
$MENU
  1
acad
  9
$ELEVATION
 40
0.0
  9
$PELEVATION
 40
0.0
  9
$THICKNESS
 40
0.0
  9
$LIMCHECK
 70
     0
  9
$CHAMFERA
 40
0.0
  9
$CHAMFERB
 40
0.0
  9
$CHAMFERC
 40
0.0
  9
$CHAMFERD
 40
0.0
  9
$SKPOLY
 70
     0
  9
$TDCREATE
 40
2450373.688751736
  9
$TDUCREATE
 40
2450373.855418403
  9
$TDUPDATE
 40
2453943.916727488
  9
$TDUUPDATE
 40
2453944.083394155
  9
$TDINDWG
 40
0.0145611458
  9
$TDUSRTIMER
 40
0.0145611458
  9
$USRTIMER
 70
     1
  9
$ANGBASE
 50
0.0
  9
$ANGDIR
 70
     0
  9
$PDMODE
 70
     0
  9
$PDSIZE
 40
0.0
  9
$PLINEWID
 40
0.0
  9
$SPLFRAME
 70
     0
  9
$SPLINETYPE
 70
     6
  9
$SPLINESEGS
 70
     8
  9
$HANDSEED
  5
2F4
  9
$SURFTAB1
 70
     6
  9
$SURFTAB2
 70
     6
  9
$SURFTYPE
 70
     6
  9
$SURFU
 70
     6
  9
$SURFV
 70
     6
  9
$UCSBASE
  2

  9
$UCSNAME
  2

  9
$UCSORG
 10
0.0
 20
0.0
 30
0.0
  9
$UCSXDIR
 10
1.0
 20
0.0
 30
0.0
  9
$UCSYDIR
 10
0.0
 20
1.0
 30
0.0
  9
$UCSORTHOREF
  2

  9
$UCSORTHOVIEW
 70
     0
  9
$UCSORGTOP
 10
0.0
 20
0.0
 30
0.0
  9
$UCSORGBOTTOM
 10
0.0
 20
0.0
 30
0.0
  9
$UCSORGLEFT
 10
0.0
 20
0.0
 30
0.0
  9
$UCSORGRIGHT
 10
0.0
 20
0.0
 30
0.0
  9
$UCSORGFRONT
 10
0.0
 20
0.0
 30
0.0
  9
$UCSORGBACK
 10
0.0
 20
0.0
 30
0.0
  9
$PUCSBASE
  2

  9
$PUCSNAME
  2

  9
$PUCSORG
 10
0.0
 20
0.0
 30
0.0
  9
$PUCSXDIR
 10
1.0
 20
0.0
 30
0.0
  9
$PUCSYDIR
 10
0.0
 20
1.0
 30
0.0
  9
$PUCSORTHOREF
  2

  9
$PUCSORTHOVIEW
 70
     0
  9
$PUCSORGTOP
 10
0.0
 20
0.0
 30
0.0
  9
$PUCSORGBOTTOM
 10
0.0
 20
0.0
 30
0.0
  9
$PUCSORGLEFT
 10
0.0
 20
0.0
 30
0.0
  9
$PUCSORGRIGHT
 10
0.0
 20
0.0
 30
0.0
  9
$PUCSORGFRONT
 10
0.0
 20
0.0
 30
0.0
  9
$PUCSORGBACK
 10
0.0
 20
0.0
 30
0.0
  9
$USERI1
 70
     0
  9
$USERI2
 70
     0
  9
$USERI3
 70
     0
  9
$USERI4
 70
     0
  9
$USERI5
 70
     0
  9
$USERR1
 40
0.0
  9
$USERR2
 40
0.0
  9
$USERR3
 40
0.0
  9
$USERR4
 40
0.0
  9
$USERR5
 40
0.0
  9
$WORLDVIEW
 70
     1
  9
$SHADEDGE
 70
     3
  9
$SHADEDIF
 70
    70
  9
$TILEMODE
 70
     1
  9
$MAXACTVP
 70
    15
  9
$PINSBASE
 10
1.667196317885515E+99
 20
2.439420651286265E+99
 30
0.0
  9
$PLIMCHECK
 70
     0
  9
$PEXTMIN
 10
1.000000000000000E+20
 20
1.000000000000000E+20
 30
1.000000000000000E+20
  9
$PEXTMAX
 10
-1.000000000000000E+20
 20
-1.000000000000000E+20
 30
-1.000000000000000E+20
  9
$PLIMMIN
 10
0.0
 20
0.0
  9
$PLIMMAX
 10
12.0
 20
9.0
  9
$UNITMODE
 70
     0
  9
$VISRETAIN
 70
     0
  9
$PLINEGEN
 70
     0
  9
$PSLTSCALE
 70
     1
  9
$TREEDEPTH
 70
  3020
  9
$CMLSTYLE
  2
STANDARD
  9
$CMLJUST
 70
     0
  9
$CMLSCALE
 40
1.0
  9
$PROXYGRAPHICS
 70
     1
  9
$MEASUREMENT
 70
     0
  9
$CELWEIGHT
370
    -1
  9
$ENDCAPS
280
     0
  9
$JOINSTYLE
280
     0
  9
$LWDISPLAY
290
     0
  9
$INSUNITS
 70
     0
  9
$HYPERLINKBASE
  1

  9
$STYLESHEET
  1

  9
$XEDIT
290
     1
  9
$CEPSNTYPE
380
     0
  9
$PSTYLEMODE
290
     1
  9
$FINGERPRINTGUID
  2
{01D9AA66-70B8-42BE-9B9F-C150B3944057}
  9
$VERSIONGUID
  2
{C1CC4FB1-D594-4267-A3C7-2FAB6B2B439A}
  9
$EXTNAMES
290
     1
  9
$PSVPSCALE
 40
0.0
  9
$OLESTARTUP
290
     0
  0
ENDSEC
  0
SECTION
  2
CLASSES
  0
CLASS
  1
DICTIONARYVAR
  2
AcDbDictionaryVar
  3
ObjectDBX Classes
 90
        0
280
     0
281
     0
  0
CLASS
  1
ACDBDICTIONARYWDFLT
  2
AcDbDictionaryWithDefault
  3
ObjectDBX Classes
 90
        0
280
     0
281
     0
  0
CLASS
  1
ACDBPLACEHOLDER
  2
AcDbPlaceHolder
  3
ObjectDBX Classes
 90
        0
280
     0
281
     0
  0
CLASS
  1
LAYOUT
  2
AcDbLayout
  3
ObjectDBX Classes
 90
        0
280
     0
281
     0
  0
CLASS
  1
MATERIAL
  2
AcDbMaterial
  3
ObjectDBX Classes
 90
     1024
280
     0
281
     0
  0
CLASS
  1
VISUALSTYLE
  2
AcDbVisualStyle
  3
ObjectDBX Classes
 90
     4095
280
     0
281
     0
  0
CLASS
  1
TABLESTYLE
  2
AcDbTableStyle
  3
ObjectDBX Classes
 90
     4095
280
     0
281
     0
  0
ENDSEC
  0
SECTION
  2
TABLES
  0
TABLE
  2
VPORT
  5
8
330
0
100
AcDbSymbolTable
 70
     1
  0
VPORT
  5
178
330
8
100
AcDbSymbolTableRecord
100
AcDbViewportTableRecord
  2
*Active
 70
     0
 10
0.0
 20
0.0
 11
1.0
 21
1.0
 12
12.23196589996867
 22
6.194271867539846
 13
0.0
 23
0.0
 14
0.5740882589684922
 24
0.5740882589684922
 15
0.5
 25
0.5
 16
0.0
 26
0.0
 36
1.0
 17
0.0
 27
0.0
 37
0.0
 40
9.395424109593577
 41
2.023012552301255
 42
50.0
 43
0.0
 44
0.0
 50
0.0
 51
0.0
 71
     0
 72
   100
 73
     1
 74
     0
 75
     0
 76
     0
 77
     0
 78
     0
281
     0
 65
     1
110
0.0
120
0.0
130
0.0
111
1.0
121
0.0
131
0.0
112
0.0
122
1.0
132
0.0
 79
     0
146
0.0
  0
ENDTAB
  0
TABLE
  2
LTYPE
  5
5
330
0
100
AcDbSymbolTable
 70
     2
  0
LTYPE
  5
11
330
5
100
AcDbSymbolTableRecord
100
AcDbLinetypeTableRecord
  2
BYBLOCK
 70
     0
  3

 72
    65
 73
     0
 40
0.0
  0
LTYPE
  5
12
330
5
100
AcDbSymbolTableRecord
100
AcDbLinetypeTableRecord
  2
BYLAYER
 70
     0
  3

 72
    65
 73
     0
 40
0.0
  0
LTYPE
  5
13
330
5
100
AcDbSymbolTableRecord
100
AcDbLinetypeTableRecord
  2
CONTINUOUS
 70
     0
  3
Solid line
 72
    65
 73
     0
 40
0.0
  0
ENDTAB
  0
TABLE
  2
LAYER
  5
2
330
0
100
AcDbSymbolTable
 70
     4
  0
LAYER
  5
E
330
2
100
AcDbSymbolTableRecord
100
AcDbLayerTableRecord
  2
0
 70
     0
 62
     7
  6
CONTINUOUS
370
    -3
390
B9
  0
LAYER
  5
1F
330
2
100
AcDbSymbolTableRecord
100
AcDbLayerTableRecord
  2
ADPDIM
 70
     0
 62
     3
  6
CONTINUOUS
370
    -3
390
B9
  0
LAYER
  5
20
330
2
100
AcDbSymbolTableRecord
100
AcDbLayerTableRecord
  2
ADP1DETAIL
 70
     0
 62
     7
  6
CONTINUOUS
370
    -3
390
B9
  0
LAYER
  5
21
330
2
100
AcDbSymbolTableRecord
100
AcDbLayerTableRecord
  2
DEFPOINTS
 70
     0
 62
     7
  6
CONTINUOUS
290
     0
370
    -3
390
B9
  0
ENDTAB
  0
TABLE
  2
STYLE
  5
3
330
0
100
AcDbSymbolTable
 70
     2
  0
STYLE
  5
F
330
3
100
AcDbSymbolTableRecord
100
AcDbTextStyleTableRecord
  2
STANDARD
 70
     0
 40
0.0
 41
1.0
 50
0.0
 71
     0
 42
0.2
  3
txt
  4

  0
STYLE
  5
AD
330
3
100
AcDbSymbolTableRecord
100
AcDbTextStyleTableRecord
  2
ARIAL_WIDE
 70
     0
 40
0.0
 41
1.25
 50
0.0
 71
     0
 42
0.2
  3
ARIAL.TTF
  4

1001
ACAD
1000
Arial
1071
       34
  0
ENDTAB
  0
TABLE
  2
VIEW
  5
6
330
0
100
AcDbSymbolTable
 70
     0
  0
ENDTAB
  0
TABLE
  2
UCS
  5
7
330
0
100
AcDbSymbolTable
 70
     0
  0
ENDTAB
  0
TABLE
  2
APPID
  5
9
330
0
100
AcDbSymbolTable
 70
     2
  0
APPID
  5
10
330
9
100
AcDbSymbolTableRecord
100
AcDbRegAppTableRecord
  2
ACAD
 70
     0
  0
APPID
  5
29B
330
9
100
AcDbSymbolTableRecord
100
AcDbRegAppTableRecord
  2
ACAD_EXEMPT_FROM_CAD_STANDARDS
 70
     0
  0
ENDTAB
  0
TABLE
  2
DIMSTYLE
  5
A
330
0
100
AcDbSymbolTable
 70
     2
100
AcDbDimStyleTable
 71
     1
340
AB
  0
DIMSTYLE
105
AB
102
{ACAD_REACTORS
330
41
330
1D5
330
25A
102
}
330
A
100
AcDbSymbolTableRecord
100
AcDbDimStyleTableRecord
  2
STANDARD
 70
     0
340
F
  0
ENDTAB
  0
TABLE
  2
BLOCK_RECORD
  5
1
330
0
100
AcDbSymbolTable
 70
     8
  0
BLOCK_RECORD
  5
17
102
{ACAD_XDICTIONARY
360
E7
102
}
330
1
100
AcDbSymbolTableRecord
100
AcDbBlockTableRecord
  2
*MODEL_SPACE
340
BC
  0
BLOCK_RECORD
  5
14
102
{ACAD_XDICTIONARY
360
E5
102
}
330
1
100
AcDbSymbolTableRecord
100
AcDbBlockTableRecord
  2
*PAPER_SPACE
340
BD
  0
BLOCK_RECORD
  5
1C
330
1
100
AcDbSymbolTableRecord
100
AcDbBlockTableRecord
  2
*D0
340
0
  0
BLOCK_RECORD
  5
1D
330
1
100
AcDbSymbolTableRecord
100
AcDbBlockTableRecord
  2
*D1
340
0
  0
BLOCK_RECORD
  5
1BE
330
1
100
AcDbSymbolTableRecord
100
AcDbBlockTableRecord
  2
*D2
340
0
  0
BLOCK_RECORD
  5
1D6
330
1
100
AcDbSymbolTableRecord
100
AcDbBlockTableRecord
  2
*D3
340
0
  0
BLOCK_RECORD
  5
247
330
1
100
AcDbSymbolTableRecord
100
AcDbBlockTableRecord
  2
*D4
340
0
  0
BLOCK_RECORD
  5
25B
330
1
100
AcDbSymbolTableRecord
100
AcDbBlockTableRecord
  2
*D6
340
0
  0
ENDTAB
  0
ENDSEC
  0
SECTION
  2
BLOCKS
  0
BLOCK
  5
24
330
17
100
AcDbEntity
  8
0
100
AcDbBlockBegin
  2
*MODEL_SPACE
 70
     0
 10
0.0
 20
0.0
 30
0.0
  3
*MODEL_SPACE
  1

  0
ENDBLK
  5
25
330
17
100
AcDbEntity
  8
0
100
AcDbBlockEnd
  0
BLOCK
  5
22
330
14
100
AcDbEntity
 67
     1
  8
0
100
AcDbBlockBegin
  2
*PAPER_SPACE
 70
     0
 10
0.0
 20
0.0
 30
0.0
  3
*PAPER_SPACE
  1

  0
ENDBLK
  5
23
330
14
100
AcDbEntity
 67
     1
  8
0
100
AcDbBlockEnd
  0
BLOCK
  5
28
330
1C
100
AcDbEntity
  8
0
100
AcDbBlockBegin
  2
*D0
 70
     1
 10
0.0
 20
0.0
 30
0.0
  3
*D0
  1

  0
LINE
  5
29
330
1C
100
AcDbEntity
  8
0
  6
ByBlock
 62
     0
100
AcDbLine
 10
9.483346667388483
 20
3.373637965926227
 30
0.0
 11
9.483346667388483
 21
2.883294881558156
 31
0.0
  0
LINE
  5
2A
330
1C
100
AcDbEntity
  8
0
  6
ByBlock
 62
     0
100
AcDbLine
 10
10.73919169076857
 20
3.373637965926227
 30
0.0
 11
10.73919169076857
 21
2.883294881558156
 31
0.0
  0
LINE
  5
2B
330
1C
100
AcDbEntity
  8
0
  6
ByBlock
 62
     0
100
AcDbLine
 10
9.483346667388483
 20
3.063294881558156
 30
0.0
 11
9.736269179078529
 21
3.063294881558156
 31
0.0
  0
LINE
  5
2C
330
1C
100
AcDbEntity
  8
0
  6
ByBlock
 62
     0
100
AcDbLine
 10
10.73919169076857
 20
3.063294881558156
 30
0.0
 11
10.48626917907853
 21
3.063294881558156
 31
0.0
  0
LINE
  5
2D
330
1C
100
AcDbEntity
  8
0
  6
ByBlock
 62
     0
100
AcDbLine
 10
9.358346667388483
 20
2.938294881558156
 30
0.0
 11
9.608346667388483
 21
3.188294881558156
 31
0.0
  0
LINE
  5
2E
330
1C
100
AcDbEntity
  8
0
  6
ByBlock
 62
     0
100
AcDbLine
 10
10.61419169076857
 20
2.938294881558156
 30
0.0
 11
10.86419169076857
 21
3.188294881558156
 31
0.0
  0
TEXT
  5
2F
330
1C
100
AcDbEntity
  8
0
  6
ByBlock
 62
     0
100
AcDbText
 10
9.861269179078529
 20
3.000794881558156
 30
0.0
 40
0.125
  1
1 1/4
 72
     1
 11
10.11126917907853
 21
3.063294881558156
 31
0.0
100
AcDbText
 73
     2
  0
POINT
  5
31
330
1C
100
AcDbEntity
  8
DEFPOINTS
  6
ByBlock
 62
     0
100
AcDbPoint
 10
9.483346667388483
 20
3.436137965926227
 30
0.0
  0
POINT
  5
32
330
1C
100
AcDbEntity
  8
DEFPOINTS
  6
ByBlock
 62
     0
100
AcDbPoint
 10
10.73919169076857
 20
3.436137965926227
 30
0.0
  0
POINT
  5
33
330
1C
100
AcDbEntity
  8
DEFPOINTS
  6
ByBlock
 62
     0
100
AcDbPoint
 10
10.73919169076857
 20
3.063294881558156
 30
0.0
  0
ENDBLK
  5
34
330
1C
100
AcDbEntity
  8
0
100
AcDbBlockEnd
  0
BLOCK
  5
35
330
1D
100
AcDbEntity
  8
0
100
AcDbBlockBegin
  2
*D1
 70
     1
 10
0.0
 20
0.0
 30
0.0
  3
*D1
  1

  0
LINE
  5
36
330
1D
100
AcDbEntity
  8
0
  6
ByBlock
 62
     0
100
AcDbLine
 10
9.420846667388483
 20
3.436137965926227
 30
0.0
 11
8.008839172041449
 21
3.436137965926227
 31
0.0
  0
LINE
  5
37
330
1D
100
AcDbEntity
  8
0
  6
ByBlock
 62
     0
100
AcDbLine
 10
9.420846667388483
 20
43.43613796592622
 30
0.0
 11
8.008839172041451
 21
43.43613796592622
 31
0.0
  0
LINE
  5
38
330
1D
100
AcDbEntity
  8
0
  6
ByBlock
 62
     0
100
AcDbLine
 10
8.188839172041449
 20
3.436137965926227
 30
0.0
 11
8.188839172041451
 21
23.21738796592622
 31
0.0
  0
LINE
  5
39
330
1D
100
AcDbEntity
  8
0
  6
ByBlock
 62
     0
100
AcDbLine
 10
8.188839172041451
 20
43.43613796592622
 30
0.0
 11
8.188839172041451
 21
23.65488796592623
 31
0.0
  0
LINE
  5
3A
330
1D
100
AcDbEntity
  8
0
  6
ByBlock
 62
     0
100
AcDbLine
 10
8.313839172041449
 20
3.311137965926227
 30
0.0
 11
8.063839172041449
 21
3.561137965926227
 31
0.0
  0
LINE
  5
3B
330
1D
100
AcDbEntity
  8
0
  6
ByBlock
 62
     0
100
AcDbLine
 10
8.313839172041451
 20
43.31113796592622
 30
0.0
 11
8.063839172041452
 21
43.56113796592622
 31
0.0
  0
TEXT
  5
3C
330
1D
100
AcDbEntity
  8
0
  6
ByBlock
 62
     0
100
AcDbText
 10
8.251339172041451
 20
23.34238796592623
 30
0.0
 40
0.125
  1
40
 50
90.0
 72
     1
 11
8.188839172041451
 21
23.43613796592622
 31
0.0
100
AcDbText
 73
     2
  0
POINT
  5
3D
330
1D
100
AcDbEntity
  8
DEFPOINTS
  6
ByBlock
 62
     0
100
AcDbPoint
 10
9.483346667388483
 20
3.436137965926227
 30
0.0
  0
POINT
  5
3E
330
1D
100
AcDbEntity
  8
DEFPOINTS
  6
ByBlock
 62
     0
100
AcDbPoint
 10
9.483346667388483
 20
43.43613796592622
 30
0.0
  0
POINT
  5
3F
330
1D
100
AcDbEntity
  8
DEFPOINTS
  6
ByBlock
 62
     0
100
AcDbPoint
 10
8.188839172041451
 20
43.43613796592622
 30
0.0
  0
ENDBLK
  5
40
330
1D
100
AcDbEntity
  8
0
100
AcDbBlockEnd
  0
BLOCK
  5
1C9
330
1BE
100
AcDbEntity
  8
0
100
AcDbBlockBegin
  2
*D2
 70
     1
 10
0.0
 20
0.0
 30
0.0
  3
*D2
  1

  0
LINE
  5
1CB
330
1BE
100
AcDbEntity
  8
ADPDIM
 62
     0
370
    -2
100
AcDbLine
 10
9.420846667388483
 20
3.436137965926227
 30
0.0
 11
8.008839172041442
 21
3.436137965926227
 31
0.0
  0
LINE
  5
1CC
330
1BE
100
AcDbEntity
  8
ADPDIM
 62
     0
370
    -2
100
AcDbLine
 10
9.420846667388483
 20
43.43613796592622
 30
0.0
 11
8.008839172041451
 21
43.43613796592622
 31
0.0
  0
LINE
  5
1CD
330
1BE
100
AcDbEntity
  8
ADPDIM
 62
     0
370
    -2
100
AcDbLine
 10
8.188839172041442
 20
3.436137965926227
 30
0.0
 11
8.188839172041447
 21
22.93613796592622
 31
0.0
  0
LINE
  5
1CE
330
1BE
100
AcDbEntity
  8
ADPDIM
 62
     0
370
    -2
100
AcDbLine
 10
8.188839172041451
 20
43.43613796592622
 30
0.0
 11
8.188839172041447
 21
23.93613796592622
 31
0.0
  0
LINE
  5
1CF
330
1BE
100
AcDbEntity
  8
ADPDIM
 62
     0
370
    -2
100
AcDbLine
 10
8.313839172041451
 20
43.31113796592622
 30
0.0
 11
8.063839172041451
 21
43.56113796592622
 31
0.0
  0
LINE
  5
1D0
330
1BE
100
AcDbEntity
  8
ADPDIM
 62
     0
370
    -2
100
AcDbLine
 10
8.313839172041442
 20
3.311137965926227
 30
0.0
 11
8.063839172041442
 21
3.561137965926227
 31
0.0
  0
MTEXT
  5
1D1
330
1BE
100
AcDbEntity
  8
ADPDIM
 62
     0
100
AcDbMText
 10
8.188839172041443
 20
23.43613796592622
 30
0.0
 40
0.5
 41
0.0
 71
     5
 72
     1
  1
\A1;40
 11
0.0000000000000001
 21
1.0
 31
0.0
 73
     1
 44
1.0
1001
ACAD
1000
MTEXTBEGIN
1070
    73
1070
     1
1070
    44
1040
1.0
1070
    74
1070
     0
1000
MTEXTEND
  0
POINT
  5
1D2
330
1BE
100
AcDbEntity
  8
DEFPOINTS
 62
     0
100
AcDbPoint
 10
9.483346667388483
 20
3.436137965926227
 30
0.0
  0
POINT
  5
1D3
330
1BE
100
AcDbEntity
  8
DEFPOINTS
 62
     0
100
AcDbPoint
 10
9.483346667388483
 20
43.43613796592622
 30
0.0
  0
POINT
  5
1D4
330
1BE
100
AcDbEntity
  8
DEFPOINTS
 62
     0
100
AcDbPoint
 10
8.188839172041451
 20
43.43613796592622
 30
0.0
  0
ENDBLK
  5
1CA
330
1BE
100
AcDbEntity
  8
0
100
AcDbBlockEnd
  0
BLOCK
  5
1E1
330
1D6
100
AcDbEntity
  8
0
100
AcDbBlockBegin
  2
*D3
 70
     1
 10
0.0
 20
0.0
 30
0.0
  3
*D3
  1

  0
LINE
  5
2C0
330
1D6
100
AcDbEntity
  8
ADPDIM
 62
     0
370
    -2
100
AcDbLine
 10
10.80169169076858
 20
3.373637965926227
 30
0.0
 11
12.50892858994935
 21
3.373637965926226
 31
0.0
  0
LINE
  5
2C1
330
1D6
100
AcDbEntity
  8
ADPDIM
 62
     0
370
    -2
100
AcDbLine
 10
11.28071865206874
 20
20.38534191125713
 30
0.0
 11
12.50892858994935
 21
20.38534191125713
 31
0.0
  0
LINE
  5
2C2
330
1D6
100
AcDbEntity
  8
ADPDIM
 62
     0
370
    -2
100
AcDbLine
 10
12.32892858994935
 20
3.373637965926226
 30
0.0
 11
12.32892858994935
 21
11.42115660525834
 31
0.0
  0
LINE
  5
2C3
330
1D6
100
AcDbEntity
  8
ADPDIM
 62
     0
370
    -2
100
AcDbLine
 10
12.32892858994935
 20
20.38534191125713
 30
0.0
 11
12.32892858994935
 21
12.33782327192501
 31
0.0
  0
LINE
  5
2C4
330
1D6
100
AcDbEntity
  8
ADPDIM
 62
     0
370
    -2
100
AcDbLine
 10
12.45392858994935
 20
20.26034191125713
 30
0.0
 11
12.20392858994935
 21
20.51034191125713
 31
0.0
  0
LINE
  5
2C5
330
1D6
100
AcDbEntity
  8
ADPDIM
 62
     0
370
    -2
100
AcDbLine
 10
12.45392858994935
 20
3.248637965926226
 30
0.0
 11
12.20392858994935
 21
3.498637965926226
 31
0.0
  0
MTEXT
  5
2C6
330
1D6
100
AcDbEntity
  8
ADPDIM
 62
     0
100
AcDbMText
 10
12.32892858994935
 20
11.87948993859168
 30
0.0
 40
0.5
 41
0.0
 71
     5
 72
     1
  1
\A1;17
 11
0.0000000000000001
 21
1.0
 31
0.0
 73
     1
 44
1.0
1001
ACAD
1000
MTEXTBEGIN
1070
    73
1070
     1
1070
    44
1040
1.0
1070
    74
1070
     0
1000
MTEXTEND
  0
POINT
  5
2C7
330
1D6
100
AcDbEntity
  8
DEFPOINTS
 62
     0
100
AcDbPoint
 10
10.73919169076857
 20
3.373637965926227
 30
0.0
  0
POINT
  5
2C8
330
1D6
100
AcDbEntity
  8
DEFPOINTS
 62
     0
100
AcDbPoint
 10
11.21821865206874
 20
20.38534191125713
 30
0.0
  0
POINT
  5
2C9
330
1D6
100
AcDbEntity
  8
DEFPOINTS
 62
     0
100
AcDbPoint
 10
12.32892858994935
 20
20.38534191125713
 30
0.0
  0
ENDBLK
  5
1E2
330
1D6
100
AcDbEntity
  8
0
100
AcDbBlockEnd
  0
BLOCK
  5
248
330
247
100
AcDbEntity
  8
0
100
AcDbBlockBegin
  2
*D4
 70
     1
 10
0.0
 20
0.0
 30
0.0
  3
*D4
  1

  0
LINE
  5
249
330
247
100
AcDbEntity
  8
ADP1DETAIL
 62
     0
370
    -2
100
AcDbLine
 10
10.80169169076858
 20
3.373637965926227
 30
0.0
 11
12.50892858994935
 21
3.373637965926226
 31
0.0
  0
LINE
  5
24A
330
247
100
AcDbEntity
  8
ADP1DETAIL
 62
     0
370
    -2
100
AcDbLine
 10
11.73225047792899
 20
20.38534191125713
 30
0.0
 11
12.50892858994935
 21
20.38534191125713
 31
0.0
  0
LINE
  5
24B
330
247
100
AcDbEntity
  8
ADP1DETAIL
 62
     0
370
    -2
100
AcDbLine
 10
12.32892858994935
 20
3.373637965926226
 30
0.0
 11
12.32892858994935
 21
11.42115660525834
 31
0.0
  0
LINE
  5
24C
330
247
100
AcDbEntity
  8
ADP1DETAIL
 62
     0
370
    -2
100
AcDbLine
 10
12.32892858994935
 20
20.38534191125713
 30
0.0
 11
12.32892858994935
 21
12.33782327192501
 31
0.0
  0
LINE
  5
24D
330
247
100
AcDbEntity
  8
ADP1DETAIL
 62
     0
370
    -2
100
AcDbLine
 10
12.45392858994935
 20
20.26034191125713
 30
0.0
 11
12.20392858994935
 21
20.51034191125713
 31
0.0
  0
LINE
  5
24E
330
247
100
AcDbEntity
  8
ADP1DETAIL
 62
     0
370
    -2
100
AcDbLine
 10
12.45392858994935
 20
3.248637965926226
 30
0.0
 11
12.20392858994935
 21
3.498637965926226
 31
0.0
  0
MTEXT
  5
24F
330
247
100
AcDbEntity
  8
ADP1DETAIL
 62
     0
100
AcDbMText
 10
12.32892858994935
 20
11.87948993859168
 30
0.0
 40
0.5
 41
0.0
 71
     5
 72
     1
  1
\A1;17
 11
0.0000000000000001
 21
1.0
 31
0.0
 73
     1
 44
1.0
1001
ACAD
1000
MTEXTBEGIN
1070
    73
1070
     1
1070
    44
1040
1.0
1070
    74
1070
     0
1000
MTEXTEND
  0
POINT
  5
250
330
247
100
AcDbEntity
  8
DEFPOINTS
 62
     0
100
AcDbPoint
 10
10.73919169076857
 20
3.373637965926227
 30
0.0
  0
POINT
  5
251
330
247
100
AcDbEntity
  8
DEFPOINTS
 62
     0
100
AcDbPoint
 10
11.66975047792899
 20
20.38534191125713
 30
0.0
  0
POINT
  5
252
330
247
100
AcDbEntity
  8
DEFPOINTS
 62
     0
100
AcDbPoint
 10
12.32892858994935
 20
20.38534191125713
 30
0.0
  0
ENDBLK
  5
253
330
247
100
AcDbEntity
  8
0
100
AcDbBlockEnd
  0
BLOCK
  5
266
330
25B
100
AcDbEntity
  8
0
100
AcDbBlockBegin
  2
*D6
 70
     1
 10
0.0
 20
0.0
 30
0.0
  3
*D6
  1

  0
LINE
  5
2B6
330
25B
100
AcDbEntity
  8
ADPDIM
 62
     0
370
    -2
100
AcDbLine
 10
11.09561286645327
 20
30.42716710370203
 30
0.0
 11
12.38627058857814
 21
30.42716710370203
 31
0.0
  0
LINE
  5
2B7
330
25B
100
AcDbEntity
  8
ADPDIM
 62
     0
370
    -2
100
AcDbLine
 10
10.89304214515545
 20
43.43460075645691
 30
0.0
 11
12.38627058857814
 21
43.43460075645691
 31
0.0
  0
LINE
  5
2B8
330
25B
100
AcDbEntity
  8
ADPDIM
 62
     0
370
    -2
100
AcDbLine
 10
12.20627058857814
 20
30.42716710370203
 30
0.0
 11
12.20627058857815
 21
36.47255059674614
 31
0.0
  0
LINE
  5
2B9
330
25B
100
AcDbEntity
  8
ADPDIM
 62
     0
370
    -2
100
AcDbLine
 10
12.20627058857815
 20
43.43460075645691
 30
0.0
 11
12.20627058857815
 21
37.38921726341281
 31
0.0
  0
LINE
  5
2BA
330
25B
100
AcDbEntity
  8
ADPDIM
 62
     0
370
    -2
100
AcDbLine
 10
12.33127058857815
 20
43.30960075645691
 30
0.0
 11
12.08127058857815
 21
43.55960075645691
 31
0.0
  0
LINE
  5
2BB
330
25B
100
AcDbEntity
  8
ADPDIM
 62
     0
370
    -2
100
AcDbLine
 10
12.33127058857814
 20
30.30216710370203
 30
0.0
 11
12.08127058857815
 21
30.55216710370203
 31
0.0
  0
MTEXT
  5
2BC
330
25B
100
AcDbEntity
  8
ADPDIM
 62
     0
100
AcDbMText
 10
12.20627058857814
 20
36.93088393007947
 30
0.0
 40
0.5
 41
0.0
 71
     5
 72
     1
  1
\A1;13
 11
0.0000000000000001
 21
1.0
 31
0.0
 73
     1
 44
1.0
1001
ACAD
1000
MTEXTBEGIN
1070
    73
1070
     1
1070
    44
1040
1.0
1070
    74
1070
     0
1000
MTEXTEND
  0
POINT
  5
2BD
330
25B
100
AcDbEntity
  8
DEFPOINTS
 62
     0
100
AcDbPoint
 10
11.03311286645327
 20
30.42716710370203
 30
0.0
  0
POINT
  5
2BE
330
25B
100
AcDbEntity
  8
DEFPOINTS
 62
     0
100
AcDbPoint
 10
10.83054214515545
 20
43.43460075645691
 30
0.0
  0
POINT
  5
2BF
330
25B
100
AcDbEntity
  8
DEFPOINTS
 62
     0
100
AcDbPoint
 10
12.20627058857815
 20
43.43460075645691
 30
0.0
  0
ENDBLK
  5
267
330
25B
100
AcDbEntity
  8
0
100
AcDbBlockEnd
  0
ENDSEC
  0
SECTION
  2
ENTITIES
  0
DIMENSION
  5
41
330
17
100
AcDbEntity
  8
ADPDIM
100
AcDbDimension
  2
*D2
 10
8.188839172041451
 20
43.43613796592622
 30
0.0
 11
8.188839172041443
 21
23.43613796592622
 31
0.0
 70
    32
 71
     5
 42
40.0
  3
STANDARD
100
AcDbAlignedDimension
 13
9.483346667388483
 23
3.436137965926227
 33
0.0
 14
9.483346667388483
 24
43.43613796592622
 34
0.0
 50
90.0
100
AcDbRotatedDimension
1001
ACAD
1000
DSTYLE
1002
{
1070
    41
1040
0.125
1070
    73
1070
     0
1070
    74
1070
     0
1070
    78
1070
     3
1070
   140
1040
0.5
1070
   141
1040
0.1875
1070
   142
1040
0.125
1070
   147
1040
0.125
1070
   171
1070
     1
1070
   273
1070
     5
1070
   274
1070
     1
1070
   277
1070
     5
1070
   279
1070
     2
1070
   284
1070
     3
1070
   285
1070
     3
1070
   286
1070
     3
1002
}
  0
LINE
  5
42
330
17
100
AcDbEntity
  8
ADP1DETAIL
100
AcDbLine
 10
9.697107522431902
 20
21.10477514497405
 30
0.0
 11
9.349746132986343
 21
20.38333225920251
 31
0.0
  0
ARC
  5
43
330
17
100
AcDbEntity
  8
ADP1DETAIL
100
AcDbCircle
 10
2.727227409321482
 20
21.26397096926887
 30
0.0
 40
6.495452356136331
100
AcDbArc
 50
352.2079712514524
 51
4.869030834409053
  0
ARC
  5
44
330
17
100
AcDbEntity
  8
ADP1DETAIL
100
AcDbCircle
 10
15.06281873384462
 20
21.33427150070627
 30
0.0
 40
4.14038824492583
100
AcDbArc
 50
173.3284129976254
 51
193.2778754321913
  0
LINE
  5
45
330
17
100
AcDbEntity
  8
ADP1DETAIL
100
AcDbLine
 10
10.49871072884472
 20
21.10477514497405
 30
0.0
 11
10.09790912563831
 21
20.38333225920251
 31
0.0
  0
LINE
  5
46
330
17
100
AcDbEntity
  8
ADP1DETAIL
100
AcDbLine
 10
10.09790912563831
 20
20.38333225920251
 30
0.0
 11
9.697107522431902
 21
21.10477514497405
 31
0.0
  0
LINE
  5
47
330
17
100
AcDbEntity
  8
ADP1DETAIL
100
AcDbLine
 10
10.84607211829028
 20
20.38333225920251
 30
0.0
 11
10.49871072884472
 21
21.10477514497405
 31
0.0
  0
LINE
  5
48
330
17
100
AcDbEntity
  8
ADP1DETAIL
100
AcDbLine
 10
9.483346667388483
 20
3.436137965926227
 30
0.0
 11
9.404086009771098
 21
11.73643742854018
 31
0.0
  0
LINE
  5
49
330
17
100
AcDbEntity
  8
ADP1DETAIL
100
AcDbLine
 10
10.81249994051215
 20
11.73643742854018
 30
0.0
 11
10.73919169076857
 21
3.436137965926227
 31
0.0
  0
DIMENSION
  5
4A
330
17
100
AcDbEntity
  8
ADPDIM
100
AcDbDimension
  2
*D0
 10
10.73919169076857
 20
3.063294881558156
 30
0.0
 11
10.11126917907853
 21
3.063294881558156
 31
0.0
 71
     5
 42
-1.0
100
AcDbAlignedDimension
 13
9.483346667388483
 23
3.436137965926227
 33
0.0
 14
10.73919169076857
 24
3.436137965926227
 34
0.0
100
AcDbRotatedDimension
  0
CIRCLE
  5
4B
330
17
100
AcDbEntity
  8
ADP1DETAIL
100
AcDbCircle
 10
10.11811855817037
 20
1.996247707781431
 30
0.0
 40
0.625
  0
LINE
  5
4C
330
17
100
AcDbEntity
  8
ADP1DETAIL
100
AcDbLine
 10
10.73919169076857
 20
3.436137965926227
 30
0.0
 11
9.483346667388483
 21
3.436137965926227
 31
0.0
  0
POINT
  5
4D
330
17
100
AcDbEntity
  8
ADP1DETAIL
  6
ByBlock
100
AcDbPoint
 10
9.461085181892832
 20
3.436137965926227
 30
0.0
  0
POINT
  5
4E
330
17
100
AcDbEntity
  8
ADP1DETAIL
  6
ByBlock
100
AcDbPoint
 10
9.483346667388483
 20
3.436137965926227
 30
0.0
  0
POINT
  5
4F
330
17
100
AcDbEntity
  8
ADP1DETAIL
  6
ByBlock
100
AcDbPoint
 10
10.73919169076857
 20
3.436137965926227
 30
0.0
  0
LINE
  5
50
330
17
100
AcDbEntity
  8
ADP1DETAIL
100
AcDbLine
 10
9.398217471556634
 20
12.19732577659268
 30
0.0
 11
9.320014113193579
 21
20.38690321523715
 31
0.0
  0
LINE
  5
51
330
17
100
AcDbEntity
  8
ADP1DETAIL
100
AcDbLine
 10
10.89008042681412
 20
20.36678518510525
 30
0.0
 11
10.81792775650545
 21
12.19732577659268
 31
0.0
  0
LINE
  5
52
330
17
100
AcDbEntity
  8
ADP1DETAIL
100
AcDbLine
 10
9.386228767220268
 20
12.29755967302916
 30
0.0
 11
10.84461115899365
 21
12.29755967302916
 31
0.0
  0
LINE
  5
53
330
17
100
AcDbEntity
  8
ADP1DETAIL
100
AcDbLine
 10
10.84461115899365
 20
12.29755967302916
 30
0.0
 11
9.386228767220268
 21
12.29755967302916
 31
0.0
  0
LINE
  5
54
330
17
100
AcDbEntity
  8
ADP1DETAIL
100
AcDbLine
 10
10.84461115899365
 20
12.35099988679001
 30
0.0
 11
9.386228767220268
 21
12.35099988679001
 31
0.0
  0
LINE
  5
55
330
17
100
AcDbEntity
  8
ADP1DETAIL
100
AcDbLine
 10
10.84461115899365
 20
11.78987764230102
 30
0.0
 11
9.386228767220268
 21
11.78987764230102
 31
0.0
  0
LINE
  5
56
330
17
100
AcDbEntity
  8
ADP1DETAIL
100
AcDbLine
 10
9.386228767220268
 20
11.73643742854018
 30
0.0
 11
10.84461115899365
 21
11.73643742854018
 31
0.0
  0
LINE
  5
57
330
17
100
AcDbEntity
  8
ADP1DETAIL
100
AcDbLine
 10
9.386228767220268
 20
11.78987764230102
 30
0.0
 11
10.84461115899365
 21
11.78987764230102
 31
0.0
  0
ARC
  5
58
330
17
100
AcDbEntity
  8
ADP1DETAIL
100
AcDbCircle
 10
9.746950210106071
 20
12.04371865766509
 30
0.0
 40
0.4410841421301325
100
AcDbArc
 50
144.8658069430862
 51
215.1341930569137
  0
LINE
  5
59
330
17
100
AcDbEntity
  8
ADP1DETAIL
100
AcDbLine
 10
9.386228767220268
 20
11.78987764230102
 30
0.0
 11
9.386228767220268
 21
11.73643742854018
 31
0.0
  0
LINE
  5
5A
330
17
100
AcDbEntity
  8
ADP1DETAIL
100
AcDbLine
 10
9.386228767220268
 20
12.35099988679001
 30
0.0
 11
9.386228767220268
 21
12.29755967302916
 31
0.0
  0
ARC
  5
5B
330
17
100
AcDbEntity
  8
ADP1DETAIL
100
AcDbCircle
 10
10.48388971610785
 20
12.04371865766509
 30
0.0
 40
0.4410841421301325
100
AcDbArc
 50
324.8658069430863
 51
35.13419305691369
  0
LINE
  5
5C
330
17
100
AcDbEntity
  8
ADP1DETAIL
100
AcDbLine
 10
10.84461115899365
 20
11.78987764230102
 30
0.0
 11
10.84461115899365
 21
11.73643742854018
 31
0.0
  0
LINE
  5
5D
330
17
100
AcDbEntity
  8
ADP1DETAIL
100
AcDbLine
 10
10.84461115899365
 20
12.35099988679001
 30
0.0
 11
10.84461115899365
 21
12.29755967302916
 31
0.0
  0
LINE
  5
5E
330
17
100
AcDbEntity
  8
ADP1DETAIL
100
AcDbLine
 10
9.349746132986343
 20
20.38333225920251
 30
0.0
 11
9.162705384823354
 21
20.38333225920251
 31
0.0
  0
LINE
  5
5F
330
17
100
AcDbEntity
  8
ADP1DETAIL
100
AcDbLine
 10
11.03311286645327
 20
20.38333225920251
 30
0.0
 11
10.84607211829028
 21
20.38333225920251
 31
0.0
  0
LINE
  5
60
330
17
100
AcDbEntity
  8
ADP1DETAIL
100
AcDbLine
 10
10.09790912563831
 20
20.38333225920251
 30
0.0
 11
10.09790912563831
 21
20.38333225920251
 31
0.0
  0
LINE
  5
61
330
17
100
AcDbEntity
  8
ADP1DETAIL
100
AcDbLine
 10
9.433110694086867
 20
38.49291819304713
 30
0.0
 11
9.351039561721105
 21
30.41711876825648
 31
0.0
  0
LINE
  5
62
330
17
100
AcDbEntity
  8
ADP1DETAIL
100
AcDbLine
 10
10.84607211829028
 20
30.41980512024407
 30
0.0
 11
10.78789336340778
 21
38.49291819304713
 31
0.0
  0
ARC
  5
63
330
17
100
AcDbEntity
  8
ADP1DETAIL
100
AcDbCircle
 10
22.7343266833484
 20
28.36522168154772
 30
0.0
 40
12.30802833600725
100
AcDbArc
 50
173.7818247568139
 51
185.7161388589439
  0
ARC
  5
64
330
17
100
AcDbEntity
  8
ADP1DETAIL
100
AcDbCircle
 10
-1.391271722265825
 20
28.30828401382258
 30
0.0
 40
11.17517211204233
100
AcDbArc
 50
353.995779093438
 51
7.145522993401034
  0
ARC
  5
65
330
17
100
AcDbEntity
  8
ADP1DETAIL
100
AcDbCircle
 10
5.965550900485475
 20
29.1593359817836
 30
0.0
 40
3.24850917590987
100
AcDbArc
 50
341.0613520377205
 51
354.5249303160277
  0
ARC
  5
66
330
17
100
AcDbEntity
  8
ADP1DETAIL
100
AcDbCircle
 10
13.53208643911669
 20
29.0182717432814
 30
0.0
 40
2.587136988143114
100
AcDbArc
 50
183.7428472070122
 51
200.6708704392397
  0
ARC
  5
67
330
17
100
AcDbEntity
  8
ADP1DETAIL
100
AcDbCircle
 10
9.031832093345956
 20
26.21300744186465
 30
0.0
 40
0.4625805624457586
100
AcDbArc
 50
273.2846749376249
 51
46.58623916407083
  0
ARC
  5
68
330
17
100
AcDbEntity
  8
ADP1DETAIL
100
AcDbCircle
 10
9.035452905721818
 20
24.61025598979255
 30
0.0
 40
0.4574855560205052
100
AcDbArc
 50
313.3932115963115
 51
87.13283900019314
  0
LINE
  5
69
330
17
100
AcDbEntity
  8
ADP1DETAIL
100
AcDbLine
 10
10.09790912563831
 20
24.11750069137712
 30
0.0
 11
9.429906453627626
 21
24.11750069137712
 31
0.0
  0
LINE
  5
6A
330
17
100
AcDbEntity
  8
ADP1DETAIL
100
AcDbLine
 10
10.09790912563831
 20
24.27782133265969
 30
0.0
 11
9.349746132986343
 21
24.27782133265969
 31
0.0
  0
LINE
  5
6B
330
17
100
AcDbEntity
  8
ADP1DETAIL
100
AcDbLine
 10
10.09790912563831
 20
25.07942453907252
 30
0.0
 11
9.055824957301641
 21
25.07942453907252
 31
0.0
  0
LINE
  5
6C
330
17
100
AcDbEntity
  8
ADP1DETAIL
100
AcDbLine
 10
10.09790912563831
 20
25.61382667668107
 30
0.0
 11
9.055824957301641
 21
25.61382667668107
 31
0.0
  0
LINE
  5
6D
330
17
100
AcDbEntity
  8
ADP1DETAIL
100
AcDbLine
 10
10.09790912563831
 20
25.74742721108321
 30
0.0
 11
9.055824957301641
 21
25.74742721108321
 31
0.0
  0
LINE
  5
6E
330
17
100
AcDbEntity
  8
ADP1DETAIL
100
AcDbLine
 10
10.09790912563831
 20
25.21302507347466
 30
0.0
 11
9.055824957301641
 21
25.21302507347466
 31
0.0
  0
LINE
  5
6F
330
17
100
AcDbEntity
  8
ADP1DETAIL
100
AcDbLine
 10
10.09790912563831
 20
26.70935105877859
 30
0.0
 11
9.429906453627626
 21
26.70935105877859
 31
0.0
  0
LINE
  5
70
330
17
100
AcDbEntity
  8
ADP1DETAIL
100
AcDbLine
 10
10.09790912563831
 20
26.54903041749603
 30
0.0
 11
9.349746132986343
 21
26.54903041749603
 31
0.0
  0
ARC
  5
71
330
17
100
AcDbEntity
  8
ADP1DETAIL
100
AcDbCircle
 10
10.34417296604742
 20
23.12808603288941
 30
0.0
 40
1.370240603109897
100
AcDbArc
 50
133.5248564293526
 51
197.6186569946682
  0
ARC
  5
72
330
17
100
AcDbEntity
  8
ADP1DETAIL
100
AcDbCircle
 10
6.423786501883783
 20
21.78107791685065
 30
0.0
 40
2.77566415906113
100
AcDbArc
 50
0.706320778278792
 51
19.62547312029824
  0
LINE
  5
73
330
17
100
AcDbEntity
  8
ADP1DETAIL
100
AcDbLine
 10
9.429906453627626
 20
24.11750069137712
 30
0.0
 11
9.349746132986343
 21
24.27782133265969
 31
0.0
  0
ARC
  5
74
330
17
100
AcDbEntity
  8
ADP1DETAIL
100
AcDbCircle
 10
9.078737459539187
 20
25.41342587507787
 30
0.0
 40
0.2017063807666762
100
AcDbArc
 50
96.52249791922073
 51
263.4775020807794
  0
LINE
  5
75
330
17
100
AcDbEntity
  8
ADP1DETAIL
100
AcDbLine
 10
9.055824957301641
 20
25.07942453907252
 30
0.0
 11
9.055824957301641
 21
25.21302507347466
 31
0.0
  0
LINE
  5
76
330
17
100
AcDbEntity
  8
ADP1DETAIL
100
AcDbLine
 10
9.058336569809114
 20
25.75118681707614
 30
0.0
 11
9.055824957301641
 21
25.61382667668107
 31
0.0
  0
ARC
  5
77
330
17
100
AcDbEntity
  8
ADP1DETAIL
100
AcDbCircle
 10
10.25188204346508
 20
27.69283983737472
 30
0.0
 40
1.281754285311
100
AcDbArc
 50
161.2420608721478
 51
230.1119569318194
  0
LINE
  5
78
330
17
100
AcDbEntity
  8
ADP1DETAIL
100
AcDbLine
 10
9.349746132986343
 20
26.54903041749603
 30
0.0
 11
9.429906453627626
 21
26.70935105877859
 31
0.0
  0
ARC
  5
79
330
17
100
AcDbEntity
  8
ADP1DETAIL
100
AcDbCircle
 10
11.10120076419958
 20
24.62794933878527
 30
0.0
 40
0.4393295085488044
100
AcDbArc
 50
91.28209688517962
 51
231.8294575242368
  0
ARC
  5
7A
330
17
100
AcDbEntity
  8
ADP1DETAIL
100
AcDbCircle
 10
9.805534394547773
 20
23.12808603288941
 30
0.0
 40
1.370240603109897
100
AcDbArc
 50
342.3813430053318
 51
46.47514357064737
  0
ARC
  5
7B
330
17
100
AcDbEntity
  8
ADP1DETAIL
100
AcDbCircle
 10
14.8885153145115
 20
21.57260847203516
 30
0.0
 40
3.945518496782386
100
AcDbArc
 50
163.1946530965535
 51
176.4735530048696
  0
ARC
  5
7C
330
17
100
AcDbEntity
  8
ADP1DETAIL
100
AcDbCircle
 10
-0.6461271350569842
 20
22.39384529475863
 30
0.0
 40
10.43027755880161
100
AcDbArc
 50
352.8246649534216
 51
6.22780146503655
  0
ARC
  5
7D
330
17
100
AcDbEntity
  8
ADP1DETAIL
100
AcDbCircle
 10
20.85622202616927
 20
22.39384529475862
 30
0.0
 40
10.43027755880161
100
AcDbArc
 50
173.7721985349634
 51
187.1753350465784
  0
LINE
  5
7E
330
17
100
AcDbEntity
  8
ADP1DETAIL
100
AcDbLine
 10
10.84607211829028
 20
24.27782133265969
 30
0.0
 11
10.09790912563831
 21
24.27782133265969
 31
0.0
  0
LINE
  5
7F
330
17
100
AcDbEntity
  8
ADP1DETAIL
100
AcDbLine
 10
10.765911797649
 20
24.11750069137712
 30
0.0
 11
10.09790912563831
 21
24.11750069137712
 31
0.0
  0
LINE
  5
80
330
17
100
AcDbEntity
  8
ADP1DETAIL
100
AcDbLine
 10
10.09790912563831
 20
24.27782133265969
 30
0.0
 11
10.09790912563831
 21
24.27782133265969
 31
0.0
  0
LINE
  5
81
330
17
100
AcDbEntity
  8
ADP1DETAIL
100
AcDbLine
 10
10.09790912563831
 20
24.11750069137712
 30
0.0
 11
10.09790912563831
 21
24.11750069137712
 31
0.0
  0
LINE
  5
82
330
17
100
AcDbEntity
  8
ADP1DETAIL
100
AcDbLine
 10
10.84607211829028
 20
24.27782133265969
 30
0.0
 11
10.765911797649
 21
24.11750069137712
 31
0.0
  0
ARC
  5
83
330
17
100
AcDbEntity
  8
ADP1DETAIL
100
AcDbCircle
 10
11.10161424375294
 20
26.19096678141937
 30
0.0
 40
0.4398992445622234
100
AcDbArc
 50
125.5146135268498
 51
268.6656951951764
  0
LINE
  5
84
330
17
100
AcDbEntity
  8
ADP1DETAIL
100
AcDbLine
 10
11.13999329397498
 20
25.07942453907252
 30
0.0
 11
10.09790912563831
 21
25.07942453907252
 31
0.0
  0
LINE
  5
85
330
17
100
AcDbEntity
  8
ADP1DETAIL
100
AcDbLine
 10
10.09790912563831
 20
25.21302507347466
 30
0.0
 11
11.13999329397498
 21
25.21302507347466
 31
0.0
  0
LINE
  5
86
330
17
100
AcDbEntity
  8
ADP1DETAIL
100
AcDbLine
 10
11.09137079078608
 20
25.75118681707614
 30
0.0
 11
10.09790912563831
 21
25.74742721108321
 31
0.0
  0
LINE
  5
87
330
17
100
AcDbEntity
  8
ADP1DETAIL
100
AcDbLine
 10
10.09790912563831
 20
25.61382667668107
 30
0.0
 11
11.13999329397498
 21
25.61382667668107
 31
0.0
  0
ARC
  5
88
330
17
100
AcDbEntity
  8
ADP1DETAIL
100
AcDbCircle
 10
9.796473898633909
 20
27.69001732118753
 30
0.0
 40
1.378954733946662
100
AcDbArc
 50
314.6701044299387
 51
17.5147007326211
  0
LINE
  5
89
330
17
100
AcDbEntity
  8
ADP1DETAIL
100
AcDbLine
 10
10.765911797649
 20
26.70935105877859
 30
0.0
 11
10.09790912563831
 21
26.70935105877859
 31
0.0
  0
LINE
  5
8A
330
17
100
AcDbEntity
  8
ADP1DETAIL
100
AcDbLine
 10
10.84607211829028
 20
26.54903041749603
 30
0.0
 11
10.09790912563831
 21
26.54903041749603
 31
0.0
  0
LINE
  5
8B
330
17
100
AcDbEntity
  8
ADP1DETAIL
100
AcDbLine
 10
10.09790912563831
 20
26.70935105877859
 30
0.0
 11
10.09790912563831
 21
26.70935105877859
 31
0.0
  0
LINE
  5
8C
330
17
100
AcDbEntity
  8
ADP1DETAIL
100
AcDbLine
 10
10.09790912563831
 20
26.54903041749603
 30
0.0
 11
10.09790912563831
 21
26.54903041749603
 31
0.0
  0
LINE
  5
8D
330
17
100
AcDbEntity
  8
ADP1DETAIL
100
AcDbLine
 10
10.765911797649
 20
26.70935105877859
 30
0.0
 11
10.84607211829028
 21
26.54903041749603
 31
0.0
  0
ARC
  5
8E
330
17
100
AcDbEntity
  8
ADP1DETAIL
100
AcDbCircle
 10
11.07856699528958
 20
25.39806948749195
 30
0.0
 40
0.1949733964652353
100
AcDbArc
 50
288.363810639381
 51
80.27554503934394
  0
LINE
  5
8F
330
17
100
AcDbEntity
  8
ADP1DETAIL
100
AcDbLine
 10
11.13999329397498
 20
25.21302507347466
 30
0.0
 11
11.13999329397498
 21
25.07942453907252
 31
0.0
  0
LINE
  5
90
330
17
100
AcDbEntity
  8
ADP1DETAIL
100
AcDbLine
 10
11.13999329397498
 20
25.21302507347466
 30
0.0
 11
11.13999329397498
 21
25.21302507347466
 31
0.0
  0
LINE
  5
91
330
17
100
AcDbEntity
  8
ADP1DETAIL
100
AcDbLine
 10
11.09137079078608
 20
25.75118681707614
 30
0.0
 11
11.11149996762511
 21
25.59024140183516
 31
0.0
  0
LINE
  5
92
330
17
100
AcDbEntity
  8
ADP1DETAIL
100
AcDbLine
 10
9.349746132986343
 20
30.41980512024407
 30
0.0
 11
9.697107522431902
 21
29.69836223447252
 31
0.0
  0
ARC
  5
93
330
17
100
AcDbEntity
  8
ADP1DETAIL
100
AcDbCircle
 10
1.1384353378306
 20
29.4474937092978
 30
0.0
 40
8.082963520078598
100
AcDbArc
 50
355.7564660522885
 51
6.908923341982687
  0
LINE
  5
94
330
17
100
AcDbEntity
  8
ADP1DETAIL
100
AcDbLine
 10
9.162705384823354
 20
30.41980512024407
 30
0.0
 11
9.349746132986343
 21
30.41980512024407
 31
0.0
  0
ARC
  5
95
330
17
100
AcDbEntity
  8
ADP1DETAIL
100
AcDbCircle
 10
16.16525560450905
 20
29.36233589203993
 30
0.0
 40
5.239955176561847
100
AcDbArc
 50
168.3572454937294
 51
185.6177846152557
  0
LINE
  5
96
330
17
100
AcDbEntity
  8
ADP1DETAIL
100
AcDbLine
 10
10.84607211829028
 20
30.41980512024407
 30
0.0
 11
11.03311286645327
 21
30.41980512024407
 31
0.0
  0
LINE
  5
97
330
17
100
AcDbEntity
  8
ADP1DETAIL
100
AcDbLine
 10
10.09790912563831
 20
30.41980512024407
 30
0.0
 11
10.49871072884472
 21
29.69836223447252
 31
0.0
  0
LINE
  5
98
330
17
100
AcDbEntity
  8
ADP1DETAIL
100
AcDbLine
 10
9.697107522431902
 20
29.69836223447252
 30
0.0
 11
10.09790912563831
 21
30.41980512024407
 31
0.0
  0
LINE
  5
99
330
17
100
AcDbEntity
  8
ADP1DETAIL
100
AcDbLine
 10
10.49871072884472
 20
29.69836223447252
 30
0.0
 11
10.84607211829028
 21
30.41980512024407
 31
0.0
  0
LINE
  5
9A
330
17
100
AcDbEntity
  8
ADP1DETAIL
100
AcDbLine
 10
10.09790912563831
 20
30.41980512024407
 30
0.0
 11
10.09790912563831
 21
30.41980512024407
 31
0.0
  0
LINE
  5
9B
330
17
100
AcDbEntity
  8
ADP1DETAIL
100
AcDbLine
 10
9.483346667388483
 20
43.43613796592622
 30
0.0
 11
9.439356247524365
 21
39.10748065129696
 31
0.0
  0
LINE
  5
9C
330
17
100
AcDbEntity
  8
ADP1DETAIL
100
AcDbLine
 10
10.78183856086345
 20
39.10748065129696
 30
0.0
 11
10.73919169076857
 21
43.43613796592622
 31
0.0
  0
LINE
  5
9D
330
17
100
AcDbEntity
  8
ADP1DETAIL
100
AcDbLine
 10
9.406360632634498
 20
38.55374474804209
 30
0.0
 11
10.79580619041673
 21
38.55374474804209
 31
0.0
  0
LINE
  5
9E
330
17
100
AcDbEntity
  8
ADP1DETAIL
100
AcDbLine
 10
9.406360632634498
 20
38.50030453428125
 30
0.0
 11
10.79580619041673
 21
38.50030453428125
 31
0.0
  0
LINE
  5
9F
330
17
100
AcDbEntity
  8
ADP1DETAIL
100
AcDbLine
 10
10.79580619041673
 20
38.55374474804209
 30
0.0
 11
9.406360632634498
 21
38.55374474804209
 31
0.0
  0
LINE
  5
A0
330
17
100
AcDbEntity
  8
ADP1DETAIL
100
AcDbLine
 10
10.79580619041673
 20
39.11486699253109
 30
0.0
 11
9.406360632634498
 21
39.11486699253109
 31
0.0
  0
LINE
  5
A1
330
17
100
AcDbEntity
  8
ADP1DETAIL
100
AcDbLine
 10
10.79580619041673
 20
39.06142677877023
 30
0.0
 11
9.406360632634498
 21
39.06142677877023
 31
0.0
  0
LINE
  5
A2
330
17
100
AcDbEntity
  8
ADP1DETAIL
100
AcDbLine
 10
9.406360632634498
 20
39.06142677877023
 30
0.0
 11
10.79580619041673
 21
39.06142677877023
 31
0.0
  0
ARC
  5
A3
330
17
100
AcDbEntity
  8
ADP1DETAIL
100
AcDbCircle
 10
9.767082075520303
 20
38.80758576340616
 30
0.0
 40
0.4410841421301325
100
AcDbArc
 50
144.8658069430862
 51
215.1341930569137
  0
LINE
  5
A4
330
17
100
AcDbEntity
  8
ADP1DETAIL
100
AcDbLine
 10
9.406360632634498
 20
38.55374474804209
 30
0.0
 11
9.406360632634498
 21
38.50030453428125
 31
0.0
  0
LINE
  5
A5
330
17
100
AcDbEntity
  8
ADP1DETAIL
100
AcDbLine
 10
9.406360632634498
 20
39.11486699253109
 30
0.0
 11
9.406360632634498
 21
39.06142677877023
 31
0.0
  0
ARC
  5
A6
330
17
100
AcDbEntity
  8
ADP1DETAIL
100
AcDbCircle
 10
10.43508474753093
 20
38.80758576340616
 30
0.0
 40
0.4410841421301325
100
AcDbArc
 50
324.8658069430863
 51
35.13419305691369
  0
LINE
  5
A7
330
17
100
AcDbEntity
  8
ADP1DETAIL
100
AcDbLine
 10
10.79580619041673
 20
38.55374474804209
 30
0.0
 11
10.79580619041673
 21
38.50030453428125
 31
0.0
  0
LINE
  5
A8
330
17
100
AcDbEntity
  8
ADP1DETAIL
100
AcDbLine
 10
10.79580619041673
 20
39.11486699253109
 30
0.0
 11
10.79580619041673
 21
39.06142677877023
 31
0.0
  0
LINE
  5
A9
330
17
100
AcDbEntity
  8
ADP1DETAIL
100
AcDbLine
 10
10.73919169076857
 20
43.43613796592622
 30
0.0
 11
9.483346667388483
 21
43.43613796592622
 31
0.0
  0
POINT
  5
AA
330
17
100
AcDbEntity
  8
ADP1DETAIL
  6
ByBlock
100
AcDbPoint
 10
9.483346667388483
 20
43.43613796592622
 30
0.0
  0
TEXT
  5
B4
330
17
100
AcDbEntity
  8
ADPDIM
100
AcDbText
 10
-28.64214146212202
 20
-2.795693678333626
 30
0.0
 40
0.75
  1
J U L I U S  B L U M  &  C O . ,  I N C .      ( 8 0 0 )  5 2 6 - 6 2 9 3        W W W . J U L I U S B L U M . C O M        P A R T  N O .  1 3 4
 41
1.25
  7
ARIAL_WIDE
 72
     1
 11
10.11126917907853
 21
-2.045693678333626
 31
0.0
100
AcDbText
 73
     3
  0
DIMENSION
  5
1D5
330
17
100
AcDbEntity
  8
ADPDIM
100
AcDbDimension
  2
*D3
 10
12.32892858994935
 20
20.38534191125713
 30
0.0
 11
12.32892858994935
 21
11.87948993859168
 31
0.0
 70
    32
 71
     5
 42
17.0117039453309
  3
STANDARD
100
AcDbAlignedDimension
 13
10.73919169076857
 23
3.373637965926227
 33
0.0
 14
11.21821865206874
 24
20.38534191125713
 34
0.0
 50
90.0
100
AcDbRotatedDimension
1001
ACAD
1000
DSTYLE
1002
{
1070
    41
1040
0.125
1070
    73
1070
     0
1070
    74
1070
     0
1070
    78
1070
     3
1070
   140
1040
0.5
1070
   141
1040
0.1875
1070
   142
1040
0.125
1070
   147
1040
0.125
1070
   171
1070
     1
1070
   273
1070
     5
1070
   274
1070
     1
1070
   277
1070
     5
1070
   279
1070
     2
1070
   284
1070
     3
1070
   285
1070
     3
1070
   286
1070
     3
1002
}
  0
DIMENSION
  5
25A
330
17
100
AcDbEntity
  8
ADPDIM
100
AcDbDimension
  2
*D6
 10
12.20627058857815
 20
43.43460075645691
 30
0.0
 11
12.20627058857814
 21
36.93088393007947
 31
0.0
 70
    32
 71
     5
 42
13.00743365275488
  3
STANDARD
100
AcDbAlignedDimension
 13
11.03311286645327
 23
30.42716710370203
 33
0.0
 14
10.83054214515545
 24
43.43460075645691
 34
0.0
 50
90.0
100
AcDbRotatedDimension
1001
ACAD
1000
DSTYLE
1002
{
1070
    41
1040
0.125
1070
    73
1070
     0
1070
    74
1070
     0
1070
    78
1070
     3
1070
   140
1040
0.5
1070
   141
1040
0.1875
1070
   142
1040
0.125
1070
   147
1040
0.125
1070
   171
1070
     1
1070
   273
1070
     5
1070
   274
1070
     1
1070
   277
1070
     5
1070
   279
1070
     2
1070
   284
1070
     3
1070
   285
1070
     3
1070
   286
1070
     3
1002
}
  0
ENDSEC
  0
SECTION
  2
OBJECTS
  0
DICTIONARY
  5
C
330
0
100
AcDbDictionary
281
     1
  3
ACAD_COLOR
350
1B8
  3
ACAD_GROUP
350
D
  3
ACAD_LAYOUT
350
BA
  3
ACAD_MATERIAL
350
1A3
  3
ACAD_MLINESTYLE
350
1A
  3
ACAD_PLOTSETTINGS
350
BB
  3
ACAD_PLOTSTYLENAME
350
B8
  3
ACAD_TABLESTYLE
350
1B9
  3
ACAD_VISUALSTYLE
350
1A7
  3
ACDBVARIABLEDICTIONARY
350
26
  3
DWGPROPS
350
2E7
  0
DICTIONARY
  5
E7
330
17
100
AcDbDictionary
280
     1
281
     1
  3
ACAD_LAYOUTSELFREF
360
19D
  0
DICTIONARY
  5
E5
330
14
100
AcDbDictionary
280
     1
281
     1
  3
ACAD_LAYOUTSELFREF
360
19C
  0
DICTIONARY
  5
1B8
102
{ACAD_REACTORS
330
C
102
}
330
C
100
AcDbDictionary
281
     1
  0
DICTIONARY
  5
D
102
{ACAD_REACTORS
330
C
102
}
330
C
100
AcDbDictionary
281
     1
  0
DICTIONARY
  5
BA
102
{ACAD_REACTORS
330
C
102
}
330
C
100
AcDbDictionary
281
     1
  3
Layout1
350
BD
  3
Model
350
BC
  0
DICTIONARY
  5
1A3
102
{ACAD_REACTORS
330
C
102
}
330
C
100
AcDbDictionary
281
     1
  3
ByBlock
350
1A5
  3
ByLayer
350
1A4
  3
Global
350
1A6
  0
DICTIONARY
  5
1A
102
{ACAD_REACTORS
330
C
102
}
330
C
100
AcDbDictionary
281
     1
  3
STANDARD
350
1B
  0
DICTIONARY
  5
BB
102
{ACAD_REACTORS
330
C
102
}
330
C
100
AcDbDictionary
281
     1
  0
ACDBDICTIONARYWDFLT
  5
B8
102
{ACAD_REACTORS
330
C
102
}
330
C
100
AcDbDictionary
281
     1
  3
Normal
350
B9
100
AcDbDictionaryWithDefault
340
B9
  0
DICTIONARY
  5
1B9
102
{ACAD_REACTORS
330
C
102
}
330
C
100
AcDbDictionary
281
     1
  3
Standard
350
1BA
  0
DICTIONARY
  5
1A7
102
{ACAD_REACTORS
330
C
102
}
330
C
100
AcDbDictionary
281
     1
  3
2dWireframe
350
1AD
  3
3D Hidden
350
1AF
  3
3dWireframe
350
1AE
  3
Basic
350
1AC
  3
Brighten
350
1B3
  3
ColorChange
350
1B7
  3
Conceptual
350
1B0
  3
Dim
350
1B2
  3
Facepattern
350
1B6
  3
Flat
350
1A8
  3
FlatWithEdges
350
1A9
  3
Gouraud
350
1AA
  3
GouraudWithEdges
350
1AB
  3
Linepattern
350
1B5
  3
Realistic
350
1B1
  3
Thicken
350
1B4
  0
DICTIONARY
  5
26
102
{ACAD_REACTORS
330
C
102
}
330
C
100
AcDbDictionary
281
     1
  3
CTABLESTYLE
350
2E4
  3
DIMADEC
350
27
  3
DIMASSOC
350
ED
  3
INDEXCTL
350
2E6
  3
SORTENTS
350
2E5
  0
XRECORD
  5
2E7
102
{ACAD_REACTORS
330
C
102
}
330
C
100
AcDbXrecord
280
     1
  1
DWGPROPS COOKIE
  2

  3

  4

  6

  7

  8
Yu Hu
  9

300
=
301
=
302
=
303
=
304
=
305
=
306
=
307
=
308
=
309
=
 40
0.0145611458333333
 41
2450373.688751736
 42
2453943.916727488
  1

 90
        0
  0
XRECORD
  5
19D
102
{ACAD_REACTORS
330
E7
102
}
330
E7
100
AcDbXrecord
280
     1
340
17
  0
XRECORD
  5
19C
102
{ACAD_REACTORS
330
E5
102
}
330
E5
100
AcDbXrecord
280
     1
340
14
  0
LAYOUT
  5
BD
102
{ACAD_XDICTIONARY
360
2EA
102
}
102
{ACAD_REACTORS
330
BA
102
}
330
BA
100
AcDbPlotSettings
  1

  2
Fax
  4

  6

 40
0.0
 41
0.0
 42
0.0
 43
0.0
 44
0.0
 45
0.0
 46
0.0
 47
0.0
 48
0.0
 49
0.0
140
0.0
141
0.0
142
1.0
143
1.0
 70
   688
 72
     0
 73
     0
 74
     5
  7
Default R14 pen assignments.ctb
 75
    16
147
1.0
148
0.0
149
0.0
100
AcDbLayout
  1
Layout1
 70
     1
 71
     1
 10
0.0
 20
0.0
 11
12.0
 21
9.0
 12
1.667196317885515E+99
 22
2.439420651286265E+99
 32
0.0
 14
1.000000000000000E+20
 24
1.000000000000000E+20
 34
1.000000000000000E+20
 15
-1.000000000000000E+20
 25
-1.000000000000000E+20
 35
-1.000000000000000E+20
146
0.0
 13
0.0
 23
0.0
 33
0.0
 16
1.0
 26
0.0
 36
0.0
 17
0.0
 27
1.0
 37
0.0
 76
     0
330
14
  0
LAYOUT
  5
BC
102
{ACAD_XDICTIONARY
360
2E8
102
}
102
{ACAD_REACTORS
330
BA
102
}
330
BA
100
AcDbPlotSettings
  1

  2
Fax
  4

  6

 40
0.0
 41
0.0
 42
0.0
 43
0.0
 44
0.0
 45
0.0
 46
0.0
 47
0.0
 48
0.0
 49
0.0
140
0.0
141
0.0
142
1.0
143
1.0
 70
  1712
 72
     0
 73
     0
 74
     0
  7
Default R14 pen assignments.ctb
 75
     0
147
1.0
148
0.0
149
0.0
100
AcDbLayout
  1
Model
 70
     1
 71
     0
 10
0.0
 20
0.0
 11
12.0
 21
9.0
 12
0.0
 22
0.0
 32
0.0
 14
0.0
 24
0.0
 34
0.0
 15
0.0
 25
0.0
 35
0.0
146
0.0
 13
0.0
 23
0.0
 33
0.0
 16
1.0
 26
0.0
 36
0.0
 17
0.0
 27
1.0
 37
0.0
 76
     0
330
17
331
178
  0
MATERIAL
  5
1A5
102
{ACAD_XDICTIONARY
360
2EE
102
}
102
{ACAD_REACTORS
330
1A3
102
}
330
1A3
100
AcDbMaterial
  1
ByBlock
  0
MATERIAL
  5
1A4
102
{ACAD_XDICTIONARY
360
2EC
102
}
102
{ACAD_REACTORS
330
1A3
102
}
330
1A3
100
AcDbMaterial
  1
ByLayer
  0
MATERIAL
  5
1A6
102
{ACAD_XDICTIONARY
360
2F0
102
}
102
{ACAD_REACTORS
330
1A3
102
}
330
1A3
100
AcDbMaterial
  1
Global
  0
MLINESTYLE
  5
1B
102
{ACAD_REACTORS
330
1A
102
}
330
1A
100
AcDbMlineStyle
  2
STANDARD
 70
     0
  3

 62
   256
 51
90.0
 52
90.0
 71
     2
 49
0.5
 62
   256
  6
BYLAYER
 49
-0.5
 62
   256
  6
BYLAYER
  0
ACDBPLACEHOLDER
  5
B9
102
{ACAD_REACTORS
330
B8
102
}
330
B8
  0
TABLESTYLE
  5
1BA
102
{ACAD_XDICTIONARY
360
2F2
102
}
102
{ACAD_REACTORS
330
1B9
102
}
330
1B9
100
AcDbTableStyle
  3
Standard
 70
     0
 71
     0
 40
0.06
 41
0.06
280
     0
281
     0
  7
STANDARD
140
0.18
170
     2
 62
     0
 63
     7
283
     0
274
    -2
284
     1
 64
     0
275
    -2
285
     1
 65
     0
276
    -2
286
     1
 66
     0
277
    -2
287
     1
 67
     0
278
    -2
288
     1
 68
     0
279
    -2
289
     1
 69
     0
  7
STANDARD
140
0.25
170
     5
 62
     0
 63
     7
283
     0
274
    -2
284
     1
 64
     0
275
    -2
285
     1
 65
     0
276
    -2
286
     1
 66
     0
277
    -2
287
     1
 67
     0
278
    -2
288
     1
 68
     0
279
    -2
289
     1
 69
     0
  7
STANDARD
140
0.18
170
     5
 62
     0
 63
     7
283
     0
274
    -2
284
     1
 64
     0
275
    -2
285
     1
 65
     0
276
    -2
286
     1
 66
     0
277
    -2
287
     1
 67
     0
278
    -2
288
     1
 68
     0
279
    -2
289
     1
 69
     0
  0
VISUALSTYLE
  5
1AD
102
{ACAD_REACTORS
330
1A7
102
}
330
1A7
100
AcDbVisualStyle
  2
2dWireframe
 70
     4
 71
     0
 72
     2
 73
     0
 90
        0
 40
-0.6
 41
-30.0
 62
     5
 63
     7
 74
     1
 91
        4
 64
     7
 65
   257
 75
     1
175
     1
 42
1.0
 92
        0
 66
   257
 43
1.0
 76
     1
 77
     6
 78
     2
 67
     7
 79
     5
170
     0
171
     0
290
     0
174
     0
 93
        1
 44
0.0
173
     0
291
     0
 45
0.0
1001
ACAD
1000
AcDbSavedByObjectVersion
1070
     0
  0
VISUALSTYLE
  5
1AF
102
{ACAD_REACTORS
330
1A7
102
}
330
1A7
100
AcDbVisualStyle
  2
3D Hidden
 70
     6
 71
     1
 72
     2
 73
     2
 90
        0
 40
-0.6
 41
-30.0
 62
     5
 63
     7
 74
     2
 91
        2
 64
     7
 65
   257
 75
     2
175
     1
 42
40.0
 92
        0
 66
   257
 43
1.0
 76
     1
 77
     6
 78
     2
 67
     7
 79
     3
170
     0
171
     0
290
     0
174
     0
 93
        1
 44
0.0
173
     0
291
     0
 45
0.0
1001
ACAD
1000
AcDbSavedByObjectVersion
1070
     0
  0
VISUALSTYLE
  5
1AE
102
{ACAD_REACTORS
330
1A7
102
}
330
1A7
100
AcDbVisualStyle
  2
3dWireframe
 70
     5
 71
     0
 72
     2
 73
     0
 90
        0
 40
-0.6
 41
-30.0
 62
     5
 63
     7
 74
     1
 91
        4
 64
     7
 65
   257
 75
     1
175
     1
 42
1.0
 92
        0
 66
   257
 43
1.0
 76
     1
 77
     6
 78
     2
 67
     7
 79
     5
170
     0
171
     0
290
     0
174
     0
 93
        1
 44
0.0
173
     0
291
     0
 45
0.0
1001
ACAD
1000
AcDbSavedByObjectVersion
1070
     0
  0
VISUALSTYLE
  5
1AC
102
{ACAD_REACTORS
330
1A7
102
}
330
1A7
100
AcDbVisualStyle
  2
Basic
 70
     7
 71
     1
 72
     0
 73
     1
 90
        0
 40
-0.6
 41
-30.0
 62
     5
 63
     7
 74
     0
 91
        4
 64
     7
 65
   257
 75
     1
175
     1
 42
1.0
 92
        8
 66
     7
 43
1.0
 76
     1
 77
     6
 78
     2
 67
     7
 79
     5
170
     0
171
     0
290
     0
174
     0
 93
        1
 44
0.0
173
     0
291
     1
 45
0.0
1001
ACAD
1000
AcDbSavedByObjectVersion
1070
     0
  0
VISUALSTYLE
  5
1B3
102
{ACAD_REACTORS
330
1A7
102
}
330
1A7
100
AcDbVisualStyle
  2
Brighten
 70
    12
 71
     2
 72
     2
 73
     0
 90
        0
 40
-0.6
 41
-30.0
 62
     5
 63
     7
 74
     1
 91
        4
 64
     7
 65
   257
 75
     1
175
     1
 42
1.0
 92
        8
 66
     7
 43
1.0
 76
     1
 77
     6
 78
     2
 67
     7
 79
     5
170
     0
171
     0
290
     0
174
     0
 93
        1
 44
50.0
173
     0
291
     1
 45
0.0
1001
ACAD
1000
AcDbSavedByObjectVersion
1070
     0
  0
VISUALSTYLE
  5
1B7
102
{ACAD_REACTORS
330
1A7
102
}
330
1A7
100
AcDbVisualStyle
  2
ColorChange
 70
    16
 71
     2
 72
     2
 73
     3
 90
        0
 40
-0.6
 41
-30.0
 62
     5
 63
     8
 74
     1
 91
        4
 64
     7
 65
   257
 75
     1
175
     1
 42
1.0
 92
        8
 66
     8
 43
1.0
 76
     1
 77
     6
 78
     2
 67
     7
 79
     5
170
     0
171
     0
290
     0
174
     0
 93
        1
 44
0.0
173
     0
291
     1
 45
0.0
1001
ACAD
1000
AcDbSavedByObjectVersion
1070
     0
  0
VISUALSTYLE
  5
1B0
102
{ACAD_REACTORS
330
1A7
102
}
330
1A7
100
AcDbVisualStyle
  2
Conceptual
 70
     9
 71
     3
 72
     2
 73
     0
 90
        0
 40
-0.6
 41
-30.0
 62
     5
 63
     7
 74
     2
 91
        2
 64
     7
 65
   257
 75
     1
175
     1
 42
40.0
 92
        8
 66
     7
 43
1.0
 76
     1
 77
     6
 78
     2
 67
     7
 79
     3
170
     0
171
     0
290
     0
174
     0
 93
        1
 44
0.0
173
     0
291
     0
 45
0.0
1001
ACAD
1000
AcDbSavedByObjectVersion
1070
     0
  0
VISUALSTYLE
  5
1B2
102
{ACAD_REACTORS
330
1A7
102
}
330
1A7
100
AcDbVisualStyle
  2
Dim
 70
    11
 71
     2
 72
     2
 73
     0
 90
        0
 40
-0.6
 41
-30.0
 62
     5
 63
     7
 74
     1
 91
        4
 64
     7
 65
   257
 75
     1
175
     1
 42
1.0
 92
        8
 66
     7
 43
1.0
 76
     1
 77
     6
 78
     2
 67
     7
 79
     5
170
     0
171
     0
290
     0
174
     0
 93
        1
 44
-50.0
173
     0
291
     1
 45
0.0
1001
ACAD
1000
AcDbSavedByObjectVersion
1070
     0
  0
VISUALSTYLE
  5
1B6
102
{ACAD_REACTORS
330
1A7
102
}
330
1A7
100
AcDbVisualStyle
  2
Facepattern
 70
    15
 71
     2
 72
     2
 73
     0
 90
        0
 40
-0.6
 41
-30.0
 62
     5
 63
     7
 74
     1
 91
        4
 64
     7
 65
   257
 75
     1
175
     1
 42
1.0
 92
        8
 66
     7
 43
1.0
 76
     1
 77
     6
 78
     2
 67
     7
 79
     5
170
     0
171
     0
290
     0
174
     0
 93
        1
 44
0.0
173
     0
291
     1
 45
0.0
1001
ACAD
1000
AcDbSavedByObjectVersion
1070
     0
  0
VISUALSTYLE
  5
1A8
102
{ACAD_REACTORS
330
1A7
102
}
330
1A7
100
AcDbVisualStyle
  2
Flat
 70
     0
 71
     2
 72
     1
 73
     1
 90
        2
 40
-0.6
 41
30.0
 62
     5
 63
     7
 74
     0
 91
        4
 64
     7
 65
   257
 75
     1
175
     1
 42
1.0
 92
        8
 66
     7
 43
1.0
 76
     1
 77
     6
 78
     2
 67
     7
 79
     5
170
     0
171
     0
290
     0
174
     0
 93
       13
 44
0.0
173
     0
291
     1
 45
0.0
1001
ACAD
1000
AcDbSavedByObjectVersion
1070
     0
  0
VISUALSTYLE
  5
1A9
102
{ACAD_REACTORS
330
1A7
102
}
330
1A7
100
AcDbVisualStyle
  2
FlatWithEdges
 70
     1
 71
     2
 72
     1
 73
     1
 90
        2
 40
-0.6
 41
30.0
 62
     5
 63
     7
 74
     1
 91
        4
 64
     7
 65
   257
 75
     1
175
     1
 42
1.0
 92
        0
 66
   257
 43
1.0
 76
     1
 77
     6
 78
     2
 67
     7
 79
     5
170
     0
171
     0
290
     0
174
     0
 93
       13
 44
0.0
173
     0
291
     1
 45
0.0
1001
ACAD
1000
AcDbSavedByObjectVersion
1070
     0
  0
VISUALSTYLE
  5
1AA
102
{ACAD_REACTORS
330
1A7
102
}
330
1A7
100
AcDbVisualStyle
  2
Gouraud
 70
     2
 71
     2
 72
     2
 73
     1
 90
        2
 40
-0.6
 41
30.0
 62
     5
 63
     7
 74
     0
 91
        4
 64
     7
 65
   257
 75
     1
175
     1
 42
1.0
 92
        0
 66
     7
 43
1.0
 76
     1
 77
     6
 78
     2
 67
     7
 79
     5
170
     0
171
     0
290
     0
174
     0
 93
       13
 44
0.0
173
     0
291
     1
 45
0.0
1001
ACAD
1000
AcDbSavedByObjectVersion
1070
     0
  0
VISUALSTYLE
  5
1AB
102
{ACAD_REACTORS
330
1A7
102
}
330
1A7
100
AcDbVisualStyle
  2
GouraudWithEdges
 70
     3
 71
     2
 72
     2
 73
     1
 90
        2
 40
-0.6
 41
30.0
 62
     5
 63
     7
 74
     1
 91
        4
 64
     7
 65
   257
 75
     1
175
     1
 42
1.0
 92
        0
 66
   257
 43
1.0
 76
     1
 77
     6
 78
     2
 67
     7
 79
     5
170
     0
171
     0
290
     0
174
     0
 93
       13
 44
0.0
173
     0
291
     1
 45
0.0
1001
ACAD
1000
AcDbSavedByObjectVersion
1070
     0
  0
VISUALSTYLE
  5
1B5
102
{ACAD_REACTORS
330
1A7
102
}
330
1A7
100
AcDbVisualStyle
  2
Linepattern
 70
    14
 71
     2
 72
     2
 73
     0
 90
        0
 40
-0.6
 41
-30.0
 62
     5
 63
     7
 74
     1
 91
        4
 64
     7
 65
   257
 75
     7
175
     7
 42
1.0
 92
        8
 66
     7
 43
1.0
 76
     1
 77
     6
 78
     2
 67
     7
 79
     5
170
     0
171
     0
290
     0
174
     0
 93
        1
 44
0.0
173
     0
291
     1
 45
0.0
1001
ACAD
1000
AcDbSavedByObjectVersion
1070
     0
  0
VISUALSTYLE
  5
1B1
102
{ACAD_REACTORS
330
1A7
102
}
330
1A7
100
AcDbVisualStyle
  2
Realistic
 70
     8
 71
     2
 72
     2
 73
     0
 90
        0
 40
-0.6
 41
-30.0
 62
     5
 63
     7
 74
     1
 91
        0
 64
     7
 65
   257
 75
     1
175
     1
 42
1.0
 92
        8
 66
     8
 43
1.0
 76
     1
 77
     6
 78
     2
 67
     7
 79
     5
170
     0
171
     0
290
     0
174
     0
 93
       13
 44
0.0
173
     0
291
     0
 45
0.0
1001
ACAD
1000
AcDbSavedByObjectVersion
1070
     0
  0
VISUALSTYLE
  5
1B4
102
{ACAD_REACTORS
330
1A7
102
}
330
1A7
100
AcDbVisualStyle
  2
Thicken
 70
    13
 71
     2
 72
     2
 73
     0
 90
        0
 40
-0.6
 41
-30.0
 62
     5
 63
     7
 74
     1
 91
        4
 64
     7
 65
   257
 75
     1
175
     1
 42
1.0
 92
       12
 66
     7
 43
1.0
 76
     1
 77
     6
 78
     2
 67
     7
 79
     5
170
     0
171
     0
290
     0
174
     0
 93
        1
 44
0.0
173
     0
291
     1
 45
0.0
1001
ACAD
1000
AcDbSavedByObjectVersion
1070
     0
  0
DICTIONARYVAR
  5
2E4
102
{ACAD_REACTORS
330
26
102
}
330
26
100
DictionaryVariables
280
     0
  1
STANDARD
  0
DICTIONARYVAR
  5
27
102
{ACAD_REACTORS
330
26
102
}
330
26
100
DictionaryVariables
280
     0
  1
0
  0
DICTIONARYVAR
  5
ED
102
{ACAD_REACTORS
330
26
102
}
330
26
100
DictionaryVariables
280
     0
  1
1
  0
DICTIONARYVAR
  5
2E6
102
{ACAD_REACTORS
330
26
102
}
330
26
100
DictionaryVariables
280
     0
  1
0
  0
DICTIONARYVAR
  5
2E5
102
{ACAD_REACTORS
330
26
102
}
330
26
100
DictionaryVariables
280
     0
  1
127
  0
DICTIONARY
  5
2EA
330
BD
100
AcDbDictionary
280
     1
281
     1
  3
ACAD_XREC_ROUNDTRIP
360
2EB
  0
DICTIONARY
  5
2E8
330
BC
100
AcDbDictionary
280
     1
281
     1
  3
ACAD_XREC_ROUNDTRIP
360
2E9
  0
DICTIONARY
  5
2EE
330
1A5
100
AcDbDictionary
280
     1
281
     1
  3
ACAD_XREC_ROUNDTRIP
360
2EF
  0
DICTIONARY
  5
2EC
330
1A4
100
AcDbDictionary
280
     1
281
     1
  3
ACAD_XREC_ROUNDTRIP
360
2ED
  0
DICTIONARY
  5
2F0
330
1A6
100
AcDbDictionary
280
     1
281
     1
  3
ACAD_XREC_ROUNDTRIP
360
2F1
  0
DICTIONARY
  5
2F2
330
1BA
100
AcDbDictionary
280
     1
281
     1
  3
ACAD_XREC_ROUNDTRIP
360
2F3
  0
XRECORD
  5
2EB
102
{ACAD_REACTORS
330
2EA
102
}
330
2EA
100
AcDbXrecord
280
     1
102
SHADEPLOT
 70
     0
102
SHADEPLOTRESLEVEL
 70
     2
102
SHADEPLOTCUSTOMDPI
 70
   300
  0
XRECORD
  5
2E9
102
{ACAD_REACTORS
330
2E8
102
}
330
2E8
100
AcDbXrecord
280
     1
102
SHADEPLOT
 70
     0
102
SHADEPLOTRESLEVEL
 70
     2
102
SHADEPLOTCUSTOMDPI
 70
   300
  0
XRECORD
  5
2EF
102
{ACAD_REACTORS
330
2EE
102
}
330
2EE
100
AcDbXrecord
280
     1
102
MATERIAL
148
0.0
149
0.0
149
0.0
 93
        0
 94
       63
282
     0
 72
     1
 77
     1
171
     1
175
     1
179
     1
273
     0
  0
XRECORD
  5
2ED
102
{ACAD_REACTORS
330
2EC
102
}
330
2EC
100
AcDbXrecord
280
     1
102
MATERIAL
148
0.0
149
0.0
149
0.0
 93
        0
 94
       63
282
     0
 72
     1
 77
     1
171
     1
175
     1
179
     1
273
     0
  0
XRECORD
  5
2F1
102
{ACAD_REACTORS
330
2F0
102
}
330
2F0
100
AcDbXrecord
280
     1
102
MATERIAL
148
0.0
149
0.0
149
0.0
 93
        0
 94
       63
282
     0
 72
     1
 77
     1
171
     1
175
     1
179
     1
273
     0
  0
XRECORD
  5
2F3
102
{ACAD_REACTORS
330
2F2
102
}
330
2F2
100
AcDbXrecord
280
     1
102
ACAD_ROUNDTRIP_PRE2007_TABLESTYLE
 90
      512
 91
        0
  1

 92
      512
 93
        0
  2

 94
      512
 95
        0
  3

  0
ENDSEC
  0
EOF
