  0
SECTION
  2
HEADER
  9
$ACADVER
  1
AC1014
  9
$ACADMAINTVER
 70
     9
  9
$DWGCODEPAGE
  3
ANSI_1252
  9
$INSBASE
 10
1.725683344529157
 20
17.44832475853386
 30
0.0
  9
$EXTMIN
 10
-3.256428487604371
 20
16.34403115208837
 30
0.0
  9
$EXTMAX
 10
13.05789407378717
 20
22.26082238476888
 30
0.0
  9
$LIMMIN
 10
0.0
 20
0.0
  9
$LIMMAX
 10
36.0
 20
36.0
  9
$ORTHOMODE
 70
     1
  9
$REGENMODE
 70
     1
  9
$FILLMODE
 70
     1
  9
$QTEXTMODE
 70
     0
  9
$MIRRTEXT
 70
     1
  9
$DRAGMODE
 70
     0
  9
$LTSCALE
 40
1.0
  9
$OSMODE
 70
    37
  9
$ATTMODE
 70
     1
  9
$TEXTSIZE
 40
0.2
  9
$TRACEWID
 40
0.05
  9
$TEXTSTYLE
  7
STANDARD
  9
$CLAYER
  8
ADP2DETAIL
  9
$CELTYPE
  6
BYLAYER
  9
$CECOLOR
 62
   256
  9
$CELTSCALE
 40
1.0
  9
$DELOBJ
 70
     1
  9
$DISPSILH
 70
     0
  9
$DIMSCALE
 40
1.0
  9
$DIMASZ
 40
0.125
  9
$DIMEXO
 40
0.0625
  9
$DIMDLI
 40
0.38
  9
$DIMRND
 40
0.0
  9
$DIMDLE
 40
0.0
  9
$DIMEXE
 40
0.18
  9
$DIMTP
 40
0.0
  9
$DIMTM
 40
0.0
  9
$DIMTXT
 40
0.125
  9
$DIMCEN
 40
0.1875
  9
$DIMTSZ
 40
0.125
  9
$DIMTOL
 70
     0
  9
$DIMLIM
 70
     0
  9
$DIMTIH
 70
     0
  9
$DIMTOH
 70
     0
  9
$DIMSE1
 70
     0
  9
$DIMSE2
 70
     0
  9
$DIMTAD
 70
     0
  9
$DIMZIN
 70
     3
  9
$DIMBLK
  1

  9
$DIMASO
 70
     1
  9
$DIMSHO
 70
     1
  9
$DIMPOST
  1

  9
$DIMAPOST
  1

  9
$DIMALT
 70
     0
  9
$DIMALTD
 70
     1
  9
$DIMALTF
 40
25.4
  9
$DIMLFAC
 40
1.0
  9
$DIMTOFL
 70
     0
  9
$DIMTVP
 40
0.0
  9
$DIMTIX
 70
     0
  9
$DIMSOXD
 70
     0
  9
$DIMSAH
 70
     0
  9
$DIMBLK1
  1

  9
$DIMBLK2
  1

  9
$DIMSTYLE
  2
STANDARD
  9
$DIMCLRD
 70
     0
  9
$DIMCLRE
 70
     0
  9
$DIMCLRT
 70
     0
  9
$DIMTFAC
 40
1.0
  9
$DIMGAP
 40
0.125
  9
$DIMJUST
 70
     0
  9
$DIMSD1
 70
     0
  9
$DIMSD2
 70
     0
  9
$DIMTOLJ
 70
     1
  9
$DIMTZIN
 70
     3
  9
$DIMALTZ
 70
     3
  9
$DIMALTTZ
 70
     3
  9
$DIMFIT
 70
     5
  9
$DIMUPT
 70
     0
  9
$DIMUNIT
 70
     5
  9
$DIMDEC
 70
     4
  9
$DIMTDEC
 70
     4
  9
$DIMALTU
 70
     5
  9
$DIMALTTD
 70
     1
  9
$DIMTXSTY
  7
STANDARD
  9
$DIMAUNIT
 70
     0
  9
$LUNITS
 70
     5
  9
$LUPREC
 70
     4
  9
$SKETCHINC
 40
0.1
  9
$FILLETRAD
 40
0.062
  9
$AUNITS
 70
     0
  9
$AUPREC
 70
     0
  9
$MENU
  1
acad
  9
$ELEVATION
 40
0.0
  9
$PELEVATION
 40
0.0
  9
$THICKNESS
 40
0.0
  9
$LIMCHECK
 70
     0
  9
$BLIPMODE
 70
     0
  9
$CHAMFERA
 40
0.0
  9
$CHAMFERB
 40
0.0
  9
$CHAMFERC
 40
0.0
  9
$CHAMFERD
 40
0.0
  9
$SKPOLY
 70
     0
  9
$TDCREATE
 40
2450386.508722604
  9
$TDUPDATE
 40
2452297.080700764
  9
$TDINDWG
 40
0.0549613079
  9
$TDUSRTIMER
 40
0.0549613079
  9
$USRTIMER
 70
     1
  9
$ANGBASE
 50
0.0
  9
$ANGDIR
 70
     0
  9
$PDMODE
 70
     0
  9
$PDSIZE
 40
0.0
  9
$PLINEWID
 40
0.0
  9
$COORDS
 70
     2
  9
$SPLFRAME
 70
     0
  9
$SPLINETYPE
 70
     6
  9
$SPLINESEGS
 70
     8
  9
$ATTDIA
 70
     0
  9
$ATTREQ
 70
     1
  9
$HANDLING
 70
 22529
  9
$HANDSEED
  5
2DB
  9
$SURFTAB1
 70
     6
  9
$SURFTAB2
 70
     6
  9
$SURFTYPE
 70
     6
  9
$SURFU
 70
     6
  9
$SURFV
 70
     6
  9
$UCSNAME
  2

  9
$UCSORG
 10
0.0
 20
0.0
 30
0.0
  9
$UCSXDIR
 10
1.0
 20
0.0
 30
0.0
  9
$UCSYDIR
 10
0.0
 20
1.0
 30
0.0
  9
$PUCSNAME
  2

  9
$PUCSORG
 10
0.0
 20
0.0
 30
0.0
  9
$PUCSXDIR
 10
1.0
 20
0.0
 30
0.0
  9
$PUCSYDIR
 10
0.0
 20
1.0
 30
0.0
  9
$USERI1
 70
     0
  9
$USERI2
 70
     0
  9
$USERI3
 70
     0
  9
$USERI4
 70
     0
  9
$USERI5
 70
     0
  9
$USERR1
 40
0.0
  9
$USERR2
 40
0.0
  9
$USERR3
 40
0.0
  9
$USERR4
 40
0.0
  9
$USERR5
 40
0.0
  9
$WORLDVIEW
 70
     1
  9
$SHADEDGE
 70
     3
  9
$SHADEDIF
 70
    70
  9
$TILEMODE
 70
     1
  9
$MAXACTVP
 70
    15
  9
$PINSBASE
 10
4.403525741743744E+99
 20
7.061986388769092E+99
 30
0.0
  9
$PLIMCHECK
 70
     0
  9
$PEXTMIN
 10
1.000000000000000E+20
 20
1.000000000000000E+20
 30
1.000000000000000E+20
  9
$PEXTMAX
 10
-1.000000000000000E+20
 20
-1.000000000000000E+20
 30
-1.000000000000000E+20
  9
$PLIMMIN
 10
0.0
 20
0.0
  9
$PLIMMAX
 10
12.0
 20
9.0
  9
$UNITMODE
 70
     0
  9
$VISRETAIN
 70
     0
  9
$PLINEGEN
 70
     0
  9
$PSLTSCALE
 70
     1
  9
$TREEDEPTH
 70
  3020
  9
$PICKSTYLE
 70
     1
  9
$CMLSTYLE
  2
STANDARD
  9
$CMLJUST
 70
     0
  9
$CMLSCALE
 40
1.0
  9
$PROXYGRAPHICS
 70
     1
  9
$MEASUREMENT
 70
     0
  0
ENDSEC
  0
SECTION
  2
CLASSES
  0
CLASS
  1
ACDBDICTIONARYWDFLT
  2
AcDbDictionaryWithDefault
  3
AutoCAD 2000
 90
        0
280
     0
281
     0
  0
CLASS
  1
ACDBPLACEHOLDER
  2
AcDbPlaceHolder
  3
AutoCAD 2000
 90
        0
280
     0
281
     0
  0
CLASS
  1
LAYOUT
  2
AcDbLayout
  3
AutoCAD 2000
 90
        0
280
     0
281
     0
  0
CLASS
  1
DICTIONARYVAR
  2
AcDbDictionaryVar
  3
AutoCAD 2000
 90
        0
280
     0
281
     0
  0
CLASS
  1
LONG_TRANSACTION
  2
AcDbLongTransaction
  3
AutoCAD 2000
 90
        0
280
     0
281
     0
  0
CLASS
  1
LWPOLYLINE
  2
AcDbPolyline
  3
AutoCAD 2000
 90
        0
280
     0
281
     1
  0
CLASS
  1
HATCH
  2
AcDbHatch
  3
AutoCAD 2000
 90
        0
280
     0
281
     1
  0
CLASS
  1
XRECORD
  2
AcDbXrecord
  3
AutoCAD 2000
 90
        0
280
     0
281
     0
  0
CLASS
  1
LONG_TRANSACTION
  2
AcDbLongTransaction
  3
AutoCAD 2000
 90
        0
280
     0
281
     0
  0
CLASS
  1
LWPOLYLINE
  2
AcDbPolyline
  3
AutoCAD 2000
 90
        0
280
     0
281
     1
  0
CLASS
  1
HATCH
  2
AcDbHatch
  3
AutoCAD 2000
 90
        0
280
     0
281
     1
  0
CLASS
  1
XRECORD
  2
AcDbXrecord
  3
AutoCAD 2000
 90
        0
280
     0
281
     0
  0
CLASS
  1
LONG_TRANSACTION
  2
AcDbLongTransaction
  3
AutoCAD 2000
 90
        0
280
     0
281
     0
  0
CLASS
  1
LWPOLYLINE
  2
AcDbPolyline
  3
AutoCAD 2000
 90
        0
280
     0
281
     1
  0
CLASS
  1
HATCH
  2
AcDbHatch
  3
AutoCAD 2000
 90
        0
280
     0
281
     1
  0
CLASS
  1
XRECORD
  2
AcDbXrecord
  3
AutoCAD 2000
 90
        0
280
     0
281
     0
  0
CLASS
  1
LONG_TRANSACTION
  2
AcDbLongTransaction
  3
AutoCAD 2000
 90
        0
280
     0
281
     0
  0
CLASS
  1
LWPOLYLINE
  2
AcDbPolyline
  3
AutoCAD 2000
 90
        0
280
     0
281
     1
  0
CLASS
  1
HATCH
  2
AcDbHatch
  3
AutoCAD 2000
 90
        0
280
     0
281
     1
  0
CLASS
  1
XRECORD
  2
AcDbXrecord
  3
AutoCAD 2000
 90
        0
280
     0
281
     0
  0
CLASS
  1
LONG_TRANSACTION
  2
AcDbLongTransaction
  3
AutoCAD 2000
 90
        0
280
     0
281
     0
  0
CLASS
  1
LWPOLYLINE
  2
AcDbPolyline
  3
AutoCAD 2000
 90
        0
280
     0
281
     1
  0
CLASS
  1
HATCH
  2
AcDbHatch
  3
AutoCAD 2000
 90
        0
280
     0
281
     1
  0
CLASS
  1
XRECORD
  2
AcDbXrecord
  3
AutoCAD 2000
 90
        0
280
     0
281
     0
  0
CLASS
  1
LONG_TRANSACTION
  2
AcDbLongTransaction
  3
AutoCAD 2000
 90
        0
280
     0
281
     0
  0
CLASS
  1
LWPOLYLINE
  2
AcDbPolyline
  3
AutoCAD 2000
 90
        0
280
     0
281
     1
  0
CLASS
  1
HATCH
  2
AcDbHatch
  3
AutoCAD 2000
 90
        0
280
     0
281
     1
  0
CLASS
  1
XRECORD
  2
AcDbXrecord
  3
AutoCAD 2000
 90
        0
280
     0
281
     0
  0
ENDSEC
  0
SECTION
  2
TABLES
  0
TABLE
  2
VPORT
  5
8
330
0
100
AcDbSymbolTable
 70
     2
  0
VPORT
  5
2B7
330
8
100
AcDbSymbolTableRecord
100
AcDbViewportTableRecord
  2
*ACTIVE
 70
     0
 10
0.0
 20
0.0
 11
1.0
 21
1.0
 12
4.913346534933328
 22
19.30325325916434
 13
0.0
 23
0.0
 14
0.5740882589684922
 24
0.5740882589684922
 15
0.5
 25
0.5
 16
0.0
 26
0.0
 36
1.0
 17
0.0
 27
0.0
 37
0.0
 40
10.45655474262775
 41
1.570528967254408
 42
50.0
 43
0.0
 44
0.0
 50
0.0
 51
0.0
 71
     0
 72
   100
 73
     1
 74
     0
 75
     0
 76
     0
 77
     0
 78
     0
  0
ENDTAB
  0
TABLE
  2
LTYPE
  5
5
330
0
100
AcDbSymbolTable
 70
     2
  0
LTYPE
  5
13
330
5
100
AcDbSymbolTableRecord
100
AcDbLinetypeTableRecord
  2
BYBLOCK
 70
     0
  3

 72
    65
 73
     0
 40
0.0
  0
LTYPE
  5
14
330
5
100
AcDbSymbolTableRecord
100
AcDbLinetypeTableRecord
  2
BYLAYER
 70
     0
  3

 72
    65
 73
     0
 40
0.0
  0
LTYPE
  5
15
330
5
100
AcDbSymbolTableRecord
100
AcDbLinetypeTableRecord
  2
CONTINUOUS
 70
     0
  3
Solid line
 72
    65
 73
     0
 40
0.0
  0
LTYPE
  5
28
330
5
100
AcDbSymbolTableRecord
100
AcDbLinetypeTableRecord
  2
HIDDEN2
 70
     0
  3
_ _ _ _ _ _ _ _ _ _ _ _ _ _ _ _ _ _ _ _ _ _ _ _
 72
    65
 73
     2
 40
0.1875
 49
0.125
 74
     0
 49
-0.0625
 74
     0
  0
ENDTAB
  0
TABLE
  2
LAYER
  5
2
330
0
100
AcDbSymbolTable
 70
     5
  0
LAYER
  5
10
330
2
100
AcDbSymbolTableRecord
100
AcDbLayerTableRecord
  2
0
 70
     0
 62
     7
  6
CONTINUOUS
  0
LAYER
  5
2A
330
2
100
AcDbSymbolTableRecord
100
AcDbLayerTableRecord
  2
ADP1DETAIL
 70
     0
 62
     7
  6
CONTINUOUS
  0
LAYER
  5
2B
330
2
100
AcDbSymbolTableRecord
100
AcDbLayerTableRecord
  2
DEFPOINTS
 70
     0
 62
     7
  6
CONTINUOUS
  0
LAYER
  5
2C
330
2
100
AcDbSymbolTableRecord
100
AcDbLayerTableRecord
  2
ADP2DETAIL
 70
     0
 62
     5
  6
CONTINUOUS
  0
LAYER
  5
2D
330
2
100
AcDbSymbolTableRecord
100
AcDbLayerTableRecord
  2
ADPDIM
 70
     0
 62
     3
  6
CONTINUOUS
  0
ENDTAB
  0
TABLE
  2
STYLE
  5
3
330
0
100
AcDbSymbolTable
 70
     2
  0
STYLE
  5
11
330
3
100
AcDbSymbolTableRecord
100
AcDbTextStyleTableRecord
  2
STANDARD
 70
     0
 40
0.0
 41
1.0
 50
0.0
 71
     0
 42
0.2
  3
txt
  4

  0
STYLE
  5
EA
330
3
100
AcDbSymbolTableRecord
100
AcDbTextStyleTableRecord
  2
ARIAL_WIDE
 70
     0
 40
0.0
 41
1.25
 50
0.0
 71
     0
 42
0.2
  3
ARIAL.TTF
  4

1001
ACAD
1000
Arial
1071
       34
  0
ENDTAB
  0
TABLE
  2
VIEW
  5
6
330
0
100
AcDbSymbolTable
 70
     0
  0
ENDTAB
  0
TABLE
  2
UCS
  5
7
330
0
100
AcDbSymbolTable
 70
     0
  0
ENDTAB
  0
TABLE
  2
APPID
  5
9
330
0
100
AcDbSymbolTable
 70
     1
  0
APPID
  5
12
330
9
100
AcDbSymbolTableRecord
100
AcDbRegAppTableRecord
  2
ACAD
 70
     0
  0
ENDTAB
  0
TABLE
  2
DIMSTYLE
  5
A
330
0
100
AcDbSymbolTable
 70
     1
  0
DIMSTYLE
105
E8
330
A
100
AcDbSymbolTableRecord
100
AcDbDimStyleTableRecord
  2
STANDARD
 70
     0
  3

  4

  5

  6

  7

 40
1.0
 41
0.18
 42
0.0625
 43
0.38
 44
0.18
 45
0.0
 46
0.0
 47
0.0
 48
0.0
140
0.18
141
0.09
142
0.0
143
25.4
144
1.0
145
0.0
146
1.0
147
0.09
 71
     0
 72
     0
 73
     1
 74
     1
 75
     0
 76
     0
 77
     0
 78
     0
170
     0
171
     2
172
     0
173
     0
174
     0
175
     0
176
     0
177
     0
178
     0
270
     2
271
     4
272
     4
273
     2
274
     2
340
11
275
     0
280
     0
281
     0
282
     0
283
     1
284
     0
285
     0
286
     0
287
     3
288
     0
  0
ENDTAB
  0
TABLE
  2
BLOCK_RECORD
  5
1
330
0
100
AcDbSymbolTable
 70
     6
  0
BLOCK_RECORD
  5
1E
102
{ACAD_XDICTIONARY
360
127
102
}
330
1
100
AcDbSymbolTableRecord
100
AcDbBlockTableRecord
  2
*MODEL_SPACE
  0
BLOCK_RECORD
  5
1A
102
{ACAD_XDICTIONARY
360
129
102
}
330
1
100
AcDbSymbolTableRecord
100
AcDbBlockTableRecord
  2
*PAPER_SPACE
  0
BLOCK_RECORD
  5
22
330
1
100
AcDbSymbolTableRecord
100
AcDbBlockTableRecord
  2
*D0
  0
BLOCK_RECORD
  5
23
330
1
100
AcDbSymbolTableRecord
100
AcDbBlockTableRecord
  2
*D1
  0
BLOCK_RECORD
  5
24
330
1
100
AcDbSymbolTableRecord
100
AcDbBlockTableRecord
  2
*D2
  0
BLOCK_RECORD
  5
25
330
1
100
AcDbSymbolTableRecord
100
AcDbBlockTableRecord
  2
*D3
  0
BLOCK_RECORD
  5
26
330
1
100
AcDbSymbolTableRecord
100
AcDbBlockTableRecord
  2
*D4
  0
BLOCK_RECORD
  5
27
330
1
100
AcDbSymbolTableRecord
100
AcDbBlockTableRecord
  2
*D5
  0
ENDTAB
  0
ENDSEC
  0
SECTION
  2
BLOCKS
  0
BLOCK
  5
30
330
1E
100
AcDbEntity
  8
0
100
AcDbBlockBegin
  2
*MODEL_SPACE
 70
     0
 10
0.0
 20
0.0
 30
0.0
  3
*MODEL_SPACE
  1

  0
ENDBLK
  5
31
330
1E
100
AcDbEntity
  8
0
100
AcDbBlockEnd
  0
BLOCK
  5
2E
330
1A
100
AcDbEntity
 67
     1
  8
0
100
AcDbBlockBegin
  2
*PAPER_SPACE
 70
     0
 10
0.0
 20
0.0
 30
0.0
  3
*PAPER_SPACE
  1

  0
ENDBLK
  5
2F
330
1A
100
AcDbEntity
 67
     1
  8
0
100
AcDbBlockEnd
  0
BLOCK
  5
32
330
22
100
AcDbEntity
  8
0
100
AcDbBlockBegin
  2
*D0
 70
     1
 10
0.0
 20
0.0
 30
0.0
  3
*D0
  1

  0
LINE
  5
33
330
22
100
AcDbEntity
  8
0
  6
BYBLOCK
 62
     0
100
AcDbLine
 10
7.626677257999477
 20
21.33297558603737
 30
0.0
 11
8.790349013172262
 21
21.33297558603737
 31
0.0
  0
LINE
  5
34
330
22
100
AcDbEntity
  8
0
  6
BYBLOCK
 62
     0
100
AcDbLine
 10
6.728231695928754
 20
19.06670756090967
 30
0.0
 11
8.790349013172262
 21
19.06670756090967
 31
0.0
  0
LINE
  5
35
330
22
100
AcDbEntity
  8
0
  6
BYBLOCK
 62
     0
100
AcDbLine
 10
8.610349013172262
 20
21.33297558603737
 30
0.0
 11
8.610349013172262
 21
20.59567490680686
 31
0.0
  0
LINE
  5
36
330
22
100
AcDbEntity
  8
0
  6
BYBLOCK
 62
     0
100
AcDbLine
 10
8.610349013172262
 20
19.06670756090967
 30
0.0
 11
8.610349013172262
 21
19.80400824014019
 31
0.0
  0
LINE
  5
37
330
22
100
AcDbEntity
  8
0
  6
BYBLOCK
 62
     0
100
AcDbLine
 10
8.735349013172262
 20
21.20797558603737
 30
0.0
 11
8.485349013172262
 21
21.45797558603737
 31
0.0
  0
LINE
  5
38
330
22
100
AcDbEntity
  8
0
  6
BYBLOCK
 62
     0
100
AcDbLine
 10
8.735349013172262
 20
18.94170756090967
 30
0.0
 11
8.485349013172262
 21
19.19170756090967
 31
0.0
  0
TEXT
  5
39
330
22
100
AcDbEntity
  8
0
  6
BYBLOCK
 62
     0
100
AcDbText
 10
8.672849013172262
 20
19.92900824014019
 30
0.0
 40
0.125
  1
2 1/4
 50
90.0
 72
     1
 11
8.610349013172262
 21
20.19984157347352
 31
0.0
100
AcDbText
 73
     2
  0
POINT
  5
3B
330
22
100
AcDbEntity
  8
DEFPOINTS
  6
BYBLOCK
 62
     0
100
AcDbPoint
 10
7.564177257999477
 20
21.33297558603737
 30
0.0
  0
POINT
  5
3C
330
22
100
AcDbEntity
  8
DEFPOINTS
  6
BYBLOCK
 62
     0
100
AcDbPoint
 10
6.665731695928754
 20
19.06670756090967
 30
0.0
  0
POINT
  5
3D
330
22
100
AcDbEntity
  8
DEFPOINTS
  6
BYBLOCK
 62
     0
100
AcDbPoint
 10
8.610349013172262
 20
19.06670756090967
 30
0.0
  0
ENDBLK
  5
3E
330
22
100
AcDbEntity
  8
0
100
AcDbBlockEnd
  0
BLOCK
  5
3F
330
23
100
AcDbEntity
  8
0
100
AcDbBlockBegin
  2
*D1
 70
     1
 10
0.0
 20
0.0
 30
0.0
  3
*D1
  1

  0
LINE
  5
40
330
23
100
AcDbEntity
  8
0
  6
BYBLOCK
 62
     0
100
AcDbLine
 10
5.478908489386995
 20
17.87313490821736
 30
0.0
 11
5.307192985598794
 21
17.69143794688128
 31
0.0
  0
LINE
  5
41
330
23
100
AcDbEntity
  8
0
  6
BYBLOCK
 62
     0
100
AcDbLine
 10
5.483899218160933
 20
17.69642867565522
 30
0.0
 11
5.473917760613057
 21
18.0498411407795
 31
0.0
  0
LINE
  5
42
330
23
100
AcDbEntity
  8
0
  6
BYBLOCK
 62
     0
100
AcDbLine
 10
6.391861797133916
 20
19.03755522961405
 30
0.0
 11
6.766861797133916
 21
19.03755522961405
 31
0.0
  0
LINE
  5
43
330
23
100
AcDbEntity
  8
0
  6
BYBLOCK
 62
     0
100
AcDbLine
 10
6.579361797133916
 20
18.85005522961405
 30
0.0
 11
6.579361797133916
 21
19.22505522961405
 31
0.0
  0
TEXT
  5
44
330
23
100
AcDbEntity
  8
0
  6
BYBLOCK
 62
     0
100
AcDbText
 10
4.722993712042742
 20
16.98228687936861
 30
0.0
 40
0.125
  1
%%c3 3/16
 50
46.61777938936443
 72
     1
 11
4.949452352706708
 21
17.31290261076445
 31
0.0
100
AcDbText
 73
     2
  0
POINT
  5
45
330
23
100
AcDbEntity
  8
DEFPOINTS
  6
BYBLOCK
 62
     0
100
AcDbPoint
 10
5.478908489386995
 20
17.87313490821736
 30
0.0
  0
POINT
  5
46
330
23
100
AcDbEntity
  8
DEFPOINTS
  6
BYBLOCK
 62
     0
100
AcDbPoint
 10
7.679815104880836
 20
20.20197555101074
 30
0.0
  0
ENDBLK
  5
47
330
23
100
AcDbEntity
  8
0
100
AcDbBlockEnd
  0
BLOCK
  5
48
330
24
100
AcDbEntity
  8
0
100
AcDbBlockBegin
  2
*D2
 70
     1
 10
0.0
 20
0.0
 30
0.0
  3
*D2
  1

  0
LINE
  5
49
330
24
100
AcDbEntity
  8
0
  6
BYBLOCK
 62
     0
100
AcDbLine
 10
5.903435420920108
 20
21.58347860816123
 30
0.0
 11
5.903435420920108
 21
22.07482238476888
 31
0.0
  0
LINE
  5
4A
330
24
100
AcDbEntity
  8
0
  6
BYBLOCK
 62
     0
100
AcDbLine
 10
7.294726975867402
 20
21.58347860816123
 30
0.0
 11
7.294726975867402
 21
22.07482238476888
 31
0.0
  0
LINE
  5
4B
330
24
100
AcDbEntity
  8
0
  6
BYBLOCK
 62
     0
100
AcDbLine
 10
5.903435420920108
 20
21.89482238476888
 30
0.0
 11
6.203247865060422
 21
21.89482238476888
 31
0.0
  0
LINE
  5
4C
330
24
100
AcDbEntity
  8
0
  6
BYBLOCK
 62
     0
100
AcDbLine
 10
7.294726975867402
 20
21.89482238476888
 30
0.0
 11
6.994914531727088
 21
21.89482238476888
 31
0.0
  0
LINE
  5
4D
330
24
100
AcDbEntity
  8
0
  6
BYBLOCK
 62
     0
100
AcDbLine
 10
5.778435420920108
 20
21.76982238476888
 30
0.0
 11
6.028435420920108
 21
22.01982238476888
 31
0.0
  0
LINE
  5
4E
330
24
100
AcDbEntity
  8
0
  6
BYBLOCK
 62
     0
100
AcDbLine
 10
7.169726975867402
 20
21.76982238476888
 30
0.0
 11
7.419726975867402
 21
22.01982238476888
 31
0.0
  0
TEXT
  5
4F
330
24
100
AcDbEntity
  8
0
  6
BYBLOCK
 62
     0
100
AcDbText
 10
6.328247865060422
 20
21.83232238476888
 30
0.0
 40
0.125
  1
1 3/8
 72
     1
 11
6.599081198393755
 21
21.89482238476888
 31
0.0
100
AcDbText
 73
     2
  0
POINT
  5
50
330
24
100
AcDbEntity
  8
DEFPOINTS
  6
BYBLOCK
 62
     0
100
AcDbPoint
 10
5.903435420920108
 20
21.52097860816123
 30
0.0
  0
POINT
  5
51
330
24
100
AcDbEntity
  8
DEFPOINTS
  6
BYBLOCK
 62
     0
100
AcDbPoint
 10
7.294726975867402
 20
21.52097860816123
 30
0.0
  0
POINT
  5
52
330
24
100
AcDbEntity
  8
DEFPOINTS
  6
BYBLOCK
 62
     0
100
AcDbPoint
 10
7.294726975867402
 20
21.89482238476888
 30
0.0
  0
ENDBLK
  5
53
330
24
100
AcDbEntity
  8
0
100
AcDbBlockEnd
  0
BLOCK
  5
54
330
25
100
AcDbEntity
  8
0
100
AcDbBlockBegin
  2
*D3
 70
     1
 10
0.0
 20
0.0
 30
0.0
  3
*D3
  1

  0
LINE
  5
55
330
25
100
AcDbEntity
  8
0
  6
BYBLOCK
 62
     0
100
AcDbLine
 10
5.564177257999477
 20
21.56802589091577
 30
0.0
 11
5.564177257999477
 21
22.26082238476888
 31
0.0
  0
LINE
  5
56
330
25
100
AcDbEntity
  8
0
  6
BYBLOCK
 62
     0
100
AcDbLine
 10
7.564177257999477
 20
21.56802589091577
 30
0.0
 11
7.564177257999477
 21
22.26082238476888
 31
0.0
  0
LINE
  5
57
330
25
100
AcDbEntity
  8
0
  6
BYBLOCK
 62
     0
100
AcDbLine
 10
5.564177257999477
 20
22.08082238476888
 30
0.0
 11
6.39751059133281
 21
22.08082238476888
 31
0.0
  0
LINE
  5
58
330
25
100
AcDbEntity
  8
0
  6
BYBLOCK
 62
     0
100
AcDbLine
 10
7.564177257999477
 20
22.08082238476888
 30
0.0
 11
6.730843924666144
 21
22.08082238476888
 31
0.0
  0
LINE
  5
59
330
25
100
AcDbEntity
  8
0
  6
BYBLOCK
 62
     0
100
AcDbLine
 10
5.439177257999477
 20
21.95582238476888
 30
0.0
 11
5.689177257999477
 21
22.20582238476888
 31
0.0
  0
LINE
  5
5A
330
25
100
AcDbEntity
  8
0
  6
BYBLOCK
 62
     0
100
AcDbLine
 10
7.439177257999477
 20
21.95582238476888
 30
0.0
 11
7.689177257999477
 21
22.20582238476888
 31
0.0
  0
TEXT
  5
5B
330
25
100
AcDbEntity
  8
0
  6
BYBLOCK
 62
     0
100
AcDbText
 10
6.52251059133281
 20
22.01832238476888
 30
0.0
 40
0.125
  1
2
 72
     1
 11
6.564177257999477
 21
22.08082238476888
 31
0.0
100
AcDbText
 73
     2
  0
POINT
  5
5C
330
25
100
AcDbEntity
  8
DEFPOINTS
  6
BYBLOCK
 62
     0
100
AcDbPoint
 10
5.564177257999477
 20
21.50552589091577
 30
0.0
  0
POINT
  5
5D
330
25
100
AcDbEntity
  8
DEFPOINTS
  6
BYBLOCK
 62
     0
100
AcDbPoint
 10
7.564177257999477
 20
21.50552589091577
 30
0.0
  0
POINT
  5
5E
330
25
100
AcDbEntity
  8
DEFPOINTS
  6
BYBLOCK
 62
     0
100
AcDbPoint
 10
7.564177257999477
 20
22.08082238476888
 30
0.0
  0
ENDBLK
  5
5F
330
25
100
AcDbEntity
  8
0
100
AcDbBlockEnd
  0
BLOCK
  5
60
330
26
100
AcDbEntity
  8
0
100
AcDbBlockBegin
  2
*D4
 70
     1
 10
0.0
 20
0.0
 30
0.0
  3
*D4
  1

  0
LINE
  5
61
330
26
100
AcDbEntity
  8
0
  6
BYBLOCK
 62
     0
100
AcDbLine
 10
6.392294587271774
 20
18.94753378163098
 30
0.0
 11
6.182652177378081
 21
18.81133517674104
 31
0.0
  0
LINE
  5
62
330
26
100
AcDbEntity
  8
0
  6
BYBLOCK
 62
     0
100
AcDbLine
 10
6.355572684769895
 20
18.77461327423916
 30
0.0
 11
6.429016489773653
 21
19.12045428902279
 31
0.0
  0
LINE
  5
63
330
26
100
AcDbEntity
  8
0
  6
BYBLOCK
 62
     0
100
AcDbLine
 10
6.388231695928755
 20
19.06670756090967
 30
0.0
 11
6.763231695928755
 21
19.06670756090967
 31
0.0
  0
LINE
  5
64
330
26
100
AcDbEntity
  8
0
  6
BYBLOCK
 62
     0
100
AcDbLine
 10
6.575731695928755
 20
18.87920756090967
 30
0.0
 11
6.575731695928755
 21
19.25420756090967
 31
0.0
  0
TEXT
  5
65
330
26
100
AcDbEntity
  8
0
  6
BYBLOCK
 62
     0
100
AcDbText
 10
5.657655402217381
 20
18.39572829456113
 30
0.0
 40
0.125
  1
%%c7/16
 50
33.01061610441751
 72
     1
 11
5.850718361713065
 21
18.59568738566531
 31
0.0
100
AcDbText
 73
     2
  0
POINT
  5
66
330
26
100
AcDbEntity
  8
DEFPOINTS
  6
BYBLOCK
 62
     0
100
AcDbPoint
 10
6.392294587271774
 20
18.94753378163098
 30
0.0
  0
POINT
  5
67
330
26
100
AcDbEntity
  8
DEFPOINTS
  6
BYBLOCK
 62
     0
100
AcDbPoint
 10
6.759168804585738
 20
19.18588134018837
 30
0.0
  0
ENDBLK
  5
68
330
26
100
AcDbEntity
  8
0
100
AcDbBlockEnd
  0
BLOCK
  5
69
330
27
100
AcDbEntity
  8
0
100
AcDbBlockBegin
  2
*D5
 70
     1
 10
0.0
 20
0.0
 30
0.0
  3
*D5
  1

  0
LINE
  5
6A
330
27
100
AcDbEntity
  8
0
  6
BYBLOCK
 62
     0
100
AcDbLine
 10
1.725683344529157
 20
20.74597561679292
 30
0.0
 11
1.725683344529157
 21
21.83511354843973
 31
0.0
  0
LINE
  5
6B
330
27
100
AcDbEntity
  8
0
  6
BYBLOCK
 62
     0
100
AcDbLine
 10
4.742775223863222
 20
21.39268870112931
 30
0.0
 11
4.742775223863222
 21
21.83511354843973
 31
0.0
  0
LINE
  5
6C
330
27
100
AcDbEntity
  8
0
  6
BYBLOCK
 62
     0
100
AcDbLine
 10
1.725683344529157
 20
21.65511354843972
 30
0.0
 11
3.067562617529523
 21
21.65511354843972
 31
0.0
  0
LINE
  5
6D
330
27
100
AcDbEntity
  8
0
  6
BYBLOCK
 62
     0
100
AcDbLine
 10
4.742775223863222
 20
21.65511354843972
 30
0.0
 11
3.400895950862856
 21
21.65511354843972
 31
0.0
  0
LINE
  5
6E
330
27
100
AcDbEntity
  8
0
  6
BYBLOCK
 62
     0
100
AcDbLine
 10
1.600683344529157
 20
21.53011354843973
 30
0.0
 11
1.850683344529157
 21
21.78011354843973
 31
0.0
  0
LINE
  5
6F
330
27
100
AcDbEntity
  8
0
  6
BYBLOCK
 62
     0
100
AcDbLine
 10
4.617775223863222
 20
21.53011354843973
 30
0.0
 11
4.867775223863222
 21
21.78011354843973
 31
0.0
  0
TEXT
  5
70
330
27
100
AcDbEntity
  8
0
  6
BYBLOCK
 62
     0
100
AcDbText
 10
3.192562617529523
 20
21.59261354843973
 30
0.0
 40
0.125
  1
3
 72
     1
 11
3.23422928419619
 21
21.65511354843972
 31
0.0
100
AcDbText
 73
     2
  0
POINT
  5
71
330
27
100
AcDbEntity
  8
DEFPOINTS
  6
BYBLOCK
 62
     0
100
AcDbPoint
 10
1.725683344529157
 20
20.68347561679292
 30
0.0
  0
POINT
  5
72
330
27
100
AcDbEntity
  8
DEFPOINTS
  6
BYBLOCK
 62
     0
100
AcDbPoint
 10
4.742775223863222
 20
21.33018870112931
 30
0.0
  0
POINT
  5
73
330
27
100
AcDbEntity
  8
DEFPOINTS
  6
BYBLOCK
 62
     0
100
AcDbPoint
 10
4.742775223863222
 20
21.65511354843972
 30
0.0
  0
ENDBLK
  5
74
330
27
100
AcDbEntity
  8
0
100
AcDbBlockEnd
  0
ENDSEC
  0
SECTION
  2
ENTITIES
  0
DIMENSION
  5
75
330
1E
100
AcDbEntity
  8
ADPDIM
100
AcDbDimension
  2
*D0
 10
8.610349013172262
 20
19.06670756090967
 30
0.0
 11
8.610349013172262
 21
20.19984157347352
 31
0.0
100
AcDbAlignedDimension
 13
7.564177257999477
 23
21.33297558603737
 33
0.0
 14
6.665731695928754
 24
19.06670756090967
 34
0.0
 50
90.0
100
AcDbRotatedDimension
  0
DIMENSION
  5
76
330
1E
100
AcDbEntity
  8
ADPDIM
100
AcDbDimension
  2
*D5
 10
4.742775223863222
 20
21.65511354843972
 30
0.0
 11
3.23422928419619
 21
21.65511354843972
 31
0.0
100
AcDbAlignedDimension
 13
1.725683344529157
 23
20.68347561679292
 33
0.0
 14
4.742775223863222
 24
21.33018870112931
 34
0.0
100
AcDbRotatedDimension
  0
LWPOLYLINE
  5
77
330
1E
100
AcDbEntity
  8
ADP1DETAIL
100
AcDbPolyline
 90
        6
 70
     0
 43
0.0
 10
5.290723260812984
 20
21.41086655117606
 10
5.290723260812984
 20
21.10930446648153
 42
0.1211292398847677
 10
4.77444238136147
 20
20.68076888761764
 42
-0.3317203617686863
 10
2.748058572150227
 20
19.58990578589223
 42
-0.0462735726296767
 10
2.199466930104924
 20
19.58990578589223
 42
0.1832888743227216
 10
2.062319038272582
 20
19.45287768050348
 42
1.3784877057007
  0
LWPOLYLINE
  5
7F
330
1E
100
AcDbEntity
  8
ADP1DETAIL
100
AcDbPolyline
 90
        5
 70
     0
 43
0.0
 10
4.256008867913958
 20
21.10945753488574
 10
4.256008867913958
 20
20.86031552068068
 42
-0.2856512416453715
 10
3.869501111618869
 20
20.18784660059208
 42
-0.1410435403324587
 10
2.411422803690871
 20
19.93870458638702
 42
0.2255067538137569
 10
1.900235152522372
 20
19.85150487414314
 42
2.710887763187414
  0
LWPOLYLINE
  5
86
330
1E
100
AcDbEntity
  8
ADP1DETAIL
100
AcDbPolyline
 90
        3
 70
     0
 43
0.0
 10
4.256008867913958
 20
21.10945753488574
 42
-0.3831874271387892
 10
3.607673324913117
 20
20.28155895639146
 42
-0.1785472031764346
 10
1.850363239402567
 20
20.68649479861372
 42
-3.360403854551226
  0
LWPOLYLINE
  5
8B
330
1E
100
AcDbEntity
  8
ADP1DETAIL
100
AcDbPolyline
 90
        4
 70
     1
 43
0.0
 10
1.725683344529157
 20
17.44832475853386
 10
1.725683344529157
 20
20.68347561679292
 10
1.850683344529157
 20
20.68347561679292
 10
1.850683344529157
 20
17.44832475853386
  0
LWPOLYLINE
  5
91
330
1E
100
AcDbEntity
  8
ADP1DETAIL
100
AcDbPolyline
 90
        3
 70
     0
 43
0.0
 10
2.062319038272582
 20
19.92624746386044
 10
2.062319038272582
 20
17.83449482964694
 42
0.2635727013609625
 10
1.950107140358108
 20
17.74729516588379
 42
0.1784140409897084
  0
LWPOLYLINE
  5
96
330
1E
100
AcDbEntity
  8
ADP1DETAIL
100
AcDbPolyline
 90
        3
 70
     0
 43
0.0
 10
1.950107140358108
 20
19.86396199666972
 10
1.950107140358108
 20
17.58535286392261
 42
0.4681132857464523
 10
1.837895242443631
 20
17.51061022572458
 42
1.002538827258945
  0
LINE
  5
9B
330
1E
100
AcDbEntity
  8
ADP2DETAIL
  6
HIDDEN2
100
AcDbLine
 10
1.945588974320094
 20
18.84247974327704
 30
0.0
 11
1.738151341488093
 21
18.84247974327704
 31
0.0
  0
LINE
  5
9C
330
1E
100
AcDbEntity
  8
ADP2DETAIL
  6
HIDDEN2
100
AcDbLine
 10
1.945588974320094
 20
19.27847825601572
 30
0.0
 11
1.738151341488093
 21
19.27847825601572
 31
0.0
  0
DIMENSION
  5
9D
330
1E
100
AcDbEntity
  8
ADPDIM
100
AcDbDimension
  2
*D1
 10
7.679815104880836
 20
20.20197555101074
 30
0.0
 11
4.949452352706708
 21
17.31290261076445
 31
0.0
 70
     3
100
AcDbDiametricDimension
 15
5.478908489386995
 25
17.87313490821736
 35
0.0
 40
0.0
  0
ARC
  5
9E
330
1E
100
AcDbEntity
  8
ADP1DETAIL
100
AcDbCircle
 10
6.579361797133912
 20
19.06880522961405
 30
0.0
 40
1.261392322930135
100
AcDbArc
 50
141.2638953674271
 51
39.82992830344373
  0
ARC
  5
9F
330
1E
100
AcDbEntity
  8
ADP1DETAIL
100
AcDbCircle
 10
6.579361797133912
 20
19.06880522961405
 30
0.0
 40
1.625
100
AcDbArc
 50
101.4245631594246
 51
78.8286408934248
  0
ARC
  5
A0
330
1E
100
AcDbEntity
  8
ADP1DETAIL
100
AcDbCircle
 10
6.579361797133912
 20
19.06880522961405
 30
0.0
 40
1.486640935693272
100
AcDbArc
 50
145.2149923079051
 51
34.5900527827365
  0
LWPOLYLINE
  5
A1
330
1E
100
AcDbEntity
  8
ADP1DETAIL
100
AcDbPolyline
 90
        4
 70
     0
 43
0.0
 10
7.640366549478637
 20
19.55253446679321
 42
0.2163725884676511
 10
7.012111365343648
 20
19.5151631476942
 42
-0.488671517422391
 10
6.86249547655237
 20
19.54007734426664
 42
0.2823187619257269
 10
6.575731695928751
 20
19.80167648099827
 42
0.0948956510465492
  0
LWPOLYLINE
  5
A7
330
1E
100
AcDbEntity
  8
ADP1DETAIL
100
AcDbPolyline
 90
        4
 70
     0
 43
0.0
 10
5.511096842378868
 20
19.55253446679321
 42
-0.2163725884676511
 10
6.139352026513857
 20
19.5151631476942
 42
0.488671517422391
 10
6.288967915305135
 20
19.54007734426664
 42
-0.2823187619257269
 10
6.575731695928754
 20
19.80167648099827
 42
-0.0948956510465492
  0
DIMENSION
  5
AD
330
1E
100
AcDbEntity
  8
ADPDIM
100
AcDbDimension
  2
*D4
 10
6.759168804585738
 20
19.18588134018837
 30
0.0
 11
5.850718361713065
 21
18.59568738566531
 31
0.0
 70
     3
100
AcDbDiametricDimension
 15
6.392294587271774
 25
18.94753378163098
 35
0.0
 40
0.0
  0
CIRCLE
  5
AE
330
1E
100
AcDbEntity
  8
ADP1DETAIL
100
AcDbCircle
 10
6.575731695928754
 20
19.06670756090967
 30
0.0
 40
0.21875
  0
LINE
  5
AF
330
1E
100
AcDbEntity
  8
ADP2DETAIL
  6
HIDDEN2
100
AcDbLine
 10
5.972302347551603
 20
21.18927770495213
 30
0.0
 11
6.025938711187968
 21
21.12856934304029
 31
0.0
  0
LINE
  5
B0
330
1E
100
AcDbEntity
  8
ADP2DETAIL
  6
HIDDEN2
100
AcDbLine
 10
5.564177257999477
 20
21.33297558603737
 30
0.0
 11
7.564177257999477
 21
21.33297558603737
 31
0.0
  0
DIMENSION
  5
B1
330
1E
100
AcDbEntity
  8
ADPDIM
100
AcDbDimension
  2
*D3
 10
7.564177257999477
 20
22.08082238476888
 30
0.0
 11
6.564177257999477
 21
22.08082238476888
 31
0.0
100
AcDbAlignedDimension
 13
5.564177257999477
 23
21.50552589091577
 33
0.0
 14
7.564177257999477
 24
21.50552589091577
 34
0.0
100
AcDbRotatedDimension
  0
DIMENSION
  5
B2
330
1E
100
AcDbEntity
  8
ADPDIM
100
AcDbDimension
  2
*D2
 10
7.294726975867402
 20
21.89482238476888
 30
0.0
 11
6.599081198393755
 21
21.89482238476888
 31
0.0
100
AcDbAlignedDimension
 13
5.903435420920108
 23
21.52097860816123
 33
0.0
 14
7.294726975867402
 24
21.52097860816123
 34
0.0
100
AcDbRotatedDimension
  0
LINE
  5
B3
330
1E
100
AcDbEntity
  8
ADP1DETAIL
100
AcDbLine
 10
5.564177257999477
 20
21.50552589091577
 30
0.0
 11
7.564177257999477
 21
21.50552589091577
 31
0.0
  0
LWPOLYLINE
  5
B4
330
1E
100
AcDbEntity
  8
ADP1DETAIL
100
AcDbPolyline
 90
        6
 70
     0
 43
0.0
 10
6.114416032595989
 20
21.10945753488574
 42
-0.0785218959964905
 10
6.276499918346202
 20
20.43677408198786
 42
-0.076206593004952
 10
6.251563924428334
 20
20.01344717610432
 42
-0.6508238573534694
 10
6.05207604780132
 20
19.91379038981459
 42
0.1847259719437751
 10
5.608211769270154
 20
20.02524550710931
 42
-0.0121254665684353
 10
5.289119634295448
 20
19.88887619324215
 42
-1.118101282537856
  0
LINE
  5
BC
330
1E
100
AcDbEntity
  8
ADP1DETAIL
100
AcDbLine
 10
6.304134828623261
 20
21.10945753488574
 30
0.0
 11
5.689177257999481
 21
21.10945753488575
 31
0.0
  0
LWPOLYLINE
  5
BD
330
1E
100
AcDbEntity
  8
ADP1DETAIL
100
AcDbPolyline
 90
        2
 70
     0
 43
0.0
 10
6.239095927469398
 20
21.10945753488574
 10
5.565824465266618
 20
21.10945753488574
  0
LINE
  5
C1
330
1E
100
AcDbEntity
  8
ADP2DETAIL
  6
HIDDEN2
100
AcDbLine
 10
4.811188167610359
 20
21.18927770495213
 30
0.0
 11
4.864824531246724
 21
21.12856934304029
 31
0.0
  0
LWPOLYLINE
  5
C2
330
1E
100
AcDbEntity
  8
ADP1DETAIL
100
AcDbPolyline
 90
        5
 70
     0
 43
0.0
 10
5.201068077431954
 20
21.48108136310149
 42
-0.3120341273705903
 10
4.279995549952832
 20
21.46670210151409
 42
0.8920437164298759
 10
4.186449091249971
 20
21.43794374517337
 42
0.6473254417849656
 10
5.273026832484347
 20
21.38042703249193
 42
0.6182765053642453
 10
5.215459622749757
 20
21.49546045785482
 42
2848.777980009486
  0
ARC
  5
C9
330
1E
100
AcDbEntity
  8
ADP1DETAIL
100
AcDbCircle
 10
3.77986463174422
 20
21.1683340502078
 30
0.0
 40
0.4824297545219605
100
AcDbArc
 50
352.7225410335163
 51
30.94060516282769
  0
LINE
  5
CA
330
1E
100
AcDbEntity
  8
ADP2DETAIL
  6
HIDDEN2
100
AcDbLine
 10
4.811188167610359
 20
21.33009986718715
 30
0.0
 11
4.811188167610359
 21
21.18927770495213
 31
0.0
  0
LINE
  5
CB
330
1E
100
AcDbEntity
  8
ADP2DETAIL
  6
HIDDEN2
100
AcDbLine
 10
4.623460894883087
 20
21.33009986718715
 30
0.0
 11
4.623460894883087
 21
21.1889102521312
 31
0.0
  0
LINE
  5
CC
330
1E
100
AcDbEntity
  8
ADP2DETAIL
  6
HIDDEN2
100
AcDbLine
 10
4.623460894883087
 20
21.28995578621422
 30
0.0
 11
4.623460894883087
 21
21.1889102521312
 31
0.0
  0
LINE
  5
CD
330
1E
100
AcDbEntity
  8
ADP2DETAIL
  6
HIDDEN2
100
AcDbLine
 10
4.623460894883087
 20
21.1889102521312
 30
0.0
 11
4.569824531246722
 21
21.12856934304029
 31
0.0
  0
LINE
  5
CE
330
1E
100
AcDbEntity
  8
ADP2DETAIL
  6
HIDDEN2
100
AcDbLine
 10
4.623460894883087
 20
21.1889102521312
 30
0.0
 11
4.811188167610359
 21
21.1889102521312
 31
0.0
  0
LINE
  5
CF
330
1E
100
AcDbEntity
  8
ADP2DETAIL
  6
HIDDEN2
100
AcDbLine
 10
5.972302347551603
 20
21.33009986718715
 30
0.0
 11
5.972302347551603
 21
21.18927770495213
 31
0.0
  0
LINE
  5
D0
330
1E
100
AcDbEntity
  8
ADP2DETAIL
  6
HIDDEN2
100
AcDbLine
 10
5.78457507482433
 20
21.33009986718715
 30
0.0
 11
5.78457507482433
 21
21.1889102521312
 31
0.0
  0
LINE
  5
D1
330
1E
100
AcDbEntity
  8
ADP2DETAIL
  6
HIDDEN2
100
AcDbLine
 10
5.78457507482433
 20
21.1889102521312
 30
0.0
 11
5.730938711187966
 21
21.12856934304029
 31
0.0
  0
LINE
  5
D2
330
1E
100
AcDbEntity
  8
ADP1DETAIL
100
AcDbLine
 10
5.564177257999481
 20
21.23445753488574
 30
0.0
 11
5.564177257999477
 21
21.50552589091577
 31
0.0
  0
ARC
  5
D3
330
1E
100
AcDbEntity
  8
ADP1DETAIL
100
AcDbCircle
 10
5.689177257999481
 20
21.23445753488574
 30
0.0
 40
0.125
100
AcDbArc
 50
180.0
 51
270.0
  0
LINE
  5
D4
330
1E
100
AcDbEntity
  8
ADP2DETAIL
  6
HIDDEN2
100
AcDbLine
 10
5.78457507482433
 20
21.1889102521312
 30
0.0
 11
5.972302347551603
 21
21.1889102521312
 31
0.0
  0
LINE
  5
D5
330
1E
100
AcDbEntity
  8
ADP2DETAIL
  6
HIDDEN2
100
AcDbLine
 10
7.175866629771625
 20
21.18927770495213
 30
0.0
 11
7.12223026613526
 21
21.12856934304029
 31
0.0
  0
LINE
  5
D6
330
1E
100
AcDbEntity
  8
ADP1DETAIL
100
AcDbLine
 10
7.439177257999477
 20
21.10945753488574
 30
0.0
 11
6.851021521290934
 21
21.10945753488574
 31
0.0
  0
LWPOLYLINE
  5
D7
330
1E
100
AcDbEntity
  8
ADP1DETAIL
100
AcDbPolyline
 90
        6
 70
     0
 43
0.0
 10
7.037047359261516
 20
21.10945753488574
 42
0.0785218959964905
 10
6.874963473511303
 20
20.43677408198786
 42
0.076206593004952
 10
6.899899467429171
 20
20.01344717610432
 42
0.6508238573534694
 10
7.099387344056185
 20
19.91379038981459
 42
-0.1847259719437751
 10
7.543251622587351
 20
20.02524550710931
 42
0.0121254665684353
 10
7.862343757562057
 20
19.88887619324215
 42
1.118101282537856
  0
ARC
  5
DF
330
1E
100
AcDbEntity
  8
ADP1DETAIL
100
AcDbCircle
 10
6.579410000209409
 20
21.39006310319673
 30
0.0
 40
0.3878452625743965
100
AcDbArc
 50
269.2132457092452
 51
4.315936870758827
  0
ARC
  5
E0
330
1E
100
AcDbEntity
  8
ADP1DETAIL
100
AcDbCircle
 10
6.560192488209181
 20
21.36938712089985
 30
0.0
 40
0.3673954531283217
100
AcDbArc
 50
172.1996195829922
 51
272.1669913987183
  0
LINE
  5
E1
330
1E
100
AcDbEntity
  8
ADP2DETAIL
  6
HIDDEN2
100
AcDbLine
 10
7.365241109766038
 20
21.1889102521312
 30
0.0
 11
7.177513837038765
 21
21.1889102521312
 31
0.0
  0
LINE
  5
E2
330
1E
100
AcDbEntity
  8
ADP2DETAIL
  6
HIDDEN2
100
AcDbLine
 10
7.363593902498897
 20
21.1889102521312
 30
0.0
 11
7.175866629771625
 21
21.1889102521312
 31
0.0
  0
LINE
  5
E3
330
1E
100
AcDbEntity
  8
ADP2DETAIL
  6
HIDDEN2
100
AcDbLine
 10
7.175866629771625
 20
21.33009986718715
 30
0.0
 11
7.175866629771625
 21
21.18927770495213
 31
0.0
  0
LINE
  5
E4
330
1E
100
AcDbEntity
  8
ADP2DETAIL
  6
HIDDEN2
100
AcDbLine
 10
7.363593902498897
 20
21.33009986718715
 30
0.0
 11
7.363593902498897
 21
21.1889102521312
 31
0.0
  0
LINE
  5
E5
330
1E
100
AcDbEntity
  8
ADP2DETAIL
  6
HIDDEN2
100
AcDbLine
 10
7.363593902498897
 20
21.1889102521312
 30
0.0
 11
7.417230266135262
 21
21.12856934304029
 31
0.0
  0
LINE
  5
E6
330
1E
100
AcDbEntity
  8
ADP1DETAIL
100
AcDbLine
 10
7.564177257999477
 20
21.50552589091577
 30
0.0
 11
7.564177257999477
 21
21.23445753488574
 31
0.0
  0
ARC
  5
E7
330
1E
100
AcDbEntity
  8
ADP1DETAIL
100
AcDbCircle
 10
7.439177257999477
 20
21.23445753488574
 30
0.0
 40
0.125
100
AcDbArc
 50
270.0
 51
0.0
  0
TEXT
  5
EB
330
1E
100
AcDbEntity
  8
ADPDIM
100
AcDbText
 10
-3.256428487604371
 20
16.39028797337077
 30
0.0
 40
0.15625
  1
J U L I U S  B L U M  &  C O . ,  I N C .      ( 8 0 0 )  5 2 6 - 6 2 9 3        W W W . J U L I U S B L U M . C O M        P A R T  N o .  1 3 0 6
 41
1.25
  7
ARIAL_WIDE
 72
     1
 11
4.900732793091399
 21
16.54653797337077
 31
0.0
100
AcDbText
 73
     3
  0
ENDSEC
  0
SECTION
  2
OBJECTS
  0
DICTIONARY
  5
C
330
0
100
AcDbDictionary
  3
ACAD_GROUP
350
D
  3
ACAD_LAYOUT
350
19
  3
ACAD_MLINESTYLE
350
16
  3
ACAD_PLOTSETTINGS
350
18
  3
ACAD_PLOTSTYLENAME
350
E
  3
ACDBHEADERROUNDTRIPXREC
350
2B8
  3
ACDBVARIABLEDICTIONARY
350
15C
  0
DICTIONARY
  5
127
330
1E
100
AcDbDictionary
280
     1
  3
ACAD_LAYOUTSELFREF
360
2DA
  0
DICTIONARY
  5
129
330
1A
100
AcDbDictionary
280
     1
  3
ACAD_LAYOUTSELFREF
360
2D9
  0
DICTIONARY
  5
D
102
{ACAD_REACTORS
330
C
102
}
330
C
100
AcDbDictionary
  0
DICTIONARY
  5
19
102
{ACAD_REACTORS
330
C
102
}
330
C
100
AcDbDictionary
  0
DICTIONARY
  5
16
102
{ACAD_REACTORS
330
C
102
}
330
C
100
AcDbDictionary
  3
STANDARD
350
17
  0
DICTIONARY
  5
18
102
{ACAD_REACTORS
330
C
102
}
330
C
100
AcDbDictionary
  0
ACDBDICTIONARYWDFLT
  5
E
102
{ACAD_REACTORS
330
C
102
}
330
C
100
AcDbDictionary
281
     1
  3
Normal
350
F
100
AcDbDictionaryWithDefault
340
F
  0
DICTIONARY
  5
2B8
102
{ACAD_REACTORS
330
C
102
}
330
C
100
AcDbDictionary
  3
CEPSNTYPE
350
2C2
  3
DIMSTYLEDATA
350
2C6
  3
FINGERPRINTGUID
350
2C3
  3
HYPERLINKBASE
350
2BB
  3
INSUNITS
350
2C1
  3
LAYOUTDICT
350
2BD
  3
LWETCUNION
350
2C0
  3
PLOTSETDICT
350
2BE
  3
PLOTSTYLNAMDICT
350
2BF
  3
PSVPSCALE
350
2C5
  3
PUCSBASE
350
2C9
  3
PUCSORGBACK
350
2CF
  3
PUCSORGBOTTOM
350
2CB
  3
PUCSORGFRONT
350
2CE
  3
PUCSORGLEFT
350
2CC
  3
PUCSORGRIGHT
350
2CD
  3
PUCSORGTOP
350
2CA
  3
PUCSORTHOREF
350
2C7
  3
PUCSORTHOVIEW
350
2C8
  3
STYLESHEET
350
2BC
  3
TSTACKALIGN
350
2B9
  3
TSTACKSIZE
350
2BA
  3
UCSBASE
350
2D2
  3
UCSORGBACK
350
2D8
  3
UCSORGBOTTOM
350
2D4
  3
UCSORGFRONT
350
2D7
  3
UCSORGLEFT
350
2D5
  3
UCSORGRIGHT
350
2D6
  3
UCSORGTOP
350
2D3
  3
UCSORTHOREF
350
2D0
  3
UCSORTHOVIEW
350
2D1
  3
VERSIONGUID
350
2C4
  0
DICTIONARY
  5
15C
102
{ACAD_REACTORS
330
C
102
}
330
C
100
AcDbDictionary
  3
DIMASSOC
350
15E
  3
HIDETEXT
350
15D
  0
XRECORD
  5
2DA
102
{ACAD_REACTORS
330
127
102
}
330
127
100
AcDbXrecord
340
1E
  0
XRECORD
  5
2D9
102
{ACAD_REACTORS
330
129
102
}
330
129
100
AcDbXrecord
340
1A
  0
MLINESTYLE
  5
17
102
{ACAD_REACTORS
330
16
102
}
330
16
100
AcDbMlineStyle
  2
STANDARD
 70
     0
  3

 62
   256
 51
90.0
 52
90.0
 71
     2
 49
0.5
 62
   256
  6
BYLAYER
 49
-0.5
 62
   256
  6
BYLAYER
  0
ACDBPLACEHOLDER
  5
F
102
{ACAD_REACTORS
330
E
102
}
330
E
100
AcDbPlaceHolder
280
     0
  0
XRECORD
  5
2C2
102
{ACAD_REACTORS
330
2B8
102
}
330
2B8
100
AcDbXrecord
 90
        0
  0
XRECORD
  5
2C6
102
{ACAD_REACTORS
330
2B8
102
}
330
2B8
100
AcDbXrecord
1000
DSTYLE
1002
{
1070
   277
 70
     5
1070
   279
 70
     2
1002
}
  0
XRECORD
  5
2C3
102
{ACAD_REACTORS
330
2B8
102
}
330
2B8
100
AcDbXrecord
  1
{7E317455-BFC7-4665-A5BA-3A300F10FA44}
  0
XRECORD
  5
2BB
102
{ACAD_REACTORS
330
2B8
102
}
330
2B8
100
AcDbXrecord
  1

  0
XRECORD
  5
2C1
102
{ACAD_REACTORS
330
2B8
102
}
330
2B8
100
AcDbXrecord
 90
        0
  0
XRECORD
  5
2BD
102
{ACAD_REACTORS
330
2B8
102
}
330
2B8
100
AcDbXrecord
340
19
  0
XRECORD
  5
2C0
102
{ACAD_REACTORS
330
2B8
102
}
330
2B8
100
AcDbXrecord
 90
    14877
  0
XRECORD
  5
2BE
102
{ACAD_REACTORS
330
2B8
102
}
330
2B8
100
AcDbXrecord
340
18
  0
XRECORD
  5
2BF
102
{ACAD_REACTORS
330
2B8
102
}
330
2B8
100
AcDbXrecord
340
E
  0
XRECORD
  5
2C5
102
{ACAD_REACTORS
330
2B8
102
}
330
2B8
100
AcDbXrecord
 40
0.0
  0
XRECORD
  5
2C9
102
{ACAD_REACTORS
330
2B8
102
}
330
2B8
100
AcDbXrecord
340
0
  0
XRECORD
  5
2CF
102
{ACAD_REACTORS
330
2B8
102
}
330
2B8
100
AcDbXrecord
 10
0.0
 20
0.0
 30
0.0
  0
XRECORD
  5
2CB
102
{ACAD_REACTORS
330
2B8
102
}
330
2B8
100
AcDbXrecord
 10
0.0
 20
0.0
 30
0.0
  0
XRECORD
  5
2CE
102
{ACAD_REACTORS
330
2B8
102
}
330
2B8
100
AcDbXrecord
 10
0.0
 20
0.0
 30
0.0
  0
XRECORD
  5
2CC
102
{ACAD_REACTORS
330
2B8
102
}
330
2B8
100
AcDbXrecord
 10
0.0
 20
0.0
 30
0.0
  0
XRECORD
  5
2CD
102
{ACAD_REACTORS
330
2B8
102
}
330
2B8
100
AcDbXrecord
 10
0.0
 20
0.0
 30
0.0
  0
XRECORD
  5
2CA
102
{ACAD_REACTORS
330
2B8
102
}
330
2B8
100
AcDbXrecord
 10
0.0
 20
0.0
 30
0.0
  0
XRECORD
  5
2C7
102
{ACAD_REACTORS
330
2B8
102
}
330
2B8
100
AcDbXrecord
340
0
  0
XRECORD
  5
2C8
102
{ACAD_REACTORS
330
2B8
102
}
330
2B8
100
AcDbXrecord
 70
     0
  0
XRECORD
  5
2BC
102
{ACAD_REACTORS
330
2B8
102
}
330
2B8
100
AcDbXrecord
  1

  0
XRECORD
  5
2B9
102
{ACAD_REACTORS
330
2B8
102
}
330
2B8
100
AcDbXrecord
 90
        1
  0
XRECORD
  5
2BA
102
{ACAD_REACTORS
330
2B8
102
}
330
2B8
100
AcDbXrecord
 90
       70
  0
XRECORD
  5
2D2
102
{ACAD_REACTORS
330
2B8
102
}
330
2B8
100
AcDbXrecord
340
0
  0
XRECORD
  5
2D8
102
{ACAD_REACTORS
330
2B8
102
}
330
2B8
100
AcDbXrecord
 10
0.0
 20
0.0
 30
0.0
  0
XRECORD
  5
2D4
102
{ACAD_REACTORS
330
2B8
102
}
330
2B8
100
AcDbXrecord
 10
0.0
 20
0.0
 30
0.0
  0
XRECORD
  5
2D7
102
{ACAD_REACTORS
330
2B8
102
}
330
2B8
100
AcDbXrecord
 10
0.0
 20
0.0
 30
0.0
  0
XRECORD
  5
2D5
102
{ACAD_REACTORS
330
2B8
102
}
330
2B8
100
AcDbXrecord
 10
0.0
 20
0.0
 30
0.0
  0
XRECORD
  5
2D6
102
{ACAD_REACTORS
330
2B8
102
}
330
2B8
100
AcDbXrecord
 10
0.0
 20
0.0
 30
0.0
  0
XRECORD
  5
2D3
102
{ACAD_REACTORS
330
2B8
102
}
330
2B8
100
AcDbXrecord
 10
0.0
 20
0.0
 30
0.0
  0
XRECORD
  5
2D0
102
{ACAD_REACTORS
330
2B8
102
}
330
2B8
100
AcDbXrecord
340
0
  0
XRECORD
  5
2D1
102
{ACAD_REACTORS
330
2B8
102
}
330
2B8
100
AcDbXrecord
 70
     0
  0
XRECORD
  5
2C4
102
{ACAD_REACTORS
330
2B8
102
}
330
2B8
100
AcDbXrecord
  1
{BC06094C-58B6-4F13-BDB4-A42C6FCA9C19}
  0
DICTIONARYVAR
  5
15E
102
{ACAD_REACTORS
330
15C
102
}
330
15C
100
DictionaryVariables
280
     0
  1
2
  0
DICTIONARYVAR
  5
15D
102
{ACAD_REACTORS
330
15C
102
}
330
15C
100
DictionaryVariables
280
     0
  1
1
  0
ENDSEC
  0
EOF
