  0
SECTION
  2
HEADER
  9
$ACADVER
  1
AC1015
  9
$ACADMAINTVER
 70
    20
  9
$DWGCODEPAGE
  3
ANSI_1252
  9
$INSBASE
 10
3.544753543427692
 20
-0.9743277323514515
 30
0.0
  9
$EXTMIN
 10
0.8623159224572365
 20
-1.303272712021376
 30
0.0
  9
$EXTMAX
 10
13.91377397157047
 20
2.811459718361473
 30
0.0
  9
$LIMMIN
 10
0.0
 20
0.0
  9
$LIMMAX
 10
36.0
 20
36.0
  9
$ORTHOMODE
 70
     1
  9
$REGENMODE
 70
     1
  9
$FILLMODE
 70
     1
  9
$QTEXTMODE
 70
     0
  9
$MIRRTEXT
 70
     1
  9
$LTSCALE
 40
1.0
  9
$ATTMODE
 70
     1
  9
$TEXTSIZE
 40
0.2
  9
$TRACEWID
 40
0.05
  9
$TEXTSTYLE
  7
STANDARD
  9
$CLAYER
  8
ADPDIM
  9
$CELTYPE
  6
BYLAYER
  9
$CECOLOR
 62
   256
  9
$CELTSCALE
 40
1.0
  9
$DISPSILH
 70
     0
  9
$DIMSCALE
 40
1.0
  9
$DIMASZ
 40
0.125
  9
$DIMEXO
 40
0.0625
  9
$DIMDLI
 40
0.38
  9
$DIMRND
 40
0.0
  9
$DIMDLE
 40
0.0
  9
$DIMEXE
 40
0.18
  9
$DIMTP
 40
0.0
  9
$DIMTM
 40
0.0
  9
$DIMTXT
 40
0.125
  9
$DIMCEN
 40
0.1875
  9
$DIMTSZ
 40
0.125
  9
$DIMTOL
 70
     0
  9
$DIMLIM
 70
     0
  9
$DIMTIH
 70
     0
  9
$DIMTOH
 70
     0
  9
$DIMSE1
 70
     0
  9
$DIMSE2
 70
     0
  9
$DIMTAD
 70
     0
  9
$DIMZIN
 70
     3
  9
$DIMBLK
  1

  9
$DIMASO
 70
     1
  9
$DIMSHO
 70
     1
  9
$DIMPOST
  1

  9
$DIMAPOST
  1

  9
$DIMALT
 70
     0
  9
$DIMALTD
 70
     1
  9
$DIMALTF
 40
25.4
  9
$DIMLFAC
 40
1.0
  9
$DIMTOFL
 70
     0
  9
$DIMTVP
 40
0.0
  9
$DIMTIX
 70
     0
  9
$DIMSOXD
 70
     0
  9
$DIMSAH
 70
     0
  9
$DIMBLK1
  1

  9
$DIMBLK2
  1

  9
$DIMSTYLE
  2
STANDARD
  9
$DIMCLRD
 70
     0
  9
$DIMCLRE
 70
     0
  9
$DIMCLRT
 70
     0
  9
$DIMTFAC
 40
1.0
  9
$DIMGAP
 40
0.125
  9
$DIMJUST
 70
     0
  9
$DIMSD1
 70
     0
  9
$DIMSD2
 70
     0
  9
$DIMTOLJ
 70
     1
  9
$DIMTZIN
 70
     0
  9
$DIMALTZ
 70
     0
  9
$DIMALTTZ
 70
     0
  9
$DIMUPT
 70
     0
  9
$DIMDEC
 70
     4
  9
$DIMTDEC
 70
     4
  9
$DIMALTU
 70
     2
  9
$DIMALTTD
 70
     2
  9
$DIMTXSTY
  7
STANDARD
  9
$DIMAUNIT
 70
     0
  9
$DIMADEC
 70
     0
  9
$DIMALTRND
 40
0.0
  9
$DIMAZIN
 70
     0
  9
$DIMDSEP
 70
    46
  9
$DIMATFIT
 70
     3
  9
$DIMFRAC
 70
     0
  9
$DIMLDRBLK
  1

  9
$DIMLUNIT
 70
     2
  9
$DIMLWD
 70
    -2
  9
$DIMLWE
 70
    -2
  9
$DIMTMOVE
 70
     0
  9
$LUNITS
 70
     5
  9
$LUPREC
 70
     4
  9
$SKETCHINC
 40
0.1
  9
$FILLETRAD
 40
0.0
  9
$AUNITS
 70
     0
  9
$AUPREC
 70
     0
  9
$MENU
  1
acad
  9
$ELEVATION
 40
0.0
  9
$PELEVATION
 40
0.0
  9
$THICKNESS
 40
0.0
  9
$LIMCHECK
 70
     0
  9
$CHAMFERA
 40
0.0
  9
$CHAMFERB
 40
0.0
  9
$CHAMFERC
 40
0.0
  9
$CHAMFERD
 40
0.0
  9
$SKPOLY
 70
     0
  9
$TDCREATE
 40
2450224.601907014
  9
$TDUCREATE
 40
2450224.768573681
  9
$TDUPDATE
 40
2453962.007781806
  9
$TDUUPDATE
 40
2453962.174448473
  9
$TDINDWG
 40
0.0182637500
  9
$TDUSRTIMER
 40
0.0182637500
  9
$USRTIMER
 70
     1
  9
$ANGBASE
 50
0.0
  9
$ANGDIR
 70
     0
  9
$PDMODE
 70
     0
  9
$PDSIZE
 40
0.0
  9
$PLINEWID
 40
0.0
  9
$SPLFRAME
 70
     0
  9
$SPLINETYPE
 70
     6
  9
$SPLINESEGS
 70
     8
  9
$HANDSEED
  5
415
  9
$SURFTAB1
 70
     6
  9
$SURFTAB2
 70
     6
  9
$SURFTYPE
 70
     6
  9
$SURFU
 70
     6
  9
$SURFV
 70
     6
  9
$UCSBASE
  2

  9
$UCSNAME
  2

  9
$UCSORG
 10
0.0
 20
0.0
 30
0.0
  9
$UCSXDIR
 10
1.0
 20
0.0
 30
0.0
  9
$UCSYDIR
 10
0.0
 20
1.0
 30
0.0
  9
$UCSORTHOREF
  2

  9
$UCSORTHOVIEW
 70
     0
  9
$UCSORGTOP
 10
0.0
 20
0.0
 30
0.0
  9
$UCSORGBOTTOM
 10
0.0
 20
0.0
 30
0.0
  9
$UCSORGLEFT
 10
0.0
 20
0.0
 30
0.0
  9
$UCSORGRIGHT
 10
0.0
 20
0.0
 30
0.0
  9
$UCSORGFRONT
 10
0.0
 20
0.0
 30
0.0
  9
$UCSORGBACK
 10
0.0
 20
0.0
 30
0.0
  9
$PUCSBASE
  2

  9
$PUCSNAME
  2

  9
$PUCSORG
 10
0.0
 20
0.0
 30
0.0
  9
$PUCSXDIR
 10
1.0
 20
0.0
 30
0.0
  9
$PUCSYDIR
 10
0.0
 20
1.0
 30
0.0
  9
$PUCSORTHOREF
  2

  9
$PUCSORTHOVIEW
 70
     0
  9
$PUCSORGTOP
 10
0.0
 20
0.0
 30
0.0
  9
$PUCSORGBOTTOM
 10
0.0
 20
0.0
 30
0.0
  9
$PUCSORGLEFT
 10
0.0
 20
0.0
 30
0.0
  9
$PUCSORGRIGHT
 10
0.0
 20
0.0
 30
0.0
  9
$PUCSORGFRONT
 10
0.0
 20
0.0
 30
0.0
  9
$PUCSORGBACK
 10
0.0
 20
0.0
 30
0.0
  9
$USERI1
 70
     0
  9
$USERI2
 70
     0
  9
$USERI3
 70
     0
  9
$USERI4
 70
     0
  9
$USERI5
 70
     0
  9
$USERR1
 40
0.0
  9
$USERR2
 40
0.0
  9
$USERR3
 40
0.0
  9
$USERR4
 40
0.0
  9
$USERR5
 40
0.0
  9
$WORLDVIEW
 70
     1
  9
$SHADEDGE
 70
     3
  9
$SHADEDIF
 70
    70
  9
$TILEMODE
 70
     1
  9
$MAXACTVP
 70
    15
  9
$PINSBASE
 10
0.0008545056916773
 20
1.250276130627782
 30
0.0
  9
$PLIMCHECK
 70
     0
  9
$PEXTMIN
 10
1.000000000000000E+20
 20
1.000000000000000E+20
 30
1.000000000000000E+20
  9
$PEXTMAX
 10
-1.000000000000000E+20
 20
-1.000000000000000E+20
 30
-1.000000000000000E+20
  9
$PLIMMIN
 10
0.0
 20
0.0
  9
$PLIMMAX
 10
12.0
 20
9.0
  9
$UNITMODE
 70
     0
  9
$VISRETAIN
 70
     0
  9
$PLINEGEN
 70
     0
  9
$PSLTSCALE
 70
     1
  9
$TREEDEPTH
 70
  3020
  9
$CMLSTYLE
  2
STANDARD
  9
$CMLJUST
 70
     0
  9
$CMLSCALE
 40
1.0
  9
$PROXYGRAPHICS
 70
     1
  9
$MEASUREMENT
 70
     0
  9
$CELWEIGHT
370
    -1
  9
$ENDCAPS
280
     0
  9
$JOINSTYLE
280
     0
  9
$LWDISPLAY
290
     0
  9
$INSUNITS
 70
     0
  9
$HYPERLINKBASE
  1

  9
$STYLESHEET
  1

  9
$XEDIT
290
     1
  9
$CEPSNTYPE
380
     0
  9
$PSTYLEMODE
290
     1
  9
$FINGERPRINTGUID
  2
{7E4DEA2D-94AF-4A65-AE69-2DE315D397F4}
  9
$VERSIONGUID
  2
{8E2A9152-0407-4F82-B510-A578F1111E9E}
  9
$EXTNAMES
290
     1
  9
$PSVPSCALE
 40
0.0
  9
$OLESTARTUP
290
     0
  0
ENDSEC
  0
SECTION
  2
CLASSES
  0
CLASS
  1
ACDBDICTIONARYWDFLT
  2
AcDbDictionaryWithDefault
  3
ObjectDBX Classes
 90
        0
280
     0
281
     0
  0
CLASS
  1
ACDBPLACEHOLDER
  2
AcDbPlaceHolder
  3
ObjectDBX Classes
 90
        0
280
     0
281
     0
  0
CLASS
  1
LAYOUT
  2
AcDbLayout
  3
ObjectDBX Classes
 90
        0
280
     0
281
     0
  0
CLASS
  1
DICTIONARYVAR
  2
AcDbDictionaryVar
  3
ObjectDBX Classes
 90
        0
280
     0
281
     0
  0
CLASS
  1
MATERIAL
  2
AcDbMaterial
  3
ObjectDBX Classes
 90
     1024
280
     0
281
     0
  0
CLASS
  1
VISUALSTYLE
  2
AcDbVisualStyle
  3
ObjectDBX Classes
 90
     4095
280
     0
281
     0
  0
CLASS
  1
TABLESTYLE
  2
AcDbTableStyle
  3
ObjectDBX Classes
 90
     4095
280
     0
281
     0
  0
ENDSEC
  0
SECTION
  2
TABLES
  0
TABLE
  2
VPORT
  5
8
330
0
100
AcDbSymbolTable
 70
     1
  0
VPORT
  5
372
330
8
100
AcDbSymbolTableRecord
100
AcDbViewportTableRecord
  2
*Active
 70
     0
 10
0.0
 20
0.0
 11
1.0
 21
1.0
 12
8.761964746631598
 22
1.107169659655424
 13
0.0
 23
0.0
 14
0.5740882589684922
 24
0.5740882589684922
 15
0.5
 25
0.5
 16
0.0
 26
0.0
 36
1.0
 17
0.0
 27
0.0
 37
0.0
 40
10.36648068513815
 41
1.726930320150659
 42
50.0
 43
0.0
 44
0.0
 50
0.0
 51
0.0
 71
     0
 72
   100
 73
     1
 74
     0
 75
     0
 76
     0
 77
     0
 78
     0
281
     0
 65
     1
110
0.0
120
0.0
130
0.0
111
1.0
121
0.0
131
0.0
112
0.0
122
1.0
132
0.0
 79
     0
146
0.0
  0
ENDTAB
  0
TABLE
  2
LTYPE
  5
5
330
0
100
AcDbSymbolTable
 70
     3
  0
LTYPE
  5
12
330
5
100
AcDbSymbolTableRecord
100
AcDbLinetypeTableRecord
  2
BYBLOCK
 70
     0
  3

 72
    65
 73
     0
 40
0.0
  0
LTYPE
  5
13
330
5
100
AcDbSymbolTableRecord
100
AcDbLinetypeTableRecord
  2
BYLAYER
 70
     0
  3

 72
    65
 73
     0
 40
0.0
  0
LTYPE
  5
14
330
5
100
AcDbSymbolTableRecord
100
AcDbLinetypeTableRecord
  2
CONTINUOUS
 70
     0
  3
Solid line
 72
    65
 73
     0
 40
0.0
  0
LTYPE
  5
20
330
5
100
AcDbSymbolTableRecord
100
AcDbLinetypeTableRecord
  2
HIDDEN2
 70
     0
  3
_ _ _ _ _ _ _ _ _ _ _ _ _ _ _ _ _ _ _ _ _ _ _ _
 72
    65
 73
     2
 40
0.1875
 49
0.125
 74
     0
 49
-0.0625
 74
     0
  0
ENDTAB
  0
TABLE
  2
LAYER
  5
2
330
0
100
AcDbSymbolTable
 70
     5
  0
LAYER
  5
F
330
2
100
AcDbSymbolTableRecord
100
AcDbLayerTableRecord
  2
0
 70
     0
 62
     7
  6
CONTINUOUS
370
    -3
390
1FC
  0
LAYER
  5
22
330
2
100
AcDbSymbolTableRecord
100
AcDbLayerTableRecord
  2
ADP2DETAIL
 70
     0
 62
     5
  6
CONTINUOUS
370
    -3
390
1FC
  0
LAYER
  5
23
330
2
100
AcDbSymbolTableRecord
100
AcDbLayerTableRecord
  2
ADPDIM
 70
     0
 62
     3
  6
CONTINUOUS
370
    -3
390
1FC
  0
LAYER
  5
24
330
2
100
AcDbSymbolTableRecord
100
AcDbLayerTableRecord
  2
ADP1DETAIL
 70
     0
 62
     7
  6
CONTINUOUS
370
    -3
390
1FC
  0
LAYER
  5
25
330
2
100
AcDbSymbolTableRecord
100
AcDbLayerTableRecord
  2
DEFPOINTS
 70
     0
 62
     7
  6
CONTINUOUS
290
     0
370
    -3
390
1FC
  0
ENDTAB
  0
TABLE
  2
STYLE
  5
3
330
0
100
AcDbSymbolTable
 70
     2
  0
STYLE
  5
10
330
3
100
AcDbSymbolTableRecord
100
AcDbTextStyleTableRecord
  2
STANDARD
 70
     0
 40
0.0
 41
1.0
 50
0.0
 71
     0
 42
0.2
  3
txt
  4

  0
STYLE
  5
203
330
3
100
AcDbSymbolTableRecord
100
AcDbTextStyleTableRecord
  2
ARIAL_WIDE
 70
     0
 40
0.0
 41
1.25
 50
0.0
 71
     0
 42
0.2
  3
ARIAL.TTF
  4

1001
ACAD
1000
Arial
1071
       34
  0
ENDTAB
  0
TABLE
  2
VIEW
  5
6
330
0
100
AcDbSymbolTable
 70
     0
  0
ENDTAB
  0
TABLE
  2
UCS
  5
7
330
0
100
AcDbSymbolTable
 70
     0
  0
ENDTAB
  0
TABLE
  2
APPID
  5
9
330
0
100
AcDbSymbolTable
 70
     3
  0
APPID
  5
11
330
9
100
AcDbSymbolTableRecord
100
AcDbRegAppTableRecord
  2
ACAD
 70
     0
  0
APPID
  5
3DF
330
9
100
AcDbSymbolTableRecord
100
AcDbRegAppTableRecord
  2
ACAD_EXEMPT_FROM_CAD_STANDARDS
 70
     0
  0
APPID
  5
3E7
330
9
100
AcDbSymbolTableRecord
100
AcDbRegAppTableRecord
  2
DCO15
 70
     0
  0
ENDTAB
  0
TABLE
  2
DIMSTYLE
  5
A
330
0
100
AcDbSymbolTable
 70
     2
100
AcDbDimStyleTable
 71
     1
340
1F7
  0
DIMSTYLE
105
1F7
102
{ACAD_REACTORS
330
3B9
330
62
102
}
330
A
100
AcDbSymbolTableRecord
100
AcDbDimStyleTableRecord
  2
STANDARD
 70
     0
340
10
  0
ENDTAB
  0
TABLE
  2
BLOCK_RECORD
  5
1
330
0
100
AcDbSymbolTable
 70
     5
  0
BLOCK_RECORD
  5
18
102
{ACAD_XDICTIONARY
360
258
102
}
330
1
100
AcDbSymbolTableRecord
100
AcDbBlockTableRecord
  2
*MODEL_SPACE
340
1FF
  0
BLOCK_RECORD
  5
15
102
{ACAD_XDICTIONARY
360
256
102
}
330
1
100
AcDbSymbolTableRecord
100
AcDbBlockTableRecord
  2
*PAPER_SPACE
340
200
  0
BLOCK_RECORD
  5
1C
330
1
100
AcDbSymbolTableRecord
100
AcDbBlockTableRecord
  2
*D0
340
0
  0
BLOCK_RECORD
  5
1F
330
1
100
AcDbSymbolTableRecord
100
AcDbBlockTableRecord
  2
*D1
340
0
  0
BLOCK_RECORD
  5
3BA
330
1
100
AcDbSymbolTableRecord
100
AcDbBlockTableRecord
  2
*D2
340
0
  0
BLOCK_RECORD
  5
3D1
330
1
100
AcDbSymbolTableRecord
100
AcDbBlockTableRecord
  2
*D3
340
0
  0
ENDTAB
  0
ENDSEC
  0
SECTION
  2
BLOCKS
  0
BLOCK
  5
28
330
18
100
AcDbEntity
  8
0
100
AcDbBlockBegin
  2
*MODEL_SPACE
 70
     0
 10
0.0
 20
0.0
 30
0.0
  3
*MODEL_SPACE
  1

  0
ENDBLK
  5
29
330
18
100
AcDbEntity
  8
0
100
AcDbBlockEnd
  0
BLOCK
  5
26
330
15
100
AcDbEntity
 67
     1
  8
0
100
AcDbBlockBegin
  2
*PAPER_SPACE
 70
     0
 10
0.0
 20
0.0
 30
0.0
  3
*PAPER_SPACE
  1

  0
ENDBLK
  5
27
330
15
100
AcDbEntity
 67
     1
  8
0
100
AcDbBlockEnd
  0
BLOCK
  5
2A
330
1C
100
AcDbEntity
  8
0
100
AcDbBlockBegin
  2
*D0
 70
     1
 10
0.0
 20
0.0
 30
0.0
  3
*D0
  1

  0
LINE
  5
2B
330
1C
100
AcDbEntity
  8
0
  6
ByBlock
 62
     0
100
AcDbLine
 10
6.892366111933213
 20
1.957613649151981
 30
0.0
 11
6.892366111933213
 21
2.412479187170987
 31
0.0
  0
LINE
  5
2C
330
1C
100
AcDbEntity
  8
0
  6
ByBlock
 62
     0
100
AcDbLine
 10
11.89236611193321
 20
1.957613649151981
 30
0.0
 11
11.89236611193321
 21
2.412479187170987
 31
0.0
  0
LINE
  5
2D
330
1C
100
AcDbEntity
  8
0
  6
ByBlock
 62
     0
100
AcDbLine
 10
6.892366111933213
 20
2.232479187170987
 30
0.0
 11
9.225699445266547
 21
2.232479187170987
 31
0.0
  0
LINE
  5
2E
330
1C
100
AcDbEntity
  8
0
  6
ByBlock
 62
     0
100
AcDbLine
 10
11.89236611193321
 20
2.232479187170987
 30
0.0
 11
9.559032778599879
 21
2.232479187170987
 31
0.0
  0
LINE
  5
2F
330
1C
100
AcDbEntity
  8
0
  6
ByBlock
 62
     0
100
AcDbLine
 10
6.767366111933213
 20
2.107479187170987
 30
0.0
 11
7.017366111933213
 21
2.357479187170987
 31
0.0
  0
LINE
  5
30
330
1C
100
AcDbEntity
  8
0
  6
ByBlock
 62
     0
100
AcDbLine
 10
11.76736611193321
 20
2.107479187170987
 30
0.0
 11
12.01736611193321
 21
2.357479187170987
 31
0.0
  0
TEXT
  5
31
330
1C
100
AcDbEntity
  8
0
  6
ByBlock
 62
     0
100
AcDbText
 10
9.350699445266547
 20
2.169979187170987
 30
0.0
 40
0.125
  1
5
 72
     1
 11
9.392366111933213
 21
2.232479187170987
 31
0.0
100
AcDbText
 73
     2
  0
POINT
  5
32
330
1C
100
AcDbEntity
  8
DEFPOINTS
  6
ByBlock
 62
     0
100
AcDbPoint
 10
6.892366111933213
 20
1.895113649151981
 30
0.0
  0
POINT
  5
33
330
1C
100
AcDbEntity
  8
DEFPOINTS
  6
ByBlock
 62
     0
100
AcDbPoint
 10
11.89236611193321
 20
1.895113649151981
 30
0.0
  0
POINT
  5
34
330
1C
100
AcDbEntity
  8
DEFPOINTS
  6
ByBlock
 62
     0
100
AcDbPoint
 10
11.89236611193321
 20
2.232479187170987
 30
0.0
  0
ENDBLK
  5
35
330
1C
100
AcDbEntity
  8
0
100
AcDbBlockEnd
  0
BLOCK
  5
4E
330
1F
100
AcDbEntity
  8
0
100
AcDbBlockBegin
  2
*D1
 70
     1
 10
0.0
 20
0.0
 30
0.0
  3
*D1
  1

  0
LINE
  5
4F
330
1F
100
AcDbEntity
  8
0
  6
ByBlock
 62
     0
100
AcDbLine
 10
3.094223226828575
 20
0.5119430755602723
 30
0.0
 11
3.094223226828575
 21
2.087040699392218
 31
0.0
  0
LINE
  5
50
330
1F
100
AcDbEntity
  8
0
  6
ByBlock
 62
     0
100
AcDbLine
 10
5.429893428082236
 20
0.5323692386513219
 30
0.0
 11
5.429893428082236
 21
2.087040699392218
 31
0.0
  0
LINE
  5
51
330
1F
100
AcDbEntity
  8
0
  6
ByBlock
 62
     0
100
AcDbLine
 10
3.094223226828575
 20
1.907040699392218
 30
0.0
 11
3.803724994122072
 21
1.907040699392218
 31
0.0
  0
LINE
  5
52
330
1F
100
AcDbEntity
  8
0
  6
ByBlock
 62
     0
100
AcDbLine
 10
5.429893428082236
 20
1.907040699392218
 30
0.0
 11
4.720391660788739
 21
1.907040699392218
 31
0.0
  0
LINE
  5
53
330
1F
100
AcDbEntity
  8
0
  6
ByBlock
 62
     0
100
AcDbLine
 10
2.969223226828575
 20
1.782040699392218
 30
0.0
 11
3.219223226828575
 21
2.032040699392218
 31
0.0
  0
LINE
  5
54
330
1F
100
AcDbEntity
  8
0
  6
ByBlock
 62
     0
100
AcDbLine
 10
5.304893428082236
 20
1.782040699392218
 30
0.0
 11
5.554893428082236
 21
2.032040699392218
 31
0.0
  0
TEXT
  5
55
330
1F
100
AcDbEntity
  8
0
  6
ByBlock
 62
     0
100
AcDbText
 10
3.928724994122072
 20
1.844540699392218
 30
0.0
 40
0.125
  1
2 5/16
 72
     1
 11
4.262058327455406
 21
1.907040699392218
 31
0.0
100
AcDbText
 73
     2
  0
POINT
  5
56
330
1F
100
AcDbEntity
  8
DEFPOINTS
  6
ByBlock
 62
     0
100
AcDbPoint
 10
3.094223226828575
 20
0.4494430755602723
 30
0.0
  0
POINT
  5
57
330
1F
100
AcDbEntity
  8
DEFPOINTS
  6
ByBlock
 62
     0
100
AcDbPoint
 10
5.429893428082236
 20
0.4698692386513219
 30
0.0
  0
POINT
  5
58
330
1F
100
AcDbEntity
  8
DEFPOINTS
  6
ByBlock
 62
     0
100
AcDbPoint
 10
5.429893428082236
 20
1.907040699392218
 30
0.0
  0
ENDBLK
  5
59
330
1F
100
AcDbEntity
  8
0
100
AcDbBlockEnd
  0
BLOCK
  5
3C5
330
3BA
100
AcDbEntity
  8
0
 62
     3
100
AcDbBlockBegin
  2
*D2
 70
     1
 10
0.0
 20
0.0
 30
0.0
  3
*D2
  1

  0
LINE
  5
3C7
330
3BA
100
AcDbEntity
  8
ADPDIM
 62
     0
370
    -2
100
AcDbLine
 10
5.418016762144084
 20
0.8621685358090047
 30
0.0
 11
5.418016762144084
 21
2.811459718361473
 31
0.0
  0
LINE
  5
3C8
330
3BA
100
AcDbEntity
  8
ADPDIM
 62
     0
370
    -2
100
AcDbLine
 10
2.293016762144084
 20
0.8621685358090047
 30
0.0
 11
2.293016762144084
 21
2.811459718361473
 31
0.0
  0
LINE
  5
3C9
330
3BA
100
AcDbEntity
  8
ADPDIM
 62
     0
370
    -2
100
AcDbLine
 10
5.418016762144084
 20
2.631459718361472
 30
0.0
 11
4.261766762144084
 21
2.631459718361472
 31
0.0
  0
LINE
  5
3CA
330
3BA
100
AcDbEntity
  8
ADPDIM
 62
     0
370
    -2
100
AcDbLine
 10
2.293016762144084
 20
2.631459718361472
 30
0.0
 11
3.449266762144084
 21
2.631459718361472
 31
0.0
  0
LINE
  5
3CB
330
3BA
100
AcDbEntity
  8
ADPDIM
 62
     0
370
    -2
100
AcDbLine
 10
2.168016762144084
 20
2.506459718361472
 30
0.0
 11
2.418016762144084
 21
2.756459718361472
 31
0.0
  0
LINE
  5
3CC
330
3BA
100
AcDbEntity
  8
ADPDIM
 62
     0
370
    -2
100
AcDbLine
 10
5.293016762144084
 20
2.506459718361472
 30
0.0
 11
5.543016762144084
 21
2.756459718361472
 31
0.0
  0
MTEXT
  5
3CD
330
3BA
100
AcDbEntity
  8
ADPDIM
 62
     0
100
AcDbMText
 10
3.855516762144084
 20
2.631459718361472
 30
0.0
 40
0.125
 41
0.0
 71
     5
 72
     1
  1
\A1;3.1250
 73
     1
 44
1.0
1001
ACAD
1000
MTEXTBEGIN
1070
    73
1070
     1
1070
    44
1040
1.0
1070
    74
1070
     0
1000
MTEXTEND
  0
POINT
  5
3CE
330
3BA
100
AcDbEntity
  8
DEFPOINTS
 62
     0
100
AcDbPoint
 10
5.418016762144084
 20
0.7996685358090048
 30
0.0
  0
POINT
  5
3CF
330
3BA
100
AcDbEntity
  8
DEFPOINTS
 62
     0
100
AcDbPoint
 10
2.293016762144084
 20
0.7996685358090048
 30
0.0
  0
POINT
  5
3D0
330
3BA
100
AcDbEntity
  8
DEFPOINTS
 62
     0
100
AcDbPoint
 10
2.293016762144084
 20
2.631459718361472
 30
0.0
  0
ENDBLK
  5
3C6
330
3BA
100
AcDbEntity
  8
0
 62
     3
100
AcDbBlockEnd
  0
BLOCK
  5
3DC
330
3D1
100
AcDbEntity
  8
0
100
AcDbBlockBegin
  2
*D3
 70
     1
 10
0.0
 20
0.0
 30
0.0
  3
*D3
  1

  0
LINE
  5
3D2
330
3D1
100
AcDbEntity
  8
ADPDIM
 62
     0
370
    -2
100
AcDbLine
 10
6.892366111933213
 20
2.339733153033288
 30
0.0
 11
6.892366111933213
 21
2.794598691052294
 31
0.0
  0
LINE
  5
3D3
330
3D1
100
AcDbEntity
  8
ADPDIM
 62
     0
370
    -2
100
AcDbLine
 10
11.89236611193321
 20
2.339733153033288
 30
0.0
 11
11.89236611193321
 21
2.794598691052294
 31
0.0
  0
LINE
  5
3D4
330
3D1
100
AcDbEntity
  8
ADPDIM
 62
     0
370
    -2
100
AcDbLine
 10
6.892366111933213
 20
2.614598691052294
 30
0.0
 11
8.996532778599879
 21
2.614598691052294
 31
0.0
  0
LINE
  5
3D5
330
3D1
100
AcDbEntity
  8
ADPDIM
 62
     0
370
    -2
100
AcDbLine
 10
11.89236611193321
 20
2.614598691052294
 30
0.0
 11
9.788199445266547
 21
2.614598691052294
 31
0.0
  0
LINE
  5
3D6
330
3D1
100
AcDbEntity
  8
ADPDIM
 62
     0
370
    -2
100
AcDbLine
 10
11.76736611193321
 20
2.489598691052294
 30
0.0
 11
12.01736611193321
 21
2.739598691052294
 31
0.0
  0
LINE
  5
3D7
330
3D1
100
AcDbEntity
  8
ADPDIM
 62
     0
370
    -2
100
AcDbLine
 10
6.767366111933213
 20
2.489598691052294
 30
0.0
 11
7.017366111933213
 21
2.739598691052294
 31
0.0
  0
MTEXT
  5
3D8
330
3D1
100
AcDbEntity
  8
ADPDIM
 62
     0
100
AcDbMText
 10
9.392366111933213
 20
2.614598691052294
 30
0.0
 40
0.125
 41
0.0
 71
     5
 72
     1
  1
\A1;5.0000
 73
     1
 44
1.0
1001
ACAD
1000
MTEXTBEGIN
1070
    73
1070
     1
1070
    44
1040
1.0
1070
    74
1070
     0
1000
MTEXTEND
  0
POINT
  5
3D9
330
3D1
100
AcDbEntity
  8
DEFPOINTS
 62
     0
100
AcDbPoint
 10
6.892366111933213
 20
2.277233153033288
 30
0.0
  0
POINT
  5
3DA
330
3D1
100
AcDbEntity
  8
DEFPOINTS
 62
     0
100
AcDbPoint
 10
11.89236611193321
 20
2.277233153033288
 30
0.0
  0
POINT
  5
3DB
330
3D1
100
AcDbEntity
  8
DEFPOINTS
 62
     0
100
AcDbPoint
 10
11.89236611193321
 20
2.614598691052294
 30
0.0
  0
ENDBLK
  5
3DD
330
3D1
100
AcDbEntity
  8
0
100
AcDbBlockEnd
  0
ENDSEC
  0
SECTION
  2
ENTITIES
  0
LINE
  5
5A
330
18
100
AcDbEntity
  8
ADP1DETAIL
100
AcDbLine
 10
6.892366111933213
 20
2.269469645536773
 30
0.0
 11
6.892366111933213
 21
-0.557835696542531
 31
0.0
  0
LINE
  5
5B
330
18
100
AcDbEntity
  8
ADP1DETAIL
100
AcDbLine
 10
6.954866111933213
 20
2.335634338055392
 30
0.0
 11
6.954866111933213
 21
-0.620335696542531
 31
0.0
  0
LINE
  5
5C
330
18
100
AcDbEntity
  8
ADP1DETAIL
100
AcDbLine
 10
11.89236611193321
 20
-0.557835696542531
 30
0.0
 11
11.89236611193321
 21
2.277593820886639
 31
0.0
  0
LINE
  5
5D
330
18
100
AcDbEntity
  8
ADP1DETAIL
100
AcDbLine
 10
11.82986611193321
 20
-0.620335696542531
 30
0.0
 11
11.82986611193321
 21
2.337281876298177
 31
0.0
  0
LINE
  5
5E
330
18
100
AcDbEntity
  8
ADP1DETAIL
100
AcDbLine
 10
6.954866111933213
 20
-0.620335696542531
 30
0.0
 11
11.82986611193321
 21
-0.620335696542531
 31
0.0
  0
LINE
  5
5F
330
18
100
AcDbEntity
  8
ADP2DETAIL
  6
HIDDEN2
100
AcDbLine
 10
6.892366111933213
 20
-0.5105468914813195
 30
0.0
 11
11.89236611193321
 21
-0.5105468914813195
 31
0.0
  0
LINE
  5
60
330
18
100
AcDbEntity
  8
ADP1DETAIL
100
AcDbLine
 10
6.892366111933213
 20
-0.557835696542531
 30
0.0
 11
6.954866111933213
 21
-0.620335696542531
 31
0.0
  0
LINE
  5
61
330
18
100
AcDbEntity
  8
ADP1DETAIL
100
AcDbLine
 10
11.82986611193321
 20
-0.620335696542531
 30
0.0
 11
11.89236611193321
 21
-0.557835696542531
 31
0.0
  0
DIMENSION
  5
62
330
18
100
AcDbEntity
  8
ADPDIM
100
AcDbDimension
  2
*D3
 10
11.89236611193321
 20
2.614598691052294
 30
0.0
 11
9.392366111933213
 21
2.614598691052294
 31
0.0
 70
    32
 71
     5
 42
4.999999999999998
  3
STANDARD
100
AcDbAlignedDimension
 13
6.892366111933213
 23
2.277233153033288
 33
0.0
 14
11.89236611193321
 24
2.277233153033288
 34
0.0
100
AcDbRotatedDimension
1001
ACAD
1000
DSTYLE
1002
{
1070
    41
1040
0.125
1070
    73
1070
     0
1070
    74
1070
     0
1070
    78
1070
     3
1070
   140
1040
0.125
1070
   141
1040
0.1875
1070
   142
1040
0.125
1070
   147
1040
0.125
1070
   171
1070
     1
1002
}
  0
LINE
  5
63
330
18
100
AcDbEntity
  8
ADP1DETAIL
100
AcDbLine
 10
11.82986611193321
 20
2.339733153033288
 30
0.0
 11
6.954866111933213
 21
2.339733153033288
 31
0.0
  0
LINE
  5
64
330
18
100
AcDbEntity
  8
ADP1DETAIL
100
AcDbLine
 10
6.892366111933213
 20
2.277233153033288
 30
0.0
 11
6.954866111933213
 21
2.339733153033288
 31
0.0
  0
LINE
  5
65
330
18
100
AcDbEntity
  8
ADP1DETAIL
100
AcDbLine
 10
11.82986611193321
 20
2.339733153033288
 30
0.0
 11
11.89236611193321
 21
2.277233153033288
 31
0.0
  0
ARC
  5
67
330
18
100
AcDbEntity
  8
ADP1DETAIL
100
AcDbCircle
 10
3.859374391662432
 20
0.7731511604380814
 30
0.0
 40
1.39620883019803
100
AcDbArc
 50
294.5149799151551
 51
245.5061590706289
  0
LINE
  5
68
330
18
100
AcDbEntity
  8
ADP1DETAIL
100
AcDbLine
 10
3.832573173296454
 20
2.341512805417527
 30
0.0
 11
3.859091859530034
 21
2.368031491651108
 31
0.0
  0
LINE
  5
69
330
18
100
AcDbEntity
  8
ADP1DETAIL
100
AcDbLine
 10
3.859091859530034
 20
2.368031491651108
 30
0.0
 11
3.885610545763614
 21
2.341512805417527
 31
0.0
  0
LINE
  5
6A
330
18
100
AcDbEntity
  8
ADP1DETAIL
100
AcDbLine
 10
3.779011328820703
 20
2.339642245931061
 30
0.0
 11
3.804588371784377
 21
2.367070266500263
 31
0.0
  0
LINE
  5
6B
330
18
100
AcDbEntity
  8
ADP1DETAIL
100
AcDbLine
 10
3.804588371784377
 20
2.367070266500263
 30
0.0
 11
3.832016392353578
 21
2.341493223536588
 31
0.0
  0
LINE
  5
6C
330
18
100
AcDbEntity
  8
ADP1DETAIL
100
AcDbLine
 10
3.725547394358043
 20
2.335903544524232
 30
0.0
 11
3.750151632364802
 21
2.364207482610953
 31
0.0
  0
LINE
  5
6D
330
18
100
AcDbEntity
  8
ADP1DETAIL
100
AcDbLine
 10
3.750151632364802
 20
2.364207482610953
 30
0.0
 11
3.778455570451523
 21
2.339603244604194
 31
0.0
  0
LINE
  5
6E
330
18
100
AcDbEntity
  8
ADP1DETAIL
100
AcDbLine
 10
3.67224650747713
 20
2.330301256228801
 30
0.0
 11
3.695847964052955
 21
2.359446627844371
 31
0.0
  0
LINE
  5
6F
330
18
100
AcDbEntity
  8
ADP1DETAIL
100
AcDbLine
 10
3.695847964052955
 20
2.359446627844371
 30
0.0
 11
3.724993335668525
 21
2.335845171268547
 31
0.0
  0
LINE
  5
70
330
18
100
AcDbEntity
  8
ADP1DETAIL
100
AcDbLine
 10
3.619173607098257
 20
2.32284220657009
 30
0.0
 11
3.641743527503835
 21
2.352793502568696
 31
0.0
  0
LINE
  5
71
330
18
100
AcDbEntity
  8
ADP1DETAIL
100
AcDbLine
 10
3.641743527503835
 20
2.352793502568696
 30
0.0
 11
3.67169482350244
 21
2.330223582163119
 31
0.0
  0
LINE
  5
72
330
18
100
AcDbEntity
  8
ADP1DETAIL
100
AcDbLine
 10
3.566393354375281
 20
2.31353548325113
 30
0.0
 11
3.587904240639227
 21
2.34425621259224
 31
0.0
  0
LINE
  5
73
330
18
100
AcDbEntity
  8
ADP1DETAIL
100
AcDbLine
 10
3.587904240639227
 20
2.34425621259224
 30
0.0
 11
3.618624969980337
 21
2.322745326328294
 31
0.0
  0
LINE
  5
74
330
18
100
AcDbEntity
  8
ADP1DETAIL
100
AcDbLine
 10
3.513970053915969
 20
2.302392425080694
 30
0.0
 11
3.53439569833687
 21
2.333845159287773
 31
0.0
  0
LINE
  5
75
330
18
100
AcDbEntity
  8
ADP1DETAIL
100
AcDbLine
 10
3.53439569833687
 20
2.333845159287773
 30
0.0
 11
3.565848432543948
 21
2.313419514866872
 31
0.0
  0
LINE
  5
76
330
18
100
AcDbEntity
  8
ADP1DETAIL
100
AcDbLine
 10
3.461967575436744
 20
2.289426608158706
 30
0.0
 11
3.4812830925132
 21
2.321573026920043
 31
0.0
  0
LINE
  5
77
330
18
100
AcDbEntity
  8
ADP1DETAIL
100
AcDbLine
 10
3.4812830925132
 20
2.321573026920043
 30
0.0
 11
3.513429511274538
 21
2.302257509843587
 31
0.0
  0
LINE
  5
78
330
18
100
AcDbEntity
  8
ADP1DETAIL
100
AcDbLine
 10
3.410449275947261
 20
2.274653829335854
 30
0.0
 11
3.428631132697043
 21
2.307454767191967
 31
0.0
  0
LINE
  5
79
330
18
100
AcDbEntity
  8
ADP1DETAIL
100
AcDbLine
 10
3.428631132697043
 20
2.307454767191967
 30
0.0
 11
3.461432070553155
 21
2.289272910442183
 31
0.0
  0
LINE
  5
7A
330
18
100
AcDbEntity
  8
ADP1DETAIL
100
AcDbLine
 10
3.359477922559665
 20
2.258092086967562
 30
0.0
 11
3.376503967191023
 21
2.291507581028269
 31
0.0
  0
LINE
  5
7B
330
18
100
AcDbEntity
  8
ADP1DETAIL
100
AcDbLine
 10
3.376503967191023
 20
2.291507581028269
 30
0.0
 11
3.409919461251731
 21
2.274481536396909
 31
0.0
  0
LINE
  5
7C
330
18
100
AcDbEntity
  8
ADP1DETAIL
100
AcDbLine
 10
3.30911561601652
 20
2.239761558985766
 30
0.0
 11
3.324965104916735
 21
2.273750897618817
 31
0.0
  0
LINE
  5
7D
330
18
100
AcDbEntity
  8
ADP1DETAIL
100
AcDbLine
 10
3.324965104916735
 20
2.273750897618817
 30
0.0
 11
3.358954443549786
 21
2.257901408718601
 31
0.0
  0
LINE
  5
7E
330
18
100
AcDbEntity
  8
ADP1DETAIL
100
AcDbLine
 10
2.935316021202157
 20
2.032559796655955
 30
0.0
 11
2.94118279635535
 21
2.069601157165689
 31
0.0
  0
LINE
  5
7F
330
18
100
AcDbEntity
  8
ADP1DETAIL
100
AcDbLine
 10
2.855295997326046
 20
2.002474009956445
 30
0.0
 11
2.892656372490207
 21
1.999205400664505
 31
0.0
  0
LINE
  5
80
330
18
100
AcDbEntity
  8
ADP1DETAIL
100
AcDbLine
 10
2.852027388034107
 20
1.965113634792284
 30
0.0
 11
2.855295997326046
 21
2.002474009956445
 31
0.0
  0
LINE
  5
81
330
18
100
AcDbEntity
  8
ADP1DETAIL
100
AcDbLine
 10
2.897653542484206
 20
2.036787163387833
 30
0.0
 11
2.934877085898055
 21
2.032216686954513
 31
0.0
  0
LINE
  5
82
330
18
100
AcDbEntity
  8
ADP1DETAIL
100
AcDbLine
 10
2.893083066050888
 20
1.999563619973985
 30
0.0
 11
2.897653542484206
 21
2.036787163387833
 31
0.0
  0
LINE
  5
83
330
18
100
AcDbEntity
  8
ADP1DETAIL
100
AcDbLine
 10
3.223902665462818
 20
2.232897752432981
 30
0.0
 11
3.258914812231583
 21
2.21945784849907
 31
0.0
  0
LINE
  5
84
330
18
100
AcDbEntity
  8
ADP1DETAIL
100
AcDbLine
 10
3.210462761528908
 20
2.197885605664217
 30
0.0
 11
3.223902665462818
 21
2.232897752432981
 31
0.0
  0
LINE
  5
85
330
18
100
AcDbEntity
  8
ADP1DETAIL
100
AcDbLine
 10
3.274077338038906
 20
2.254206350747135
 30
0.0
 11
3.308599110470831
 21
2.239552727738863
 31
0.0
  0
LINE
  5
86
330
18
100
AcDbEntity
  8
ADP1DETAIL
100
AcDbLine
 10
3.259423715030636
 20
2.219684578315209
 30
0.0
 11
3.274077338038906
 21
2.254206350747135
 31
0.0
  0
LINE
  5
87
330
18
100
AcDbEntity
  8
ADP1DETAIL
100
AcDbLine
 10
3.30911561601652
 20
2.239761558985766
 30
0.0
 11
3.324965104916735
 21
2.273750897618817
 31
0.0
  0
LINE
  5
88
330
18
100
AcDbEntity
  8
ADP1DETAIL
100
AcDbLine
 10
3.324965104916735
 20
2.273750897618817
 30
0.0
 11
3.358954443549786
 21
2.257901408718601
 31
0.0
  0
LINE
  5
89
330
18
100
AcDbEntity
  8
ADP1DETAIL
100
AcDbLine
 10
2.94118279635535
 20
2.069601157165689
 30
0.0
 11
2.978224156865084
 21
2.063734382012495
 31
0.0
  0
LINE
  5
8A
330
18
100
AcDbEntity
  8
ADP1DETAIL
100
AcDbLine
 10
2.985830725248803
 20
2.100876012493201
 30
0.0
 11
3.022644773662426
 21
2.09372008638195
 31
0.0
  0
LINE
  5
8B
330
18
100
AcDbEntity
  8
ADP1DETAIL
100
AcDbLine
 10
2.978674799137553
 20
2.064061964079579
 30
0.0
 11
2.985830725248803
 21
2.100876012493201
 31
0.0
  0
LINE
  5
8C
330
18
100
AcDbEntity
  8
ADP1DETAIL
100
AcDbLine
 10
3.031542932540694
 20
2.130573625776675
 30
0.0
 11
3.068084816610982
 21
2.122137267101047
 31
0.0
  0
LINE
  5
8D
330
18
100
AcDbEntity
  8
ADP1DETAIL
100
AcDbLine
 10
3.023106573865066
 20
2.094031741706387
 30
0.0
 11
3.031542932540694
 21
2.130573625776675
 31
0.0
  0
LINE
  5
8E
330
18
100
AcDbEntity
  8
ADP1DETAIL
100
AcDbLine
 10
3.078263724947865
 20
2.158657815048892
 30
0.0
 11
3.114488924017924
 21
2.148951302212413
 31
0.0
  0
LINE
  5
8F
330
18
100
AcDbEntity
  8
ADP1DETAIL
100
AcDbLine
 10
3.068557212111385
 20
2.122432615978832
 30
0.0
 11
3.078263724947865
 21
2.158657815048892
 31
0.0
  0
LINE
  5
90
330
18
100
AcDbEntity
  8
ADP1DETAIL
100
AcDbLine
 10
3.125936180381551
 20
2.185094364051262
 30
0.0
 11
3.161800559626381
 21
2.174129522944648
 31
0.0
  0
LINE
  5
91
330
18
100
AcDbEntity
  8
ADP1DETAIL
100
AcDbLine
 10
3.114971339274938
 20
2.149229984806433
 30
0.0
 11
3.125936180381551
 21
2.185094364051262
 31
0.0
  0
LINE
  5
92
330
18
100
AcDbEntity
  8
ADP1DETAIL
100
AcDbLine
 10
3.174502217298189
 20
2.209851063921063
 30
0.0
 11
3.209962081496161
 21
2.197641253514199
 31
0.0
  0
LINE
  5
93
330
18
100
AcDbEntity
  8
ADP1DETAIL
100
AcDbLine
 10
3.162292406891325
 20
2.17439119972309
 30
0.0
 11
3.174502217298189
 21
2.209851063921063
 31
0.0
  0
LINE
  5
94
330
18
100
AcDbEntity
  8
ADP1DETAIL
100
AcDbLine
 10
2.57163784358366
 20
1.64256067672364
 30
0.0
 11
2.564481917472409
 21
1.679374725137262
 31
0.0
  0
LINE
  5
95
330
18
100
AcDbEntity
  8
ADP1DETAIL
100
AcDbLine
 10
2.506733562711199
 20
1.586920824936541
 30
0.0
 11
2.542958761781259
 21
1.59662733777302
 31
0.0
  0
LINE
  5
96
330
18
100
AcDbEntity
  8
ADP1DETAIL
100
AcDbLine
 10
2.516440075547678
 20
1.550695625866481
 30
0.0
 11
2.506733562711199
 21
1.586920824936541
 31
0.0
  0
LINE
  5
97
330
18
100
AcDbEntity
  8
ADP1DETAIL
100
AcDbLine
 10
2.534800845676369
 20
1.633651775677829
 30
0.0
 11
2.571342729746657
 21
1.642088134353456
 31
0.0
  0
LINE
  5
98
330
18
100
AcDbEntity
  8
ADP1DETAIL
100
AcDbLine
 10
2.543237204351997
 20
1.597109891607541
 30
0.0
 11
2.534800845676369
 21
1.633651775677829
 31
0.0
  0
LINE
  5
99
330
18
100
AcDbEntity
  8
ADP1DETAIL
100
AcDbLine
 10
2.774300967304342
 20
1.92951922086255
 30
0.0
 11
2.811798341130582
 21
1.928864701767775
 31
0.0
  0
LINE
  5
9A
330
18
100
AcDbEntity
  8
ADP1DETAIL
100
AcDbLine
 10
2.773646448209567
 20
1.89202184703631
 30
0.0
 11
2.774300967304342
 21
1.92951922086255
 31
0.0
  0
LINE
  5
9B
330
18
100
AcDbEntity
  8
ADP1DETAIL
100
AcDbLine
 10
2.814161767024964
 20
1.966703502163443
 30
0.0
 11
2.851613456077225
 21
1.964740742309815
 31
0.0
  0
LINE
  5
9C
330
18
100
AcDbEntity
  8
ADP1DETAIL
100
AcDbLine
 10
2.812199007171337
 20
1.929251813111184
 30
0.0
 11
2.814161767024964
 21
1.966703502163443
 31
0.0
  0
LINE
  5
9D
330
18
100
AcDbEntity
  8
ADP1DETAIL
100
AcDbLine
 10
2.852027388034107
 20
1.965113634792284
 30
0.0
 11
2.855295997326047
 21
2.002474009956445
 31
0.0
  0
LINE
  5
9E
330
18
100
AcDbEntity
  8
ADP1DETAIL
100
AcDbLine
 10
2.855295997326047
 20
2.002474009956445
 30
0.0
 11
2.892656372490207
 21
1.999205400664505
 31
0.0
  0
LINE
  5
9F
330
18
100
AcDbEntity
  8
ADP1DETAIL
100
AcDbLine
 10
2.564481917472409
 20
1.679374725137262
 30
0.0
 11
2.601295965886031
 21
1.686530651248512
 31
0.0
  0
LINE
  5
A0
330
18
100
AcDbEntity
  8
ADP1DETAIL
100
AcDbLine
 10
2.595740616285356
 20
1.724033966944005
 30
0.0
 11
2.632781976795089
 21
1.729900742097198
 31
0.0
  0
LINE
  5
A1
330
18
100
AcDbEntity
  8
ADP1DETAIL
100
AcDbLine
 10
2.601607391438549
 20
1.686992606434271
 30
0.0
 11
2.595740616285356
 21
1.724033966944005
 31
0.0
  0
LINE
  5
A2
330
18
100
AcDbEntity
  8
ADP1DETAIL
100
AcDbLine
 10
2.628538858205737
 20
1.767575090691144
 30
0.0
 11
2.665762401619586
 21
1.772145567124463
 31
0.0
  0
LINE
  5
A3
330
18
100
AcDbEntity
  8
ADP1DETAIL
100
AcDbLine
 10
2.633109334639057
 20
1.730351547277296
 30
0.0
 11
2.628538858205737
 21
1.767575090691144
 31
0.0
  0
LINE
  5
A4
330
18
100
AcDbEntity
  8
ADP1DETAIL
100
AcDbLine
 10
2.662836683627956
 20
1.80994504822639
 30
0.0
 11
2.700197058792117
 21
1.81321365751833
 31
0.0
  0
LINE
  5
A5
330
18
100
AcDbEntity
  8
ADP1DETAIL
100
AcDbLine
 10
2.666105292919896
 20
1.77258467306223
 30
0.0
 11
2.662836683627956
 21
1.80994504822639
 31
0.0
  0
LINE
  5
A6
330
18
100
AcDbEntity
  8
ADP1DETAIL
100
AcDbLine
 10
2.69859230593491
 20
1.851092218283079
 30
0.0
 11
2.736043994987172
 21
1.853054978136706
 31
0.0
  0
LINE
  5
A7
330
18
100
AcDbEntity
  8
ADP1DETAIL
100
AcDbLine
 10
2.700555065788538
 20
1.813640529230818
 30
0.0
 11
2.69859230593491
 21
1.851092218283079
 31
0.0
  0
LINE
  5
A8
330
18
100
AcDbEntity
  8
ADP1DETAIL
100
AcDbLine
 10
2.735762162408551
 20
1.89096646937273
 30
0.0
 11
2.773259536234791
 21
1.891620988467504
 31
0.0
  0
LINE
  5
A9
330
18
100
AcDbEntity
  8
ADP1DETAIL
100
AcDbLine
 10
2.736416681503325
 20
1.85346909554649
 30
0.0
 11
2.735762162408551
 21
1.89096646937273
 31
0.0
  0
LINE
  5
AA
330
18
100
AcDbEntity
  8
ADP1DETAIL
100
AcDbLine
 10
2.363279698630827
 20
1.151696119176748
 30
0.0
 11
2.34396418155437
 21
1.183842537938087
 31
0.0
  0
LINE
  5
AB
330
18
100
AcDbEntity
  8
ADP1DETAIL
100
AcDbLine
 10
2.321319574920401
 20
1.077213189584341
 30
0.0
 11
2.352040304261513
 21
1.098724075848287
 31
0.0
  0
LINE
  5
AC
330
18
100
AcDbEntity
  8
ADP1DETAIL
100
AcDbLine
 10
2.342830461184347
 20
1.046492460243231
 30
0.0
 11
2.321319574920401
 21
1.077213189584341
 31
0.0
  0
LINE
  5
AD
330
18
100
AcDbEntity
  8
ADP1DETAIL
100
AcDbLine
 10
2.331711267138001
 20
1.130725495300748
 30
0.0
 11
2.363164001345081
 21
1.151151139721649
 31
0.0
  0
LINE
  5
AE
330
18
100
AcDbEntity
  8
ADP1DETAIL
100
AcDbLine
 10
2.352136911558902
 20
1.099272761093671
 30
0.0
 11
2.331711267138001
 21
1.130725495300748
 31
0.0
  0
LINE
  5
AF
330
18
100
AcDbEntity
  8
ADP1DETAIL
100
AcDbLine
 10
2.455575138101658
 20
1.490663816197325
 30
0.0
 11
2.49103500229963
 21
1.502873626604188
 31
0.0
  0
LINE
  5
B0
330
18
100
AcDbEntity
  8
ADP1DETAIL
100
AcDbLine
 10
2.467784948508522
 20
1.455203951999352
 30
0.0
 11
2.455575138101658
 21
1.490663816197325
 31
0.0
  0
LINE
  5
B1
330
18
100
AcDbEntity
  8
ADP1DETAIL
100
AcDbLine
 10
2.480314264237759
 20
1.539238807378525
 30
0.0
 11
2.516178643482588
 21
1.550203648485138
 31
0.0
  0
LINE
  5
B2
330
18
100
AcDbEntity
  8
ADP1DETAIL
100
AcDbLine
 10
2.491279105344373
 20
1.503374428133698
 30
0.0
 11
2.480314264237759
 21
1.539238807378525
 31
0.0
  0
LINE
  5
B3
330
18
100
AcDbEntity
  8
ADP1DETAIL
100
AcDbLine
 10
2.516440075547679
 20
1.550695625866481
 30
0.0
 11
2.506733562711199
 21
1.586920824936541
 31
0.0
  0
LINE
  5
B4
330
18
100
AcDbEntity
  8
ADP1DETAIL
100
AcDbLine
 10
2.506733562711199
 20
1.586920824936541
 30
0.0
 11
2.542958761781259
 21
1.59662733777302
 31
0.0
  0
LINE
  5
B5
330
18
100
AcDbEntity
  8
ADP1DETAIL
100
AcDbLine
 10
2.34396418155437
 20
1.183842537938087
 30
0.0
 11
2.376110600315708
 21
1.203158055014543
 31
0.0
  0
LINE
  5
B6
330
18
100
AcDbEntity
  8
ADP1DETAIL
100
AcDbLine
 10
2.358063389880707
 20
1.236499602561954
 30
0.0
 11
2.39086432773682
 21
1.254681459311737
 31
0.0
  0
LINE
  5
B7
330
18
100
AcDbEntity
  8
ADP1DETAIL
100
AcDbLine
 10
2.376245246630491
 20
1.203698664705841
 30
0.0
 11
2.358063389880707
 21
1.236499602561954
 31
0.0
  0
LINE
  5
B8
330
18
100
AcDbEntity
  8
ADP1DETAIL
100
AcDbLine
 10
2.373991714403483
 20
1.288632534650306
 30
0.0
 11
2.40740720846419
 21
1.305658579281665
 31
0.0
  0
LINE
  5
B9
330
18
100
AcDbEntity
  8
ADP1DETAIL
100
AcDbLine
 10
2.391017759034843
 20
1.255217040589599
 30
0.0
 11
2.373991714403483
 21
1.288632534650306
 31
0.0
  0
LINE
  5
BA
330
18
100
AcDbEntity
  8
ADP1DETAIL
100
AcDbLine
 10
2.391729748912839
 20
1.340177818255855
 30
0.0
 11
2.425719087545889
 21
1.35602730715607
 31
0.0
  0
LINE
  5
BB
330
18
100
AcDbEntity
  8
ADP1DETAIL
100
AcDbLine
 10
2.407579237813054
 20
1.306188479622805
 30
0.0
 11
2.391729748912839
 21
1.340177818255855
 31
0.0
  0
LINE
  5
BC
330
18
100
AcDbEntity
  8
ADP1DETAIL
100
AcDbLine
 10
2.411255882346059
 20
1.39107265339047
 30
0.0
 11
2.445777654777984
 21
1.405726276398743
 31
0.0
  0
LINE
  5
BD
330
18
100
AcDbEntity
  8
ADP1DETAIL
100
AcDbLine
 10
2.425909505354329
 20
1.356550880958546
 30
0.0
 11
2.411255882346059
 21
1.39107265339047
 31
0.0
  0
LINE
  5
BE
330
18
100
AcDbEntity
  8
ADP1DETAIL
100
AcDbLine
 10
2.432546325117323
 20
1.441255032537291
 30
0.0
 11
2.467558471886087
 21
1.4546949364712
 31
0.0
  0
LINE
  5
BF
330
18
100
AcDbEntity
  8
ADP1DETAIL
100
AcDbLine
 10
2.445986229051233
 20
1.406242885768526
 30
0.0
 11
2.432546325117323
 21
1.441255032537291
 31
0.0
  0
LINE
  5
C0
330
18
100
AcDbEntity
  8
ADP1DETAIL
100
AcDbLine
 10
2.335372653663688
 20
0.6191716340447576
 30
0.0
 11
2.306227282048117
 21
0.6427730906205808
 31
0.0
  0
LINE
  5
C1
330
18
100
AcDbEntity
  8
ADP1DETAIL
100
AcDbLine
 10
2.321417697300248
 20
0.5348293672068528
 30
0.0
 11
2.342928583564194
 21
0.5655500965479633
 31
0.0
  0
LINE
  5
C2
330
18
100
AcDbEntity
  8
ADP1DETAIL
100
AcDbLine
 10
2.352138426641358
 20
0.5133184809429068
 30
0.0
 11
2.321417697300248
 21
0.5348293672068528
 31
0.0
  0
LINE
  5
C3
330
18
100
AcDbEntity
  8
ADP1DETAIL
100
AcDbLine
 10
2.312880407323793
 20
0.5886686540714603
 30
0.0
 11
2.33545032772937
 21
0.6186199500700666
 31
0.0
  0
LINE
  5
C4
330
18
100
AcDbEntity
  8
ADP1DETAIL
100
AcDbLine
 10
2.342831703322398
 20
0.5660987336658847
 30
0.0
 11
2.312880407323793
 21
0.5886686540714603
 31
0.0
  0
LINE
  5
C5
330
18
100
AcDbEntity
  8
ADP1DETAIL
100
AcDbLine
 10
2.306168216748871
 20
0.9692639770559047
 30
0.0
 11
2.335313588364441
 21
0.9928654336317292
 31
0.0
  0
LINE
  5
C6
330
18
100
AcDbEntity
  8
ADP1DETAIL
100
AcDbLine
 10
2.329769673324695
 20
0.940118605440335
 30
0.0
 11
2.306168216748871
 21
0.9692639770559047
 31
0.0
  0
LINE
  5
C7
330
18
100
AcDbEntity
  8
ADP1DETAIL
100
AcDbLine
 10
2.312801765577819
 20
1.02337081729044
 30
0.0
 11
2.342753061576425
 21
1.045940737696017
 31
0.0
  0
LINE
  5
C8
330
18
100
AcDbEntity
  8
ADP1DETAIL
100
AcDbLine
 10
2.335371685983397
 20
0.9934195212918359
 30
0.0
 11
2.312801765577819
 21
1.02337081729044
 31
0.0
  0
LINE
  5
C9
330
18
100
AcDbEntity
  8
ADP1DETAIL
100
AcDbLine
 10
2.342830461184348
 20
1.046492460243231
 30
0.0
 11
2.321319574920401
 21
1.077213189584341
 31
0.0
  0
LINE
  5
CA
330
18
100
AcDbEntity
  8
ADP1DETAIL
100
AcDbLine
 10
2.321319574920401
 20
1.077213189584341
 30
0.0
 11
2.352040304261513
 21
1.098724075848286
 31
0.0
  0
LINE
  5
CB
330
18
100
AcDbEntity
  8
ADP1DETAIL
100
AcDbLine
 10
2.306227282048117
 20
0.6427730906205808
 30
0.0
 11
2.329828738623941
 21
0.6719184622361504
 31
0.0
  0
LINE
  5
CC
330
18
100
AcDbEntity
  8
ADP1DETAIL
100
AcDbLine
 10
2.301466427281535
 20
0.6970767589324275
 30
0.0
 11
2.326070665288294
 21
0.72538069701915
 31
0.0
  0
LINE
  5
CD
330
18
100
AcDbEntity
  8
ADP1DETAIL
100
AcDbLine
 10
2.329770365368257
 20
0.6724725209256699
 30
0.0
 11
2.301466427281535
 21
0.6970767589324275
 31
0.0
  0
LINE
  5
CE
330
18
100
AcDbEntity
  8
ADP1DETAIL
100
AcDbLine
 10
2.298603643392225
 20
0.7515134983520024
 30
0.0
 11
2.324180686355901
 21
0.7789415189212036
 31
0.0
  0
LINE
  5
CF
330
18
100
AcDbEntity
  8
ADP1DETAIL
100
AcDbLine
 10
2.326031663961427
 20
0.7259364553883281
 30
0.0
 11
2.298603643392225
 21
0.7515134983520024
 31
0.0
  0
LINE
  5
D0
330
18
100
AcDbEntity
  8
ADP1DETAIL
100
AcDbLine
 10
2.29764241824138
 20
0.8060169860976598
 30
0.0
 11
2.324161104474962
 21
0.8325356723312399
 31
0.0
  0
LINE
  5
D1
330
18
100
AcDbEntity
  8
ADP1DETAIL
100
AcDbLine
 10
2.324161104474962
 20
0.7794982998640795
 30
0.0
 11
2.29764241824138
 21
0.8060169860976598
 31
0.0
  0
LINE
  5
D2
330
18
100
AcDbEntity
  8
ADP1DETAIL
100
AcDbLine
 10
2.29858392293378
 20
0.860520818065199
 30
0.0
 11
2.326011943502982
 21
0.8860978610288743
 31
0.0
  0
LINE
  5
D3
330
18
100
AcDbEntity
  8
ADP1DETAIL
100
AcDbLine
 10
2.324160965897454
 20
0.8330927974959989
 30
0.0
 11
2.29858392293378
 21
0.860520818065199
 31
0.0
  0
LINE
  5
D4
330
18
100
AcDbEntity
  8
ADP1DETAIL
100
AcDbLine
 10
2.301427010390984
 20
0.9149585897310414
 30
0.0
 11
2.329730948477706
 21
0.9395628277377989
 31
0.0
  0
LINE
  5
D5
330
18
100
AcDbEntity
  8
ADP1DETAIL
100
AcDbLine
 10
2.326031248397743
 20
0.8866546516443188
 30
0.0
 11
2.301427010390984
 21
0.9149585897310414
 31
0.0
  0
LINE
  5
D6
330
18
100
AcDbEntity
  8
ADP1DETAIL
100
AcDbLine
 10
2.491282710169398
 20
0.1092175334589516
 30
0.0
 11
2.455822845971426
 21
0.1214273438658141
 31
0.0
  0
LINE
  5
D7
330
18
100
AcDbEntity
  8
ADP1DETAIL
100
AcDbLine
 10
2.507016094843597
 20
0.0251888515154897
 30
0.0
 11
2.516722607680076
 21
0.0614140505855496
 31
0.0
  0
LINE
  5
D8
330
18
100
AcDbEntity
  8
ADP1DETAIL
100
AcDbLine
 10
2.543241293913657
 20
0.0154823386790106
 30
0.0
 11
2.507016094843597
 21
0.0251888515154897
 31
0.0
  0
LINE
  5
D9
330
18
100
AcDbEntity
  8
ADP1DETAIL
100
AcDbLine
 10
2.480579545841227
 20
0.0728613069491773
 30
0.0
 11
2.491544386947841
 21
0.1087256861940063
 31
0.0
  0
LINE
  5
DA
330
18
100
AcDbEntity
  8
ADP1DETAIL
100
AcDbLine
 10
2.516443925086056
 20
0.0618964658425647
 30
0.0
 11
2.480579545841227
 21
0.0728613069491773
 31
0.0
  0
LINE
  5
DB
330
18
100
AcDbEntity
  8
ADP1DETAIL
100
AcDbLine
 10
2.344100882972446
 20
0.4282082190808252
 30
0.0
 11
2.363416400048903
 21
0.4603546378421629
 31
0.0
  0
LINE
  5
DC
330
18
100
AcDbEntity
  8
ADP1DETAIL
100
AcDbLine
 10
2.376247301733783
 20
0.4088927020043685
 30
0.0
 11
2.344100882972446
 21
0.4282082190808252
 31
0.0
  0
LINE
  5
DD
330
18
100
AcDbEntity
  8
ADP1DETAIL
100
AcDbLine
 10
2.331828750604716
 20
0.481320824904495
 30
0.0
 11
2.352254395025616
 21
0.5127735591115738
 31
0.0
  0
LINE
  5
DE
330
18
100
AcDbEntity
  8
ADP1DETAIL
100
AcDbLine
 10
2.363281484811795
 20
0.4608951804835964
 30
0.0
 11
2.331828750604716
 21
0.481320824904495
 31
0.0
  0
LINE
  5
DF
330
18
100
AcDbEntity
  8
ADP1DETAIL
100
AcDbLine
 10
2.352138426641359
 20
0.5133184809429068
 30
0.0
 11
2.321417697300248
 21
0.5348293672068523
 31
0.0
  0
LINE
  5
E0
330
18
100
AcDbEntity
  8
ADP1DETAIL
100
AcDbLine
 10
2.321417697300248
 20
0.5348293672068523
 30
0.0
 11
2.342928583564194
 21
0.5655500965479625
 31
0.0
  0
LINE
  5
E1
330
18
100
AcDbEntity
  8
ADP1DETAIL
100
AcDbLine
 10
2.455822845971426
 20
0.1214273438658141
 30
0.0
 11
2.468032656378291
 21
0.1568872080637867
 31
0.0
  0
LINE
  5
E2
330
18
100
AcDbEntity
  8
ADP1DETAIL
100
AcDbLine
 10
2.432776157459509
 20
0.170827792030444
 30
0.0
 11
2.446216061393418
 21
0.2058399387992082
 31
0.0
  0
LINE
  5
E3
330
18
100
AcDbEntity
  8
ADP1DETAIL
100
AcDbLine
 10
2.467788304228272
 20
0.1573878880965341
 30
0.0
 11
2.432776157459509
 21
0.170827792030444
 31
0.0
  0
LINE
  5
E4
330
18
100
AcDbEntity
  8
ADP1DETAIL
100
AcDbLine
 10
2.411467559145354
 20
0.2210024646065316
 30
0.0
 11
2.426121182153626
 21
0.2555242370384565
 31
0.0
  0
LINE
  5
E5
330
18
100
AcDbEntity
  8
ADP1DETAIL
100
AcDbLine
 10
2.44598933157728
 20
0.2063488415982607
 30
0.0
 11
2.411467559145354
 21
0.2210024646065316
 31
0.0
  0
LINE
  5
E6
330
18
100
AcDbEntity
  8
ADP1DETAIL
100
AcDbLine
 10
2.391923012273672
 20
0.2718902314843611
 30
0.0
 11
2.407772501173888
 21
0.305879570117411
 31
0.0
  0
LINE
  5
E7
330
18
100
AcDbEntity
  8
ADP1DETAIL
100
AcDbLine
 10
2.425912350906723
 20
0.2560407425841457
 30
0.0
 11
2.391923012273672
 21
0.2718902314843611
 31
0.0
  0
LINE
  5
E8
330
18
100
AcDbEntity
  8
ADP1DETAIL
100
AcDbLine
 10
2.37416632886422
 20
0.3234290937586487
 30
0.0
 11
2.39119237349558
 21
0.3568445878193564
 31
0.0
  0
LINE
  5
E9
330
18
100
AcDbEntity
  8
ADP1DETAIL
100
AcDbLine
 10
2.407581822924926
 20
0.3064030491272889
 30
0.0
 11
2.37416632886422
 21
0.3234290937586487
 31
0.0
  0
LINE
  5
EA
330
18
100
AcDbEntity
  8
ADP1DETAIL
100
AcDbLine
 10
2.358219142700522
 20
0.3755562592646688
 30
0.0
 11
2.376400999450306
 21
0.4083571971207814
 31
0.0
  0
LINE
  5
EB
330
18
100
AcDbEntity
  8
ADP1DETAIL
100
AcDbLine
 10
2.391020080556636
 20
0.3573744025148857
 30
0.0
 11
2.358219142700522
 21
0.3755562592646688
 31
0.0
  0
LINE
  5
EC
330
18
100
AcDbEntity
  8
ADP1DETAIL
100
AcDbLine
 10
2.812204814345999
 20
-0.3166581919290477
 30
0.0
 11
2.774707440519758
 21
-0.3173127110238231
 31
0.0
  0
LINE
  5
ED
330
18
100
AcDbEntity
  8
ADP1DETAIL
100
AcDbLine
 10
2.855728861666098
 20
-0.3902381898044179
 30
0.0
 11
2.852460252374159
 21
-0.352877814640257
 31
0.0
  0
LINE
  5
EE
330
18
100
AcDbEntity
  8
ADP1DETAIL
100
AcDbLine
 10
2.893089236830259
 20
-0.3869695805124777
 30
0.0
 11
2.855728861666098
 21
-0.3902381898044179
 31
0.0
  0
LINE
  5
EF
330
18
100
AcDbEntity
  8
ADP1DETAIL
100
AcDbLine
 10
2.81458169160941
 20
-0.3544825674974627
 30
0.0
 11
2.812618931755783
 21
-0.3170308784452025
 31
0.0
  0
LINE
  5
F0
330
18
100
AcDbEntity
  8
ADP1DETAIL
100
AcDbLine
 10
2.852033380661669
 20
-0.3525198076438345
 30
0.0
 11
2.81458169160941
 21
-0.3544825674974627
 31
0.0
  0
LINE
  5
F1
330
18
100
AcDbEntity
  8
ADP1DETAIL
100
AcDbLine
 10
2.564797897399288
 20
-0.0672441481835711
 30
0.0
 11
2.571953823510539
 21
-0.0304300997699487
 31
0.0
  0
LINE
  5
F2
330
18
100
AcDbEntity
  8
ADP1DETAIL
100
AcDbLine
 10
2.60161194581291
 20
-0.0744000742948217
 30
0.0
 11
2.564797897399288
 21
-0.0672441481835711
 31
0.0
  0
LINE
  5
F3
330
18
100
AcDbEntity
  8
ADP1DETAIL
100
AcDbLine
 10
2.535100284115813
 20
-0.0215319408916802
 30
0.0
 11
2.543536642791441
 21
0.0150099431786078
 31
0.0
  0
LINE
  5
F4
330
18
100
AcDbEntity
  8
ADP1DETAIL
100
AcDbLine
 10
2.571642168186101
 20
-0.0299682995673063
 30
0.0
 11
2.535100284115813
 21
-0.0215319408916802
 31
0.0
  0
LINE
  5
F5
330
18
100
AcDbEntity
  8
ADP1DETAIL
100
AcDbLine
 10
2.543241293913656
 20
0.0154823386790118
 30
0.0
 11
2.507016094843596
 21
0.0251888515154903
 31
0.0
  0
LINE
  5
F6
330
18
100
AcDbEntity
  8
ADP1DETAIL
100
AcDbLine
 10
2.507016094843596
 20
0.0251888515154903
 30
0.0
 11
2.516722607680076
 21
0.0614140505855502
 31
0.0
  0
LINE
  5
F7
330
18
100
AcDbEntity
  8
ADP1DETAIL
100
AcDbLine
 10
2.774707440519758
 20
-0.3173127110238231
 30
0.0
 11
2.774052921424984
 21
-0.2798153371975832
 31
0.0
  0
LINE
  5
F8
330
18
100
AcDbEntity
  8
ADP1DETAIL
100
AcDbLine
 10
2.736154689029938
 20
-0.2787739061280318
 30
0.0
 11
2.736809208124713
 21
-0.2412765323017921
 31
0.0
  0
LINE
  5
F9
330
18
100
AcDbEntity
  8
ADP1DETAIL
100
AcDbLine
 10
2.773652062856179
 20
-0.2794284252228065
 30
0.0
 11
2.736154689029938
 21
-0.2787739061280318
 31
0.0
  0
LINE
  5
FA
330
18
100
AcDbEntity
  8
ADP1DETAIL
100
AcDbLine
 10
2.698970407729045
 20
-0.2389131064074089
 30
0.0
 11
2.700933167582673
 21
-0.2014614173551493
 31
0.0
  0
LINE
  5
FB
330
18
100
AcDbEntity
  8
ADP1DETAIL
100
AcDbLine
 10
2.736422096781305
 20
-0.2408758662610371
 30
0.0
 11
2.698970407729045
 21
-0.2389131064074089
 31
0.0
  0
LINE
  5
FC
330
18
100
AcDbEntity
  8
ADP1DETAIL
100
AcDbLine
 10
2.663199899936043
 20
-0.1977788761063275
 30
0.0
 11
2.666468509227984
 21
-0.1604185009421666
 31
0.0
  0
LINE
  5
FD
330
18
100
AcDbEntity
  8
ADP1DETAIL
100
AcDbLine
 10
2.700560275100205
 20
-0.201047485398267
 30
0.0
 11
2.663199899936043
 21
-0.1977788761063275
 31
0.0
  0
LINE
  5
FE
330
18
100
AcDbEntity
  8
ADP1DETAIL
100
AcDbLine
 10
2.628886746504655
 20
-0.1554213309481674
 30
0.0
 11
2.633457222937975
 21
-0.1181977875343184
 31
0.0
  0
LINE
  5
FF
330
18
100
AcDbEntity
  8
ADP1DETAIL
100
AcDbLine
 10
2.666110289918504
 20
-0.1599918073814866
 30
0.0
 11
2.628886746504655
 21
-0.1554213309481674
 31
0.0
  0
LINE
  5
100
330
18
100
AcDbEntity
  8
ADP1DETAIL
100
AcDbLine
 10
2.5960727527268
 20
-0.1118920770770233
 30
0.0
 11
2.601939527879994
 21
-0.0748507165672902
 31
0.0
  0
LINE
  5
101
330
18
100
AcDbEntity
  8
ADP1DETAIL
100
AcDbLine
 10
2.633114113236534
 20
-0.1177588522302172
 30
0.0
 11
2.5960727527268
 21
-0.1118920770770233
 31
0.0
  0
LINE
  5
107
330
18
100
AcDbEntity
  8
ADP1DETAIL
100
AcDbLine
 10
2.941639942948485
 20
-0.4573342571470186
 30
0.0
 11
2.935773167795291
 21
-0.4202928966372849
 31
0.0
  0
LINE
  5
108
330
18
100
AcDbEntity
  8
ADP1DETAIL
100
AcDbLine
 10
2.978681303458219
 20
-0.4514674819938253
 30
0.0
 11
2.941639942948485
 21
-0.4573342571470186
 31
0.0
  0
LINE
  5
109
330
18
100
AcDbEntity
  8
ADP1DETAIL
100
AcDbLine
 10
2.898098819201345
 20
-0.4245360152266374
 30
0.0
 11
2.893528342768027
 21
-0.3873124718127889
 31
0.0
  0
LINE
  5
10A
330
18
100
AcDbEntity
  8
ADP1DETAIL
100
AcDbLine
 10
2.935322362615193
 20
-0.4199655387933166
 30
0.0
 11
2.898098819201345
 21
-0.4245360152266374
 31
0.0
  0
LINE
  5
10B
330
18
100
AcDbEntity
  8
ADP1DETAIL
100
AcDbLine
 10
2.893089236830259
 20
-0.3869695805124777
 30
0.0
 11
2.855728861666098
 21
-0.3902381898044176
 31
0.0
  0
LINE
  5
10C
330
18
100
AcDbEntity
  8
ADP1DETAIL
100
AcDbLine
 10
2.855728861666098
 20
-0.3902381898044176
 30
0.0
 11
2.852460252374159
 21
-0.352877814640257
 31
0.0
  0
LINE
  5
10D
330
18
100
AcDbEntity
  8
ADP1DETAIL
100
AcDbLine
 10
3.224418877355199
 20
-0.6205285483150517
 30
0.0
 11
3.21097897342129
 21
-0.5855164015462876
 31
0.0
  0
LINE
  5
10E
330
18
100
AcDbEntity
  8
ADP1DETAIL
100
AcDbLine
 10
3.175010093695165
 20
-0.597499735330716
 30
0.0
 11
3.162800283288301
 21
-0.5620398711327434
 31
0.0
  0
LINE
  5
10F
330
18
100
AcDbEntity
  8
ADP1DETAIL
100
AcDbLine
 10
3.210469957893137
 20
-0.5852899249238526
 30
0.0
 11
3.175010093695165
 21
-0.597499735330716
 31
0.0
  0
LINE
  5
110
330
18
100
AcDbEntity
  8
ADP1DETAIL
100
AcDbLine
 10
3.126435102513963
 20
-0.5727606091946155
 30
0.0
 11
3.115470261407351
 21
-0.5368962299497868
 31
0.0
  0
LINE
  5
111
330
18
100
AcDbEntity
  8
ADP1DETAIL
100
AcDbLine
 10
3.162299481758793
 20
-0.5617957680880021
 30
0.0
 11
3.126435102513963
 21
-0.5727606091946155
 31
0.0
  0
LINE
  5
112
330
18
100
AcDbEntity
  8
ADP1DETAIL
100
AcDbLine
 10
3.078753084955948
 20
-0.5463413107211752
 30
0.0
 11
3.06904657211947
 21
-0.5101161116511156
 31
0.0
  0
LINE
  5
113
330
18
100
AcDbEntity
  8
ADP1DETAIL
100
AcDbLine
 10
3.114978284026008
 20
-0.5366347978846959
 30
0.0
 11
3.078753084955948
 21
-0.5463413107211752
 31
0.0
  0
LINE
  5
114
330
18
100
AcDbEntity
  8
ADP1DETAIL
100
AcDbLine
 10
3.032022134214661
 20
-0.5182740277560055
 30
0.0
 11
3.023585775539033
 21
-0.4817321436857173
 31
0.0
  0
LINE
  5
115
330
18
100
AcDbEntity
  8
ADP1DETAIL
100
AcDbLine
 10
3.068564018284948
 20
-0.5098376690803783
 30
0.0
 11
3.032022134214661
 21
-0.5182740277560055
 31
0.0
  0
LINE
  5
116
330
18
100
AcDbEntity
  8
ADP1DETAIL
100
AcDbLine
 10
2.986299184755226
 20
-0.4885929559599648
 30
0.0
 11
2.979143258643976
 21
-0.4517789075463427
 31
0.0
  0
LINE
  5
117
330
18
100
AcDbEntity
  8
ADP1DETAIL
100
AcDbLine
 10
3.023113233168849
 20
-0.481437029848714
 30
0.0
 11
2.986299184755226
 21
-0.4885929559599648
 31
0.0
  0
LINE
  5
144
330
18
100
AcDbEntity
  8
ADP1DETAIL
100
AcDbLine
 10
4.783432762122705
 20
-0.4199607601958409
 30
0.0
 11
4.777565986969513
 21
-0.4570021207055751
 31
0.0
  0
LINE
  5
145
330
18
100
AcDbEntity
  8
ADP1DETAIL
100
AcDbLine
 10
4.863452785998817
 20
-0.3898749734963309
 30
0.0
 11
4.826092410834657
 21
-0.3866063642043907
 31
0.0
  0
LINE
  5
146
330
18
100
AcDbEntity
  8
ADP1DETAIL
100
AcDbLine
 10
4.866721395290756
 20
-0.35251459833217
 30
0.0
 11
4.863452785998817
 21
-0.3898749734963309
 31
0.0
  0
LINE
  5
147
330
18
100
AcDbEntity
  8
ADP1DETAIL
100
AcDbLine
 10
4.821095240840656
 20
-0.4241881269277194
 30
0.0
 11
4.783871697426807
 21
-0.4196176504943995
 31
0.0
  0
LINE
  5
148
330
18
100
AcDbEntity
  8
ADP1DETAIL
100
AcDbLine
 10
4.825665717273975
 20
-0.3869645835138715
 30
0.0
 11
4.821095240840656
 21
-0.4241881269277194
 31
0.0
  0
LINE
  5
14A
330
18
100
AcDbEntity
  8
ADP1DETAIL
100
AcDbLine
 10
4.508286021795955
 20
-0.5852865692041027
 30
0.0
 11
4.494846117862046
 21
-0.6202987159728663
 31
0.0
  0
LINE
  5
14F
330
18
100
AcDbEntity
  8
ADP1DETAIL
100
AcDbLine
 10
4.777565986969513
 20
-0.4570021207055751
 30
0.0
 11
4.740524626459779
 21
-0.4511353455523807
 31
0.0
  0
LINE
  5
150
330
18
100
AcDbEntity
  8
ADP1DETAIL
100
AcDbLine
 10
4.73291805807606
 20
-0.4882769760330868
 30
0.0
 11
4.696104009662438
 21
-0.4811210499218362
 31
0.0
  0
LINE
  5
151
330
18
100
AcDbEntity
  8
ADP1DETAIL
100
AcDbLine
 10
4.74007398418731
 20
-0.451462927619465
 30
0.0
 11
4.73291805807606
 21
-0.4882769760330868
 31
0.0
  0
LINE
  5
152
330
18
100
AcDbEntity
  8
ADP1DETAIL
100
AcDbLine
 10
4.687205850784168
 20
-0.5179745893165608
 30
0.0
 11
4.650663966713882
 21
-0.509538230640933
 31
0.0
  0
LINE
  5
153
330
18
100
AcDbEntity
  8
ADP1DETAIL
100
AcDbLine
 10
4.695642209459796
 20
-0.4814327052462728
 30
0.0
 11
4.687205850784168
 21
-0.5179745893165608
 31
0.0
  0
LINE
  5
154
330
18
100
AcDbEntity
  8
ADP1DETAIL
100
AcDbLine
 10
4.640485058376999
 20
-0.546058778588778
 30
0.0
 11
4.60425985930694
 21
-0.5363522657522984
 31
0.0
  0
LINE
  5
155
330
18
100
AcDbEntity
  8
ADP1DETAIL
100
AcDbLine
 10
4.650191571213477
 20
-0.5098335795187181
 30
0.0
 11
4.640485058376999
 21
-0.546058778588778
 31
0.0
  0
LINE
  5
156
330
18
100
AcDbEntity
  8
ADP1DETAIL
100
AcDbLine
 10
4.592812602943311
 20
-0.5724953275911475
 30
0.0
 11
4.556948223698482
 21
-0.5615304864845343
 31
0.0
  0
LINE
  5
157
330
18
100
AcDbEntity
  8
ADP1DETAIL
100
AcDbLine
 10
4.603777444049925
 20
-0.5366309483463189
 30
0.0
 11
4.592812602943311
 21
-0.5724953275911475
 31
0.0
  0
LINE
  5
158
330
18
100
AcDbEntity
  8
ADP1DETAIL
100
AcDbLine
 10
4.544246566026673
 20
-0.5972520274609487
 30
0.0
 11
4.508786701828701
 21
-0.5850422170540844
 31
0.0
  0
LINE
  5
159
330
18
100
AcDbEntity
  8
ADP1DETAIL
100
AcDbLine
 10
4.556456376433537
 20
-0.5617921632629754
 30
0.0
 11
4.544246566026673
 21
-0.5972520274609487
 31
0.0
  0
LINE
  5
15A
330
18
100
AcDbEntity
  8
ADP1DETAIL
100
AcDbLine
 10
5.147110939741203
 20
-0.0299616402635251
 30
0.0
 11
5.154266865852454
 21
-0.0667756886771469
 31
0.0
  0
LINE
  5
15B
330
18
100
AcDbEntity
  8
ADP1DETAIL
100
AcDbLine
 10
5.212015220613665
 20
0.0256782115235736
 30
0.0
 11
5.175790021543605
 21
0.0159716986870952
 31
0.0
  0
LINE
  5
15C
330
18
100
AcDbEntity
  8
ADP1DETAIL
100
AcDbLine
 10
5.202308707777185
 20
0.0619034105936335
 30
0.0
 11
5.212015220613665
 21
0.0256782115235736
 31
0.0
  0
LINE
  5
15D
330
18
100
AcDbEntity
  8
ADP1DETAIL
100
AcDbLine
 10
5.183947937648494
 20
-0.0210527392177138
 30
0.0
 11
5.147406053578206
 21
-0.029489097893341
 31
0.0
  0
LINE
  5
15E
330
18
100
AcDbEntity
  8
ADP1DETAIL
100
AcDbLine
 10
5.175511578972867
 20
0.0154891448525736
 30
0.0
 11
5.183947937648494
 21
-0.0210527392177138
 31
0.0
  0
LINE
  5
15F
330
18
100
AcDbEntity
  8
ADP1DETAIL
100
AcDbLine
 10
4.944447816020522
 20
-0.316920184402435
 30
0.0
 11
4.906950442194282
 21
-0.3162656653076602
 31
0.0
  0
LINE
  5
160
330
18
100
AcDbEntity
  8
ADP1DETAIL
100
AcDbLine
 10
4.945102335115295
 20
-0.2794228105761952
 30
0.0
 11
4.944447816020522
 21
-0.316920184402435
 31
0.0
  0
LINE
  5
161
330
18
100
AcDbEntity
  8
ADP1DETAIL
100
AcDbLine
 10
4.904587016299899
 20
-0.3541044657033284
 30
0.0
 11
4.867135327247638
 21
-0.3521417058497001
 31
0.0
  0
LINE
  5
162
330
18
100
AcDbEntity
  8
ADP1DETAIL
100
AcDbLine
 10
4.906549776153526
 20
-0.3166527766510694
 30
0.0
 11
4.904587016299899
 21
-0.3541044657033284
 31
0.0
  0
LINE
  5
163
330
18
100
AcDbEntity
  8
ADP1DETAIL
100
AcDbLine
 10
4.866721395290756
 20
-0.3525145983321694
 30
0.0
 11
4.863452785998817
 21
-0.3898749734963304
 31
0.0
  0
LINE
  5
164
330
18
100
AcDbEntity
  8
ADP1DETAIL
100
AcDbLine
 10
4.863452785998817
 20
-0.3898749734963304
 30
0.0
 11
4.826092410834657
 21
-0.3866063642043907
 31
0.0
  0
LINE
  5
165
330
18
100
AcDbEntity
  8
ADP1DETAIL
100
AcDbLine
 10
5.154266865852454
 20
-0.0667756886771469
 30
0.0
 11
5.117452817438833
 21
-0.0739316147883975
 31
0.0
  0
LINE
  5
166
330
18
100
AcDbEntity
  8
ADP1DETAIL
100
AcDbLine
 10
5.123008167039508
 20
-0.1114349304838897
 30
0.0
 11
5.085966806529774
 21
-0.1173017056370836
 31
0.0
  0
LINE
  5
167
330
18
100
AcDbEntity
  8
ADP1DETAIL
100
AcDbLine
 10
5.117141391886314
 20
-0.0743935699741566
 30
0.0
 11
5.123008167039508
 21
-0.1114349304838897
 31
0.0
  0
LINE
  5
168
330
18
100
AcDbEntity
  8
ADP1DETAIL
100
AcDbLine
 10
5.090209925119127
 20
-0.1549760542310292
 30
0.0
 11
5.052986381705278
 21
-0.1595465306643484
 31
0.0
  0
LINE
  5
169
330
18
100
AcDbEntity
  8
ADP1DETAIL
100
AcDbLine
 10
5.085639448685806
 20
-0.1177525108171814
 30
0.0
 11
5.090209925119127
 21
-0.1549760542310292
 31
0.0
  0
LINE
  5
16A
330
18
100
AcDbEntity
  8
ADP1DETAIL
100
AcDbLine
 10
5.055912099696906
 20
-0.1973460117662757
 30
0.0
 11
5.018551724532746
 21
-0.2006146210582153
 31
0.0
  0
LINE
  5
16B
330
18
100
AcDbEntity
  8
ADP1DETAIL
100
AcDbLine
 10
5.052643490404967
 20
-0.1599856366021149
 30
0.0
 11
5.055912099696906
 21
-0.1973460117662757
 31
0.0
  0
LINE
  5
16C
330
18
100
AcDbEntity
  8
ADP1DETAIL
100
AcDbLine
 10
5.020156477389952
 20
-0.2384931818229641
 30
0.0
 11
4.982704788337692
 21
-0.2404559416765918
 31
0.0
  0
LINE
  5
16D
330
18
100
AcDbEntity
  8
ADP1DETAIL
100
AcDbLine
 10
5.018193717536324
 20
-0.201041492770704
 30
0.0
 11
5.020156477389952
 21
-0.2384931818229641
 31
0.0
  0
LINE
  5
16E
330
18
100
AcDbEntity
  8
ADP1DETAIL
100
AcDbLine
 10
4.982986620916312
 20
-0.2783674329126157
 30
0.0
 11
4.945489247090073
 21
-0.2790219520073893
 31
0.0
  0
LINE
  5
16F
330
18
100
AcDbEntity
  8
ADP1DETAIL
100
AcDbLine
 10
4.982332101821536
 20
-0.2408700590863753
 30
0.0
 11
4.982986620916312
 21
-0.2783674329126157
 31
0.0
  0
LINE
  5
170
330
18
100
AcDbEntity
  8
ADP1DETAIL
100
AcDbLine
 10
5.355469084694036
 20
0.4609029172833648
 30
0.0
 11
5.374784601770494
 21
0.4287564985220276
 31
0.0
  0
LINE
  5
171
330
18
100
AcDbEntity
  8
ADP1DETAIL
100
AcDbLine
 10
5.397429208404462
 20
0.5353858468757722
 30
0.0
 11
5.36670847906335
 21
0.5138749606118273
 31
0.0
  0
LINE
  5
172
330
18
100
AcDbEntity
  8
ADP1DETAIL
100
AcDbLine
 10
5.375918322140515
 20
0.5661065762168825
 30
0.0
 11
5.397429208404462
 21
0.5353858468757722
 31
0.0
  0
LINE
  5
173
330
18
100
AcDbEntity
  8
ADP1DETAIL
100
AcDbLine
 10
5.387037516186861
 20
0.4818735411593649
 30
0.0
 11
5.355584781979781
 21
0.4614478967384651
 31
0.0
  0
LINE
  5
174
330
18
100
AcDbEntity
  8
ADP1DETAIL
100
AcDbLine
 10
5.366611871765961
 20
0.5133262753664433
 30
0.0
 11
5.387037516186861
 21
0.4818735411593649
 31
0.0
  0
LINE
  5
175
330
18
100
AcDbEntity
  8
ADP1DETAIL
100
AcDbLine
 10
5.263173645223204
 20
0.1219352202627895
 30
0.0
 11
5.227713781025232
 21
0.1097254098559252
 31
0.0
  0
LINE
  5
176
330
18
100
AcDbEntity
  8
ADP1DETAIL
100
AcDbLine
 10
5.250963834816341
 20
0.157395084460761
 30
0.0
 11
5.263173645223204
 21
0.1219352202627895
 31
0.0
  0
LINE
  5
177
330
18
100
AcDbEntity
  8
ADP1DETAIL
100
AcDbLine
 10
5.238434519087105
 20
0.073360229081588
 30
0.0
 11
5.202570139842275
 21
0.0623953879749754
 31
0.0
  0
LINE
  5
178
330
18
100
AcDbEntity
  8
ADP1DETAIL
100
AcDbLine
 10
5.22746967798049
 20
0.1092246083264165
 30
0.0
 11
5.238434519087105
 21
0.073360229081588
 31
0.0
  0
LINE
  5
179
330
18
100
AcDbEntity
  8
ADP1DETAIL
100
AcDbLine
 10
5.202308707777185
 20
0.0619034105936329
 30
0.0
 11
5.212015220613665
 21
0.025678211523573
 31
0.0
  0
LINE
  5
17A
330
18
100
AcDbEntity
  8
ADP1DETAIL
100
AcDbLine
 10
5.212015220613665
 20
0.025678211523573
 30
0.0
 11
5.175790021543605
 21
0.0159716986870946
 31
0.0
  0
LINE
  5
17B
330
18
100
AcDbEntity
  8
ADP1DETAIL
100
AcDbLine
 10
5.374784601770494
 20
0.4287564985220276
 30
0.0
 11
5.342638183009154
 21
0.4094409814455715
 31
0.0
  0
LINE
  5
17C
330
18
100
AcDbEntity
  8
ADP1DETAIL
100
AcDbLine
 10
5.360685393444156
 20
0.3760994338981598
 30
0.0
 11
5.327884455588042
 21
0.3579175771483762
 31
0.0
  0
LINE
  5
17D
330
18
100
AcDbEntity
  8
ADP1DETAIL
100
AcDbLine
 10
5.342503536694373
 20
0.4089003717542718
 30
0.0
 11
5.360685393444156
 21
0.3760994338981598
 31
0.0
  0
LINE
  5
17E
330
18
100
AcDbEntity
  8
ADP1DETAIL
100
AcDbLine
 10
5.34475706892138
 20
0.3239665018098074
 30
0.0
 11
5.311341574860674
 21
0.3069404571784482
 31
0.0
  0
LINE
  5
17F
330
18
100
AcDbEntity
  8
ADP1DETAIL
100
AcDbLine
 10
5.327731024290019
 20
0.3573819958705138
 30
0.0
 11
5.34475706892138
 21
0.3239665018098074
 31
0.0
  0
LINE
  5
180
330
18
100
AcDbEntity
  8
ADP1DETAIL
100
AcDbLine
 10
5.327019034412025
 20
0.2724212182042581
 30
0.0
 11
5.293029695778973
 21
0.2565717293040439
 31
0.0
  0
LINE
  5
181
330
18
100
AcDbEntity
  8
ADP1DETAIL
100
AcDbLine
 10
5.311169545511809
 20
0.3064105568373092
 30
0.0
 11
5.327019034412025
 21
0.2724212182042581
 31
0.0
  0
LINE
  5
182
330
18
100
AcDbEntity
  8
ADP1DETAIL
100
AcDbLine
 10
5.307492900978806
 20
0.2215263830696424
 30
0.0
 11
5.272971128546879
 21
0.2068727600613714
 31
0.0
  0
LINE
  5
183
330
18
100
AcDbEntity
  8
ADP1DETAIL
100
AcDbLine
 10
5.292839277970535
 20
0.2560481555015674
 30
0.0
 11
5.307492900978806
 21
0.2215263830696424
 31
0.0
  0
LINE
  5
184
330
18
100
AcDbEntity
  8
ADP1DETAIL
100
AcDbLine
 10
5.28620245820754
 20
0.1713440039228236
 30
0.0
 11
5.251190311438776
 21
0.1579040999889143
 31
0.0
  0
LINE
  5
185
330
18
100
AcDbEntity
  8
ADP1DETAIL
100
AcDbLine
 10
5.272762554273629
 20
0.2063561506915883
 30
0.0
 11
5.28620245820754
 21
0.1713440039228236
 31
0.0
  0
LINE
  5
186
330
18
100
AcDbEntity
  8
ADP1DETAIL
100
AcDbLine
 10
5.383376129661176
 20
0.9934274024153577
 30
0.0
 11
5.412521501276747
 21
0.9698259458395332
 31
0.0
  0
LINE
  5
187
330
18
100
AcDbEntity
  8
ADP1DETAIL
100
AcDbLine
 10
5.397331086024615
 20
1.077769669253261
 30
0.0
 11
5.375820199760669
 21
1.04704893991215
 31
0.0
  0
LINE
  5
188
330
18
100
AcDbEntity
  8
ADP1DETAIL
100
AcDbLine
 10
5.366610356683505
 20
1.099280555517207
 30
0.0
 11
5.397331086024615
 21
1.077769669253261
 31
0.0
  0
LINE
  5
189
330
18
100
AcDbEntity
  8
ADP1DETAIL
100
AcDbLine
 10
5.405868376001071
 20
1.023930382388653
 30
0.0
 11
5.383298455595493
 21
0.9939790863900473
 31
0.0
  0
LINE
  5
18A
330
18
100
AcDbEntity
  8
ADP1DETAIL
100
AcDbLine
 10
5.375917080002465
 20
1.046500302794229
 30
0.0
 11
5.405868376001071
 21
1.023930382388653
 31
0.0
  0
LINE
  5
18B
330
18
100
AcDbEntity
  8
ADP1DETAIL
100
AcDbLine
 10
5.412580566575992
 20
0.6433350594042093
 30
0.0
 11
5.383435194960421
 21
0.6197336028283848
 31
0.0
  0
LINE
  5
18C
330
18
100
AcDbEntity
  8
ADP1DETAIL
100
AcDbLine
 10
5.388979110000168
 20
0.672480431019779
 30
0.0
 11
5.412580566575992
 21
0.6433350594042093
 31
0.0
  0
LINE
  5
18D
330
18
100
AcDbEntity
  8
ADP1DETAIL
100
AcDbLine
 10
5.405947017747045
 20
0.5892282191696731
 30
0.0
 11
5.375995721748438
 21
0.5666582987640963
 31
0.0
  0
LINE
  5
18E
330
18
100
AcDbEntity
  8
ADP1DETAIL
100
AcDbLine
 10
5.383377097341466
 20
0.6191795151682782
 30
0.0
 11
5.405947017747045
 21
0.5892282191696731
 31
0.0
  0
LINE
  5
18F
330
18
100
AcDbEntity
  8
ADP1DETAIL
100
AcDbLine
 10
5.375918322140515
 20
0.5661065762168825
 30
0.0
 11
5.397429208404461
 21
0.5353858468757722
 31
0.0
  0
LINE
  5
190
330
18
100
AcDbEntity
  8
ADP1DETAIL
100
AcDbLine
 10
5.397429208404461
 20
0.5353858468757722
 30
0.0
 11
5.36670847906335
 21
0.5138749606118273
 31
0.0
  0
LINE
  5
191
330
18
100
AcDbEntity
  8
ADP1DETAIL
100
AcDbLine
 10
5.412521501276747
 20
0.9698259458395332
 30
0.0
 11
5.388920044700922
 21
0.9406805742239637
 31
0.0
  0
LINE
  5
192
330
18
100
AcDbEntity
  8
ADP1DETAIL
100
AcDbLine
 10
5.417282356043329
 20
0.9155222775276865
 30
0.0
 11
5.392678118036569
 21
0.8872183394409638
 31
0.0
  0
LINE
  5
193
330
18
100
AcDbEntity
  8
ADP1DETAIL
100
AcDbLine
 10
5.388978417956607
 20
0.9401265155344452
 30
0.0
 11
5.417282356043329
 21
0.9155222775276865
 31
0.0
  0
LINE
  5
194
330
18
100
AcDbEntity
  8
ADP1DETAIL
100
AcDbLine
 10
5.420145139932638
 20
0.8610855381081115
 30
0.0
 11
5.394568096968963
 21
0.8336575175389103
 31
0.0
  0
LINE
  5
195
330
18
100
AcDbEntity
  8
ADP1DETAIL
100
AcDbLine
 10
5.392717119363435
 20
0.8866625810717858
 30
0.0
 11
5.420145139932638
 21
0.8610855381081115
 31
0.0
  0
LINE
  5
196
330
18
100
AcDbEntity
  8
ADP1DETAIL
100
AcDbLine
 10
5.421106365083482
 20
0.8065820503624541
 30
0.0
 11
5.394587678849902
 21
0.7800633641288739
 31
0.0
  0
LINE
  5
197
330
18
100
AcDbEntity
  8
ADP1DETAIL
100
AcDbLine
 10
5.394587678849902
 20
0.8331007365960344
 30
0.0
 11
5.421106365083482
 21
0.8065820503624541
 31
0.0
  0
LINE
  5
198
330
18
100
AcDbEntity
  8
ADP1DETAIL
100
AcDbLine
 10
5.420164860391083
 20
0.7520782183949151
 30
0.0
 11
5.392736839821882
 21
0.7265011754312397
 31
0.0
  0
LINE
  5
199
330
18
100
AcDbEntity
  8
ADP1DETAIL
100
AcDbLine
 10
5.394587817427408
 20
0.7795062389641164
 30
0.0
 11
5.420164860391083
 21
0.7520782183949151
 31
0.0
  0
LINE
  5
19A
330
18
100
AcDbEntity
  8
ADP1DETAIL
100
AcDbLine
 10
5.417321772933879
 20
0.6976404467290726
 30
0.0
 11
5.389017834847156
 21
0.6730362087223151
 31
0.0
  0
LINE
  5
19B
330
18
100
AcDbEntity
  8
ADP1DETAIL
100
AcDbLine
 10
5.39271753492712
 20
0.7259443848157952
 30
0.0
 11
5.417321772933879
 21
0.6976404467290726
 31
0.0
  0
LINE
  5
19C
330
18
100
AcDbEntity
  8
ADP1DETAIL
100
AcDbLine
 10
5.227466073155467
 20
1.503381503001161
 30
0.0
 11
5.262925937353438
 21
1.491171692594298
 31
0.0
  0
LINE
  5
19D
330
18
100
AcDbEntity
  8
ADP1DETAIL
100
AcDbLine
 10
5.211732688481268
 20
1.587410184944623
 30
0.0
 11
5.202026175644788
 21
1.551184985874563
 31
0.0
  0
LINE
  5
19E
330
18
100
AcDbEntity
  8
ADP1DETAIL
100
AcDbLine
 10
5.175507489411208
 20
1.597116697781102
 30
0.0
 11
5.211732688481268
 21
1.587410184944623
 31
0.0
  0
LINE
  5
19F
330
18
100
AcDbEntity
  8
ADP1DETAIL
100
AcDbLine
 10
5.238169237483638
 20
1.539737729510936
 30
0.0
 11
5.227204396377024
 21
1.503873350266107
 31
0.0
  0
LINE
  5
1A0
330
18
100
AcDbEntity
  8
ADP1DETAIL
100
AcDbLine
 10
5.202304858238808
 20
1.550702570617548
 30
0.0
 11
5.238169237483638
 21
1.539737729510936
 31
0.0
  0
LINE
  5
1A1
330
18
100
AcDbEntity
  8
ADP1DETAIL
100
AcDbLine
 10
5.374647900352418
 20
1.184390817379287
 30
0.0
 11
5.355332383275962
 21
1.15224439861795
 31
0.0
  0
LINE
  5
1A2
330
18
100
AcDbEntity
  8
ADP1DETAIL
100
AcDbLine
 10
5.342501481591082
 20
1.203706334455745
 30
0.0
 11
5.374647900352418
 21
1.184390817379287
 31
0.0
  0
LINE
  5
1A3
330
18
100
AcDbEntity
  8
ADP1DETAIL
100
AcDbLine
 10
5.386920032720148
 20
1.131278211555617
 30
0.0
 11
5.366494388299247
 21
1.099825477348539
 31
0.0
  0
LINE
  5
1A4
330
18
100
AcDbEntity
  8
ADP1DETAIL
100
AcDbLine
 10
5.355467298513069
 20
1.151703855976516
 30
0.0
 11
5.386920032720148
 21
1.131278211555617
 31
0.0
  0
LINE
  5
1A5
330
18
100
AcDbEntity
  8
ADP1DETAIL
100
AcDbLine
 10
5.366610356683505
 20
1.099280555517206
 30
0.0
 11
5.397331086024617
 21
1.07776966925326
 31
0.0
  0
LINE
  5
1A6
330
18
100
AcDbEntity
  8
ADP1DETAIL
100
AcDbLine
 10
5.397331086024617
 20
1.07776966925326
 30
0.0
 11
5.375820199760669
 21
1.04704893991215
 31
0.0
  0
LINE
  5
1A7
330
18
100
AcDbEntity
  8
ADP1DETAIL
100
AcDbLine
 10
5.262925937353438
 20
1.491171692594298
 30
0.0
 11
5.250716126946575
 21
1.455711828396326
 31
0.0
  0
LINE
  5
1A8
330
18
100
AcDbEntity
  8
ADP1DETAIL
100
AcDbLine
 10
5.285972625865356
 20
1.441771244429669
 30
0.0
 11
5.272532721931446
 21
1.406759097660904
 31
0.0
  0
LINE
  5
1A9
330
18
100
AcDbEntity
  8
ADP1DETAIL
100
AcDbLine
 10
5.250960479096593
 20
1.455211148363579
 30
0.0
 11
5.285972625865356
 21
1.441771244429669
 31
0.0
  0
LINE
  5
1AA
330
18
100
AcDbEntity
  8
ADP1DETAIL
100
AcDbLine
 10
5.307281224179511
 20
1.391596571853581
 30
0.0
 11
5.292627601171238
 21
1.357074799421656
 31
0.0
  0
LINE
  5
1AB
330
18
100
AcDbEntity
  8
ADP1DETAIL
100
AcDbLine
 10
5.272759451747584
 20
1.406250194861852
 30
0.0
 11
5.307281224179511
 21
1.391596571853581
 31
0.0
  0
LINE
  5
1AC
330
18
100
AcDbEntity
  8
ADP1DETAIL
100
AcDbLine
 10
5.326825771051192
 20
1.340708804975752
 30
0.0
 11
5.310976282150976
 21
1.306719466342702
 31
0.0
  0
LINE
  5
1AD
330
18
100
AcDbEntity
  8
ADP1DETAIL
100
AcDbLine
 10
5.292836432418142
 20
1.356558293875967
 30
0.0
 11
5.326825771051192
 21
1.340708804975752
 31
0.0
  0
LINE
  5
1AE
330
18
100
AcDbEntity
  8
ADP1DETAIL
100
AcDbLine
 10
5.344582454460645
 20
1.289169942701464
 30
0.0
 11
5.327556409829284
 21
1.255754448640757
 31
0.0
  0
LINE
  5
1AF
330
18
100
AcDbEntity
  8
ADP1DETAIL
100
AcDbLine
 10
5.311166960399938
 20
1.306195987332823
 30
0.0
 11
5.344582454460645
 21
1.289169942701464
 31
0.0
  0
LINE
  5
1B0
330
18
100
AcDbEntity
  8
ADP1DETAIL
100
AcDbLine
 10
5.360529640624342
 20
1.237042777195443
 30
0.0
 11
5.342347783874558
 21
1.204241839339332
 31
0.0
  0
LINE
  5
1B1
330
18
100
AcDbEntity
  8
ADP1DETAIL
100
AcDbLine
 10
5.327728702768228
 20
1.255224633945227
 30
0.0
 11
5.360529640624342
 21
1.237042777195443
 31
0.0
  0
LINE
  5
1B2
330
18
100
AcDbEntity
  8
ADP1DETAIL
100
AcDbLine
 10
4.906543968978867
 20
1.929257228389161
 30
0.0
 11
4.944041342805107
 21
1.929911747483936
 31
0.0
  0
LINE
  5
1B3
330
18
100
AcDbEntity
  8
ADP1DETAIL
100
AcDbLine
 10
4.863019921658767
 20
2.002837226264531
 30
0.0
 11
4.866288530950706
 21
1.96547685110037
 31
0.0
  0
LINE
  5
1B4
330
18
100
AcDbEntity
  8
ADP1DETAIL
100
AcDbLine
 10
4.825659546494606
 20
1.999568616972591
 30
0.0
 11
4.863019921658767
 21
2.002837226264531
 31
0.0
  0
LINE
  5
1B5
330
18
100
AcDbEntity
  8
ADP1DETAIL
100
AcDbLine
 10
4.904167091715454
 20
1.967081603957575
 30
0.0
 11
4.906129851569083
 21
1.929629914905316
 31
0.0
  0
LINE
  5
1B6
330
18
100
AcDbEntity
  8
ADP1DETAIL
100
AcDbLine
 10
4.866715402663196
 20
1.965118844103947
 30
0.0
 11
4.904167091715454
 21
1.967081603957575
 31
0.0
  0
LINE
  5
1B7
330
18
100
AcDbEntity
  8
ADP1DETAIL
100
AcDbLine
 10
5.153950885925577
 20
1.679843184643683
 30
0.0
 11
5.146794959814325
 21
1.643029136230062
 31
0.0
  0
LINE
  5
1B8
330
18
100
AcDbEntity
  8
ADP1DETAIL
100
AcDbLine
 10
5.117136837511955
 20
1.686999110754935
 30
0.0
 11
5.153950885925577
 21
1.679843184643683
 31
0.0
  0
LINE
  5
1B9
330
18
100
AcDbEntity
  8
ADP1DETAIL
100
AcDbLine
 10
5.183648499209052
 20
1.634130977351792
 30
0.0
 11
5.175212140533424
 21
1.597589093281505
 31
0.0
  0
LINE
  5
1BA
330
18
100
AcDbEntity
  8
ADP1DETAIL
100
AcDbLine
 10
5.147106615138764
 20
1.642567336027419
 30
0.0
 11
5.183648499209052
 21
1.634130977351792
 31
0.0
  0
LINE
  5
1BB
330
18
100
AcDbEntity
  8
ADP1DETAIL
100
AcDbLine
 10
5.175507489411208
 20
1.597116697781101
 30
0.0
 11
5.211732688481269
 21
1.587410184944622
 31
0.0
  0
LINE
  5
1BC
330
18
100
AcDbEntity
  8
ADP1DETAIL
100
AcDbLine
 10
5.211732688481269
 20
1.587410184944622
 30
0.0
 11
5.202026175644788
 21
1.551184985874562
 31
0.0
  0
LINE
  5
1BD
330
18
100
AcDbEntity
  8
ADP1DETAIL
100
AcDbLine
 10
4.944041342805107
 20
1.929911747483936
 30
0.0
 11
4.94469586189988
 21
1.892414373657696
 31
0.0
  0
LINE
  5
1BE
330
18
100
AcDbEntity
  8
ADP1DETAIL
100
AcDbLine
 10
4.982594094294926
 20
1.891372942588145
 30
0.0
 11
4.981939575200152
 21
1.853875568761904
 31
0.0
  0
LINE
  5
1BF
330
18
100
AcDbEntity
  8
ADP1DETAIL
100
AcDbLine
 10
4.945096720468686
 20
1.89202746168292
 30
0.0
 11
4.982594094294926
 21
1.891372942588145
 31
0.0
  0
LINE
  5
1C0
330
18
100
AcDbEntity
  8
ADP1DETAIL
100
AcDbLine
 10
5.01977837559582
 20
1.851512142867522
 30
0.0
 11
5.017815615742191
 21
1.814060453815262
 31
0.0
  0
LINE
  5
1C1
330
18
100
AcDbEntity
  8
ADP1DETAIL
100
AcDbLine
 10
4.98232668654356
 20
1.853474902721149
 30
0.0
 11
5.01977837559582
 21
1.851512142867522
 31
0.0
  0
LINE
  5
1C2
330
18
100
AcDbEntity
  8
ADP1DETAIL
100
AcDbLine
 10
5.055548883388822
 20
1.81037791256644
 30
0.0
 11
5.052280274096882
 21
1.77301753740228
 31
0.0
  0
LINE
  5
1C3
330
18
100
AcDbEntity
  8
ADP1DETAIL
100
AcDbLine
 10
5.01818850822466
 20
1.813646521858379
 30
0.0
 11
5.055548883388822
 21
1.81037791256644
 31
0.0
  0
LINE
  5
1C4
330
18
100
AcDbEntity
  8
ADP1DETAIL
100
AcDbLine
 10
5.08986203682021
 20
1.76802036740828
 30
0.0
 11
5.085291560386891
 21
1.730796823994431
 31
0.0
  0
LINE
  5
1C5
330
18
100
AcDbEntity
  8
ADP1DETAIL
100
AcDbLine
 10
5.052638493406361
 20
1.7725908438416
 30
0.0
 11
5.08986203682021
 21
1.76802036740828
 31
0.0
  0
LINE
  5
1C6
330
18
100
AcDbEntity
  8
ADP1DETAIL
100
AcDbLine
 10
5.122676030598066
 20
1.724491113537136
 30
0.0
 11
5.116809255444871
 21
1.687449753027403
 31
0.0
  0
LINE
  5
1C7
330
18
100
AcDbEntity
  8
ADP1DETAIL
100
AcDbLine
 10
5.085634670088331
 20
1.730357888690329
 30
0.0
 11
5.122676030598066
 21
1.724491113537136
 31
0.0
  0
LINE
  5
1C8
330
18
100
AcDbEntity
  8
ADP1DETAIL
100
AcDbLine
 10
4.459317759200905
 20
2.219687680841255
 30
0.0
 11
4.494329905969668
 21
2.233127584775165
 31
0.0
  0
LINE
  5
1C9
330
18
100
AcDbEntity
  8
ADP1DETAIL
100
AcDbLine
 10
4.393252691688234
 20
2.273944160979649
 30
0.0
 11
4.409102180588447
 21
2.239954822346599
 31
0.0
  0
LINE
  5
1CA
330
18
100
AcDbEntity
  8
ADP1DETAIL
100
AcDbLine
 10
4.359263353055182
 20
2.258094672079434
 30
0.0
 11
4.393252691688234
 21
2.273944160979649
 31
0.0
  0
LINE
  5
1CB
330
18
100
AcDbEntity
  8
ADP1DETAIL
100
AcDbLine
 10
4.444147526822849
 20
2.254418027546429
 30
0.0
 11
4.458801149831121
 21
2.219896255114504
 31
0.0
  0
LINE
  5
1CC
330
18
100
AcDbEntity
  8
ADP1DETAIL
100
AcDbLine
 10
4.409625754390924
 20
2.239764404538158
 30
0.0
 11
4.444147526822849
 21
2.254418027546429
 31
0.0
  0
LINE
  5
1CD
330
18
100
AcDbEntity
  8
ADP1DETAIL
100
AcDbLine
 10
4.777108840376382
 20
2.069933293607132
 30
0.0
 11
4.782975615529576
 21
2.032891933097398
 31
0.0
  0
LINE
  5
1CE
330
18
100
AcDbEntity
  8
ADP1DETAIL
100
AcDbLine
 10
4.740067479866648
 20
2.064066518453938
 30
0.0
 11
4.777108840376382
 21
2.069933293607132
 31
0.0
  0
LINE
  5
1CF
330
18
100
AcDbEntity
  8
ADP1DETAIL
100
AcDbLine
 10
4.820649964123522
 20
2.03713505168675
 30
0.0
 11
4.825220440556841
 21
1.999911508272901
 31
0.0
  0
LINE
  5
1D0
330
18
100
AcDbEntity
  8
ADP1DETAIL
100
AcDbLine
 10
4.783426420709674
 20
2.03256457525343
 30
0.0
 11
4.820649964123522
 21
2.03713505168675
 31
0.0
  0
LINE
  5
1D1
330
18
100
AcDbEntity
  8
ADP1DETAIL
100
AcDbLine
 10
4.825659546494606
 20
1.999568616972591
 30
0.0
 11
4.863019921658769
 21
2.002837226264531
 31
0.0
  0
LINE
  5
1D2
330
18
100
AcDbEntity
  8
ADP1DETAIL
100
AcDbLine
 10
4.863019921658769
 20
2.002837226264531
 30
0.0
 11
4.866288530950706
 21
1.96547685110037
 31
0.0
  0
LINE
  5
1D3
330
18
100
AcDbEntity
  8
ADP1DETAIL
100
AcDbLine
 10
4.494329905969668
 20
2.233127584775165
 30
0.0
 11
4.507769809903576
 21
2.198115438006401
 31
0.0
  0
LINE
  5
1D4
330
18
100
AcDbEntity
  8
ADP1DETAIL
100
AcDbLine
 10
4.543738689629703
 20
2.210098771790829
 30
0.0
 11
4.555948500036566
 21
2.174638907592857
 31
0.0
  0
LINE
  5
1D5
330
18
100
AcDbEntity
  8
ADP1DETAIL
100
AcDbLine
 10
4.508278825431729
 20
2.197888961383966
 30
0.0
 11
4.543738689629703
 21
2.210098771790829
 31
0.0
  0
LINE
  5
1D6
330
18
100
AcDbEntity
  8
ADP1DETAIL
100
AcDbLine
 10
4.592313680810904
 20
2.185359645654729
 30
0.0
 11
4.603278521917515
 21
2.1494952664099
 31
0.0
  0
LINE
  5
1D7
330
18
100
AcDbEntity
  8
ADP1DETAIL
100
AcDbLine
 10
4.556449301566074
 20
2.174394804548115
 30
0.0
 11
4.592313680810904
 21
2.185359645654729
 31
0.0
  0
LINE
  5
1D8
330
18
100
AcDbEntity
  8
ADP1DETAIL
100
AcDbLine
 10
4.639995698368918
 20
2.158940347181288
 30
0.0
 11
4.649702211205396
 21
2.122715148111228
 31
0.0
  0
LINE
  5
1D9
330
18
100
AcDbEntity
  8
ADP1DETAIL
100
AcDbLine
 10
4.603770499298859
 20
2.149233834344809
 30
0.0
 11
4.639995698368918
 21
2.158940347181288
 31
0.0
  0
LINE
  5
1DA
330
18
100
AcDbEntity
  8
ADP1DETAIL
100
AcDbLine
 10
4.686726649110205
 20
2.130873064216118
 30
0.0
 11
4.695163007785833
 21
2.09433118014583
 31
0.0
  0
LINE
  5
1DB
330
18
100
AcDbEntity
  8
ADP1DETAIL
100
AcDbLine
 10
4.650184765039918
 20
2.122436705540491
 30
0.0
 11
4.686726649110205
 21
2.130873064216118
 31
0.0
  0
LINE
  5
1DC
330
18
100
AcDbEntity
  8
ADP1DETAIL
100
AcDbLine
 10
4.73244959856964
 20
2.101191992420078
 30
0.0
 11
4.739605524680889
 21
2.064377944006456
 31
0.0
  0
LINE
  5
1DD
330
18
100
AcDbEntity
  8
ADP1DETAIL
100
AcDbLine
 10
4.695635550156016
 20
2.094036066308827
 30
0.0
 11
4.73244959856964
 21
2.101191992420078
 31
0.0
  0
LINE
  5
1DE
330
18
100
AcDbEntity
  8
ADP1DETAIL
100
AcDbLine
 10
3.939729525076698
 20
2.339642661494746
 30
0.0
 11
3.968033463163419
 21
2.364246899501504
 31
0.0
  0
LINE
  5
1DF
330
18
100
AcDbEntity
  8
ADP1DETAIL
100
AcDbLine
 10
3.859091859530039
 20
2.368031491651108
 30
0.0
 11
3.885610545763618
 21
2.341512805417527
 31
0.0
  0
LINE
  5
1E0
330
18
100
AcDbEntity
  8
ADP1DETAIL
100
AcDbLine
 10
3.832573173296458
 20
2.341512805417528
 30
0.0
 11
3.859091859530039
 21
2.368031491651108
 31
0.0
  0
LINE
  5
1E1
330
18
100
AcDbEntity
  8
ADP1DETAIL
100
AcDbLine
 10
3.913595691497578
 20
2.367089986958708
 30
0.0
 11
3.939172734461252
 21
2.339661966389507
 31
0.0
  0
LINE
  5
1E2
330
18
100
AcDbEntity
  8
ADP1DETAIL
100
AcDbLine
 10
3.886167670928377
 20
2.341512943995034
 30
0.0
 11
3.913595691497578
 21
2.367089986958708
 31
0.0
  0
LINE
  5
1E3
330
18
100
AcDbEntity
  8
ADP1DETAIL
100
AcDbLine
 10
4.289574475994331
 20
2.30761052001178
 30
0.0
 11
4.307756332744116
 21
2.274809582155668
 31
0.0
  0
LINE
  5
1E4
330
18
100
AcDbEntity
  8
ADP1DETAIL
100
AcDbLine
 10
4.25677353813822
 20
2.289428663261998
 30
0.0
 11
4.289574475994331
 21
2.30761052001178
 31
0.0
  0
LINE
  5
1E5
330
18
100
AcDbEntity
  8
ADP1DETAIL
100
AcDbLine
 10
4.341707408082684
 20
2.291682195489004
 30
0.0
 11
4.358733452714043
 21
2.258266701428297
 31
0.0
  0
LINE
  5
1E6
330
18
100
AcDbEntity
  8
ADP1DETAIL
100
AcDbLine
 10
4.308291914021979
 20
2.274656150857643
 30
0.0
 11
4.341707408082684
 21
2.291682195489004
 31
0.0
  0
LINE
  5
1E7
330
18
100
AcDbEntity
  8
ADP1DETAIL
100
AcDbLine
 10
4.359263353055184
 20
2.258094672079434
 30
0.0
 11
4.393252691688234
 21
2.273944160979648
 31
0.0
  0
LINE
  5
1E8
330
18
100
AcDbEntity
  8
ADP1DETAIL
100
AcDbLine
 10
4.393252691688234
 20
2.273944160979648
 30
0.0
 11
4.409102180588449
 21
2.239954822346598
 31
0.0
  0
LINE
  5
1E9
330
18
100
AcDbEntity
  8
ADP1DETAIL
100
AcDbLine
 10
3.968033463163419
 20
2.364246899501504
 30
0.0
 11
3.992637701170178
 21
2.335942961414783
 31
0.0
  0
LINE
  5
1EA
330
18
100
AcDbEntity
  8
ADP1DETAIL
100
AcDbLine
 10
4.022338850488283
 20
2.359505693143618
 30
0.0
 11
4.045940307064108
 21
2.330360321528047
 31
0.0
  0
LINE
  5
1EB
330
18
100
AcDbEntity
  8
ADP1DETAIL
100
AcDbLine
 10
3.993193478872713
 20
2.335904236567794
 30
0.0
 11
4.022338850488283
 21
2.359505693143618
 31
0.0
  0
LINE
  5
1EC
330
18
100
AcDbEntity
  8
ADP1DETAIL
100
AcDbLine
 10
4.076445690722819
 20
2.352872144314669
 30
0.0
 11
4.099015611128396
 21
2.322920848316063
 31
0.0
  0
LINE
  5
1ED
330
18
100
AcDbEntity
  8
ADP1DETAIL
100
AcDbLine
 10
4.046494394724214
 20
2.330302223909092
 30
0.0
 11
4.076445690722819
 21
2.352872144314669
 31
0.0
  0
LINE
  5
1EE
330
18
100
AcDbEntity
  8
ADP1DETAIL
100
AcDbLine
 10
4.13028806301672
 20
2.344354334972087
 30
0.0
 11
4.151798949280665
 21
2.313633605630975
 31
0.0
  0
LINE
  5
1EF
330
18
100
AcDbEntity
  8
ADP1DETAIL
100
AcDbLine
 10
4.099567333675609
 20
2.32284344870814
 30
0.0
 11
4.13028806301672
 21
2.344354334972087
 31
0.0
  0
LINE
  5
1F0
330
18
100
AcDbEntity
  8
ADP1DETAIL
100
AcDbLine
 10
4.183800368733128
 20
2.333962642754486
 30
0.0
 11
4.204226013154028
 21
2.302509908547407
 31
0.0
  0
LINE
  5
1F1
330
18
100
AcDbEntity
  8
ADP1DETAIL
100
AcDbLine
 10
4.152347634526049
 20
2.313536998333586
 30
0.0
 11
4.183800368733128
 21
2.333962642754486
 31
0.0
  0
LINE
  5
1F2
330
18
100
AcDbEntity
  8
ADP1DETAIL
100
AcDbLine
 10
4.236917411370465
 20
2.321709728338118
 30
0.0
 11
4.256232928446921
 21
2.28956330957678
 31
0.0
  0
LINE
  5
1F3
330
18
100
AcDbEntity
  8
ADP1DETAIL
100
AcDbLine
 10
4.204770992609127
 20
2.302394211261661
 30
0.0
 11
4.236917411370465
 21
2.321709728338118
 31
0.0
  0
LINE
  5
1F4
330
18
100
AcDbEntity
  8
ADP1DETAIL
100
AcDbLine
 10
3.224418877355199
 20
-0.6205285483150517
 30
0.0
 11
3.280512601099162
 21
-0.4974070338013008
 31
0.0
  0
LINE
  5
1F5
330
18
100
AcDbEntity
  8
ADP1DETAIL
100
AcDbLine
 10
4.438704908786681
 20
-0.4971933792248809
 30
0.0
 11
4.494846117862046
 21
-0.6202987159728663
 31
0.0
  0
TEXT
  5
204
330
18
100
AcDbEntity
  8
ADPDIM
100
AcDbText
 10
0.8623159224572365
 20
-1.266267254995455
 30
0.0
 40
0.125
  1
J U L I U S  B L U M  &  C O . ,  I N C .      ( 8 0 0 )  5 2 6 - 6 2 9 3        W W W . J U L I U S B L U M . C O M        P A R T  N o .  1 2 6 4
 41
1.25
  7
ARIAL_WIDE
 72
     1
 11
7.388044947013852
 21
-1.141267254995455
 31
0.0
100
AcDbText
 73
     3
  0
DIMENSION
  5
3B9
330
18
100
AcDbEntity
  8
ADPDIM
 62
     3
100
AcDbDimension
  2
*D2
 10
2.293016762144084
 20
2.631459718361472
 30
0.0
 11
3.855516762144084
 21
2.631459718361472
 31
0.0
 70
    32
 71
     5
 42
3.125
  3
STANDARD
100
AcDbAlignedDimension
 13
5.418016762144084
 23
0.7996685358090048
 33
0.0
 14
2.293016762144084
 24
0.7996685358090048
 34
0.0
100
AcDbRotatedDimension
1001
ACAD
1000
DSTYLE
1002
{
1070
    41
1040
0.125
1070
    73
1070
     0
1070
    74
1070
     0
1070
    78
1070
     3
1070
   140
1040
0.125
1070
   141
1040
0.1875
1070
   142
1040
0.125
1070
   147
1040
0.125
1070
   171
1070
     1
1002
}
  0
ENDSEC
  0
SECTION
  2
OBJECTS
  0
DICTIONARY
  5
C
330
0
100
AcDbDictionary
281
     1
  3
ACAD_COLOR
350
3B3
  3
ACAD_GROUP
350
D
  3
ACAD_LAYOUT
350
1FD
  3
ACAD_MATERIAL
350
39E
  3
ACAD_MLINESTYLE
350
E
  3
ACAD_PLOTSETTINGS
350
1FE
  3
ACAD_PLOTSTYLENAME
350
1FB
  3
ACAD_TABLESTYLE
350
3B4
  3
ACAD_VISUALSTYLE
350
3A2
  3
AcDbVariableDictionary
350
25E
  3
ASE_INDEX_DICTIONARY
350
3E6
  3
DWGPROPS
350
408
  0
DICTIONARY
  5
258
330
18
100
AcDbDictionary
280
     1
281
     1
  3
ACAD_LAYOUTSELFREF
360
398
  0
DICTIONARY
  5
256
330
15
100
AcDbDictionary
280
     1
281
     1
  3
ACAD_LAYOUTSELFREF
360
397
  0
DICTIONARY
  5
3B3
102
{ACAD_REACTORS
330
C
102
}
330
C
100
AcDbDictionary
281
     1
  0
DICTIONARY
  5
D
102
{ACAD_REACTORS
330
C
102
}
330
C
100
AcDbDictionary
281
     1
  0
DICTIONARY
  5
1FD
102
{ACAD_REACTORS
330
C
102
}
330
C
100
AcDbDictionary
281
     1
  3
Layout1
350
200
  3
Model
350
1FF
  0
DICTIONARY
  5
39E
102
{ACAD_REACTORS
330
C
102
}
330
C
100
AcDbDictionary
281
     1
  3
ByBlock
350
3A0
  3
ByLayer
350
39F
  3
Global
350
3A1
  0
DICTIONARY
  5
E
102
{ACAD_REACTORS
330
C
102
}
330
C
100
AcDbDictionary
281
     1
  3
STANDARD
350
1B
  0
DICTIONARY
  5
1FE
102
{ACAD_REACTORS
330
C
102
}
330
C
100
AcDbDictionary
281
     1
  0
ACDBDICTIONARYWDFLT
  5
1FB
102
{ACAD_REACTORS
330
C
102
}
330
C
100
AcDbDictionary
281
     1
  3
Normal
350
1FC
100
AcDbDictionaryWithDefault
340
1FC
  0
DICTIONARY
  5
3B4
102
{ACAD_REACTORS
330
C
102
}
330
C
100
AcDbDictionary
281
     1
  3
Standard
350
3B5
  0
DICTIONARY
  5
3A2
102
{ACAD_REACTORS
330
C
102
}
330
C
100
AcDbDictionary
281
     1
  3
2dWireframe
350
3A8
  3
3D Hidden
350
3AA
  3
3dWireframe
350
3A9
  3
Basic
350
3A7
  3
Brighten
350
3AE
  3
ColorChange
350
3B2
  3
Conceptual
350
3AB
  3
Dim
350
3AD
  3
Facepattern
350
3B1
  3
Flat
350
3A3
  3
FlatWithEdges
350
3A4
  3
Gouraud
350
3A5
  3
GouraudWithEdges
350
3A6
  3
Linepattern
350
3B0
  3
Realistic
350
3AC
  3
Thicken
350
3AF
  0
DICTIONARY
  5
25E
102
{ACAD_REACTORS
330
C
102
}
330
C
100
AcDbDictionary
281
     1
  3
CTABLESTYLE
350
405
  3
DIMASSOC
350
25F
  3
INDEXCTL
350
407
  3
SORTENTS
350
406
  0
DICTIONARY
  5
3E6
102
{ACAD_REACTORS
330
C
102
}
330
C
100
AcDbDictionary
281
     1
  3
ASEBlockHierarchyIndexRecord
350
3E8
1001
DCO15
1040
1568919968.348
  0
XRECORD
  5
408
102
{ACAD_REACTORS
330
C
102
}
330
C
100
AcDbXrecord
280
     1
  1
DWGPROPS COOKIE
  2

  3

  4

  6

  7

  8
Yu Hu
  9

300
=
301
=
302
=
303
=
304
=
305
=
306
=
307
=
308
=
309
=
 40
0.0182636342592593
 41
2450224.601907014
 42
2453962.007781806
  1

 90
        0
  0
XRECORD
  5
398
102
{ACAD_REACTORS
330
258
102
}
330
258
100
AcDbXrecord
280
     1
340
18
  0
XRECORD
  5
397
102
{ACAD_REACTORS
330
256
102
}
330
256
100
AcDbXrecord
280
     1
340
15
  0
LAYOUT
  5
200
102
{ACAD_XDICTIONARY
360
40B
102
}
102
{ACAD_REACTORS
330
1FD
102
}
330
1FD
100
AcDbPlotSettings
  1

  2
Fax
  4

  6

 40
0.0
 41
0.0
 42
0.0
 43
0.0
 44
0.0
 45
0.0
 46
0.0
 47
0.0
 48
0.0
 49
0.0
140
0.0
141
0.0
142
1.0
143
1.0
 70
   688
 72
     0
 73
     0
 74
     5
  7
Default R14 pen assignments.ctb
 75
    16
147
1.0
148
0.0
149
0.0
100
AcDbLayout
  1
Layout1
 70
     1
 71
     1
 10
0.0
 20
0.0
 11
12.0
 21
9.0
 12
0.0008545056916773
 22
1.250276130627782
 32
0.0
 14
1.000000000000000E+20
 24
1.000000000000000E+20
 34
1.000000000000000E+20
 15
-1.000000000000000E+20
 25
-1.000000000000000E+20
 35
-1.000000000000000E+20
146
0.0
 13
0.0
 23
0.0
 33
0.0
 16
1.0
 26
0.0
 36
0.0
 17
0.0
 27
1.0
 37
0.0
 76
     0
330
15
  0
LAYOUT
  5
1FF
102
{ACAD_XDICTIONARY
360
409
102
}
102
{ACAD_REACTORS
330
1FD
102
}
330
1FD
100
AcDbPlotSettings
  1

  2
Fax
  4

  6

 40
0.0
 41
0.0
 42
0.0
 43
0.0
 44
0.0
 45
0.0
 46
0.0
 47
0.0
 48
0.0
 49
0.0
140
0.0
141
0.0
142
1.0
143
1.0
 70
  1712
 72
     0
 73
     0
 74
     0
  7
Default R14 pen assignments.ctb
 75
     0
147
1.0
148
0.0
149
0.0
100
AcDbLayout
  1
Model
 70
     1
 71
     0
 10
0.0
 20
0.0
 11
12.0
 21
9.0
 12
0.0
 22
0.0
 32
0.0
 14
0.0
 24
0.0
 34
0.0
 15
0.0
 25
0.0
 35
0.0
146
0.0
 13
0.0
 23
0.0
 33
0.0
 16
1.0
 26
0.0
 36
0.0
 17
0.0
 27
1.0
 37
0.0
 76
     0
330
18
331
372
  0
MATERIAL
  5
3A0
102
{ACAD_XDICTIONARY
360
40F
102
}
102
{ACAD_REACTORS
330
39E
102
}
330
39E
100
AcDbMaterial
  1
ByBlock
  0
MATERIAL
  5
39F
102
{ACAD_XDICTIONARY
360
40D
102
}
102
{ACAD_REACTORS
330
39E
102
}
330
39E
100
AcDbMaterial
  1
ByLayer
  0
MATERIAL
  5
3A1
102
{ACAD_XDICTIONARY
360
411
102
}
102
{ACAD_REACTORS
330
39E
102
}
330
39E
100
AcDbMaterial
  1
Global
  0
MLINESTYLE
  5
1B
102
{ACAD_REACTORS
330
E
102
}
330
E
100
AcDbMlineStyle
  2
STANDARD
 70
     0
  3

 62
     0
 51
90.0
 52
90.0
 71
     2
 49
0.5
 62
   256
  6
BYLAYER
 49
-0.5
 62
   256
  6
BYLAYER
  0
ACDBPLACEHOLDER
  5
1FC
102
{ACAD_REACTORS
330
1FB
102
}
330
1FB
  0
TABLESTYLE
  5
3B5
102
{ACAD_XDICTIONARY
360
413
102
}
102
{ACAD_REACTORS
330
3B4
102
}
330
3B4
100
AcDbTableStyle
  3
Standard
 70
     0
 71
     0
 40
0.06
 41
0.06
280
     0
281
     0
  7
STANDARD
140
0.18
170
     2
 62
     0
 63
     7
283
     0
274
    -2
284
     1
 64
     0
275
    -2
285
     1
 65
     0
276
    -2
286
     1
 66
     0
277
    -2
287
     1
 67
     0
278
    -2
288
     1
 68
     0
279
    -2
289
     1
 69
     0
  7
STANDARD
140
0.25
170
     5
 62
     0
 63
     7
283
     0
274
    -2
284
     1
 64
     0
275
    -2
285
     1
 65
     0
276
    -2
286
     1
 66
     0
277
    -2
287
     1
 67
     0
278
    -2
288
     1
 68
     0
279
    -2
289
     1
 69
     0
  7
STANDARD
140
0.18
170
     5
 62
     0
 63
     7
283
     0
274
    -2
284
     1
 64
     0
275
    -2
285
     1
 65
     0
276
    -2
286
     1
 66
     0
277
    -2
287
     1
 67
     0
278
    -2
288
     1
 68
     0
279
    -2
289
     1
 69
     0
  0
VISUALSTYLE
  5
3A8
102
{ACAD_REACTORS
330
3A2
102
}
330
3A2
100
AcDbVisualStyle
  2
2dWireframe
 70
     4
 71
     0
 72
     2
 73
     0
 90
        0
 40
-0.6
 41
-30.0
 62
     5
 63
     7
 74
     1
 91
        4
 64
     7
 65
   257
 75
     1
175
     1
 42
1.0
 92
        0
 66
   257
 43
1.0
 76
     1
 77
     6
 78
     2
 67
     7
 79
     5
170
     0
171
     0
290
     0
174
     0
 93
        1
 44
0.0
173
     0
291
     0
 45
0.0
1001
ACAD
1000
AcDbSavedByObjectVersion
1070
     0
  0
VISUALSTYLE
  5
3AA
102
{ACAD_REACTORS
330
3A2
102
}
330
3A2
100
AcDbVisualStyle
  2
3D Hidden
 70
     6
 71
     1
 72
     2
 73
     2
 90
        0
 40
-0.6
 41
-30.0
 62
     5
 63
     7
 74
     2
 91
        2
 64
     7
 65
   257
 75
     2
175
     1
 42
40.0
 92
        0
 66
   257
 43
1.0
 76
     1
 77
     6
 78
     2
 67
     7
 79
     3
170
     0
171
     0
290
     0
174
     0
 93
        1
 44
0.0
173
     0
291
     0
 45
0.0
1001
ACAD
1000
AcDbSavedByObjectVersion
1070
     0
  0
VISUALSTYLE
  5
3A9
102
{ACAD_REACTORS
330
3A2
102
}
330
3A2
100
AcDbVisualStyle
  2
3dWireframe
 70
     5
 71
     0
 72
     2
 73
     0
 90
        0
 40
-0.6
 41
-30.0
 62
     5
 63
     7
 74
     1
 91
        4
 64
     7
 65
   257
 75
     1
175
     1
 42
1.0
 92
        0
 66
   257
 43
1.0
 76
     1
 77
     6
 78
     2
 67
     7
 79
     5
170
     0
171
     0
290
     0
174
     0
 93
        1
 44
0.0
173
     0
291
     0
 45
0.0
1001
ACAD
1000
AcDbSavedByObjectVersion
1070
     0
  0
VISUALSTYLE
  5
3A7
102
{ACAD_REACTORS
330
3A2
102
}
330
3A2
100
AcDbVisualStyle
  2
Basic
 70
     7
 71
     1
 72
     0
 73
     1
 90
        0
 40
-0.6
 41
-30.0
 62
     5
 63
     7
 74
     0
 91
        4
 64
     7
 65
   257
 75
     1
175
     1
 42
1.0
 92
        8
 66
     7
 43
1.0
 76
     1
 77
     6
 78
     2
 67
     7
 79
     5
170
     0
171
     0
290
     0
174
     0
 93
        1
 44
0.0
173
     0
291
     1
 45
0.0
1001
ACAD
1000
AcDbSavedByObjectVersion
1070
     0
  0
VISUALSTYLE
  5
3AE
102
{ACAD_REACTORS
330
3A2
102
}
330
3A2
100
AcDbVisualStyle
  2
Brighten
 70
    12
 71
     2
 72
     2
 73
     0
 90
        0
 40
-0.6
 41
-30.0
 62
     5
 63
     7
 74
     1
 91
        4
 64
     7
 65
   257
 75
     1
175
     1
 42
1.0
 92
        8
 66
     7
 43
1.0
 76
     1
 77
     6
 78
     2
 67
     7
 79
     5
170
     0
171
     0
290
     0
174
     0
 93
        1
 44
50.0
173
     0
291
     1
 45
0.0
1001
ACAD
1000
AcDbSavedByObjectVersion
1070
     0
  0
VISUALSTYLE
  5
3B2
102
{ACAD_REACTORS
330
3A2
102
}
330
3A2
100
AcDbVisualStyle
  2
ColorChange
 70
    16
 71
     2
 72
     2
 73
     3
 90
        0
 40
-0.6
 41
-30.0
 62
     5
 63
     8
 74
     1
 91
        4
 64
     7
 65
   257
 75
     1
175
     1
 42
1.0
 92
        8
 66
     8
 43
1.0
 76
     1
 77
     6
 78
     2
 67
     7
 79
     5
170
     0
171
     0
290
     0
174
     0
 93
        1
 44
0.0
173
     0
291
     1
 45
0.0
1001
ACAD
1000
AcDbSavedByObjectVersion
1070
     0
  0
VISUALSTYLE
  5
3AB
102
{ACAD_REACTORS
330
3A2
102
}
330
3A2
100
AcDbVisualStyle
  2
Conceptual
 70
     9
 71
     3
 72
     2
 73
     0
 90
        0
 40
-0.6
 41
-30.0
 62
     5
 63
     7
 74
     2
 91
        2
 64
     7
 65
   257
 75
     1
175
     1
 42
40.0
 92
        8
 66
     7
 43
1.0
 76
     1
 77
     6
 78
     2
 67
     7
 79
     3
170
     0
171
     0
290
     0
174
     0
 93
        1
 44
0.0
173
     0
291
     0
 45
0.0
1001
ACAD
1000
AcDbSavedByObjectVersion
1070
     0
  0
VISUALSTYLE
  5
3AD
102
{ACAD_REACTORS
330
3A2
102
}
330
3A2
100
AcDbVisualStyle
  2
Dim
 70
    11
 71
     2
 72
     2
 73
     0
 90
        0
 40
-0.6
 41
-30.0
 62
     5
 63
     7
 74
     1
 91
        4
 64
     7
 65
   257
 75
     1
175
     1
 42
1.0
 92
        8
 66
     7
 43
1.0
 76
     1
 77
     6
 78
     2
 67
     7
 79
     5
170
     0
171
     0
290
     0
174
     0
 93
        1
 44
-50.0
173
     0
291
     1
 45
0.0
1001
ACAD
1000
AcDbSavedByObjectVersion
1070
     0
  0
VISUALSTYLE
  5
3B1
102
{ACAD_REACTORS
330
3A2
102
}
330
3A2
100
AcDbVisualStyle
  2
Facepattern
 70
    15
 71
     2
 72
     2
 73
     0
 90
        0
 40
-0.6
 41
-30.0
 62
     5
 63
     7
 74
     1
 91
        4
 64
     7
 65
   257
 75
     1
175
     1
 42
1.0
 92
        8
 66
     7
 43
1.0
 76
     1
 77
     6
 78
     2
 67
     7
 79
     5
170
     0
171
     0
290
     0
174
     0
 93
        1
 44
0.0
173
     0
291
     1
 45
0.0
1001
ACAD
1000
AcDbSavedByObjectVersion
1070
     0
  0
VISUALSTYLE
  5
3A3
102
{ACAD_REACTORS
330
3A2
102
}
330
3A2
100
AcDbVisualStyle
  2
Flat
 70
     0
 71
     2
 72
     1
 73
     1
 90
        2
 40
-0.6
 41
30.0
 62
     5
 63
     7
 74
     0
 91
        4
 64
     7
 65
   257
 75
     1
175
     1
 42
1.0
 92
        8
 66
     7
 43
1.0
 76
     1
 77
     6
 78
     2
 67
     7
 79
     5
170
     0
171
     0
290
     0
174
     0
 93
       13
 44
0.0
173
     0
291
     1
 45
0.0
1001
ACAD
1000
AcDbSavedByObjectVersion
1070
     0
  0
VISUALSTYLE
  5
3A4
102
{ACAD_REACTORS
330
3A2
102
}
330
3A2
100
AcDbVisualStyle
  2
FlatWithEdges
 70
     1
 71
     2
 72
     1
 73
     1
 90
        2
 40
-0.6
 41
30.0
 62
     5
 63
     7
 74
     1
 91
        4
 64
     7
 65
   257
 75
     1
175
     1
 42
1.0
 92
        0
 66
   257
 43
1.0
 76
     1
 77
     6
 78
     2
 67
     7
 79
     5
170
     0
171
     0
290
     0
174
     0
 93
       13
 44
0.0
173
     0
291
     1
 45
0.0
1001
ACAD
1000
AcDbSavedByObjectVersion
1070
     0
  0
VISUALSTYLE
  5
3A5
102
{ACAD_REACTORS
330
3A2
102
}
330
3A2
100
AcDbVisualStyle
  2
Gouraud
 70
     2
 71
     2
 72
     2
 73
     1
 90
        2
 40
-0.6
 41
30.0
 62
     5
 63
     7
 74
     0
 91
        4
 64
     7
 65
   257
 75
     1
175
     1
 42
1.0
 92
        0
 66
     7
 43
1.0
 76
     1
 77
     6
 78
     2
 67
     7
 79
     5
170
     0
171
     0
290
     0
174
     0
 93
       13
 44
0.0
173
     0
291
     1
 45
0.0
1001
ACAD
1000
AcDbSavedByObjectVersion
1070
     0
  0
VISUALSTYLE
  5
3A6
102
{ACAD_REACTORS
330
3A2
102
}
330
3A2
100
AcDbVisualStyle
  2
GouraudWithEdges
 70
     3
 71
     2
 72
     2
 73
     1
 90
        2
 40
-0.6
 41
30.0
 62
     5
 63
     7
 74
     1
 91
        4
 64
     7
 65
   257
 75
     1
175
     1
 42
1.0
 92
        0
 66
   257
 43
1.0
 76
     1
 77
     6
 78
     2
 67
     7
 79
     5
170
     0
171
     0
290
     0
174
     0
 93
       13
 44
0.0
173
     0
291
     1
 45
0.0
1001
ACAD
1000
AcDbSavedByObjectVersion
1070
     0
  0
VISUALSTYLE
  5
3B0
102
{ACAD_REACTORS
330
3A2
102
}
330
3A2
100
AcDbVisualStyle
  2
Linepattern
 70
    14
 71
     2
 72
     2
 73
     0
 90
        0
 40
-0.6
 41
-30.0
 62
     5
 63
     7
 74
     1
 91
        4
 64
     7
 65
   257
 75
     7
175
     7
 42
1.0
 92
        8
 66
     7
 43
1.0
 76
     1
 77
     6
 78
     2
 67
     7
 79
     5
170
     0
171
     0
290
     0
174
     0
 93
        1
 44
0.0
173
     0
291
     1
 45
0.0
1001
ACAD
1000
AcDbSavedByObjectVersion
1070
     0
  0
VISUALSTYLE
  5
3AC
102
{ACAD_REACTORS
330
3A2
102
}
330
3A2
100
AcDbVisualStyle
  2
Realistic
 70
     8
 71
     2
 72
     2
 73
     0
 90
        0
 40
-0.6
 41
-30.0
 62
     5
 63
     7
 74
     1
 91
        0
 64
     7
 65
   257
 75
     1
175
     1
 42
1.0
 92
        8
 66
     8
 43
1.0
 76
     1
 77
     6
 78
     2
 67
     7
 79
     5
170
     0
171
     0
290
     0
174
     0
 93
       13
 44
0.0
173
     0
291
     0
 45
0.0
1001
ACAD
1000
AcDbSavedByObjectVersion
1070
     0
  0
VISUALSTYLE
  5
3AF
102
{ACAD_REACTORS
330
3A2
102
}
330
3A2
100
AcDbVisualStyle
  2
Thicken
 70
    13
 71
     2
 72
     2
 73
     0
 90
        0
 40
-0.6
 41
-30.0
 62
     5
 63
     7
 74
     1
 91
        4
 64
     7
 65
   257
 75
     1
175
     1
 42
1.0
 92
       12
 66
     7
 43
1.0
 76
     1
 77
     6
 78
     2
 67
     7
 79
     5
170
     0
171
     0
290
     0
174
     0
 93
        1
 44
0.0
173
     0
291
     1
 45
0.0
1001
ACAD
1000
AcDbSavedByObjectVersion
1070
     0
  0
DICTIONARYVAR
  5
405
102
{ACAD_REACTORS
330
25E
102
}
330
25E
100
DictionaryVariables
280
     0
  1
STANDARD
  0
DICTIONARYVAR
  5
25F
102
{ACAD_REACTORS
330
25E
102
}
330
25E
100
DictionaryVariables
280
     0
  1
1
  0
DICTIONARYVAR
  5
407
102
{ACAD_REACTORS
330
25E
102
}
330
25E
100
DictionaryVariables
280
     0
  1
0
  0
DICTIONARYVAR
  5
406
102
{ACAD_REACTORS
330
25E
102
}
330
25E
100
DictionaryVariables
280
     0
  1
127
  0
XRECORD
  5
3E8
102
{ACAD_REACTORS
330
3E6
102
}
330
3E6
100
AcDbXrecord
280
     1
  0
DICTIONARY
  5
40B
330
200
100
AcDbDictionary
280
     1
281
     1
  3
ACAD_XREC_ROUNDTRIP
360
40C
  0
DICTIONARY
  5
409
330
1FF
100
AcDbDictionary
280
     1
281
     1
  3
ACAD_XREC_ROUNDTRIP
360
40A
  0
DICTIONARY
  5
40F
330
3A0
100
AcDbDictionary
280
     1
281
     1
  3
ACAD_XREC_ROUNDTRIP
360
410
  0
DICTIONARY
  5
40D
330
39F
100
AcDbDictionary
280
     1
281
     1
  3
ACAD_XREC_ROUNDTRIP
360
40E
  0
DICTIONARY
  5
411
330
3A1
100
AcDbDictionary
280
     1
281
     1
  3
ACAD_XREC_ROUNDTRIP
360
412
  0
DICTIONARY
  5
413
330
3B5
100
AcDbDictionary
280
     1
281
     1
  3
ACAD_XREC_ROUNDTRIP
360
414
  0
XRECORD
  5
40C
102
{ACAD_REACTORS
330
40B
102
}
330
40B
100
AcDbXrecord
280
     1
102
SHADEPLOT
 70
     0
102
SHADEPLOTRESLEVEL
 70
     2
102
SHADEPLOTCUSTOMDPI
 70
   300
  0
XRECORD
  5
40A
102
{ACAD_REACTORS
330
409
102
}
330
409
100
AcDbXrecord
280
     1
102
SHADEPLOT
 70
     0
102
SHADEPLOTRESLEVEL
 70
     2
102
SHADEPLOTCUSTOMDPI
 70
   300
  0
XRECORD
  5
410
102
{ACAD_REACTORS
330
40F
102
}
330
40F
100
AcDbXrecord
280
     1
102
MATERIAL
148
0.0
149
0.0
149
0.0
 93
        0
 94
       63
282
     0
 72
     1
 77
     1
171
     1
175
     1
179
     1
273
     0
  0
XRECORD
  5
40E
102
{ACAD_REACTORS
330
40D
102
}
330
40D
100
AcDbXrecord
280
     1
102
MATERIAL
148
0.0
149
0.0
149
0.0
 93
        0
 94
       63
282
     0
 72
     1
 77
     1
171
     1
175
     1
179
     1
273
     0
  0
XRECORD
  5
412
102
{ACAD_REACTORS
330
411
102
}
330
411
100
AcDbXrecord
280
     1
102
MATERIAL
148
0.0
149
0.0
149
0.0
 93
        0
 94
       63
282
     0
 72
     1
 77
     1
171
     1
175
     1
179
     1
273
     0
  0
XRECORD
  5
414
102
{ACAD_REACTORS
330
413
102
}
330
413
100
AcDbXrecord
280
     1
102
ACAD_ROUNDTRIP_PRE2007_TABLESTYLE
 90
      512
 91
        0
  1

 92
      512
 93
        0
  2

 94
      512
 95
        0
  3

  0
ENDSEC
  0
EOF
