  0
SECTION
  2
HEADER
  9
$ACADVER
  1
AC1015
  9
$ACADMAINTVER
 70
    20
  9
$DWGCODEPAGE
  3
ANSI_1252
  9
$INSBASE
 10
20.17720063525795
 20
3.447602616499355
 30
0.0
  9
$EXTMIN
 10
-12.52812189202719
 20
0.8069358517404907
 30
0.0
  9
$EXTMAX
 10
52.36412316254308
 20
40.35385261649935
 30
0.0
  9
$LIMMIN
 10
0.0
 20
0.0
  9
$LIMMAX
 10
36.0
 20
36.0
  9
$ORTHOMODE
 70
     0
  9
$REGENMODE
 70
     1
  9
$FILLMODE
 70
     1
  9
$QTEXTMODE
 70
     0
  9
$MIRRTEXT
 70
     1
  9
$LTSCALE
 40
1.0
  9
$ATTMODE
 70
     1
  9
$TEXTSIZE
 40
0.2
  9
$TRACEWID
 40
0.05
  9
$TEXTSTYLE
  7
STANDARD
  9
$CLAYER
  8
ADPDIM
  9
$CELTYPE
  6
BYLAYER
  9
$CECOLOR
 62
   256
  9
$CELTSCALE
 40
1.0
  9
$DISPSILH
 70
     0
  9
$DIMSCALE
 40
1.0
  9
$DIMASZ
 40
0.125
  9
$DIMEXO
 40
0.0625
  9
$DIMDLI
 40
0.38
  9
$DIMRND
 40
0.0
  9
$DIMDLE
 40
0.0
  9
$DIMEXE
 40
0.18
  9
$DIMTP
 40
0.0
  9
$DIMTM
 40
0.0
  9
$DIMTXT
 40
0.125
  9
$DIMCEN
 40
0.1875
  9
$DIMTSZ
 40
0.125
  9
$DIMTOL
 70
     0
  9
$DIMLIM
 70
     0
  9
$DIMTIH
 70
     0
  9
$DIMTOH
 70
     0
  9
$DIMSE1
 70
     0
  9
$DIMSE2
 70
     0
  9
$DIMTAD
 70
     0
  9
$DIMZIN
 70
     3
  9
$DIMBLK
  1

  9
$DIMASO
 70
     1
  9
$DIMSHO
 70
     1
  9
$DIMPOST
  1

  9
$DIMAPOST
  1

  9
$DIMALT
 70
     0
  9
$DIMALTD
 70
     1
  9
$DIMALTF
 40
25.4
  9
$DIMLFAC
 40
1.0
  9
$DIMTOFL
 70
     0
  9
$DIMTVP
 40
0.0
  9
$DIMTIX
 70
     0
  9
$DIMSOXD
 70
     0
  9
$DIMSAH
 70
     0
  9
$DIMBLK1
  1

  9
$DIMBLK2
  1

  9
$DIMSTYLE
  2
STANDARD
  9
$DIMCLRD
 70
     0
  9
$DIMCLRE
 70
     0
  9
$DIMCLRT
 70
     0
  9
$DIMTFAC
 40
1.0
  9
$DIMGAP
 40
0.125
  9
$DIMJUST
 70
     0
  9
$DIMSD1
 70
     0
  9
$DIMSD2
 70
     0
  9
$DIMTOLJ
 70
     1
  9
$DIMTZIN
 70
     3
  9
$DIMALTZ
 70
     3
  9
$DIMALTTZ
 70
     3
  9
$DIMUPT
 70
     0
  9
$DIMDEC
 70
     4
  9
$DIMTDEC
 70
     4
  9
$DIMALTU
 70
     5
  9
$DIMALTTD
 70
     1
  9
$DIMTXSTY
  7
STANDARD
  9
$DIMAUNIT
 70
     0
  9
$DIMADEC
 70
     0
  9
$DIMALTRND
 40
0.0
  9
$DIMAZIN
 70
     0
  9
$DIMDSEP
 70
    46
  9
$DIMATFIT
 70
     3
  9
$DIMFRAC
 70
     0
  9
$DIMLDRBLK
  1

  9
$DIMLUNIT
 70
     5
  9
$DIMLWD
 70
    -2
  9
$DIMLWE
 70
    -2
  9
$DIMTMOVE
 70
     2
  9
$LUNITS
 70
     5
  9
$LUPREC
 70
     4
  9
$SKETCHINC
 40
0.1
  9
$FILLETRAD
 40
0.062
  9
$AUNITS
 70
     0
  9
$AUPREC
 70
     0
  9
$MENU
  1
acad
  9
$ELEVATION
 40
0.0
  9
$PELEVATION
 40
0.0
  9
$THICKNESS
 40
0.0
  9
$LIMCHECK
 70
     0
  9
$CHAMFERA
 40
0.0
  9
$CHAMFERB
 40
0.0
  9
$CHAMFERC
 40
0.0
  9
$CHAMFERD
 40
0.0
  9
$SKPOLY
 70
     0
  9
$TDCREATE
 40
2450374.475907407
  9
$TDUCREATE
 40
2450374.642574074
  9
$TDUPDATE
 40
2453942.996616933
  9
$TDUUPDATE
 40
2453943.163283600
  9
$TDINDWG
 40
0.0148301042
  9
$TDUSRTIMER
 40
0.0148301042
  9
$USRTIMER
 70
     1
  9
$ANGBASE
 50
0.0
  9
$ANGDIR
 70
     0
  9
$PDMODE
 70
     0
  9
$PDSIZE
 40
0.0
  9
$PLINEWID
 40
0.0
  9
$SPLFRAME
 70
     0
  9
$SPLINETYPE
 70
     6
  9
$SPLINESEGS
 70
     8
  9
$HANDSEED
  5
2C3
  9
$SURFTAB1
 70
     6
  9
$SURFTAB2
 70
     6
  9
$SURFTYPE
 70
     6
  9
$SURFU
 70
     6
  9
$SURFV
 70
     6
  9
$UCSBASE
  2

  9
$UCSNAME
  2

  9
$UCSORG
 10
0.0
 20
0.0
 30
0.0
  9
$UCSXDIR
 10
1.0
 20
0.0
 30
0.0
  9
$UCSYDIR
 10
0.0
 20
1.0
 30
0.0
  9
$UCSORTHOREF
  2

  9
$UCSORTHOVIEW
 70
     0
  9
$UCSORGTOP
 10
0.0
 20
0.0
 30
0.0
  9
$UCSORGBOTTOM
 10
0.0
 20
0.0
 30
0.0
  9
$UCSORGLEFT
 10
0.0
 20
0.0
 30
0.0
  9
$UCSORGRIGHT
 10
0.0
 20
0.0
 30
0.0
  9
$UCSORGFRONT
 10
0.0
 20
0.0
 30
0.0
  9
$UCSORGBACK
 10
0.0
 20
0.0
 30
0.0
  9
$PUCSBASE
  2

  9
$PUCSNAME
  2

  9
$PUCSORG
 10
0.0
 20
0.0
 30
0.0
  9
$PUCSXDIR
 10
1.0
 20
0.0
 30
0.0
  9
$PUCSYDIR
 10
0.0
 20
1.0
 30
0.0
  9
$PUCSORTHOREF
  2

  9
$PUCSORTHOVIEW
 70
     0
  9
$PUCSORGTOP
 10
0.0
 20
0.0
 30
0.0
  9
$PUCSORGBOTTOM
 10
0.0
 20
0.0
 30
0.0
  9
$PUCSORGLEFT
 10
0.0
 20
0.0
 30
0.0
  9
$PUCSORGRIGHT
 10
0.0
 20
0.0
 30
0.0
  9
$PUCSORGFRONT
 10
0.0
 20
0.0
 30
0.0
  9
$PUCSORGBACK
 10
0.0
 20
0.0
 30
0.0
  9
$USERI1
 70
     0
  9
$USERI2
 70
     0
  9
$USERI3
 70
     0
  9
$USERI4
 70
     0
  9
$USERI5
 70
     0
  9
$USERR1
 40
0.0
  9
$USERR2
 40
0.0
  9
$USERR3
 40
0.0
  9
$USERR4
 40
0.0
  9
$USERR5
 40
0.0
  9
$WORLDVIEW
 70
     1
  9
$SHADEDGE
 70
     3
  9
$SHADEDIF
 70
    70
  9
$TILEMODE
 70
     1
  9
$MAXACTVP
 70
    15
  9
$PINSBASE
 10
0.0
 20
0.0
 30
0.0
  9
$PLIMCHECK
 70
     0
  9
$PEXTMIN
 10
1.000000000000000E+20
 20
1.000000000000000E+20
 30
1.000000000000000E+20
  9
$PEXTMAX
 10
-1.000000000000000E+20
 20
-1.000000000000000E+20
 30
-1.000000000000000E+20
  9
$PLIMMIN
 10
0.0
 20
0.0
  9
$PLIMMAX
 10
12.0
 20
9.0
  9
$UNITMODE
 70
     0
  9
$VISRETAIN
 70
     0
  9
$PLINEGEN
 70
     0
  9
$PSLTSCALE
 70
     1
  9
$TREEDEPTH
 70
  3020
  9
$CMLSTYLE
  2
STANDARD
  9
$CMLJUST
 70
     0
  9
$CMLSCALE
 40
1.0
  9
$PROXYGRAPHICS
 70
     1
  9
$MEASUREMENT
 70
     0
  9
$CELWEIGHT
370
    -1
  9
$ENDCAPS
280
     0
  9
$JOINSTYLE
280
     0
  9
$LWDISPLAY
290
     0
  9
$INSUNITS
 70
     0
  9
$HYPERLINKBASE
  1

  9
$STYLESHEET
  1

  9
$XEDIT
290
     1
  9
$CEPSNTYPE
380
     0
  9
$PSTYLEMODE
290
     1
  9
$FINGERPRINTGUID
  2
{0B96188F-BD8A-4B31-823D-0C3CFC2861DC}
  9
$VERSIONGUID
  2
{FC83776C-3C8E-4963-9489-31C6171FD585}
  9
$EXTNAMES
290
     1
  9
$PSVPSCALE
 40
0.0
  9
$OLESTARTUP
290
     0
  0
ENDSEC
  0
SECTION
  2
CLASSES
  0
CLASS
  1
DICTIONARYVAR
  2
AcDbDictionaryVar
  3
ObjectDBX Classes
 90
        0
280
     0
281
     0
  0
CLASS
  1
ACDBDICTIONARYWDFLT
  2
AcDbDictionaryWithDefault
  3
ObjectDBX Classes
 90
        0
280
     0
281
     0
  0
CLASS
  1
ACDBPLACEHOLDER
  2
AcDbPlaceHolder
  3
ObjectDBX Classes
 90
        0
280
     0
281
     0
  0
CLASS
  1
LAYOUT
  2
AcDbLayout
  3
ObjectDBX Classes
 90
        0
280
     0
281
     0
  0
CLASS
  1
MATERIAL
  2
AcDbMaterial
  3
ObjectDBX Classes
 90
     1024
280
     0
281
     0
  0
CLASS
  1
VISUALSTYLE
  2
AcDbVisualStyle
  3
ObjectDBX Classes
 90
     4095
280
     0
281
     0
  0
CLASS
  1
TABLESTYLE
  2
AcDbTableStyle
  3
ObjectDBX Classes
 90
     4095
280
     0
281
     0
  0
ENDSEC
  0
SECTION
  2
TABLES
  0
TABLE
  2
VPORT
  5
8
330
0
100
AcDbSymbolTable
 70
     1
  0
VPORT
  5
174
330
8
100
AcDbSymbolTableRecord
100
AcDbViewportTableRecord
  2
*Active
 70
     0
 10
0.0
 20
0.0
 11
1.0
 21
1.0
 12
19.1449981583401
 22
21.97814235605832
 13
0.0
 23
0.0
 14
0.5740882589684922
 24
0.5740882589684922
 15
0.5
 25
0.5
 16
0.0
 26
0.0
 36
1.0
 17
0.0
 27
0.0
 37
0.0
 40
8.980595042895634
 41
2.023012552301255
 42
50.0
 43
0.0
 44
0.0
 50
0.0
 51
0.0
 71
     0
 72
   100
 73
     1
 74
     0
 75
     0
 76
     0
 77
     0
 78
     0
281
     0
 65
     1
110
0.0
120
0.0
130
0.0
111
1.0
121
0.0
131
0.0
112
0.0
122
1.0
132
0.0
 79
     0
146
0.0
  0
ENDTAB
  0
TABLE
  2
LTYPE
  5
5
330
0
100
AcDbSymbolTable
 70
     2
  0
LTYPE
  5
11
330
5
100
AcDbSymbolTableRecord
100
AcDbLinetypeTableRecord
  2
BYBLOCK
 70
     0
  3

 72
    65
 73
     0
 40
0.0
  0
LTYPE
  5
12
330
5
100
AcDbSymbolTableRecord
100
AcDbLinetypeTableRecord
  2
BYLAYER
 70
     0
  3

 72
    65
 73
     0
 40
0.0
  0
LTYPE
  5
13
330
5
100
AcDbSymbolTableRecord
100
AcDbLinetypeTableRecord
  2
CONTINUOUS
 70
     0
  3
Solid line
 72
    65
 73
     0
 40
0.0
  0
ENDTAB
  0
TABLE
  2
LAYER
  5
2
330
0
100
AcDbSymbolTable
 70
     4
  0
LAYER
  5
E
330
2
100
AcDbSymbolTableRecord
100
AcDbLayerTableRecord
  2
0
 70
     0
 62
     7
  6
CONTINUOUS
370
    -3
390
B5
  0
LAYER
  5
1F
330
2
100
AcDbSymbolTableRecord
100
AcDbLayerTableRecord
  2
ADPDIM
 70
     0
 62
     3
  6
CONTINUOUS
370
    -3
390
B5
  0
LAYER
  5
20
330
2
100
AcDbSymbolTableRecord
100
AcDbLayerTableRecord
  2
ADP1DETAIL
 70
     0
 62
     7
  6
CONTINUOUS
370
    -3
390
B5
  0
LAYER
  5
21
330
2
100
AcDbSymbolTableRecord
100
AcDbLayerTableRecord
  2
DEFPOINTS
 70
     0
 62
     7
  6
CONTINUOUS
290
     0
370
    -3
390
B5
  0
ENDTAB
  0
TABLE
  2
STYLE
  5
3
330
0
100
AcDbSymbolTable
 70
     2
  0
STYLE
  5
F
330
3
100
AcDbSymbolTableRecord
100
AcDbTextStyleTableRecord
  2
STANDARD
 70
     0
 40
0.0
 41
1.0
 50
0.0
 71
     0
 42
0.2
  3
txt
  4

  0
STYLE
  5
AA
330
3
100
AcDbSymbolTableRecord
100
AcDbTextStyleTableRecord
  2
ARIAL_WIDE
 70
     0
 40
0.0
 41
1.25
 50
0.0
 71
     0
 42
0.2
  3
ARIAL.TTF
  4

1001
ACAD
1000
Arial
1071
       34
  0
ENDTAB
  0
TABLE
  2
VIEW
  5
6
330
0
100
AcDbSymbolTable
 70
     0
  0
ENDTAB
  0
TABLE
  2
UCS
  5
7
330
0
100
AcDbSymbolTable
 70
     0
  0
ENDTAB
  0
TABLE
  2
APPID
  5
9
330
0
100
AcDbSymbolTable
 70
     1
  0
APPID
  5
10
330
9
100
AcDbSymbolTableRecord
100
AcDbRegAppTableRecord
  2
ACAD
 70
     0
  0
ENDTAB
  0
TABLE
  2
DIMSTYLE
  5
A
330
0
100
AcDbSymbolTable
 70
     2
100
AcDbDimStyleTable
 71
     1
340
A8
  0
DIMSTYLE
105
A8
102
{ACAD_REACTORS
330
1BA
330
23F
102
}
330
A
100
AcDbSymbolTableRecord
100
AcDbDimStyleTableRecord
  2
STANDARD
 70
     0
340
F
  0
ENDTAB
  0
TABLE
  2
BLOCK_RECORD
  5
1
330
0
100
AcDbSymbolTable
 70
     7
  0
BLOCK_RECORD
  5
17
102
{ACAD_XDICTIONARY
360
E3
102
}
330
1
100
AcDbSymbolTableRecord
100
AcDbBlockTableRecord
  2
*MODEL_SPACE
340
B8
  0
BLOCK_RECORD
  5
14
102
{ACAD_XDICTIONARY
360
E1
102
}
330
1
100
AcDbSymbolTableRecord
100
AcDbBlockTableRecord
  2
*PAPER_SPACE
340
B9
  0
BLOCK_RECORD
  5
1C
330
1
100
AcDbSymbolTableRecord
100
AcDbBlockTableRecord
  2
*D0
340
0
  0
BLOCK_RECORD
  5
1D
330
1
100
AcDbSymbolTableRecord
100
AcDbBlockTableRecord
  2
*D1
340
0
  0
BLOCK_RECORD
  5
1BB
330
1
100
AcDbSymbolTableRecord
100
AcDbBlockTableRecord
  2
*D2
340
0
  0
BLOCK_RECORD
  5
22C
330
1
100
AcDbSymbolTableRecord
100
AcDbBlockTableRecord
  2
*D3
340
0
  0
BLOCK_RECORD
  5
240
330
1
100
AcDbSymbolTableRecord
100
AcDbBlockTableRecord
  2
*D5
340
0
  0
ENDTAB
  0
ENDSEC
  0
SECTION
  2
BLOCKS
  0
BLOCK
  5
24
330
17
100
AcDbEntity
  8
0
100
AcDbBlockBegin
  2
*MODEL_SPACE
 70
     0
 10
0.0
 20
0.0
 30
0.0
  3
*MODEL_SPACE
  1

  0
ENDBLK
  5
25
330
17
100
AcDbEntity
  8
0
100
AcDbBlockEnd
  0
BLOCK
  5
22
330
14
100
AcDbEntity
 67
     1
  8
0
100
AcDbBlockBegin
  2
*PAPER_SPACE
 70
     0
 10
0.0
 20
0.0
 30
0.0
  3
*PAPER_SPACE
  1

  0
ENDBLK
  5
23
330
14
100
AcDbEntity
 67
     1
  8
0
100
AcDbBlockEnd
  0
BLOCK
  5
28
330
1C
100
AcDbEntity
  8
0
100
AcDbBlockBegin
  2
*D0
 70
     1
 10
0.0
 20
0.0
 30
0.0
  3
*D0
  1

  0
LINE
  5
29
330
1C
100
AcDbEntity
  8
0
  6
ByBlock
 62
     0
100
AcDbLine
 10
19.65755855240123
 20
39.57007036477633
 30
0.0
 11
19.65755855240123
 21
40.03132036477633
 31
0.0
  0
LINE
  5
2A
330
1C
100
AcDbEntity
  8
0
  6
ByBlock
 62
     0
100
AcDbLine
 10
20.15755855240124
 20
39.57007036477633
 30
0.0
 11
20.15755855240124
 21
40.03132036477633
 31
0.0
  0
LINE
  5
2B
330
1C
100
AcDbEntity
  8
0
  6
ByBlock
 62
     0
100
AcDbLine
 10
19.65755855240123
 20
39.85132036477633
 30
0.0
 11
19.40755855240123
 21
39.85132036477633
 31
0.0
  0
LINE
  5
2C
330
1C
100
AcDbEntity
  8
0
  6
ByBlock
 62
     0
100
AcDbLine
 10
20.15755855240124
 20
39.85132036477633
 30
0.0
 11
20.40755855240123
 21
39.85132036477633
 31
0.0
  0
LINE
  5
2D
330
1C
100
AcDbEntity
  8
0
  6
ByBlock
 62
     0
100
AcDbLine
 10
19.53255855240123
 20
39.72632036477633
 30
0.0
 11
19.78255855240123
 21
39.97632036477633
 31
0.0
  0
LINE
  5
2E
330
1C
100
AcDbEntity
  8
0
  6
ByBlock
 62
     0
100
AcDbLine
 10
20.03255855240123
 20
39.72632036477633
 30
0.0
 11
20.28255855240123
 21
39.97632036477633
 31
0.0
  0
TEXT
  5
2F
330
1C
100
AcDbEntity
  8
0
  6
ByBlock
 62
     0
100
AcDbText
 10
20.53255855240124
 20
39.78882036477633
 30
0.0
 40
0.125
  1
1/2
 72
     1
 11
20.67839188573457
 21
39.85132036477633
 31
0.0
100
AcDbText
 73
     2
  0
POINT
  5
31
330
1C
100
AcDbEntity
  8
DEFPOINTS
  6
ByBlock
 62
     0
100
AcDbPoint
 10
19.65755855240123
 20
39.50757036477633
 30
0.0
  0
POINT
  5
32
330
1C
100
AcDbEntity
  8
DEFPOINTS
  6
ByBlock
 62
     0
100
AcDbPoint
 10
20.15755855240124
 20
39.50757036477633
 30
0.0
  0
POINT
  5
33
330
1C
100
AcDbEntity
  8
DEFPOINTS
  6
ByBlock
 62
     0
100
AcDbPoint
 10
20.15755855240124
 20
39.85132036477633
 30
0.0
  0
ENDBLK
  5
34
330
1C
100
AcDbEntity
  8
0
100
AcDbBlockEnd
  0
BLOCK
  5
35
330
1D
100
AcDbEntity
  8
0
100
AcDbBlockBegin
  2
*D1
 70
     1
 10
0.0
 20
0.0
 30
0.0
  3
*D1
  1

  0
LINE
  5
36
330
1D
100
AcDbEntity
  8
0
  6
ByBlock
 62
     0
100
AcDbLine
 10
19.59505855240123
 20
39.47632036477633
 30
0.0
 11
18.56162149902526
 21
39.47632036477633
 31
0.0
  0
LINE
  5
37
330
1D
100
AcDbEntity
  8
0
  6
ByBlock
 62
     0
100
AcDbLine
 10
19.59630063525794
 20
3.447602616499355
 30
0.0
 11
18.56162149902525
 21
3.447602616499355
 31
0.0
  0
LINE
  5
38
330
1D
100
AcDbEntity
  8
0
  6
ByBlock
 62
     0
100
AcDbLine
 10
18.74162149902526
 20
39.47632036477633
 30
0.0
 11
18.74162149902525
 21
21.69112815730451
 31
0.0
  0
LINE
  5
39
330
1D
100
AcDbEntity
  8
0
  6
ByBlock
 62
     0
100
AcDbLine
 10
18.74162149902525
 20
3.447602616499355
 30
0.0
 11
18.74162149902525
 21
21.23279482397117
 31
0.0
  0
LINE
  5
3A
330
1D
100
AcDbEntity
  8
0
  6
ByBlock
 62
     0
100
AcDbLine
 10
18.86662149902526
 20
39.35132036477633
 30
0.0
 11
18.61662149902526
 21
39.60132036477633
 31
0.0
  0
LINE
  5
3B
330
1D
100
AcDbEntity
  8
0
  6
ByBlock
 62
     0
100
AcDbLine
 10
18.86662149902525
 20
3.322602616499355
 30
0.0
 11
18.61662149902525
 21
3.572602616499355
 31
0.0
  0
TEXT
  5
3C
330
1D
100
AcDbEntity
  8
0
  6
ByBlock
 62
     0
100
AcDbText
 10
18.80412149902525
 20
21.35779482397118
 30
0.0
 40
0.125
  1
36
 50
90.0
 72
     1
 11
18.74162149902525
 21
21.46196149063785
 31
0.0
100
AcDbText
 73
     2
  0
POINT
  5
3D
330
1D
100
AcDbEntity
  8
DEFPOINTS
  6
ByBlock
 62
     0
100
AcDbPoint
 10
19.65755855240123
 20
39.47632036477633
 30
0.0
  0
POINT
  5
3E
330
1D
100
AcDbEntity
  8
DEFPOINTS
  6
ByBlock
 62
     0
100
AcDbPoint
 10
19.65880063525794
 20
3.447602616499355
 30
0.0
  0
POINT
  5
3F
330
1D
100
AcDbEntity
  8
DEFPOINTS
  6
ByBlock
 62
     0
100
AcDbPoint
 10
18.74162149902525
 20
3.447602616499355
 30
0.0
  0
ENDBLK
  5
40
330
1D
100
AcDbEntity
  8
0
100
AcDbBlockEnd
  0
BLOCK
  5
1C6
330
1BB
100
AcDbEntity
  8
0
100
AcDbBlockBegin
  2
*D2
 70
     1
 10
0.0
 20
0.0
 30
0.0
  3
*D2
  1

  0
LINE
  5
222
330
1BB
100
AcDbEntity
  8
ADPDIM
 62
     0
370
    -2
100
AcDbLine
 10
20.23845855240123
 20
39.47632036477633
 30
0.0
 11
21.20436482892634
 21
39.47632036477633
 31
0.0
  0
LINE
  5
223
330
1BB
100
AcDbEntity
  8
ADPDIM
 62
     0
370
    -2
100
AcDbLine
 10
20.59772726009638
 20
24.24037797642867
 30
0.0
 11
21.20436482892634
 21
24.24037797642867
 31
0.0
  0
LINE
  5
224
330
1BB
100
AcDbEntity
  8
ADPDIM
 62
     0
370
    -2
100
AcDbLine
 10
21.02436482892634
 20
39.47632036477633
 30
0.0
 11
21.02436482892634
 21
32.12918250393584
 31
0.0
  0
LINE
  5
225
330
1BB
100
AcDbEntity
  8
ADPDIM
 62
     0
370
    -2
100
AcDbLine
 10
21.02436482892634
 20
24.24037797642867
 30
0.0
 11
21.02436482892634
 21
31.58751583726917
 31
0.0
  0
LINE
  5
226
330
1BB
100
AcDbEntity
  8
ADPDIM
 62
     0
370
    -2
100
AcDbLine
 10
21.14936482892634
 20
24.11537797642868
 30
0.0
 11
20.89936482892634
 21
24.36537797642868
 31
0.0
  0
LINE
  5
227
330
1BB
100
AcDbEntity
  8
ADPDIM
 62
     0
370
    -2
100
AcDbLine
 10
21.14936482892634
 20
39.35132036477633
 30
0.0
 11
20.89936482892634
 21
39.60132036477633
 31
0.0
  0
MTEXT
  5
228
330
1BB
100
AcDbEntity
  8
ADPDIM
 62
     0
100
AcDbMText
 10
21.02436482892633
 20
31.85834917060251
 30
0.0
 40
0.125
 41
0.0
 71
     5
 72
     1
  1
\A1;15{\H1.000000x;\S1/4;}
 11
0.0000000000000001
 21
1.0
 31
0.0
 73
     1
 44
1.0
1001
ACAD
1000
MTEXTBEGIN
1070
    73
1070
     1
1070
    44
1040
1.0
1070
    74
1070
     0
1000
MTEXTEND
  0
POINT
  5
229
330
1BB
100
AcDbEntity
  8
DEFPOINTS
 62
     0
100
AcDbPoint
 10
20.17595855240124
 20
39.47632036477633
 30
0.0
  0
POINT
  5
22A
330
1BB
100
AcDbEntity
  8
DEFPOINTS
 62
     0
100
AcDbPoint
 10
20.53522726009638
 20
24.24037797642867
 30
0.0
  0
POINT
  5
22B
330
1BB
100
AcDbEntity
  8
DEFPOINTS
 62
     0
100
AcDbPoint
 10
21.02436482892634
 20
24.24037797642867
 30
0.0
  0
ENDBLK
  5
1C7
330
1BB
100
AcDbEntity
  8
0
100
AcDbBlockEnd
  0
BLOCK
  5
22D
330
22C
100
AcDbEntity
  8
0
100
AcDbBlockBegin
  2
*D3
 70
     1
 10
0.0
 20
0.0
 30
0.0
  3
*D3
  1

  0
LINE
  5
22E
330
22C
100
AcDbEntity
  8
ADPDIM
 62
     0
370
    -2
100
AcDbLine
 10
20.23845855240123
 20
39.47632036477633
 30
0.0
 11
21.20436482892634
 21
39.47632036477633
 31
0.0
  0
LINE
  5
22F
330
22C
100
AcDbEntity
  8
ADPDIM
 62
     0
370
    -2
100
AcDbLine
 10
20.59772726009638
 20
24.24037797642867
 30
0.0
 11
21.20436482892634
 21
24.24037797642867
 31
0.0
  0
LINE
  5
230
330
22C
100
AcDbEntity
  8
ADPDIM
 62
     0
370
    -2
100
AcDbLine
 10
21.02436482892634
 20
39.47632036477633
 30
0.0
 11
21.02436482892634
 21
32.12918250393584
 31
0.0
  0
LINE
  5
231
330
22C
100
AcDbEntity
  8
ADPDIM
 62
     0
370
    -2
100
AcDbLine
 10
21.02436482892634
 20
24.24037797642867
 30
0.0
 11
21.02436482892634
 21
31.58751583726917
 31
0.0
  0
LINE
  5
232
330
22C
100
AcDbEntity
  8
ADPDIM
 62
     0
370
    -2
100
AcDbLine
 10
21.14936482892634
 20
24.11537797642868
 30
0.0
 11
20.89936482892634
 21
24.36537797642868
 31
0.0
  0
LINE
  5
233
330
22C
100
AcDbEntity
  8
ADPDIM
 62
     0
370
    -2
100
AcDbLine
 10
21.14936482892634
 20
39.35132036477633
 30
0.0
 11
20.89936482892634
 21
39.60132036477633
 31
0.0
  0
MTEXT
  5
234
330
22C
100
AcDbEntity
  8
ADPDIM
 62
     0
100
AcDbMText
 10
21.02436482892633
 20
31.85834917060251
 30
0.0
 40
0.125
 41
0.0
 71
     5
 72
     1
  1
\A1;15{\H1.000000x;\S1/4;}
 11
0.0000000000000001
 21
1.0
 31
0.0
 73
     1
 44
1.0
1001
ACAD
1000
MTEXTBEGIN
1070
    73
1070
     1
1070
    44
1040
1.0
1070
    74
1070
     0
1000
MTEXTEND
  0
POINT
  5
235
330
22C
100
AcDbEntity
  8
DEFPOINTS
 62
     0
100
AcDbPoint
 10
20.17595855240124
 20
39.47632036477633
 30
0.0
  0
POINT
  5
236
330
22C
100
AcDbEntity
  8
DEFPOINTS
 62
     0
100
AcDbPoint
 10
20.53522726009638
 20
24.24037797642867
 30
0.0
  0
POINT
  5
237
330
22C
100
AcDbEntity
  8
DEFPOINTS
 62
     0
100
AcDbPoint
 10
21.02436482892634
 20
24.24037797642867
 30
0.0
  0
ENDBLK
  5
238
330
22C
100
AcDbEntity
  8
0
100
AcDbBlockEnd
  0
BLOCK
  5
24B
330
240
100
AcDbEntity
  8
0
100
AcDbBlockBegin
  2
*D5
 70
     1
 10
0.0
 20
0.0
 30
0.0
  3
*D5
  1

  0
LINE
  5
289
330
240
100
AcDbEntity
  8
ADPDIM
 62
     0
370
    -2
100
AcDbLine
 10
20.25880986672644
 20
18.68730524012607
 30
0.0
 11
21.22471614325155
 21
18.68730524012607
 31
0.0
  0
LINE
  5
28A
330
240
100
AcDbEntity
  8
ADPDIM
 62
     0
370
    -2
100
AcDbLine
 10
20.3191907462417
 20
3.451362851778416
 30
0.0
 11
21.22471614325155
 21
3.451362851778415
 31
0.0
  0
LINE
  5
28B
330
240
100
AcDbEntity
  8
ADPDIM
 62
     0
370
    -2
100
AcDbLine
 10
21.04471614325155
 20
18.68730524012607
 30
0.0
 11
21.04471614325155
 21
11.34016737928557
 31
0.0
  0
LINE
  5
28C
330
240
100
AcDbEntity
  8
ADPDIM
 62
     0
370
    -2
100
AcDbLine
 10
21.04471614325154
 20
3.451362851778415
 30
0.0
 11
21.04471614325155
 21
10.79850071261891
 31
0.0
  0
LINE
  5
28D
330
240
100
AcDbEntity
  8
ADPDIM
 62
     0
370
    -2
100
AcDbLine
 10
21.16971614325155
 20
3.326362851778415
 30
0.0
 11
20.91971614325155
 21
3.576362851778416
 31
0.0
  0
LINE
  5
28E
330
240
100
AcDbEntity
  8
ADPDIM
 62
     0
370
    -2
100
AcDbLine
 10
21.16971614325155
 20
18.56230524012607
 30
0.0
 11
20.91971614325155
 21
18.81230524012607
 31
0.0
  0
MTEXT
  5
28F
330
240
100
AcDbEntity
  8
ADPDIM
 62
     0
100
AcDbMText
 10
21.04471614325154
 20
11.06933404595224
 30
0.0
 40
0.125
 41
0.0
 71
     5
 72
     1
  1
\A1;15{\H1.000000x;\S1/4;}
 11
0.0000000000000001
 21
1.0
 31
0.0
 73
     1
 44
1.0
1001
ACAD
1000
MTEXTBEGIN
1070
    73
1070
     1
1070
    44
1040
1.0
1070
    74
1070
     0
1000
MTEXTEND
  0
POINT
  5
290
330
240
100
AcDbEntity
  8
DEFPOINTS
 62
     0
100
AcDbPoint
 10
20.19630986672644
 20
18.68730524012607
 30
0.0
  0
POINT
  5
291
330
240
100
AcDbEntity
  8
DEFPOINTS
 62
     0
100
AcDbPoint
 10
20.2566907462417
 20
3.451362851778416
 30
0.0
  0
POINT
  5
292
330
240
100
AcDbEntity
  8
DEFPOINTS
 62
     0
100
AcDbPoint
 10
21.04471614325154
 20
3.451362851778415
 30
0.0
  0
ENDBLK
  5
24C
330
240
100
AcDbEntity
  8
0
100
AcDbBlockEnd
  0
ENDSEC
  0
SECTION
  2
ENTITIES
  0
DIMENSION
  5
41
330
17
100
AcDbEntity
  8
ADPDIM
100
AcDbDimension
  2
*D1
 10
18.74162149902525
 20
3.447602616499355
 30
0.0
 11
18.74162149902525
 21
21.46196149063785
 31
0.0
 71
     5
 42
-1.0
100
AcDbAlignedDimension
 13
19.65755855240123
 23
39.47632036477633
 33
0.0
 14
19.65880063525794
 24
3.447602616499355
 34
0.0
 50
90.0
100
AcDbRotatedDimension
  0
LWPOLYLINE
  5
42
330
17
100
AcDbEntity
  8
0
100
AcDbPolyline
 90
        3
 70
     0
 43
0.0
 10
19.45817393701662
 20
20.14189699413014
 42
-0.0813438553681451
 10
19.61768162932431
 20
20.97931237874552
 42
0.4040935138455433
 10
19.55324268950492
 20
21.12457999310493
 42
-2.571299977418568
  0
LWPOLYLINE
  5
47
330
17
100
AcDbEntity
  8
0
100
AcDbPolyline
 90
        3
 70
     0
 43
0.0
 10
20.33546624470893
 20
20.14189699413014
 42
0.0813438553681467
 10
20.17595855240124
 20
20.97931237874552
 42
-0.4040935138455433
 10
20.24039749222062
 20
21.12457999310493
 42
2.571299977418568
  0
LINE
  5
4C
330
17
100
AcDbEntity
  8
0
 62
     7
100
AcDbLine
 10
19.65880063525794
 20
3.447602616499355
 30
0.0
 11
19.45941601987333
 21
17.61253723188397
 31
0.0
  0
LINE
  5
4D
330
17
100
AcDbEntity
  8
0
 62
     7
100
AcDbLine
 10
20.33670832756564
 20
17.61253723188397
 30
0.0
 11
20.17720063525795
 21
3.447602616499355
 31
0.0
  0
LINE
  5
4E
330
17
100
AcDbEntity
  8
0
 62
     7
100
AcDbLine
 10
20.17720063525795
 20
3.447602616499355
 30
0.0
 11
19.65880063525794
 21
3.447602616499355
 31
0.0
  0
LWPOLYLINE
  5
4F
330
17
100
AcDbEntity
  8
0
100
AcDbPolyline
 90
        3
 70
     0
 43
0.0
 10
19.45817393701662
 20
20.14189699413014
 42
0.0813438553681451
 10
19.61768162932431
 20
19.30448160951476
 42
-0.4040935138455433
 10
19.55324268950492
 20
19.15921399515535
 42
2.571299977418568
  0
ARC
  5
54
330
17
100
AcDbEntity
  8
0
100
AcDbCircle
 10
19.55217393701662
 20
18.68922007105321
 30
0.0
 40
0.094
100
AcDbArc
 50
89.34854972009121
 51
270.6514502799088
  0
ARC
  5
55
330
17
100
AcDbEntity
  8
0
100
AcDbCircle
 10
19.55217393701662
 20
18.87722007105321
 30
0.0
 40
0.094
100
AcDbArc
 50
270.0
 51
90.00000000000003
  0
LWPOLYLINE
  5
56
330
17
100
AcDbEntity
  8
0
100
AcDbPolyline
 90
        3
 70
     0
 43
0.0
 10
19.45941601987333
 20
17.61253723188397
 42
-0.0813438553681544
 10
19.61892371218102
 20
18.44995261649935
 42
0.4040935138455433
 10
19.55448477236163
 20
18.59522023085875
 42
-2.571299977418568
  0
ARC
  5
5B
330
17
100
AcDbEntity
  8
0
100
AcDbCircle
 10
19.55217393701662
 20
19.06522007105321
 30
0.0
 40
0.094
100
AcDbArc
 50
89.34854972009121
 51
270.6514502799088
  0
LINE
  5
5C
330
17
100
AcDbEntity
  8
0
 62
     7
100
AcDbLine
 10
19.45817393701662
 20
19.06522007105321
 30
0.0
 11
20.33546624470893
 21
19.06522007105321
 31
0.0
  0
LINE
  5
5D
330
17
100
AcDbEntity
  8
0
 62
     7
100
AcDbLine
 10
19.45817393701662
 20
18.68922007105321
 30
0.0
 11
20.33546624470893
 21
18.68922007105321
 31
0.0
  0
LINE
  5
5E
330
17
100
AcDbEntity
  8
0
 62
   250
100
AcDbLine
 10
19.45817393701662
 20
17.70375498016093
 30
0.0
 11
19.45817393701662
 21
17.70375498016093
 31
0.0
  0
LINE
  5
5F
330
17
100
AcDbEntity
  8
0
 62
   250
100
AcDbLine
 10
19.45817393701662
 20
17.70375498016093
 30
0.0
 11
19.45817393701662
 21
17.70375498016093
 31
0.0
  0
ARC
  5
60
330
17
100
AcDbEntity
  8
0
100
AcDbCircle
 10
20.24146624470893
 20
19.06522007105321
 30
0.0
 40
0.094
100
AcDbArc
 50
270.0
 51
89.89434995533278
  0
LWPOLYLINE
  5
61
330
17
100
AcDbEntity
  8
0
100
AcDbPolyline
 90
        3
 70
     0
 43
0.0
 10
20.33670832756564
 20
17.61253723188397
 42
0.08134385536815
 10
20.17720063525794
 20
18.44995261649935
 42
-0.4040935138455433
 10
20.24163957507733
 20
18.59522023085875
 42
2.571299977418568
  0
LINE
  5
66
330
17
100
AcDbEntity
  8
0
 62
   250
100
AcDbLine
 10
20.33546624470893
 20
17.70375498016093
 30
0.0
 11
20.33546624470893
 21
17.70375498016093
 31
0.0
  0
LINE
  5
67
330
17
100
AcDbEntity
  8
0
 62
   250
100
AcDbLine
 10
20.33546624470893
 20
17.70375498016093
 30
0.0
 11
20.33546624470893
 21
17.70375498016093
 31
0.0
  0
LINE
  5
68
330
17
100
AcDbEntity
  8
0
 62
   250
100
AcDbLine
 10
20.33546624470893
 20
17.70375498016093
 30
0.0
 11
20.33546624470893
 21
17.70375498016093
 31
0.0
  0
ARC
  5
69
330
17
100
AcDbEntity
  8
0
100
AcDbCircle
 10
20.24146624470893
 20
18.68922007105321
 30
0.0
 40
0.094
100
AcDbArc
 50
270.1056500446672
 51
90.00000000000003
  0
LINE
  5
6A
330
17
100
AcDbEntity
  8
0
 62
   250
100
AcDbLine
 10
20.33546624470893
 20
18.7063277633609
 30
0.0
 11
20.33546624470893
 21
18.7063277633609
 31
0.0
  0
ARC
  5
6B
330
17
100
AcDbEntity
  8
0
100
AcDbCircle
 10
20.24146624470893
 20
18.87722007105321
 30
0.0
 40
0.094
100
AcDbArc
 50
89.89434995533278
 51
270.1056500446672
  0
LWPOLYLINE
  5
6C
330
17
100
AcDbEntity
  8
0
100
AcDbPolyline
 90
        3
 70
     0
 43
0.0
 10
20.33546624470893
 20
20.14189699413014
 42
-0.0813438553681467
 10
20.17595855240124
 20
19.30448160951476
 42
0.4040935138455433
 10
20.24039749222062
 20
19.15921399515535
 42
-2.571299977418568
  0
LINE
  5
71
330
17
100
AcDbEntity
  8
0
 62
     7
100
AcDbLine
 10
19.65755855240123
 20
39.47632036477633
 30
0.0
 11
19.45817393701662
 21
25.20061651862248
 31
0.0
  0
LINE
  5
72
330
17
100
AcDbEntity
  8
0
 62
     7
100
AcDbLine
 10
20.33546624470893
 20
25.20061651862248
 30
0.0
 11
20.17595855240124
 21
39.47632036477633
 31
0.0
  0
ARC
  5
73
330
17
100
AcDbEntity
  8
0
100
AcDbCircle
 10
20.24146624470893
 20
23.99458823042563
 30
0.0
 40
0.094
100
AcDbArc
 50
89.89434995533278
 51
270.1056500446672
  0
ARC
  5
74
330
17
100
AcDbEntity
  8
0
100
AcDbCircle
 10
19.55217393701662
 20
23.99458823042563
 30
0.0
 40
0.094
100
AcDbArc
 50
270.0
 51
90.0
  0
ARC
  5
75
330
17
100
AcDbEntity
  8
0
100
AcDbCircle
 10
19.55217393701662
 20
23.80658823042562
 30
0.0
 40
0.094
100
AcDbArc
 50
89.34854972009118
 51
270.6514502799088
  0
LWPOLYLINE
  5
76
330
17
100
AcDbEntity
  8
0
100
AcDbPolyline
 90
        3
 70
     0
 43
0.0
 10
19.45941601987333
 20
22.72990539125638
 42
-0.0813438553681502
 10
19.61892371218102
 20
23.56732077587176
 42
0.4040935138455433
 10
19.55448477236163
 20
23.71258839023116
 42
-2.571299977418568
  0
ARC
  5
7B
330
17
100
AcDbEntity
  8
0
100
AcDbCircle
 10
19.55217393701662
 20
21.40657391720707
 30
0.0
 40
0.094
100
AcDbArc
 50
270.0
 51
90.00000000000003
  0
ARC
  5
7C
330
17
100
AcDbEntity
  8
0
100
AcDbCircle
 10
19.55217393701662
 20
21.21857391720706
 30
0.0
 40
0.094
100
AcDbArc
 50
89.34854972009121
 51
270.6514502799088
  0
ARC
  5
7D
330
17
100
AcDbEntity
  8
0
100
AcDbCircle
 10
19.55217393701662
 20
21.59457391720707
 30
0.0
 40
0.094
100
AcDbArc
 50
89.34854972009121
 51
270.6514502799088
  0
LWPOLYLINE
  5
7E
330
17
100
AcDbEntity
  8
0
100
AcDbPolyline
 90
        3
 70
     0
 43
0.0
 10
19.45941601987333
 20
22.72990539125638
 42
0.0878374800323452
 10
19.61892371218102
 20
21.83384137176093
 42
-0.4040935138455433
 10
19.55448477236163
 20
21.68857375740152
 42
2.571299977418568
  0
LINE
  5
83
330
17
100
AcDbEntity
  8
0
 62
     7
100
AcDbLine
 10
19.45817393701662
 20
23.80658823042562
 30
0.0
 11
20.33546624470893
 21
23.80658823042562
 31
0.0
  0
LINE
  5
84
330
17
100
AcDbEntity
  8
0
 62
     7
100
AcDbLine
 10
19.45817393701662
 20
21.21857391720706
 30
0.0
 11
20.33546624470893
 21
21.21857391720706
 31
0.0
  0
LINE
  5
85
330
17
100
AcDbEntity
  8
0
 62
     7
100
AcDbLine
 10
19.45817393701662
 20
21.59457391720707
 30
0.0
 11
20.33546624470893
 21
21.59457391720707
 31
0.0
  0
LWPOLYLINE
  5
86
330
17
100
AcDbEntity
  8
0
100
AcDbPolyline
 90
        3
 70
     0
 43
0.0
 10
20.33670832756564
 20
22.72990539125638
 42
-0.0878374800323414
 10
20.17720063525794
 20
21.83384137176093
 42
0.4040935138455433
 10
20.24163957507733
 20
21.68857375740152
 42
-2.571299977418568
  0
ARC
  5
8B
330
17
100
AcDbEntity
  8
0
100
AcDbCircle
 10
20.24146624470893
 20
21.40657391720707
 30
0.0
 40
0.094
100
AcDbArc
 50
89.89434995533278
 51
270.1056500446672
  0
ARC
  5
8C
330
17
100
AcDbEntity
  8
0
100
AcDbCircle
 10
20.24146624470893
 20
21.21857391720706
 30
0.0
 40
0.094
100
AcDbArc
 50
270.1056500446672
 51
90.00000000000003
  0
LINE
  5
8D
330
17
100
AcDbEntity
  8
0
 62
   250
100
AcDbLine
 10
20.33546624470893
 20
21.57746622489938
 30
0.0
 11
20.33546624470893
 21
21.57746622489938
 31
0.0
  0
ARC
  5
8E
330
17
100
AcDbEntity
  8
0
100
AcDbCircle
 10
20.24146624470893
 20
21.59457391720707
 30
0.0
 40
0.094
100
AcDbArc
 50
270.0
 51
89.89434995533278
  0
LWPOLYLINE
  5
8F
330
17
100
AcDbEntity
  8
0
100
AcDbPolyline
 90
        3
 70
     0
 43
0.0
 10
20.33670832756564
 20
22.72990539125638
 42
0.0813438553681502
 10
20.17720063525794
 20
23.56732077587176
 42
-0.4040935138455433
 10
20.24163957507733
 20
23.71258839023116
 42
2.571299977418568
  0
LINE
  5
94
330
17
100
AcDbEntity
  8
0
 62
   250
100
AcDbLine
 10
20.33546624470893
 20
23.82369592273331
 30
0.0
 11
20.33546624470893
 21
23.82369592273331
 31
0.0
  0
ARC
  5
95
330
17
100
AcDbEntity
  8
0
100
AcDbCircle
 10
20.24146624470893
 20
23.80658823042562
 30
0.0
 40
0.094
100
AcDbArc
 50
270.1056500446672
 51
90.0
  0
ARC
  5
96
330
17
100
AcDbEntity
  8
0
100
AcDbCircle
 10
19.55217393701662
 20
24.18258823042563
 30
0.0
 40
0.094
100
AcDbArc
 50
89.34854972009119
 51
270.6514502799088
  0
LINE
  5
97
330
17
100
AcDbEntity
  8
0
 62
     7
100
AcDbLine
 10
19.45817393701662
 20
24.18258823042563
 30
0.0
 11
20.33546624470893
 21
24.18258823042563
 31
0.0
  0
LWPOLYLINE
  5
98
330
17
100
AcDbEntity
  8
0
100
AcDbPolyline
 90
        3
 70
     0
 43
0.0
 10
19.45817393701662
 20
25.25926515350255
 42
0.0813438553681502
 10
19.61768162932431
 20
24.42184976888717
 42
-0.4040935138455433
 10
19.55324268950492
 20
24.27658215452777
 42
2.571299977418568
  0
LINE
  5
9D
330
17
100
AcDbEntity
  8
0
 62
   250
100
AcDbLine
 10
19.45817393701662
 20
25.20061651862248
 30
0.0
 11
19.45817393701662
 21
25.20061651862248
 31
0.0
  0
LWPOLYLINE
  5
9E
330
17
100
AcDbEntity
  8
0
100
AcDbPolyline
 90
        3
 70
     0
 43
0.0
 10
20.33546624470893
 20
25.25926515350255
 42
-0.0813438553681502
 10
20.17595855240124
 20
24.42184976888717
 42
0.4040935138455433
 10
20.24039749222062
 20
24.27658215452777
 42
-2.571299977418568
  0
ARC
  5
A3
330
17
100
AcDbEntity
  8
0
100
AcDbCircle
 10
20.24146624470893
 20
24.18258823042563
 30
0.0
 40
0.094
100
AcDbArc
 50
270.0
 51
89.89434995533278
  0
LINE
  5
A4
330
17
100
AcDbEntity
  8
0
 62
   250
100
AcDbLine
 10
20.33546624470893
 20
25.20061651862248
 30
0.0
 11
20.33546624470893
 21
25.20061651862248
 31
0.0
  0
CIRCLE
  5
A5
330
17
100
AcDbEntity
  8
ADP1DETAIL
100
AcDbCircle
 10
19.90880063525794
 20
40.10385261649935
 30
0.0
 40
0.25
  0
DIMENSION
  5
A6
330
17
100
AcDbEntity
  8
ADPDIM
100
AcDbDimension
  2
*D0
 10
20.15755855240124
 20
39.82007036477633
 30
0.0
 11
20.67839188573457
 21
39.85132036477633
 31
0.0
 12
0.0
 22
-0.03125
 32
0.0
 71
     5
 42
-1.0
100
AcDbAlignedDimension
 13
19.65755855240123
 23
39.47632036477633
 33
0.0
 14
20.15755855240124
 24
39.47632036477633
 34
0.0
100
AcDbRotatedDimension
  0
LINE
  5
A7
330
17
100
AcDbEntity
  8
0
 62
     7
100
AcDbLine
 10
20.17595855240124
 20
39.47632036477633
 30
0.0
 11
19.65755855240123
 21
39.47632036477633
 31
0.0
  0
TEXT
  5
B1
330
17
100
AcDbEntity
  8
ADPDIM
100
AcDbText
 10
-12.52812189202719
 20
0.9919631368700951
 30
0.0
 40
0.625
  1
J U L I U S  B L U M  &  C O . ,  I N C .      ( 8 0 0 )  5 2 6 - 6 2 9 3        W W W . J U L I U S B L U M . C O M        P A R T  N O .  1 2 4 
 41
1.25
  7
ARIAL_WIDE
 72
     1
 11
19.91800063525794
 21
1.616963136870095
 31
0.0
100
AcDbText
 73
     3
  0
DIMENSION
  5
1BA
330
17
100
AcDbEntity
  8
ADPDIM
100
AcDbDimension
  2
*D2
 10
21.02436482892634
 20
24.24037797642867
 30
0.0
 11
21.02436482892633
 21
31.85834917060251
 31
0.0
 70
    32
 71
     5
 42
15.23594238834765
  3
STANDARD
100
AcDbAlignedDimension
 13
20.17595855240124
 23
39.47632036477633
 33
0.0
 14
20.53522726009638
 24
24.24037797642867
 34
0.0
 50
90.0
100
AcDbRotatedDimension
1001
ACAD
1000
DSTYLE
1002
{
1070
    41
1040
0.125
1070
    73
1070
     0
1070
    74
1070
     0
1070
    78
1070
     3
1070
   140
1040
0.125
1070
   141
1040
0.1875
1070
   142
1040
0.125
1070
   147
1040
0.125
1070
   171
1070
     1
1070
   273
1070
     5
1070
   274
1070
     1
1070
   277
1070
     5
1070
   279
1070
     2
1070
   284
1070
     3
1070
   285
1070
     3
1070
   286
1070
     3
1002
}
  0
DIMENSION
  5
23F
330
17
100
AcDbEntity
  8
ADPDIM
100
AcDbDimension
  2
*D5
 10
21.04471614325154
 20
3.451362851778415
 30
0.0
 11
21.04471614325154
 21
11.06933404595224
 31
0.0
 70
    32
 71
     5
 42
15.23594238834765
  3
STANDARD
100
AcDbAlignedDimension
 13
20.19630986672644
 23
18.68730524012607
 33
0.0
 14
20.2566907462417
 24
3.451362851778416
 34
0.0
 50
90.0
100
AcDbRotatedDimension
1001
ACAD
1000
DSTYLE
1002
{
1070
    41
1040
0.125
1070
    73
1070
     0
1070
    74
1070
     0
1070
    78
1070
     3
1070
   140
1040
0.125
1070
   141
1040
0.1875
1070
   142
1040
0.125
1070
   147
1040
0.125
1070
   171
1070
     1
1070
   273
1070
     5
1070
   274
1070
     1
1070
   277
1070
     5
1070
   279
1070
     2
1070
   284
1070
     3
1070
   285
1070
     3
1070
   286
1070
     3
1002
}
  0
ENDSEC
  0
SECTION
  2
OBJECTS
  0
DICTIONARY
  5
C
330
0
100
AcDbDictionary
281
     1
  3
ACAD_COLOR
350
1B4
  3
ACAD_GROUP
350
D
  3
ACAD_LAYOUT
350
B6
  3
ACAD_MATERIAL
350
19F
  3
ACAD_MLINESTYLE
350
1A
  3
ACAD_PLOTSETTINGS
350
B7
  3
ACAD_PLOTSTYLENAME
350
B4
  3
ACAD_TABLESTYLE
350
1B5
  3
ACAD_VISUALSTYLE
350
1A3
  3
ACDBVARIABLEDICTIONARY
350
26
  3
DWGPROPS
350
2B6
  0
DICTIONARY
  5
E3
330
17
100
AcDbDictionary
280
     1
281
     1
  3
ACAD_LAYOUTSELFREF
360
199
  0
DICTIONARY
  5
E1
330
14
100
AcDbDictionary
280
     1
281
     1
  3
ACAD_LAYOUTSELFREF
360
198
  0
DICTIONARY
  5
1B4
102
{ACAD_REACTORS
330
C
102
}
330
C
100
AcDbDictionary
281
     1
  0
DICTIONARY
  5
D
102
{ACAD_REACTORS
330
C
102
}
330
C
100
AcDbDictionary
281
     1
  0
DICTIONARY
  5
B6
102
{ACAD_REACTORS
330
C
102
}
330
C
100
AcDbDictionary
281
     1
  3
Layout1
350
B9
  3
Model
350
B8
  0
DICTIONARY
  5
19F
102
{ACAD_REACTORS
330
C
102
}
330
C
100
AcDbDictionary
281
     1
  3
ByBlock
350
1A1
  3
ByLayer
350
1A0
  3
Global
350
1A2
  0
DICTIONARY
  5
1A
102
{ACAD_REACTORS
330
C
102
}
330
C
100
AcDbDictionary
281
     1
  3
STANDARD
350
1B
  0
DICTIONARY
  5
B7
102
{ACAD_REACTORS
330
C
102
}
330
C
100
AcDbDictionary
281
     1
  0
ACDBDICTIONARYWDFLT
  5
B4
102
{ACAD_REACTORS
330
C
102
}
330
C
100
AcDbDictionary
281
     1
  3
Normal
350
B5
100
AcDbDictionaryWithDefault
340
B5
  0
DICTIONARY
  5
1B5
102
{ACAD_REACTORS
330
C
102
}
330
C
100
AcDbDictionary
281
     1
  3
Standard
350
1B6
  0
DICTIONARY
  5
1A3
102
{ACAD_REACTORS
330
C
102
}
330
C
100
AcDbDictionary
281
     1
  3
2dWireframe
350
1A9
  3
3D Hidden
350
1AB
  3
3dWireframe
350
1AA
  3
Basic
350
1A8
  3
Brighten
350
1AF
  3
ColorChange
350
1B3
  3
Conceptual
350
1AC
  3
Dim
350
1AE
  3
Facepattern
350
1B2
  3
Flat
350
1A4
  3
FlatWithEdges
350
1A5
  3
Gouraud
350
1A6
  3
GouraudWithEdges
350
1A7
  3
Linepattern
350
1B1
  3
Realistic
350
1AD
  3
Thicken
350
1B0
  0
DICTIONARY
  5
26
102
{ACAD_REACTORS
330
C
102
}
330
C
100
AcDbDictionary
281
     1
  3
CTABLESTYLE
350
2B3
  3
DIMADEC
350
27
  3
DIMASSOC
350
E9
  3
INDEXCTL
350
2B5
  3
SORTENTS
350
2B4
  0
XRECORD
  5
2B6
102
{ACAD_REACTORS
330
C
102
}
330
C
100
AcDbXrecord
280
     1
  1
DWGPROPS COOKIE
  2

  3

  4

  6

  7

  8
Yu Hu
  9

300
=
301
=
302
=
303
=
304
=
305
=
306
=
307
=
308
=
309
=
 40
0.0148299884259259
 41
2450374.475907407
 42
2453942.996616933
  1

 90
        0
  0
XRECORD
  5
199
102
{ACAD_REACTORS
330
E3
102
}
330
E3
100
AcDbXrecord
280
     1
340
17
  0
XRECORD
  5
198
102
{ACAD_REACTORS
330
E1
102
}
330
E1
100
AcDbXrecord
280
     1
340
14
  0
LAYOUT
  5
B9
102
{ACAD_XDICTIONARY
360
2B9
102
}
102
{ACAD_REACTORS
330
B6
102
}
330
B6
100
AcDbPlotSettings
  1

  2
Fax
  4

  6

 40
0.0
 41
0.0
 42
0.0
 43
0.0
 44
0.0
 45
0.0
 46
0.0
 47
0.0
 48
0.0
 49
0.0
140
0.0
141
0.0
142
1.0
143
1.0
 70
   688
 72
     0
 73
     0
 74
     5
  7
Default R14 pen assignments.ctb
 75
    16
147
1.0
148
0.0
149
0.0
100
AcDbLayout
  1
Layout1
 70
     1
 71
     1
 10
0.0
 20
0.0
 11
12.0
 21
9.0
 12
0.0
 22
0.0
 32
0.0
 14
1.000000000000000E+20
 24
1.000000000000000E+20
 34
1.000000000000000E+20
 15
-1.000000000000000E+20
 25
-1.000000000000000E+20
 35
-1.000000000000000E+20
146
0.0
 13
0.0
 23
0.0
 33
0.0
 16
1.0
 26
0.0
 36
0.0
 17
0.0
 27
1.0
 37
0.0
 76
     0
330
14
  0
LAYOUT
  5
B8
102
{ACAD_XDICTIONARY
360
2B7
102
}
102
{ACAD_REACTORS
330
B6
102
}
330
B6
100
AcDbPlotSettings
  1

  2
Fax
  4

  6

 40
0.0
 41
0.0
 42
0.0
 43
0.0
 44
0.0
 45
0.0
 46
0.0
 47
0.0
 48
0.0
 49
0.0
140
0.0
141
0.0
142
1.0
143
1.0
 70
  1712
 72
     0
 73
     0
 74
     0
  7
Default R14 pen assignments.ctb
 75
     0
147
1.0
148
0.0
149
0.0
100
AcDbLayout
  1
Model
 70
     1
 71
     0
 10
0.0
 20
0.0
 11
12.0
 21
9.0
 12
0.0
 22
0.0
 32
0.0
 14
0.0
 24
0.0
 34
0.0
 15
0.0
 25
0.0
 35
0.0
146
0.0
 13
0.0
 23
0.0
 33
0.0
 16
1.0
 26
0.0
 36
0.0
 17
0.0
 27
1.0
 37
0.0
 76
     0
330
17
331
174
  0
MATERIAL
  5
1A1
102
{ACAD_XDICTIONARY
360
2BD
102
}
102
{ACAD_REACTORS
330
19F
102
}
330
19F
100
AcDbMaterial
  1
ByBlock
  0
MATERIAL
  5
1A0
102
{ACAD_XDICTIONARY
360
2BB
102
}
102
{ACAD_REACTORS
330
19F
102
}
330
19F
100
AcDbMaterial
  1
ByLayer
  0
MATERIAL
  5
1A2
102
{ACAD_XDICTIONARY
360
2BF
102
}
102
{ACAD_REACTORS
330
19F
102
}
330
19F
100
AcDbMaterial
  1
Global
  0
MLINESTYLE
  5
1B
102
{ACAD_REACTORS
330
1A
102
}
330
1A
100
AcDbMlineStyle
  2
STANDARD
 70
     0
  3

 62
   256
 51
90.0
 52
90.0
 71
     2
 49
0.5
 62
   256
  6
BYLAYER
 49
-0.5
 62
   256
  6
BYLAYER
  0
ACDBPLACEHOLDER
  5
B5
102
{ACAD_REACTORS
330
B4
102
}
330
B4
  0
TABLESTYLE
  5
1B6
102
{ACAD_XDICTIONARY
360
2C1
102
}
102
{ACAD_REACTORS
330
1B5
102
}
330
1B5
100
AcDbTableStyle
  3
Standard
 70
     0
 71
     0
 40
0.06
 41
0.06
280
     0
281
     0
  7
STANDARD
140
0.18
170
     2
 62
     0
 63
     7
283
     0
274
    -2
284
     1
 64
     0
275
    -2
285
     1
 65
     0
276
    -2
286
     1
 66
     0
277
    -2
287
     1
 67
     0
278
    -2
288
     1
 68
     0
279
    -2
289
     1
 69
     0
  7
STANDARD
140
0.25
170
     5
 62
     0
 63
     7
283
     0
274
    -2
284
     1
 64
     0
275
    -2
285
     1
 65
     0
276
    -2
286
     1
 66
     0
277
    -2
287
     1
 67
     0
278
    -2
288
     1
 68
     0
279
    -2
289
     1
 69
     0
  7
STANDARD
140
0.18
170
     5
 62
     0
 63
     7
283
     0
274
    -2
284
     1
 64
     0
275
    -2
285
     1
 65
     0
276
    -2
286
     1
 66
     0
277
    -2
287
     1
 67
     0
278
    -2
288
     1
 68
     0
279
    -2
289
     1
 69
     0
  0
VISUALSTYLE
  5
1A9
102
{ACAD_REACTORS
330
1A3
102
}
330
1A3
100
AcDbVisualStyle
  2
2dWireframe
 70
     4
 71
     0
 72
     2
 73
     0
 90
        0
 40
-0.6
 41
-30.0
 62
     5
 63
     7
 74
     1
 91
        4
 64
     7
 65
   257
 75
     1
175
     1
 42
1.0
 92
        0
 66
   257
 43
1.0
 76
     1
 77
     6
 78
     2
 67
     7
 79
     5
170
     0
171
     0
290
     0
174
     0
 93
        1
 44
0.0
173
     0
291
     0
 45
0.0
1001
ACAD
1000
AcDbSavedByObjectVersion
1070
     0
  0
VISUALSTYLE
  5
1AB
102
{ACAD_REACTORS
330
1A3
102
}
330
1A3
100
AcDbVisualStyle
  2
3D Hidden
 70
     6
 71
     1
 72
     2
 73
     2
 90
        0
 40
-0.6
 41
-30.0
 62
     5
 63
     7
 74
     2
 91
        2
 64
     7
 65
   257
 75
     2
175
     1
 42
40.0
 92
        0
 66
   257
 43
1.0
 76
     1
 77
     6
 78
     2
 67
     7
 79
     3
170
     0
171
     0
290
     0
174
     0
 93
        1
 44
0.0
173
     0
291
     0
 45
0.0
1001
ACAD
1000
AcDbSavedByObjectVersion
1070
     0
  0
VISUALSTYLE
  5
1AA
102
{ACAD_REACTORS
330
1A3
102
}
330
1A3
100
AcDbVisualStyle
  2
3dWireframe
 70
     5
 71
     0
 72
     2
 73
     0
 90
        0
 40
-0.6
 41
-30.0
 62
     5
 63
     7
 74
     1
 91
        4
 64
     7
 65
   257
 75
     1
175
     1
 42
1.0
 92
        0
 66
   257
 43
1.0
 76
     1
 77
     6
 78
     2
 67
     7
 79
     5
170
     0
171
     0
290
     0
174
     0
 93
        1
 44
0.0
173
     0
291
     0
 45
0.0
1001
ACAD
1000
AcDbSavedByObjectVersion
1070
     0
  0
VISUALSTYLE
  5
1A8
102
{ACAD_REACTORS
330
1A3
102
}
330
1A3
100
AcDbVisualStyle
  2
Basic
 70
     7
 71
     1
 72
     0
 73
     1
 90
        0
 40
-0.6
 41
-30.0
 62
     5
 63
     7
 74
     0
 91
        4
 64
     7
 65
   257
 75
     1
175
     1
 42
1.0
 92
        8
 66
     7
 43
1.0
 76
     1
 77
     6
 78
     2
 67
     7
 79
     5
170
     0
171
     0
290
     0
174
     0
 93
        1
 44
0.0
173
     0
291
     1
 45
0.0
1001
ACAD
1000
AcDbSavedByObjectVersion
1070
     0
  0
VISUALSTYLE
  5
1AF
102
{ACAD_REACTORS
330
1A3
102
}
330
1A3
100
AcDbVisualStyle
  2
Brighten
 70
    12
 71
     2
 72
     2
 73
     0
 90
        0
 40
-0.6
 41
-30.0
 62
     5
 63
     7
 74
     1
 91
        4
 64
     7
 65
   257
 75
     1
175
     1
 42
1.0
 92
        8
 66
     7
 43
1.0
 76
     1
 77
     6
 78
     2
 67
     7
 79
     5
170
     0
171
     0
290
     0
174
     0
 93
        1
 44
50.0
173
     0
291
     1
 45
0.0
1001
ACAD
1000
AcDbSavedByObjectVersion
1070
     0
  0
VISUALSTYLE
  5
1B3
102
{ACAD_REACTORS
330
1A3
102
}
330
1A3
100
AcDbVisualStyle
  2
ColorChange
 70
    16
 71
     2
 72
     2
 73
     3
 90
        0
 40
-0.6
 41
-30.0
 62
     5
 63
     8
 74
     1
 91
        4
 64
     7
 65
   257
 75
     1
175
     1
 42
1.0
 92
        8
 66
     8
 43
1.0
 76
     1
 77
     6
 78
     2
 67
     7
 79
     5
170
     0
171
     0
290
     0
174
     0
 93
        1
 44
0.0
173
     0
291
     1
 45
0.0
1001
ACAD
1000
AcDbSavedByObjectVersion
1070
     0
  0
VISUALSTYLE
  5
1AC
102
{ACAD_REACTORS
330
1A3
102
}
330
1A3
100
AcDbVisualStyle
  2
Conceptual
 70
     9
 71
     3
 72
     2
 73
     0
 90
        0
 40
-0.6
 41
-30.0
 62
     5
 63
     7
 74
     2
 91
        2
 64
     7
 65
   257
 75
     1
175
     1
 42
40.0
 92
        8
 66
     7
 43
1.0
 76
     1
 77
     6
 78
     2
 67
     7
 79
     3
170
     0
171
     0
290
     0
174
     0
 93
        1
 44
0.0
173
     0
291
     0
 45
0.0
1001
ACAD
1000
AcDbSavedByObjectVersion
1070
     0
  0
VISUALSTYLE
  5
1AE
102
{ACAD_REACTORS
330
1A3
102
}
330
1A3
100
AcDbVisualStyle
  2
Dim
 70
    11
 71
     2
 72
     2
 73
     0
 90
        0
 40
-0.6
 41
-30.0
 62
     5
 63
     7
 74
     1
 91
        4
 64
     7
 65
   257
 75
     1
175
     1
 42
1.0
 92
        8
 66
     7
 43
1.0
 76
     1
 77
     6
 78
     2
 67
     7
 79
     5
170
     0
171
     0
290
     0
174
     0
 93
        1
 44
-50.0
173
     0
291
     1
 45
0.0
1001
ACAD
1000
AcDbSavedByObjectVersion
1070
     0
  0
VISUALSTYLE
  5
1B2
102
{ACAD_REACTORS
330
1A3
102
}
330
1A3
100
AcDbVisualStyle
  2
Facepattern
 70
    15
 71
     2
 72
     2
 73
     0
 90
        0
 40
-0.6
 41
-30.0
 62
     5
 63
     7
 74
     1
 91
        4
 64
     7
 65
   257
 75
     1
175
     1
 42
1.0
 92
        8
 66
     7
 43
1.0
 76
     1
 77
     6
 78
     2
 67
     7
 79
     5
170
     0
171
     0
290
     0
174
     0
 93
        1
 44
0.0
173
     0
291
     1
 45
0.0
1001
ACAD
1000
AcDbSavedByObjectVersion
1070
     0
  0
VISUALSTYLE
  5
1A4
102
{ACAD_REACTORS
330
1A3
102
}
330
1A3
100
AcDbVisualStyle
  2
Flat
 70
     0
 71
     2
 72
     1
 73
     1
 90
        2
 40
-0.6
 41
30.0
 62
     5
 63
     7
 74
     0
 91
        4
 64
     7
 65
   257
 75
     1
175
     1
 42
1.0
 92
        8
 66
     7
 43
1.0
 76
     1
 77
     6
 78
     2
 67
     7
 79
     5
170
     0
171
     0
290
     0
174
     0
 93
       13
 44
0.0
173
     0
291
     1
 45
0.0
1001
ACAD
1000
AcDbSavedByObjectVersion
1070
     0
  0
VISUALSTYLE
  5
1A5
102
{ACAD_REACTORS
330
1A3
102
}
330
1A3
100
AcDbVisualStyle
  2
FlatWithEdges
 70
     1
 71
     2
 72
     1
 73
     1
 90
        2
 40
-0.6
 41
30.0
 62
     5
 63
     7
 74
     1
 91
        4
 64
     7
 65
   257
 75
     1
175
     1
 42
1.0
 92
        0
 66
   257
 43
1.0
 76
     1
 77
     6
 78
     2
 67
     7
 79
     5
170
     0
171
     0
290
     0
174
     0
 93
       13
 44
0.0
173
     0
291
     1
 45
0.0
1001
ACAD
1000
AcDbSavedByObjectVersion
1070
     0
  0
VISUALSTYLE
  5
1A6
102
{ACAD_REACTORS
330
1A3
102
}
330
1A3
100
AcDbVisualStyle
  2
Gouraud
 70
     2
 71
     2
 72
     2
 73
     1
 90
        2
 40
-0.6
 41
30.0
 62
     5
 63
     7
 74
     0
 91
        4
 64
     7
 65
   257
 75
     1
175
     1
 42
1.0
 92
        0
 66
     7
 43
1.0
 76
     1
 77
     6
 78
     2
 67
     7
 79
     5
170
     0
171
     0
290
     0
174
     0
 93
       13
 44
0.0
173
     0
291
     1
 45
0.0
1001
ACAD
1000
AcDbSavedByObjectVersion
1070
     0
  0
VISUALSTYLE
  5
1A7
102
{ACAD_REACTORS
330
1A3
102
}
330
1A3
100
AcDbVisualStyle
  2
GouraudWithEdges
 70
     3
 71
     2
 72
     2
 73
     1
 90
        2
 40
-0.6
 41
30.0
 62
     5
 63
     7
 74
     1
 91
        4
 64
     7
 65
   257
 75
     1
175
     1
 42
1.0
 92
        0
 66
   257
 43
1.0
 76
     1
 77
     6
 78
     2
 67
     7
 79
     5
170
     0
171
     0
290
     0
174
     0
 93
       13
 44
0.0
173
     0
291
     1
 45
0.0
1001
ACAD
1000
AcDbSavedByObjectVersion
1070
     0
  0
VISUALSTYLE
  5
1B1
102
{ACAD_REACTORS
330
1A3
102
}
330
1A3
100
AcDbVisualStyle
  2
Linepattern
 70
    14
 71
     2
 72
     2
 73
     0
 90
        0
 40
-0.6
 41
-30.0
 62
     5
 63
     7
 74
     1
 91
        4
 64
     7
 65
   257
 75
     7
175
     7
 42
1.0
 92
        8
 66
     7
 43
1.0
 76
     1
 77
     6
 78
     2
 67
     7
 79
     5
170
     0
171
     0
290
     0
174
     0
 93
        1
 44
0.0
173
     0
291
     1
 45
0.0
1001
ACAD
1000
AcDbSavedByObjectVersion
1070
     0
  0
VISUALSTYLE
  5
1AD
102
{ACAD_REACTORS
330
1A3
102
}
330
1A3
100
AcDbVisualStyle
  2
Realistic
 70
     8
 71
     2
 72
     2
 73
     0
 90
        0
 40
-0.6
 41
-30.0
 62
     5
 63
     7
 74
     1
 91
        0
 64
     7
 65
   257
 75
     1
175
     1
 42
1.0
 92
        8
 66
     8
 43
1.0
 76
     1
 77
     6
 78
     2
 67
     7
 79
     5
170
     0
171
     0
290
     0
174
     0
 93
       13
 44
0.0
173
     0
291
     0
 45
0.0
1001
ACAD
1000
AcDbSavedByObjectVersion
1070
     0
  0
VISUALSTYLE
  5
1B0
102
{ACAD_REACTORS
330
1A3
102
}
330
1A3
100
AcDbVisualStyle
  2
Thicken
 70
    13
 71
     2
 72
     2
 73
     0
 90
        0
 40
-0.6
 41
-30.0
 62
     5
 63
     7
 74
     1
 91
        4
 64
     7
 65
   257
 75
     1
175
     1
 42
1.0
 92
       12
 66
     7
 43
1.0
 76
     1
 77
     6
 78
     2
 67
     7
 79
     5
170
     0
171
     0
290
     0
174
     0
 93
        1
 44
0.0
173
     0
291
     1
 45
0.0
1001
ACAD
1000
AcDbSavedByObjectVersion
1070
     0
  0
DICTIONARYVAR
  5
2B3
102
{ACAD_REACTORS
330
26
102
}
330
26
100
DictionaryVariables
280
     0
  1
STANDARD
  0
DICTIONARYVAR
  5
27
102
{ACAD_REACTORS
330
26
102
}
330
26
100
DictionaryVariables
280
     0
  1
0
  0
DICTIONARYVAR
  5
E9
102
{ACAD_REACTORS
330
26
102
}
330
26
100
DictionaryVariables
280
     0
  1
1
  0
DICTIONARYVAR
  5
2B5
102
{ACAD_REACTORS
330
26
102
}
330
26
100
DictionaryVariables
280
     0
  1
0
  0
DICTIONARYVAR
  5
2B4
102
{ACAD_REACTORS
330
26
102
}
330
26
100
DictionaryVariables
280
     0
  1
127
  0
DICTIONARY
  5
2B9
330
B9
100
AcDbDictionary
280
     1
281
     1
  3
ACAD_XREC_ROUNDTRIP
360
2BA
  0
DICTIONARY
  5
2B7
330
B8
100
AcDbDictionary
280
     1
281
     1
  3
ACAD_XREC_ROUNDTRIP
360
2B8
  0
DICTIONARY
  5
2BD
330
1A1
100
AcDbDictionary
280
     1
281
     1
  3
ACAD_XREC_ROUNDTRIP
360
2BE
  0
DICTIONARY
  5
2BB
330
1A0
100
AcDbDictionary
280
     1
281
     1
  3
ACAD_XREC_ROUNDTRIP
360
2BC
  0
DICTIONARY
  5
2BF
330
1A2
100
AcDbDictionary
280
     1
281
     1
  3
ACAD_XREC_ROUNDTRIP
360
2C0
  0
DICTIONARY
  5
2C1
330
1B6
100
AcDbDictionary
280
     1
281
     1
  3
ACAD_XREC_ROUNDTRIP
360
2C2
  0
XRECORD
  5
2BA
102
{ACAD_REACTORS
330
2B9
102
}
330
2B9
100
AcDbXrecord
280
     1
102
SHADEPLOT
 70
     0
102
SHADEPLOTRESLEVEL
 70
     2
102
SHADEPLOTCUSTOMDPI
 70
   300
  0
XRECORD
  5
2B8
102
{ACAD_REACTORS
330
2B7
102
}
330
2B7
100
AcDbXrecord
280
     1
102
SHADEPLOT
 70
     0
102
SHADEPLOTRESLEVEL
 70
     2
102
SHADEPLOTCUSTOMDPI
 70
   300
  0
XRECORD
  5
2BE
102
{ACAD_REACTORS
330
2BD
102
}
330
2BD
100
AcDbXrecord
280
     1
102
MATERIAL
148
0.0
149
0.0
149
0.0
 93
        0
 94
       63
282
     0
 72
     1
 77
     1
171
     1
175
     1
179
     1
273
     0
  0
XRECORD
  5
2BC
102
{ACAD_REACTORS
330
2BB
102
}
330
2BB
100
AcDbXrecord
280
     1
102
MATERIAL
148
0.0
149
0.0
149
0.0
 93
        0
 94
       63
282
     0
 72
     1
 77
     1
171
     1
175
     1
179
     1
273
     0
  0
XRECORD
  5
2C0
102
{ACAD_REACTORS
330
2BF
102
}
330
2BF
100
AcDbXrecord
280
     1
102
MATERIAL
148
0.0
149
0.0
149
0.0
 93
        0
 94
       63
282
     0
 72
     1
 77
     1
171
     1
175
     1
179
     1
273
     0
  0
XRECORD
  5
2C2
102
{ACAD_REACTORS
330
2C1
102
}
330
2C1
100
AcDbXrecord
280
     1
102
ACAD_ROUNDTRIP_PRE2007_TABLESTYLE
 90
      512
 91
        0
  1

 92
      512
 93
        0
  2

 94
      512
 95
        0
  3

  0
ENDSEC
  0
EOF
