  0
SECTION
  2
HEADER
  9
$ACADVER
  1
AC1014
  9
$ACADMAINTVER
 70
     9
  9
$DWGCODEPAGE
  3
ANSI_1252
  9
$INSBASE
 10
-46.67838677778624
 20
45.90456637022859
 30
0.0
  9
$EXTMIN
 10
-55.21054805848201
 20
44.2997367814632
 30
0.0
  9
$EXTMAX
 10
-38.89622549709047
 20
49.29513433717895
 30
0.0
  9
$LIMMIN
 10
0.0
 20
0.0
  9
$LIMMAX
 10
36.0
 20
36.0
  9
$ORTHOMODE
 70
     1
  9
$REGENMODE
 70
     1
  9
$FILLMODE
 70
     1
  9
$QTEXTMODE
 70
     0
  9
$MIRRTEXT
 70
     1
  9
$DRAGMODE
 70
     0
  9
$LTSCALE
 40
1.0
  9
$OSMODE
 70
    37
  9
$ATTMODE
 70
     1
  9
$TEXTSIZE
 40
0.2
  9
$TRACEWID
 40
0.05
  9
$TEXTSTYLE
  7
STANDARD
  9
$CLAYER
  8
ADPDIM
  9
$CELTYPE
  6
BYLAYER
  9
$CECOLOR
 62
   256
  9
$CELTSCALE
 40
1.0
  9
$DELOBJ
 70
     1
  9
$DISPSILH
 70
     0
  9
$DIMSCALE
 40
1.0
  9
$DIMASZ
 40
0.125
  9
$DIMEXO
 40
0.0625
  9
$DIMDLI
 40
0.38
  9
$DIMRND
 40
0.0
  9
$DIMDLE
 40
0.0
  9
$DIMEXE
 40
0.18
  9
$DIMTP
 40
0.0
  9
$DIMTM
 40
0.0
  9
$DIMTXT
 40
0.125
  9
$DIMCEN
 40
0.1875
  9
$DIMTSZ
 40
0.125
  9
$DIMTOL
 70
     0
  9
$DIMLIM
 70
     0
  9
$DIMTIH
 70
     0
  9
$DIMTOH
 70
     0
  9
$DIMSE1
 70
     0
  9
$DIMSE2
 70
     0
  9
$DIMTAD
 70
     0
  9
$DIMZIN
 70
     3
  9
$DIMBLK
  1

  9
$DIMASO
 70
     1
  9
$DIMSHO
 70
     1
  9
$DIMPOST
  1

  9
$DIMAPOST
  1

  9
$DIMALT
 70
     0
  9
$DIMALTD
 70
     1
  9
$DIMALTF
 40
25.4
  9
$DIMLFAC
 40
1.0
  9
$DIMTOFL
 70
     0
  9
$DIMTVP
 40
0.0
  9
$DIMTIX
 70
     0
  9
$DIMSOXD
 70
     0
  9
$DIMSAH
 70
     0
  9
$DIMBLK1
  1

  9
$DIMBLK2
  1

  9
$DIMSTYLE
  2
STANDARD
  9
$DIMCLRD
 70
     0
  9
$DIMCLRE
 70
     0
  9
$DIMCLRT
 70
     0
  9
$DIMTFAC
 40
1.0
  9
$DIMGAP
 40
0.125
  9
$DIMJUST
 70
     0
  9
$DIMSD1
 70
     0
  9
$DIMSD2
 70
     0
  9
$DIMTOLJ
 70
     1
  9
$DIMTZIN
 70
     3
  9
$DIMALTZ
 70
     3
  9
$DIMALTTZ
 70
     3
  9
$DIMFIT
 70
     5
  9
$DIMUPT
 70
     0
  9
$DIMUNIT
 70
     5
  9
$DIMDEC
 70
     4
  9
$DIMTDEC
 70
     4
  9
$DIMALTU
 70
     5
  9
$DIMALTTD
 70
     1
  9
$DIMTXSTY
  7
STANDARD
  9
$DIMAUNIT
 70
     0
  9
$LUNITS
 70
     5
  9
$LUPREC
 70
     4
  9
$SKETCHINC
 40
0.1
  9
$FILLETRAD
 40
0.187
  9
$AUNITS
 70
     0
  9
$AUPREC
 70
     0
  9
$MENU
  1
acad
  9
$ELEVATION
 40
0.0
  9
$PELEVATION
 40
0.0
  9
$THICKNESS
 40
0.0
  9
$LIMCHECK
 70
     0
  9
$BLIPMODE
 70
     0
  9
$CHAMFERA
 40
0.0
  9
$CHAMFERB
 40
0.0
  9
$CHAMFERC
 40
0.0
  9
$CHAMFERD
 40
0.0
  9
$SKPOLY
 70
     0
  9
$TDCREATE
 40
2450406.508033171
  9
$TDUPDATE
 40
2452297.080452650
  9
$TDINDWG
 40
0.0050321875
  9
$TDUSRTIMER
 40
0.0050321875
  9
$USRTIMER
 70
     1
  9
$ANGBASE
 50
0.0
  9
$ANGDIR
 70
     0
  9
$PDMODE
 70
     0
  9
$PDSIZE
 40
0.0
  9
$PLINEWID
 40
0.0
  9
$COORDS
 70
     2
  9
$SPLFRAME
 70
     0
  9
$SPLINETYPE
 70
     6
  9
$SPLINESEGS
 70
     8
  9
$ATTDIA
 70
     0
  9
$ATTREQ
 70
     1
  9
$HANDLING
 70
 22529
  9
$HANDSEED
  5
399
  9
$SURFTAB1
 70
     6
  9
$SURFTAB2
 70
     6
  9
$SURFTYPE
 70
     6
  9
$SURFU
 70
     6
  9
$SURFV
 70
     6
  9
$UCSNAME
  2

  9
$UCSORG
 10
0.0
 20
0.0
 30
0.0
  9
$UCSXDIR
 10
1.0
 20
0.0
 30
0.0
  9
$UCSYDIR
 10
0.0
 20
1.0
 30
0.0
  9
$PUCSNAME
  2

  9
$PUCSORG
 10
0.0
 20
0.0
 30
0.0
  9
$PUCSXDIR
 10
1.0
 20
0.0
 30
0.0
  9
$PUCSYDIR
 10
0.0
 20
1.0
 30
0.0
  9
$USERI1
 70
     0
  9
$USERI2
 70
     0
  9
$USERI3
 70
     0
  9
$USERI4
 70
     0
  9
$USERI5
 70
     0
  9
$USERR1
 40
0.0
  9
$USERR2
 40
0.0
  9
$USERR3
 40
0.0
  9
$USERR4
 40
0.0
  9
$USERR5
 40
0.0
  9
$WORLDVIEW
 70
     1
  9
$SHADEDGE
 70
     3
  9
$SHADEDIF
 70
    70
  9
$TILEMODE
 70
     1
  9
$MAXACTVP
 70
    15
  9
$PINSBASE
 10
0.0008545024320483
 20
1.750284242913068
 30
0.0
  9
$PLIMCHECK
 70
     0
  9
$PEXTMIN
 10
1.000000000000000E+20
 20
1.000000000000000E+20
 30
1.000000000000000E+20
  9
$PEXTMAX
 10
-1.000000000000000E+20
 20
-1.000000000000000E+20
 30
-1.000000000000000E+20
  9
$PLIMMIN
 10
0.0
 20
0.0
  9
$PLIMMAX
 10
12.0
 20
9.0
  9
$UNITMODE
 70
     0
  9
$VISRETAIN
 70
     0
  9
$PLINEGEN
 70
     0
  9
$PSLTSCALE
 70
     1
  9
$TREEDEPTH
 70
  3020
  9
$PICKSTYLE
 70
     1
  9
$CMLSTYLE
  2
STANDARD
  9
$CMLJUST
 70
     0
  9
$CMLSCALE
 40
1.0
  9
$PROXYGRAPHICS
 70
     1
  9
$MEASUREMENT
 70
     0
  0
ENDSEC
  0
SECTION
  2
CLASSES
  0
CLASS
  1
ACDBDICTIONARYWDFLT
  2
AcDbDictionaryWithDefault
  3
AutoCAD 2000
 90
        0
280
     0
281
     0
  0
CLASS
  1
ACDBPLACEHOLDER
  2
AcDbPlaceHolder
  3
AutoCAD 2000
 90
        0
280
     0
281
     0
  0
CLASS
  1
LAYOUT
  2
AcDbLayout
  3
AutoCAD 2000
 90
        0
280
     0
281
     0
  0
CLASS
  1
DICTIONARYVAR
  2
AcDbDictionaryVar
  3
AutoCAD 2000
 90
        0
280
     0
281
     0
  0
CLASS
  1
LONG_TRANSACTION
  2
AcDbLongTransaction
  3
AutoCAD 2000
 90
        0
280
     0
281
     0
  0
CLASS
  1
LWPOLYLINE
  2
AcDbPolyline
  3
AutoCAD 2000
 90
        0
280
     0
281
     1
  0
CLASS
  1
HATCH
  2
AcDbHatch
  3
AutoCAD 2000
 90
        0
280
     0
281
     1
  0
CLASS
  1
XRECORD
  2
AcDbXrecord
  3
AutoCAD 2000
 90
        0
280
     0
281
     0
  0
CLASS
  1
LONG_TRANSACTION
  2
AcDbLongTransaction
  3
AutoCAD 2000
 90
        0
280
     0
281
     0
  0
CLASS
  1
LWPOLYLINE
  2
AcDbPolyline
  3
AutoCAD 2000
 90
        0
280
     0
281
     1
  0
CLASS
  1
HATCH
  2
AcDbHatch
  3
AutoCAD 2000
 90
        0
280
     0
281
     1
  0
CLASS
  1
XRECORD
  2
AcDbXrecord
  3
AutoCAD 2000
 90
        0
280
     0
281
     0
  0
CLASS
  1
LONG_TRANSACTION
  2
AcDbLongTransaction
  3
AutoCAD 2000
 90
        0
280
     0
281
     0
  0
CLASS
  1
LWPOLYLINE
  2
AcDbPolyline
  3
AutoCAD 2000
 90
        0
280
     0
281
     1
  0
CLASS
  1
HATCH
  2
AcDbHatch
  3
AutoCAD 2000
 90
        0
280
     0
281
     1
  0
CLASS
  1
XRECORD
  2
AcDbXrecord
  3
AutoCAD 2000
 90
        0
280
     0
281
     0
  0
CLASS
  1
LONG_TRANSACTION
  2
AcDbLongTransaction
  3
AutoCAD 2000
 90
        0
280
     0
281
     0
  0
CLASS
  1
LWPOLYLINE
  2
AcDbPolyline
  3
AutoCAD 2000
 90
        0
280
     0
281
     1
  0
CLASS
  1
HATCH
  2
AcDbHatch
  3
AutoCAD 2000
 90
        0
280
     0
281
     1
  0
CLASS
  1
XRECORD
  2
AcDbXrecord
  3
AutoCAD 2000
 90
        0
280
     0
281
     0
  0
CLASS
  1
LONG_TRANSACTION
  2
AcDbLongTransaction
  3
AutoCAD 2000
 90
        0
280
     0
281
     0
  0
CLASS
  1
LWPOLYLINE
  2
AcDbPolyline
  3
AutoCAD 2000
 90
        0
280
     0
281
     1
  0
CLASS
  1
HATCH
  2
AcDbHatch
  3
AutoCAD 2000
 90
        0
280
     0
281
     1
  0
CLASS
  1
XRECORD
  2
AcDbXrecord
  3
AutoCAD 2000
 90
        0
280
     0
281
     0
  0
CLASS
  1
LONG_TRANSACTION
  2
AcDbLongTransaction
  3
AutoCAD 2000
 90
        0
280
     0
281
     0
  0
CLASS
  1
LWPOLYLINE
  2
AcDbPolyline
  3
AutoCAD 2000
 90
        0
280
     0
281
     1
  0
CLASS
  1
HATCH
  2
AcDbHatch
  3
AutoCAD 2000
 90
        0
280
     0
281
     1
  0
CLASS
  1
XRECORD
  2
AcDbXrecord
  3
AutoCAD 2000
 90
        0
280
     0
281
     0
  0
ENDSEC
  0
SECTION
  2
TABLES
  0
TABLE
  2
VPORT
  5
8
330
0
100
AcDbSymbolTable
 70
     2
  0
VPORT
  5
375
330
8
100
AcDbSymbolTableRecord
100
AcDbViewportTableRecord
  2
*ACTIVE
 70
     0
 10
0.0
 20
0.0
 11
1.0
 21
1.0
 12
-47.04284904210972
 22
46.79709425385026
 13
0.0
 23
0.0
 14
0.5740882589684922
 24
0.5740882589684922
 15
0.5
 25
0.5
 16
0.0
 26
0.0
 36
1.0
 17
0.0
 27
0.0
 37
0.0
 40
10.45816305008716
 41
1.570528967254408
 42
50.0
 43
0.0
 44
0.0
 50
0.0
 51
0.0
 71
     0
 72
   100
 73
     1
 74
     0
 75
     0
 76
     0
 77
     0
 78
     0
  0
ENDTAB
  0
TABLE
  2
LTYPE
  5
5
330
0
100
AcDbSymbolTable
 70
     1
  0
LTYPE
  5
13
330
5
100
AcDbSymbolTableRecord
100
AcDbLinetypeTableRecord
  2
BYBLOCK
 70
     0
  3

 72
    65
 73
     0
 40
0.0
  0
LTYPE
  5
14
330
5
100
AcDbSymbolTableRecord
100
AcDbLinetypeTableRecord
  2
BYLAYER
 70
     0
  3

 72
    65
 73
     0
 40
0.0
  0
LTYPE
  5
15
330
5
100
AcDbSymbolTableRecord
100
AcDbLinetypeTableRecord
  2
CONTINUOUS
 70
     0
  3
Solid line
 72
    65
 73
     0
 40
0.0
  0
ENDTAB
  0
TABLE
  2
LAYER
  5
2
330
0
100
AcDbSymbolTable
 70
     3
  0
LAYER
  5
10
330
2
100
AcDbSymbolTableRecord
100
AcDbLayerTableRecord
  2
0
 70
     0
 62
     7
  6
CONTINUOUS
  0
LAYER
  5
151
330
2
100
AcDbSymbolTableRecord
100
AcDbLayerTableRecord
  2
DEFPOINTS
 70
     0
 62
     7
  6
CONTINUOUS
  0
LAYER
  5
155
330
2
100
AcDbSymbolTableRecord
100
AcDbLayerTableRecord
  2
ADPDIM
 70
     0
 62
     3
  6
CONTINUOUS
  0
ENDTAB
  0
TABLE
  2
STYLE
  5
3
330
0
100
AcDbSymbolTable
 70
     2
  0
STYLE
  5
11
330
3
100
AcDbSymbolTableRecord
100
AcDbTextStyleTableRecord
  2
STANDARD
 70
     0
 40
0.0
 41
1.0
 50
0.0
 71
     0
 42
0.2
  3
txt
  4

  0
STYLE
  5
1A8
330
3
100
AcDbSymbolTableRecord
100
AcDbTextStyleTableRecord
  2
ARIAL_WIDE
 70
     0
 40
0.0
 41
1.25
 50
0.0
 71
     0
 42
0.2
  3
ARIAL.TTF
  4

1001
ACAD
1000
Arial
1071
       34
  0
ENDTAB
  0
TABLE
  2
VIEW
  5
6
330
0
100
AcDbSymbolTable
 70
     0
  0
ENDTAB
  0
TABLE
  2
UCS
  5
7
330
0
100
AcDbSymbolTable
 70
     0
  0
ENDTAB
  0
TABLE
  2
APPID
  5
9
330
0
100
AcDbSymbolTable
 70
     1
  0
APPID
  5
12
330
9
100
AcDbSymbolTableRecord
100
AcDbRegAppTableRecord
  2
ACAD
 70
     0
  0
ENDTAB
  0
TABLE
  2
DIMSTYLE
  5
A
330
0
100
AcDbSymbolTable
 70
     1
  0
DIMSTYLE
105
1A6
330
A
100
AcDbSymbolTableRecord
100
AcDbDimStyleTableRecord
  2
STANDARD
 70
     0
  3

  4

  5

  6

  7

 40
1.0
 41
0.18
 42
0.0625
 43
0.38
 44
0.18
 45
0.0
 46
0.0
 47
0.0
 48
0.0
140
0.18
141
0.09
142
0.0
143
25.4
144
1.0
145
0.0
146
1.0
147
0.09
 71
     0
 72
     0
 73
     1
 74
     1
 75
     0
 76
     0
 77
     0
 78
     0
170
     0
171
     2
172
     0
173
     0
174
     0
175
     0
176
     0
177
     0
178
     0
270
     2
271
     4
272
     4
273
     2
274
     2
340
11
275
     0
280
     0
281
     0
282
     0
283
     1
284
     0
285
     0
286
     0
287
     3
288
     0
  0
ENDTAB
  0
TABLE
  2
BLOCK_RECORD
  5
1
330
0
100
AcDbSymbolTable
 70
     5
  0
BLOCK_RECORD
  5
1E
102
{ACAD_XDICTIONARY
360
1E5
102
}
330
1
100
AcDbSymbolTableRecord
100
AcDbBlockTableRecord
  2
*MODEL_SPACE
  0
BLOCK_RECORD
  5
1A
102
{ACAD_XDICTIONARY
360
1E7
102
}
330
1
100
AcDbSymbolTableRecord
100
AcDbBlockTableRecord
  2
*PAPER_SPACE
  0
BLOCK_RECORD
  5
97
330
1
100
AcDbSymbolTableRecord
100
AcDbBlockTableRecord
  2
1235
  0
BLOCK_RECORD
  5
148
330
1
100
AcDbSymbolTableRecord
100
AcDbBlockTableRecord
  2
*D1
  0
BLOCK_RECORD
  5
149
330
1
100
AcDbSymbolTableRecord
100
AcDbBlockTableRecord
  2
*D2
  0
BLOCK_RECORD
  5
14A
330
1
100
AcDbSymbolTableRecord
100
AcDbBlockTableRecord
  2
*D3
  0
BLOCK_RECORD
  5
14B
330
1
100
AcDbSymbolTableRecord
100
AcDbBlockTableRecord
  2
*D4
  0
ENDTAB
  0
ENDSEC
  0
SECTION
  2
BLOCKS
  0
BLOCK
  5
158
330
1E
100
AcDbEntity
  8
0
100
AcDbBlockBegin
  2
*MODEL_SPACE
 70
     0
 10
0.0
 20
0.0
 30
0.0
  3
*MODEL_SPACE
  1

  0
ENDBLK
  5
159
330
1E
100
AcDbEntity
  8
0
100
AcDbBlockEnd
  0
BLOCK
  5
156
330
1A
100
AcDbEntity
 67
     1
  8
0
100
AcDbBlockBegin
  2
*PAPER_SPACE
 70
     0
 10
0.0
 20
0.0
 30
0.0
  3
*PAPER_SPACE
  1

  0
ENDBLK
  5
157
330
1A
100
AcDbEntity
 67
     1
  8
0
100
AcDbBlockEnd
  0
BLOCK
  5
15B
330
97
100
AcDbEntity
  8
0
100
AcDbBlockBegin
  2
1235
 70
     0
 10
0.0
 20
0.0
 30
0.0
  3
1235
  1

  0
ARC
  5
15C
330
97
100
AcDbEntity
  8
0
100
AcDbCircle
 10
0.0046664684273381
 20
1.704114514991921
 30
0.0
 40
1.563
100
AcDbArc
 50
294.5648461306836
 51
245.4351538693161
  0
ARC
  5
15D
330
97
100
AcDbEntity
  8
0
100
AcDbCircle
 10
0.0046664684273381
 20
1.704114514991921
 30
0.0
 40
1.75
100
AcDbArc
 50
285.003986778504
 51
254.9960132214958
  0
LINE
  5
15E
330
97
100
AcDbEntity
  8
0
100
AcDbLine
 10
0.5666664684273357
 20
1.09123191638492
 30
0.0
 11
0.5666664684273357
 21
0.3389680027083415
 31
0.0
  0
LINE
  5
15F
330
97
100
AcDbEntity
  8
0
100
AcDbLine
 10
-0.5573335315726631
 20
0.338968002708345
 30
0.0
 11
-0.5573335315726631
 21
1.09123191638492
 31
0.0
  0
LINE
  5
160
330
97
100
AcDbEntity
  8
0
100
AcDbLine
 10
-0.3703335315726619
 20
0.2443367589012055
 30
0.0
 11
-0.3703335315726619
 21
1.092231916384921
 31
0.0
  0
LINE
  5
161
330
97
100
AcDbEntity
  8
0
100
AcDbLine
 10
0.3796664684273381
 20
1.092231916384921
 30
0.0
 11
0.3796664684273345
 21
0.2451675724849984
 31
0.0
  0
ARC
  5
162
330
97
100
AcDbEntity
  8
0
100
AcDbCircle
 10
-0.6193335315726643
 20
0.338968002708345
 30
0.0
 40
0.062
100
AcDbArc
 50
245.4351538693168
 51
0.0
  0
ARC
  5
163
330
97
100
AcDbEntity
  8
0
100
AcDbCircle
 10
-0.4323335315726631
 20
0.0736621237826753
 30
0.0
 40
0.062
100
AcDbArc
 50
254.9960132214954
 51
0.0
  0
LINE
  5
164
330
97
100
AcDbEntity
  8
0
100
AcDbLine
 10
-0.3703335315726619
 20
0.0736621237826753
 30
0.0
 11
-0.3703335315726619
 21
0.1822795979856941
 31
0.0
  0
LINE
  5
165
330
97
100
AcDbEntity
  8
0
100
AcDbLine
 10
-0.4013621120304159
 20
0.2133081784434516
 30
0.0
 11
-0.3703335315726619
 21
0.1822795979856941
 31
0.0
  0
LINE
  5
166
330
97
100
AcDbEntity
  8
0
100
AcDbLine
 10
-0.3693621120304158
 20
0.2453081784434516
 30
0.0
 11
-0.4013621120304159
 21
0.2133081784434516
 31
0.0
  0
ARC
  5
167
330
97
100
AcDbEntity
  8
0
100
AcDbCircle
 10
0.4416664684273357
 20
0.0736621237826753
 30
0.0
 40
0.062
100
AcDbArc
 50
180.0
 51
285.0039867785036
  0
LINE
  5
168
330
97
100
AcDbEntity
  8
0
100
AcDbLine
 10
0.3796664684273345
 20
0.1797159034057678
 30
0.0
 11
0.3796664684273345
 21
0.0736621237826753
 31
0.0
  0
LINE
  5
169
330
97
100
AcDbEntity
  8
0
100
AcDbLine
 10
0.4126378879695807
 20
0.2133081784434516
 30
0.0
 11
0.3796664684273345
 21
0.1797159034057678
 31
0.0
  0
LINE
  5
16A
330
97
100
AcDbEntity
  8
0
100
AcDbLine
 10
0.3796664684273345
 20
0.2451675724849984
 30
0.0
 11
0.4126378879695807
 21
0.2133081784434516
 31
0.0
  0
ARC
  5
16B
330
97
100
AcDbEntity
  8
0
100
AcDbCircle
 10
0.6286664684273369
 20
0.3389680027083415
 30
0.0
 40
0.062
100
AcDbArc
 50
180.0
 51
294.5648461306831
  0
ARC
  5
16C
330
97
100
AcDbEntity
  8
0
100
AcDbCircle
 10
-0.2133335315726619
 20
1.09123191638492
 30
0.0
 40
0.3439999999999999
100
AcDbArc
 50
90.0
 51
180.0
  0
ARC
  5
16D
330
97
100
AcDbEntity
  8
0
100
AcDbCircle
 10
-0.2143335315726631
 20
1.092231916384921
 30
0.0
 40
0.156
100
AcDbArc
 50
90.0
 51
180.0
  0
ARC
  5
16E
330
97
100
AcDbEntity
  8
0
100
AcDbCircle
 10
0.2226664684273345
 20
1.09123191638492
 30
0.0
 40
0.3439999999999999
100
AcDbArc
 50
0.0
 51
90.0
  0
ARC
  5
16F
330
97
100
AcDbEntity
  8
0
100
AcDbCircle
 10
0.2236664684273393
 20
1.092231916384921
 30
0.0
 40
0.156
100
AcDbArc
 50
359.9999999999997
 51
90.0
  0
LINE
  5
170
330
97
100
AcDbEntity
  8
0
100
AcDbLine
 10
-0.2143335315726631
 20
1.24823191638492
 30
0.0
 11
0.2236664684273393
 21
1.24823191638492
 31
0.0
  0
LINE
  5
171
330
97
100
AcDbEntity
  8
0
100
AcDbLine
 10
-0.2133335315726619
 20
1.435231916384921
 30
0.0
 11
0.2226664684273345
 21
1.435231916384921
 31
0.0
  0
ENDBLK
  5
172
330
97
100
AcDbEntity
  8
0
100
AcDbBlockEnd
  0
BLOCK
  5
173
330
148
100
AcDbEntity
  8
0
100
AcDbBlockBegin
  2
*D1
 70
     1
 10
0.0
 20
0.0
 30
0.0
  3
*D1
  1

  0
LINE
  5
174
330
148
100
AcDbEntity
  8
0
  6
BYBLOCK
 62
     0
100
AcDbLine
 10
-47.42859957129359
 20
45.77071258446814
 30
0.0
 11
-47.42859957129359
 21
45.41128281159186
 31
0.0
  0
LINE
  5
175
330
148
100
AcDbEntity
  8
0
  6
BYBLOCK
 62
     0
100
AcDbLine
 10
-46.67859957129358
 20
45.77071258446814
 30
0.0
 11
-46.67859957129358
 21
45.41128281159186
 31
0.0
  0
LINE
  5
176
330
148
100
AcDbEntity
  8
0
  6
BYBLOCK
 62
     0
100
AcDbLine
 10
-47.42859957129359
 20
45.59128281159186
 30
0.0
 11
-47.67859957129359
 21
45.59128281159186
 31
0.0
  0
LINE
  5
177
330
148
100
AcDbEntity
  8
0
  6
BYBLOCK
 62
     0
100
AcDbLine
 10
-46.67859957129358
 20
45.59128281159186
 30
0.0
 11
-46.42859957129359
 21
45.59128281159186
 31
0.0
  0
LINE
  5
178
330
148
100
AcDbEntity
  8
0
  6
BYBLOCK
 62
     0
100
AcDbLine
 10
-47.55359957129359
 20
45.46628281159185
 30
0.0
 11
-47.30359957129358
 21
45.71628281159186
 31
0.0
  0
LINE
  5
179
330
148
100
AcDbEntity
  8
0
  6
BYBLOCK
 62
     0
100
AcDbLine
 10
-46.80359957129359
 20
45.46628281159185
 30
0.0
 11
-46.55359957129358
 21
45.71628281159186
 31
0.0
  0
TEXT
  5
17A
330
148
100
AcDbEntity
  8
0
  6
BYBLOCK
 62
     0
100
AcDbText
 10
-46.30359957129359
 20
45.52878281159186
 30
0.0
 40
0.125
  1
3/4
 72
     1
 11
-46.13693290462692
 21
45.59128281159186
 31
0.0
100
AcDbText
 73
     2
  0
POINT
  5
17C
330
148
100
AcDbEntity
  8
DEFPOINTS
  6
BYBLOCK
 62
     0
100
AcDbPoint
 10
-47.42859957129359
 20
45.83321258446814
 30
0.0
  0
POINT
  5
17D
330
148
100
AcDbEntity
  8
DEFPOINTS
  6
BYBLOCK
 62
     0
100
AcDbPoint
 10
-46.67859957129358
 20
45.83321258446814
 30
0.0
  0
POINT
  5
17E
330
148
100
AcDbEntity
  8
DEFPOINTS
  6
BYBLOCK
 62
     0
100
AcDbPoint
 10
-46.67859957129358
 20
45.59128281159186
 30
0.0
  0
ENDBLK
  5
17F
330
148
100
AcDbEntity
  8
0
100
AcDbBlockEnd
  0
BLOCK
  5
180
330
149
100
AcDbEntity
  8
0
100
AcDbBlockBegin
  2
*D2
 70
     1
 10
0.0
 20
0.0
 30
0.0
  3
*D2
  1

  0
LINE
  5
181
330
149
100
AcDbEntity
  8
0
  6
BYBLOCK
 62
     0
100
AcDbLine
 10
-45.92868892500839
 20
48.60537337104016
 30
0.0
 11
-46.0242444926901
 21
48.70092893872187
 31
0.0
  0
LINE
  5
182
330
149
100
AcDbEntity
  8
0
  6
BYBLOCK
 62
     0
100
AcDbLine
 10
-45.79645995692651
 20
48.73760233912205
 30
0.0
 11
-45.89201552460822
 21
48.83315790680375
 31
0.0
  0
LINE
  5
183
330
149
100
AcDbEntity
  8
0
  6
BYBLOCK
 62
     0
100
AcDbLine
 10
-45.89696527207651
 20
48.57364971810828
 30
0.0
 11
-46.07374196737315
 21
48.39687302281165
 31
0.0
  0
LINE
  5
184
330
149
100
AcDbEntity
  8
0
  6
BYBLOCK
 62
     0
100
AcDbLine
 10
-45.76473630399463
 20
48.70587868619017
 30
0.0
 11
-45.58795960869799
 21
48.8826553814868
 31
0.0
  0
LINE
  5
185
330
149
100
AcDbEntity
  8
0
  6
BYBLOCK
 62
     0
100
AcDbLine
 10
-45.89696527207651
 20
48.39687302281165
 30
0.0
 11
-45.89696527207651
 21
48.75042641340492
 31
0.0
  0
LINE
  5
186
330
149
100
AcDbEntity
  8
0
  6
BYBLOCK
 62
     0
100
AcDbLine
 10
-45.76473630399463
 20
48.52910199089353
 30
0.0
 11
-45.76473630399463
 21
48.8826553814868
 31
0.0
  0
TEXT
  5
187
330
149
100
AcDbEntity
  8
0
  6
BYBLOCK
 62
     0
100
AcDbText
 10
-45.45537708722551
 20
48.92684955531096
 30
0.0
 40
0.125
  1
3/16
 50
45.0
 72
     1
 11
-45.35225734830247
 21
49.11835764188232
 31
0.0
100
AcDbText
 73
     2
  0
POINT
  5
188
330
149
100
AcDbEntity
  8
DEFPOINTS
  6
BYBLOCK
 62
     0
100
AcDbPoint
 10
-45.88449475118423
 20
48.56117919721601
 30
0.0
  0
POINT
  5
189
330
149
100
AcDbEntity
  8
DEFPOINTS
  6
BYBLOCK
 62
     0
100
AcDbPoint
 10
-45.75226578310235
 20
48.69340816529788
 30
0.0
  0
POINT
  5
18A
330
149
100
AcDbEntity
  8
DEFPOINTS
  6
BYBLOCK
 62
     0
100
AcDbPoint
 10
-45.76473630399463
 20
48.70587868619017
 30
0.0
  0
ENDBLK
  5
18B
330
149
100
AcDbEntity
  8
0
100
AcDbBlockEnd
  0
BLOCK
  5
18C
330
14A
100
AcDbEntity
  8
0
100
AcDbBlockBegin
  2
*D3
 70
     1
 10
0.0
 20
0.0
 30
0.0
  3
*D3
  1

  0
LINE
  5
18D
330
14A
100
AcDbEntity
  8
0
  6
BYBLOCK
 62
     0
100
AcDbLine
 10
-45.90969157578792
 20
46.21045797199628
 30
0.0
 11
-45.74630654693103
 21
46.02123500207606
 31
0.0
  0
LINE
  5
18E
330
14A
100
AcDbEntity
  8
0
  6
BYBLOCK
 62
     0
100
AcDbLine
 10
-46.08599557517648
 20
46.22337694252794
 30
0.0
 11
-45.73338757639937
 21
46.19753900146462
 31
0.0
  0
LINE
  5
18F
330
14A
100
AcDbEntity
  8
0
  6
BYBLOCK
 62
     0
100
AcDbLine
 10
-47.24088677778623
 20
47.53501876143783
 30
0.0
 11
-46.86588677778623
 21
47.53501876143783
 31
0.0
  0
LINE
  5
190
330
14A
100
AcDbEntity
  8
0
  6
BYBLOCK
 62
     0
100
AcDbLine
 10
-47.05338677778623
 20
47.34751876143783
 30
0.0
 11
-47.05338677778623
 21
47.72251876143783
 31
0.0
  0
TEXT
  5
191
330
14A
100
AcDbEntity
  8
0
  6
BYBLOCK
 62
     0
100
AcDbText
 10
-45.71191977498263
 20
45.88577725990172
 30
0.0
 40
0.125
  1
%%c3 1/2
 50
310.8090462514714
 72
     1
 11
-45.44676732736004
 21
45.67432622388898
 31
0.0
100
AcDbText
 73
     2
  0
POINT
  5
192
330
14A
100
AcDbEntity
  8
DEFPOINTS
  6
BYBLOCK
 62
     0
100
AcDbPoint
 10
-45.90969157578792
 20
46.21045797199628
 30
0.0
  0
POINT
  5
193
330
14A
100
AcDbEntity
  8
DEFPOINTS
  6
BYBLOCK
 62
     0
100
AcDbPoint
 10
-48.19708197978455
 20
48.85957955087938
 30
0.0
  0
ENDBLK
  5
194
330
14A
100
AcDbEntity
  8
0
100
AcDbBlockEnd
  0
BLOCK
  5
195
330
14B
100
AcDbEntity
  8
0
100
AcDbBlockBegin
  2
*D4
 70
     1
 10
0.0
 20
0.0
 30
0.0
  3
*D4
  1

  0
LINE
  5
196
330
14B
100
AcDbEntity
  8
0
  6
BYBLOCK
 62
     0
100
AcDbLine
 10
-47.49109957129358
 20
45.84155498835998
 30
0.0
 11
-49.19443697027461
 21
45.84155498835998
 31
0.0
  0
LINE
  5
197
330
14B
100
AcDbEntity
  8
0
  6
BYBLOCK
 62
     0
100
AcDbLine
 10
-47.49109957129358
 20
47.09155498835998
 30
0.0
 11
-49.19443697027461
 21
47.09155498835998
 31
0.0
  0
LINE
  5
198
330
14B
100
AcDbEntity
  8
0
  6
BYBLOCK
 62
     0
100
AcDbLine
 10
-49.01443697027461
 20
45.84155498835998
 30
0.0
 11
-49.01443697027461
 21
46.09155498835998
 31
0.0
  0
LINE
  5
199
330
14B
100
AcDbEntity
  8
0
  6
BYBLOCK
 62
     0
100
AcDbLine
 10
-49.01443697027461
 20
47.09155498835998
 30
0.0
 11
-49.01443697027461
 21
46.84155498835997
 31
0.0
  0
LINE
  5
19A
330
14B
100
AcDbEntity
  8
0
  6
BYBLOCK
 62
     0
100
AcDbLine
 10
-48.88943697027461
 20
45.71655498835998
 30
0.0
 11
-49.13943697027462
 21
45.96655498835998
 31
0.0
  0
LINE
  5
19B
330
14B
100
AcDbEntity
  8
0
  6
BYBLOCK
 62
     0
100
AcDbLine
 10
-48.88943697027461
 20
46.96655498835998
 30
0.0
 11
-49.13943697027462
 21
47.21655498835998
 31
0.0
  0
TEXT
  5
19C
330
14B
100
AcDbEntity
  8
0
  6
BYBLOCK
 62
     0
100
AcDbText
 10
-48.95193697027462
 20
46.21655498835997
 30
0.0
 40
0.125
  1
1 1/4
 50
90.0
 72
     1
 11
-49.01443697027461
 21
46.46655498835998
 31
0.0
100
AcDbText
 73
     2
  0
POINT
  5
19D
330
14B
100
AcDbEntity
  8
DEFPOINTS
  6
BYBLOCK
 62
     0
100
AcDbPoint
 10
-47.42859957129359
 20
45.84155498835998
 30
0.0
  0
POINT
  5
19E
330
14B
100
AcDbEntity
  8
DEFPOINTS
  6
BYBLOCK
 62
     0
100
AcDbPoint
 10
-47.42859957129359
 20
47.09155498835998
 30
0.0
  0
POINT
  5
19F
330
14B
100
AcDbEntity
  8
DEFPOINTS
  6
BYBLOCK
 62
     0
100
AcDbPoint
 10
-49.01443697027461
 20
47.09155498835998
 30
0.0
  0
ENDBLK
  5
1A0
330
14B
100
AcDbEntity
  8
0
100
AcDbBlockEnd
  0
ENDSEC
  0
SECTION
  2
ENTITIES
  0
DIMENSION
  5
1A1
330
1E
100
AcDbEntity
  8
ADPDIM
100
AcDbDimension
  2
*D4
 10
-49.01443697027461
 20
47.09155498835998
 30
0.0
 11
-49.01443697027461
 21
46.46655498835998
 31
0.0
100
AcDbAlignedDimension
 13
-47.42859957129359
 23
45.84155498835998
 33
0.0
 14
-47.42859957129359
 24
47.09155498835998
 34
0.0
 50
90.0
100
AcDbRotatedDimension
  0
DIMENSION
  5
1A2
330
1E
100
AcDbEntity
  8
ADPDIM
100
AcDbDimension
  2
*D3
 10
-48.19708197978455
 20
48.85957955087938
 30
0.0
 11
-45.44676732736004
 21
45.67432622388898
 31
0.0
 70
     3
100
AcDbDiametricDimension
 15
-45.90969157578792
 25
46.21045797199628
 35
0.0
 40
0.0
  0
DIMENSION
  5
1A3
330
1E
100
AcDbEntity
  8
ADPDIM
100
AcDbDimension
  2
*D1
 10
-46.67859957129358
 20
45.59128281159186
 30
0.0
 11
-46.13693290462692
 21
45.59128281159186
 31
0.0
100
AcDbAlignedDimension
 13
-47.42859957129359
 23
45.83321258446814
 33
0.0
 14
-46.67859957129358
 24
45.83321258446814
 34
0.0
100
AcDbRotatedDimension
  0
INSERT
  5
1A4
330
1E
100
AcDbEntity
  8
0
100
AcDbBlockReference
  2
1235
 10
-47.05805324621358
 20
45.83090424644591
 30
0.0
  0
DIMENSION
  5
1A5
330
1E
100
AcDbEntity
  8
ADPDIM
100
AcDbDimension
  2
*D2
 10
-45.76473630399463
 20
48.70587868619017
 30
0.0
 11
-45.35225734830247
 21
49.11835764188232
 31
0.0
 70
     1
100
AcDbAlignedDimension
 13
-45.88449475118423
 23
48.56117919721601
 33
0.0
 14
-45.75226578310235
 24
48.69340816529788
 34
0.0
  0
TEXT
  5
1A9
330
1E
100
AcDbEntity
  8
ADPDIM
100
AcDbText
 10
-55.21054805848201
 20
44.3459936027456
 30
0.0
 40
0.15625
  1
J U L I U S  B L U M  &  C O . ,  I N C .      ( 8 0 0 )  5 2 6 - 6 2 9 3        W W W . J U L I U S B L U M . C O M        P A R T  N o .  1 2 3 5
 41
1.25
  7
ARIAL_WIDE
 72
     1
 11
-47.05338677778624
 21
44.5022436027456
 31
0.0
100
AcDbText
 73
     3
  0
ENDSEC
  0
SECTION
  2
OBJECTS
  0
DICTIONARY
  5
C
330
0
100
AcDbDictionary
  3
ACAD_GROUP
350
D
  3
ACAD_LAYOUT
350
19
  3
ACAD_MLINESTYLE
350
16
  3
ACAD_PLOTSETTINGS
350
18
  3
ACAD_PLOTSTYLENAME
350
E
  3
ACDBHEADERROUNDTRIPXREC
350
376
  3
ACDBVARIABLEDICTIONARY
350
21A
  0
DICTIONARY
  5
1E5
330
1E
100
AcDbDictionary
280
     1
  3
ACAD_LAYOUTSELFREF
360
398
  0
DICTIONARY
  5
1E7
330
1A
100
AcDbDictionary
280
     1
  3
ACAD_LAYOUTSELFREF
360
397
  0
DICTIONARY
  5
D
102
{ACAD_REACTORS
330
C
102
}
330
C
100
AcDbDictionary
  0
DICTIONARY
  5
19
102
{ACAD_REACTORS
330
C
102
}
330
C
100
AcDbDictionary
  0
DICTIONARY
  5
16
102
{ACAD_REACTORS
330
C
102
}
330
C
100
AcDbDictionary
  3
STANDARD
350
17
  0
DICTIONARY
  5
18
102
{ACAD_REACTORS
330
C
102
}
330
C
100
AcDbDictionary
  0
ACDBDICTIONARYWDFLT
  5
E
102
{ACAD_REACTORS
330
C
102
}
330
C
100
AcDbDictionary
281
     1
  3
Normal
350
F
100
AcDbDictionaryWithDefault
340
F
  0
DICTIONARY
  5
376
102
{ACAD_REACTORS
330
C
102
}
330
C
100
AcDbDictionary
  3
CEPSNTYPE
350
380
  3
DIMSTYLEDATA
350
384
  3
FINGERPRINTGUID
350
381
  3
HYPERLINKBASE
350
379
  3
INSUNITS
350
37F
  3
LAYOUTDICT
350
37B
  3
LWETCUNION
350
37E
  3
PLOTSETDICT
350
37C
  3
PLOTSTYLNAMDICT
350
37D
  3
PSVPSCALE
350
383
  3
PUCSBASE
350
387
  3
PUCSORGBACK
350
38D
  3
PUCSORGBOTTOM
350
389
  3
PUCSORGFRONT
350
38C
  3
PUCSORGLEFT
350
38A
  3
PUCSORGRIGHT
350
38B
  3
PUCSORGTOP
350
388
  3
PUCSORTHOREF
350
385
  3
PUCSORTHOVIEW
350
386
  3
STYLESHEET
350
37A
  3
TSTACKALIGN
350
377
  3
TSTACKSIZE
350
378
  3
UCSBASE
350
390
  3
UCSORGBACK
350
396
  3
UCSORGBOTTOM
350
392
  3
UCSORGFRONT
350
395
  3
UCSORGLEFT
350
393
  3
UCSORGRIGHT
350
394
  3
UCSORGTOP
350
391
  3
UCSORTHOREF
350
38E
  3
UCSORTHOVIEW
350
38F
  3
VERSIONGUID
350
382
  0
DICTIONARY
  5
21A
102
{ACAD_REACTORS
330
C
102
}
330
C
100
AcDbDictionary
  3
DIMASSOC
350
21C
  3
HIDETEXT
350
21B
  0
XRECORD
  5
398
102
{ACAD_REACTORS
330
1E5
102
}
330
1E5
100
AcDbXrecord
340
1E
  0
XRECORD
  5
397
102
{ACAD_REACTORS
330
1E7
102
}
330
1E7
100
AcDbXrecord
340
1A
  0
MLINESTYLE
  5
17
102
{ACAD_REACTORS
330
16
102
}
330
16
100
AcDbMlineStyle
  2
STANDARD
 70
     0
  3

 62
   256
 51
90.0
 52
90.0
 71
     2
 49
0.5
 62
   256
  6
BYLAYER
 49
-0.5
 62
   256
  6
BYLAYER
  0
ACDBPLACEHOLDER
  5
F
102
{ACAD_REACTORS
330
E
102
}
330
E
100
AcDbPlaceHolder
280
     0
  0
XRECORD
  5
380
102
{ACAD_REACTORS
330
376
102
}
330
376
100
AcDbXrecord
 90
        0
  0
XRECORD
  5
384
102
{ACAD_REACTORS
330
376
102
}
330
376
100
AcDbXrecord
1000
DSTYLE
1002
{
1070
   277
 70
     5
1070
   279
 70
     2
1002
}
  0
XRECORD
  5
381
102
{ACAD_REACTORS
330
376
102
}
330
376
100
AcDbXrecord
  1
{FEDEBAF0-6327-41A9-81DC-9B9E0E2B0D35}
  0
XRECORD
  5
379
102
{ACAD_REACTORS
330
376
102
}
330
376
100
AcDbXrecord
  1

  0
XRECORD
  5
37F
102
{ACAD_REACTORS
330
376
102
}
330
376
100
AcDbXrecord
 90
        0
  0
XRECORD
  5
37B
102
{ACAD_REACTORS
330
376
102
}
330
376
100
AcDbXrecord
340
19
  0
XRECORD
  5
37E
102
{ACAD_REACTORS
330
376
102
}
330
376
100
AcDbXrecord
 90
    14877
  0
XRECORD
  5
37C
102
{ACAD_REACTORS
330
376
102
}
330
376
100
AcDbXrecord
340
18
  0
XRECORD
  5
37D
102
{ACAD_REACTORS
330
376
102
}
330
376
100
AcDbXrecord
340
E
  0
XRECORD
  5
383
102
{ACAD_REACTORS
330
376
102
}
330
376
100
AcDbXrecord
 40
0.0
  0
XRECORD
  5
387
102
{ACAD_REACTORS
330
376
102
}
330
376
100
AcDbXrecord
340
0
  0
XRECORD
  5
38D
102
{ACAD_REACTORS
330
376
102
}
330
376
100
AcDbXrecord
 10
0.0
 20
0.0
 30
0.0
  0
XRECORD
  5
389
102
{ACAD_REACTORS
330
376
102
}
330
376
100
AcDbXrecord
 10
0.0
 20
0.0
 30
0.0
  0
XRECORD
  5
38C
102
{ACAD_REACTORS
330
376
102
}
330
376
100
AcDbXrecord
 10
0.0
 20
0.0
 30
0.0
  0
XRECORD
  5
38A
102
{ACAD_REACTORS
330
376
102
}
330
376
100
AcDbXrecord
 10
0.0
 20
0.0
 30
0.0
  0
XRECORD
  5
38B
102
{ACAD_REACTORS
330
376
102
}
330
376
100
AcDbXrecord
 10
0.0
 20
0.0
 30
0.0
  0
XRECORD
  5
388
102
{ACAD_REACTORS
330
376
102
}
330
376
100
AcDbXrecord
 10
0.0
 20
0.0
 30
0.0
  0
XRECORD
  5
385
102
{ACAD_REACTORS
330
376
102
}
330
376
100
AcDbXrecord
340
0
  0
XRECORD
  5
386
102
{ACAD_REACTORS
330
376
102
}
330
376
100
AcDbXrecord
 70
     0
  0
XRECORD
  5
37A
102
{ACAD_REACTORS
330
376
102
}
330
376
100
AcDbXrecord
  1

  0
XRECORD
  5
377
102
{ACAD_REACTORS
330
376
102
}
330
376
100
AcDbXrecord
 90
        1
  0
XRECORD
  5
378
102
{ACAD_REACTORS
330
376
102
}
330
376
100
AcDbXrecord
 90
       70
  0
XRECORD
  5
390
102
{ACAD_REACTORS
330
376
102
}
330
376
100
AcDbXrecord
340
0
  0
XRECORD
  5
396
102
{ACAD_REACTORS
330
376
102
}
330
376
100
AcDbXrecord
 10
0.0
 20
0.0
 30
0.0
  0
XRECORD
  5
392
102
{ACAD_REACTORS
330
376
102
}
330
376
100
AcDbXrecord
 10
0.0
 20
0.0
 30
0.0
  0
XRECORD
  5
395
102
{ACAD_REACTORS
330
376
102
}
330
376
100
AcDbXrecord
 10
0.0
 20
0.0
 30
0.0
  0
XRECORD
  5
393
102
{ACAD_REACTORS
330
376
102
}
330
376
100
AcDbXrecord
 10
0.0
 20
0.0
 30
0.0
  0
XRECORD
  5
394
102
{ACAD_REACTORS
330
376
102
}
330
376
100
AcDbXrecord
 10
0.0
 20
0.0
 30
0.0
  0
XRECORD
  5
391
102
{ACAD_REACTORS
330
376
102
}
330
376
100
AcDbXrecord
 10
0.0
 20
0.0
 30
0.0
  0
XRECORD
  5
38E
102
{ACAD_REACTORS
330
376
102
}
330
376
100
AcDbXrecord
340
0
  0
XRECORD
  5
38F
102
{ACAD_REACTORS
330
376
102
}
330
376
100
AcDbXrecord
 70
     0
  0
XRECORD
  5
382
102
{ACAD_REACTORS
330
376
102
}
330
376
100
AcDbXrecord
  1
{B66C1C2E-07B8-417E-8C25-40FA09C83488}
  0
DICTIONARYVAR
  5
21C
102
{ACAD_REACTORS
330
21A
102
}
330
21A
100
DictionaryVariables
280
     0
  1
2
  0
DICTIONARYVAR
  5
21B
102
{ACAD_REACTORS
330
21A
102
}
330
21A
100
DictionaryVariables
280
     0
  1
1
  0
ENDSEC
  0
EOF
