  0
SECTION
  2
HEADER
  9
$ACADVER
  1
AC1014
  9
$ACADMAINTVER
 70
     9
  9
$DWGCODEPAGE
  3
ANSI_1252
  9
$INSBASE
 10
-49.32884165334094
 20
41.06430659981197
 30
0.0
  9
$EXTMIN
 10
-56.23547744453805
 20
39.49597444228595
 30
0.0
  9
$EXTMAX
 10
-43.18401939542482
 20
43.99934262224058
 30
0.0
  9
$LIMMIN
 10
0.0
 20
0.0
  9
$LIMMAX
 10
36.0
 20
36.0
  9
$ORTHOMODE
 70
     1
  9
$REGENMODE
 70
     1
  9
$FILLMODE
 70
     1
  9
$QTEXTMODE
 70
     0
  9
$MIRRTEXT
 70
     1
  9
$DRAGMODE
 70
     0
  9
$LTSCALE
 40
1.0
  9
$OSMODE
 70
    37
  9
$ATTMODE
 70
     1
  9
$TEXTSIZE
 40
0.2
  9
$TRACEWID
 40
0.05
  9
$TEXTSTYLE
  7
STANDARD
  9
$CLAYER
  8
ADPDIM
  9
$CELTYPE
  6
BYLAYER
  9
$CECOLOR
 62
   256
  9
$CELTSCALE
 40
1.0
  9
$DELOBJ
 70
     1
  9
$DISPSILH
 70
     0
  9
$DIMSCALE
 40
1.0
  9
$DIMASZ
 40
0.125
  9
$DIMEXO
 40
0.0625
  9
$DIMDLI
 40
0.38
  9
$DIMRND
 40
0.0
  9
$DIMDLE
 40
0.0
  9
$DIMEXE
 40
0.18
  9
$DIMTP
 40
0.0
  9
$DIMTM
 40
0.0
  9
$DIMTXT
 40
0.125
  9
$DIMCEN
 40
0.1875
  9
$DIMTSZ
 40
0.125
  9
$DIMTOL
 70
     0
  9
$DIMLIM
 70
     0
  9
$DIMTIH
 70
     0
  9
$DIMTOH
 70
     0
  9
$DIMSE1
 70
     0
  9
$DIMSE2
 70
     0
  9
$DIMTAD
 70
     0
  9
$DIMZIN
 70
     3
  9
$DIMBLK
  1

  9
$DIMASO
 70
     1
  9
$DIMSHO
 70
     1
  9
$DIMPOST
  1

  9
$DIMAPOST
  1

  9
$DIMALT
 70
     0
  9
$DIMALTD
 70
     1
  9
$DIMALTF
 40
25.4
  9
$DIMLFAC
 40
1.0
  9
$DIMTOFL
 70
     0
  9
$DIMTVP
 40
0.0
  9
$DIMTIX
 70
     0
  9
$DIMSOXD
 70
     0
  9
$DIMSAH
 70
     0
  9
$DIMBLK1
  1

  9
$DIMBLK2
  1

  9
$DIMSTYLE
  2
STANDARD
  9
$DIMCLRD
 70
     0
  9
$DIMCLRE
 70
     0
  9
$DIMCLRT
 70
     0
  9
$DIMTFAC
 40
1.0
  9
$DIMGAP
 40
0.125
  9
$DIMJUST
 70
     0
  9
$DIMSD1
 70
     0
  9
$DIMSD2
 70
     0
  9
$DIMTOLJ
 70
     1
  9
$DIMTZIN
 70
     3
  9
$DIMALTZ
 70
     3
  9
$DIMALTTZ
 70
     3
  9
$DIMFIT
 70
     5
  9
$DIMUPT
 70
     0
  9
$DIMUNIT
 70
     5
  9
$DIMDEC
 70
     4
  9
$DIMTDEC
 70
     4
  9
$DIMALTU
 70
     5
  9
$DIMALTTD
 70
     1
  9
$DIMTXSTY
  7
STANDARD
  9
$DIMAUNIT
 70
     0
  9
$LUNITS
 70
     5
  9
$LUPREC
 70
     4
  9
$SKETCHINC
 40
0.1
  9
$FILLETRAD
 40
0.187
  9
$AUNITS
 70
     0
  9
$AUPREC
 70
     0
  9
$MENU
  1
acad
  9
$ELEVATION
 40
0.0
  9
$PELEVATION
 40
0.0
  9
$THICKNESS
 40
0.0
  9
$LIMCHECK
 70
     0
  9
$BLIPMODE
 70
     0
  9
$CHAMFERA
 40
0.0
  9
$CHAMFERB
 40
0.0
  9
$CHAMFERC
 40
0.0
  9
$CHAMFERD
 40
0.0
  9
$SKPOLY
 70
     0
  9
$TDCREATE
 40
2450406.507214884
  9
$TDUPDATE
 40
2452297.080422986
  9
$TDINDWG
 40
0.0055101505
  9
$TDUSRTIMER
 40
0.0055101505
  9
$USRTIMER
 70
     1
  9
$ANGBASE
 50
0.0
  9
$ANGDIR
 70
     0
  9
$PDMODE
 70
     0
  9
$PDSIZE
 40
0.0
  9
$PLINEWID
 40
0.0
  9
$COORDS
 70
     2
  9
$SPLFRAME
 70
     0
  9
$SPLINETYPE
 70
     6
  9
$SPLINESEGS
 70
     8
  9
$ATTDIA
 70
     0
  9
$ATTREQ
 70
     1
  9
$HANDLING
 70
 22529
  9
$HANDSEED
  5
358
  9
$SURFTAB1
 70
     6
  9
$SURFTAB2
 70
     6
  9
$SURFTYPE
 70
     6
  9
$SURFU
 70
     6
  9
$SURFV
 70
     6
  9
$UCSNAME
  2

  9
$UCSORG
 10
0.0
 20
0.0
 30
0.0
  9
$UCSXDIR
 10
1.0
 20
0.0
 30
0.0
  9
$UCSYDIR
 10
0.0
 20
1.0
 30
0.0
  9
$PUCSNAME
  2

  9
$PUCSORG
 10
0.0
 20
0.0
 30
0.0
  9
$PUCSXDIR
 10
1.0
 20
0.0
 30
0.0
  9
$PUCSYDIR
 10
0.0
 20
1.0
 30
0.0
  9
$USERI1
 70
     0
  9
$USERI2
 70
     0
  9
$USERI3
 70
     0
  9
$USERI4
 70
     0
  9
$USERI5
 70
     0
  9
$USERR1
 40
0.0
  9
$USERR2
 40
0.0
  9
$USERR3
 40
0.0
  9
$USERR4
 40
0.0
  9
$USERR5
 40
0.0
  9
$WORLDVIEW
 70
     1
  9
$SHADEDGE
 70
     3
  9
$SHADEDIF
 70
    70
  9
$TILEMODE
 70
     1
  9
$MAXACTVP
 70
    15
  9
$PINSBASE
 10
0.0008545024320483
 20
1.750284242913068
 30
0.0
  9
$PLIMCHECK
 70
     0
  9
$PEXTMIN
 10
1.000000000000000E+20
 20
1.000000000000000E+20
 30
1.000000000000000E+20
  9
$PEXTMAX
 10
-1.000000000000000E+20
 20
-1.000000000000000E+20
 30
-1.000000000000000E+20
  9
$PLIMMIN
 10
0.0
 20
0.0
  9
$PLIMMAX
 10
12.0
 20
9.0
  9
$UNITMODE
 70
     0
  9
$VISRETAIN
 70
     0
  9
$PLINEGEN
 70
     0
  9
$PSLTSCALE
 70
     1
  9
$TREEDEPTH
 70
  3020
  9
$PICKSTYLE
 70
     1
  9
$CMLSTYLE
  2
STANDARD
  9
$CMLJUST
 70
     0
  9
$CMLSCALE
 40
1.0
  9
$PROXYGRAPHICS
 70
     1
  9
$MEASUREMENT
 70
     0
  0
ENDSEC
  0
SECTION
  2
CLASSES
  0
CLASS
  1
ACDBDICTIONARYWDFLT
  2
AcDbDictionaryWithDefault
  3
AutoCAD 2000
 90
        0
280
     0
281
     0
  0
CLASS
  1
ACDBPLACEHOLDER
  2
AcDbPlaceHolder
  3
AutoCAD 2000
 90
        0
280
     0
281
     0
  0
CLASS
  1
LAYOUT
  2
AcDbLayout
  3
AutoCAD 2000
 90
        0
280
     0
281
     0
  0
CLASS
  1
DICTIONARYVAR
  2
AcDbDictionaryVar
  3
AutoCAD 2000
 90
        0
280
     0
281
     0
  0
CLASS
  1
LONG_TRANSACTION
  2
AcDbLongTransaction
  3
AutoCAD 2000
 90
        0
280
     0
281
     0
  0
CLASS
  1
LWPOLYLINE
  2
AcDbPolyline
  3
AutoCAD 2000
 90
        0
280
     0
281
     1
  0
CLASS
  1
HATCH
  2
AcDbHatch
  3
AutoCAD 2000
 90
        0
280
     0
281
     1
  0
CLASS
  1
XRECORD
  2
AcDbXrecord
  3
AutoCAD 2000
 90
        0
280
     0
281
     0
  0
CLASS
  1
LONG_TRANSACTION
  2
AcDbLongTransaction
  3
AutoCAD 2000
 90
        0
280
     0
281
     0
  0
CLASS
  1
LWPOLYLINE
  2
AcDbPolyline
  3
AutoCAD 2000
 90
        0
280
     0
281
     1
  0
CLASS
  1
HATCH
  2
AcDbHatch
  3
AutoCAD 2000
 90
        0
280
     0
281
     1
  0
CLASS
  1
XRECORD
  2
AcDbXrecord
  3
AutoCAD 2000
 90
        0
280
     0
281
     0
  0
CLASS
  1
LONG_TRANSACTION
  2
AcDbLongTransaction
  3
AutoCAD 2000
 90
        0
280
     0
281
     0
  0
CLASS
  1
LWPOLYLINE
  2
AcDbPolyline
  3
AutoCAD 2000
 90
        0
280
     0
281
     1
  0
CLASS
  1
HATCH
  2
AcDbHatch
  3
AutoCAD 2000
 90
        0
280
     0
281
     1
  0
CLASS
  1
XRECORD
  2
AcDbXrecord
  3
AutoCAD 2000
 90
        0
280
     0
281
     0
  0
CLASS
  1
LONG_TRANSACTION
  2
AcDbLongTransaction
  3
AutoCAD 2000
 90
        0
280
     0
281
     0
  0
CLASS
  1
LWPOLYLINE
  2
AcDbPolyline
  3
AutoCAD 2000
 90
        0
280
     0
281
     1
  0
CLASS
  1
HATCH
  2
AcDbHatch
  3
AutoCAD 2000
 90
        0
280
     0
281
     1
  0
CLASS
  1
XRECORD
  2
AcDbXrecord
  3
AutoCAD 2000
 90
        0
280
     0
281
     0
  0
CLASS
  1
LONG_TRANSACTION
  2
AcDbLongTransaction
  3
AutoCAD 2000
 90
        0
280
     0
281
     0
  0
CLASS
  1
LWPOLYLINE
  2
AcDbPolyline
  3
AutoCAD 2000
 90
        0
280
     0
281
     1
  0
CLASS
  1
HATCH
  2
AcDbHatch
  3
AutoCAD 2000
 90
        0
280
     0
281
     1
  0
CLASS
  1
XRECORD
  2
AcDbXrecord
  3
AutoCAD 2000
 90
        0
280
     0
281
     0
  0
CLASS
  1
LONG_TRANSACTION
  2
AcDbLongTransaction
  3
AutoCAD 2000
 90
        0
280
     0
281
     0
  0
CLASS
  1
LWPOLYLINE
  2
AcDbPolyline
  3
AutoCAD 2000
 90
        0
280
     0
281
     1
  0
CLASS
  1
HATCH
  2
AcDbHatch
  3
AutoCAD 2000
 90
        0
280
     0
281
     1
  0
CLASS
  1
XRECORD
  2
AcDbXrecord
  3
AutoCAD 2000
 90
        0
280
     0
281
     0
  0
ENDSEC
  0
SECTION
  2
TABLES
  0
TABLE
  2
VPORT
  5
8
330
0
100
AcDbSymbolTable
 70
     2
  0
VPORT
  5
334
330
8
100
AcDbSymbolTableRecord
100
AcDbViewportTableRecord
  2
*ACTIVE
 70
     0
 10
0.0
 20
0.0
 11
1.0
 21
1.0
 12
-49.69806509017198
 22
41.74785154941981
 13
0.0
 23
0.0
 14
0.5740882589684922
 24
0.5740882589684922
 15
0.5
 25
0.5
 16
0.0
 26
0.0
 36
1.0
 17
0.0
 27
0.0
 37
0.0
 40
8.369743808387859
 41
1.570528967254408
 42
50.0
 43
0.0
 44
0.0
 50
0.0
 51
0.0
 71
     0
 72
   100
 73
     1
 74
     0
 75
     0
 76
     0
 77
     0
 78
     0
  0
ENDTAB
  0
TABLE
  2
LTYPE
  5
5
330
0
100
AcDbSymbolTable
 70
     1
  0
LTYPE
  5
13
330
5
100
AcDbSymbolTableRecord
100
AcDbLinetypeTableRecord
  2
BYBLOCK
 70
     0
  3

 72
    65
 73
     0
 40
0.0
  0
LTYPE
  5
14
330
5
100
AcDbSymbolTableRecord
100
AcDbLinetypeTableRecord
  2
BYLAYER
 70
     0
  3

 72
    65
 73
     0
 40
0.0
  0
LTYPE
  5
15
330
5
100
AcDbSymbolTableRecord
100
AcDbLinetypeTableRecord
  2
CONTINUOUS
 70
     0
  3
Solid line
 72
    65
 73
     0
 40
0.0
  0
ENDTAB
  0
TABLE
  2
LAYER
  5
2
330
0
100
AcDbSymbolTable
 70
     3
  0
LAYER
  5
10
330
2
100
AcDbSymbolTableRecord
100
AcDbLayerTableRecord
  2
0
 70
     0
 62
     7
  6
CONTINUOUS
  0
LAYER
  5
11E
330
2
100
AcDbSymbolTableRecord
100
AcDbLayerTableRecord
  2
DEFPOINTS
 70
     0
 62
     7
  6
CONTINUOUS
  0
LAYER
  5
122
330
2
100
AcDbSymbolTableRecord
100
AcDbLayerTableRecord
  2
ADPDIM
 70
     0
 62
     3
  6
CONTINUOUS
  0
ENDTAB
  0
TABLE
  2
STYLE
  5
3
330
0
100
AcDbSymbolTable
 70
     2
  0
STYLE
  5
11
330
3
100
AcDbSymbolTableRecord
100
AcDbTextStyleTableRecord
  2
STANDARD
 70
     0
 40
0.0
 41
1.0
 50
0.0
 71
     0
 42
0.2
  3
txt
  4

  0
STYLE
  5
167
330
3
100
AcDbSymbolTableRecord
100
AcDbTextStyleTableRecord
  2
ARIAL_WIDE
 70
     0
 40
0.0
 41
1.25
 50
0.0
 71
     0
 42
0.2
  3
ARIAL.TTF
  4

1001
ACAD
1000
Arial
1071
       34
  0
ENDTAB
  0
TABLE
  2
VIEW
  5
6
330
0
100
AcDbSymbolTable
 70
     0
  0
ENDTAB
  0
TABLE
  2
UCS
  5
7
330
0
100
AcDbSymbolTable
 70
     0
  0
ENDTAB
  0
TABLE
  2
APPID
  5
9
330
0
100
AcDbSymbolTable
 70
     1
  0
APPID
  5
12
330
9
100
AcDbSymbolTableRecord
100
AcDbRegAppTableRecord
  2
ACAD
 70
     0
  0
ENDTAB
  0
TABLE
  2
DIMSTYLE
  5
A
330
0
100
AcDbSymbolTable
 70
     1
  0
DIMSTYLE
105
165
330
A
100
AcDbSymbolTableRecord
100
AcDbDimStyleTableRecord
  2
STANDARD
 70
     0
  3

  4

  5

  6

  7

 40
1.0
 41
0.18
 42
0.0625
 43
0.38
 44
0.18
 45
0.0
 46
0.0
 47
0.0
 48
0.0
140
0.18
141
0.09
142
0.0
143
25.4
144
1.0
145
0.0
146
1.0
147
0.09
 71
     0
 72
     0
 73
     1
 74
     1
 75
     0
 76
     0
 77
     0
 78
     0
170
     0
171
     2
172
     0
173
     0
174
     0
175
     0
176
     0
177
     0
178
     0
270
     2
271
     4
272
     4
273
     2
274
     2
340
11
275
     0
280
     0
281
     0
282
     0
283
     1
284
     0
285
     0
286
     0
287
     3
288
     0
  0
ENDTAB
  0
TABLE
  2
BLOCK_RECORD
  5
1
330
0
100
AcDbSymbolTable
 70
     3
  0
BLOCK_RECORD
  5
1E
102
{ACAD_XDICTIONARY
360
1A4
102
}
330
1
100
AcDbSymbolTableRecord
100
AcDbBlockTableRecord
  2
*MODEL_SPACE
  0
BLOCK_RECORD
  5
1A
102
{ACAD_XDICTIONARY
360
1A6
102
}
330
1
100
AcDbSymbolTableRecord
100
AcDbBlockTableRecord
  2
*PAPER_SPACE
  0
BLOCK_RECORD
  5
116
330
1
100
AcDbSymbolTableRecord
100
AcDbBlockTableRecord
  2
*D0
  0
BLOCK_RECORD
  5
117
330
1
100
AcDbSymbolTableRecord
100
AcDbBlockTableRecord
  2
*D1
  0
BLOCK_RECORD
  5
118
330
1
100
AcDbSymbolTableRecord
100
AcDbBlockTableRecord
  2
*D2
  0
ENDTAB
  0
ENDSEC
  0
SECTION
  2
BLOCKS
  0
BLOCK
  5
125
330
1E
100
AcDbEntity
  8
0
100
AcDbBlockBegin
  2
*MODEL_SPACE
 70
     0
 10
0.0
 20
0.0
 30
0.0
  3
*MODEL_SPACE
  1

  0
ENDBLK
  5
126
330
1E
100
AcDbEntity
  8
0
100
AcDbBlockEnd
  0
BLOCK
  5
123
330
1A
100
AcDbEntity
 67
     1
  8
0
100
AcDbBlockBegin
  2
*PAPER_SPACE
 70
     0
 10
0.0
 20
0.0
 30
0.0
  3
*PAPER_SPACE
  1

  0
ENDBLK
  5
124
330
1A
100
AcDbEntity
 67
     1
  8
0
100
AcDbBlockEnd
  0
BLOCK
  5
128
330
116
100
AcDbEntity
  8
0
100
AcDbBlockBegin
  2
*D0
 70
     1
 10
0.0
 20
0.0
 30
0.0
  3
*D0
  1

  0
LINE
  5
129
330
116
100
AcDbEntity
  8
0
  6
BYBLOCK
 62
     0
100
AcDbLine
 10
-49.21079279140639
 20
42.30125162862363
 30
0.0
 11
-47.53569953734671
 21
42.30125162862363
 31
0.0
  0
LINE
  5
12A
330
116
100
AcDbEntity
  8
0
  6
BYBLOCK
 62
     0
100
AcDbLine
 10
-49.21079279140639
 20
41.06383348959414
 30
0.0
 11
-47.53569953734671
 21
41.06383348959414
 31
0.0
  0
LINE
  5
12B
330
116
100
AcDbEntity
  8
0
  6
BYBLOCK
 62
     0
100
AcDbLine
 10
-47.71569953734672
 20
42.30125162862363
 30
0.0
 11
-47.71569953734672
 21
42.55125162862364
 31
0.0
  0
LINE
  5
12C
330
116
100
AcDbEntity
  8
0
  6
BYBLOCK
 62
     0
100
AcDbLine
 10
-47.71569953734672
 20
41.06383348959414
 30
0.0
 11
-47.71569953734672
 21
40.81383348959414
 31
0.0
  0
LINE
  5
12D
330
116
100
AcDbEntity
  8
0
  6
BYBLOCK
 62
     0
100
AcDbLine
 10
-47.59069953734671
 20
42.17625162862364
 30
0.0
 11
-47.84069953734671
 21
42.42625162862363
 31
0.0
  0
LINE
  5
12E
330
116
100
AcDbEntity
  8
0
  6
BYBLOCK
 62
     0
100
AcDbLine
 10
-47.59069953734671
 20
40.93883348959415
 30
0.0
 11
-47.84069953734671
 21
41.18883348959414
 31
0.0
  0
TEXT
  5
12F
330
116
100
AcDbEntity
  8
0
  6
BYBLOCK
 62
     0
100
AcDbText
 10
-47.65319953734671
 20
40.18883348959414
 30
0.0
 40
0.125
  1
1 1/4
 50
90.0
 72
     1
 11
-47.71569953734672
 21
40.43883348959414
 31
0.0
100
AcDbText
 73
     2
  0
POINT
  5
131
330
116
100
AcDbEntity
  8
DEFPOINTS
  6
BYBLOCK
 62
     0
100
AcDbPoint
 10
-49.27329279140639
 20
42.30125162862363
 30
0.0
  0
POINT
  5
132
330
116
100
AcDbEntity
  8
DEFPOINTS
  6
BYBLOCK
 62
     0
100
AcDbPoint
 10
-49.27329279140639
 20
41.06383348959414
 30
0.0
  0
POINT
  5
133
330
116
100
AcDbEntity
  8
DEFPOINTS
  6
BYBLOCK
 62
     0
100
AcDbPoint
 10
-47.71569953734672
 20
41.06383348959414
 30
0.0
  0
ENDBLK
  5
134
330
116
100
AcDbEntity
  8
0
100
AcDbBlockEnd
  0
BLOCK
  5
135
330
117
100
AcDbEntity
  8
0
100
AcDbBlockBegin
  2
*D1
 70
     1
 10
0.0
 20
0.0
 30
0.0
  3
*D1
  1

  0
LINE
  5
136
330
117
100
AcDbEntity
  8
0
  6
BYBLOCK
 62
     0
100
AcDbLine
 10
-50.91256021420959
 20
41.61766853396612
 30
0.0
 11
-51.11385744520202
 21
41.4694139394512
 31
0.0
  0
LINE
  5
137
330
117
100
AcDbEntity
  8
0
  6
BYBLOCK
 62
     0
100
AcDbLine
 10
-50.93908153244834
 20
41.44289262121244
 30
0.0
 11
-50.88603889597084
 21
41.79244444671978
 31
0.0
  0
LINE
  5
138
330
117
100
AcDbEntity
  8
0
  6
BYBLOCK
 62
     0
100
AcDbLine
 10
-49.89624635820123
 20
42.50427255834376
 30
0.0
 11
-49.52124635820123
 21
42.50427255834376
 31
0.0
  0
LINE
  5
139
330
117
100
AcDbEntity
  8
0
  6
BYBLOCK
 62
     0
100
AcDbLine
 10
-49.70874635820123
 20
42.31677255834377
 30
0.0
 11
-49.70874635820123
 21
42.69177255834377
 31
0.0
  0
TEXT
  5
13A
330
117
100
AcDbEntity
  8
0
  6
BYBLOCK
 62
     0
100
AcDbText
 10
-51.34519010456319
 20
41.22141683901653
 30
0.0
 40
0.125
  1
%%c3
 50
36.37149531703652
 72
     1
 11
-51.29837990694507
 21
41.33351389447919
 31
0.0
100
AcDbText
 73
     2
  0
POINT
  5
13B
330
117
100
AcDbEntity
  8
DEFPOINTS
  6
BYBLOCK
 62
     0
100
AcDbPoint
 10
-50.91256021420959
 20
41.61766853396612
 30
0.0
  0
POINT
  5
13C
330
117
100
AcDbEntity
  8
DEFPOINTS
  6
BYBLOCK
 62
     0
100
AcDbPoint
 10
-48.50493250219287
 20
43.39087658272143
 30
0.0
  0
ENDBLK
  5
13D
330
117
100
AcDbEntity
  8
0
100
AcDbBlockEnd
  0
BLOCK
  5
13E
330
118
100
AcDbEntity
  8
0
100
AcDbBlockBegin
  2
*D2
 70
     1
 10
0.0
 20
0.0
 30
0.0
  3
*D2
  1

  0
LINE
  5
13F
330
118
100
AcDbEntity
  8
0
  6
BYBLOCK
 62
     0
100
AcDbLine
 10
-50.0920277660577
 20
40.90154173476891
 30
0.0
 11
-50.0920277660577
 21
40.42479132259892
 31
0.0
  0
LINE
  5
140
330
118
100
AcDbEntity
  8
0
  6
BYBLOCK
 62
     0
100
AcDbLine
 10
-49.33320022425483
 20
40.90154173476891
 30
0.0
 11
-49.33320022425483
 21
40.42479132259892
 31
0.0
  0
LINE
  5
141
330
118
100
AcDbEntity
  8
0
  6
BYBLOCK
 62
     0
100
AcDbLine
 10
-50.0920277660577
 20
40.60479132259891
 30
0.0
 11
-50.3420277660577
 21
40.60479132259891
 31
0.0
  0
LINE
  5
142
330
118
100
AcDbEntity
  8
0
  6
BYBLOCK
 62
     0
100
AcDbLine
 10
-49.33320022425483
 20
40.60479132259891
 30
0.0
 11
-49.08320022425484
 21
40.60479132259891
 31
0.0
  0
LINE
  5
143
330
118
100
AcDbEntity
  8
0
  6
BYBLOCK
 62
     0
100
AcDbLine
 10
-50.21702776605771
 20
40.47979132259892
 30
0.0
 11
-49.9670277660577
 21
40.72979132259892
 31
0.0
  0
LINE
  5
144
330
118
100
AcDbEntity
  8
0
  6
BYBLOCK
 62
     0
100
AcDbLine
 10
-49.45820022425484
 20
40.47979132259892
 30
0.0
 11
-49.20820022425484
 21
40.72979132259892
 31
0.0
  0
TEXT
  5
145
330
118
100
AcDbEntity
  8
0
  6
BYBLOCK
 62
     0
100
AcDbText
 10
-48.95820022425484
 20
40.54229132259892
 30
0.0
 40
0.125
  1
3/4
 72
     1
 11
-48.79153355758817
 21
40.60479132259891
 31
0.0
100
AcDbText
 73
     2
  0
POINT
  5
146
330
118
100
AcDbEntity
  8
DEFPOINTS
  6
BYBLOCK
 62
     0
100
AcDbPoint
 10
-50.0920277660577
 20
40.96404173476891
 30
0.0
  0
POINT
  5
147
330
118
100
AcDbEntity
  8
DEFPOINTS
  6
BYBLOCK
 62
     0
100
AcDbPoint
 10
-49.33320022425483
 20
40.96404173476891
 30
0.0
  0
POINT
  5
148
330
118
100
AcDbEntity
  8
DEFPOINTS
  6
BYBLOCK
 62
     0
100
AcDbPoint
 10
-49.33320022425483
 20
40.60479132259891
 30
0.0
  0
ENDBLK
  5
149
330
118
100
AcDbEntity
  8
0
100
AcDbBlockEnd
  0
ENDSEC
  0
SECTION
  2
ENTITIES
  0
DIMENSION
  5
14A
330
1E
100
AcDbEntity
  8
ADPDIM
100
AcDbDimension
  2
*D0
 10
-47.71569953734672
 20
41.06383348959414
 30
0.0
 11
-47.71569953734672
 21
40.43883348959414
 31
0.0
100
AcDbAlignedDimension
 13
-49.27329279140639
 23
42.30125162862363
 33
0.0
 14
-49.27329279140639
 24
41.06383348959414
 34
0.0
 50
90.0
100
AcDbRotatedDimension
  0
LINE
  5
14B
330
1E
100
AcDbEntity
  8
0
100
AcDbLine
 10
-49.33474841998144
 20
41.32994425875764
 30
0.0
 11
-49.30374841998144
 21
41.29894425875765
 31
0.0
  0
LINE
  5
14C
330
1E
100
AcDbEntity
  8
0
100
AcDbLine
 10
-49.30374841998144
 20
41.29894425875765
 30
0.0
 11
-49.33474841998144
 21
41.26794425875765
 31
0.0
  0
ARC
  5
14D
330
1E
100
AcDbEntity
  8
0
100
AcDbCircle
 10
-49.33474841998144
 20
42.29894425875765
 30
0.0
 40
0.125
100
AcDbArc
 50
0.0
 51
90.0
  0
ARC
  5
14E
330
1E
100
AcDbEntity
  8
0
100
AcDbCircle
 10
-49.70807727158916
 20
42.49934225401979
 30
0.0
 40
1.375
100
AcDbArc
 50
291.8638368190544
 51
247.98491709739
  0
ARC
  5
14F
330
1E
100
AcDbEntity
  8
0
100
AcDbCircle
 10
-49.70874635820123
 20
42.50427255834378
 30
0.0
 40
1.495070063896797
100
AcDbArc
 50
285.2389943380912
 51
254.6805806725412
  0
DIMENSION
  5
150
330
1E
100
AcDbEntity
  8
ADPDIM
100
AcDbDimension
  2
*D1
 10
-48.50493250219287
 20
43.39087658272143
 30
0.0
 11
-51.29837990694507
 21
41.33351389447919
 31
0.0
 70
     3
100
AcDbDiametricDimension
 15
-50.91256021420959
 25
41.61766853396612
 35
0.0
 40
0.0
  0
DIMENSION
  5
151
330
1E
100
AcDbEntity
  8
ADPDIM
100
AcDbDimension
  2
*D2
 10
-49.33320022425483
 20
40.60479132259891
 30
0.0
 11
-48.79153355758817
 21
40.60479132259891
 31
0.0
100
AcDbAlignedDimension
 13
-50.0920277660577
 23
40.96404173476891
 33
0.0
 14
-49.33320022425483
 24
40.96404173476891
 34
0.0
100
AcDbRotatedDimension
  0
LINE
  5
152
330
1E
100
AcDbEntity
  8
0
100
AcDbLine
 10
-49.33474841998144
 20
42.28394425875765
 30
0.0
 11
-49.33474841998144
 21
41.32994425875764
 31
0.0
  0
LINE
  5
153
330
1E
100
AcDbEntity
  8
0
100
AcDbLine
 10
-50.20974841998143
 20
41.23387094422928
 30
0.0
 11
-50.20974841998143
 21
42.29894425875765
 31
0.0
  0
LINE
  5
154
330
1E
100
AcDbEntity
  8
0
100
AcDbLine
 10
-50.08474841998143
 20
41.32994425875764
 30
0.0
 11
-50.08474841998143
 21
42.28394425875765
 31
0.0
  0
LINE
  5
155
330
1E
100
AcDbEntity
  8
0
100
AcDbLine
 10
-50.08474841998143
 20
41.32994425875764
 30
0.0
 11
-50.11574841998144
 21
41.29894425875765
 31
0.0
  0
LINE
  5
156
330
1E
100
AcDbEntity
  8
0
100
AcDbLine
 10
-50.11574841998144
 20
41.29894425875765
 30
0.0
 11
-50.08474841998143
 21
41.26794425875765
 31
0.0
  0
ARC
  5
157
330
1E
100
AcDbEntity
  8
0
100
AcDbCircle
 10
-50.21974841998144
 20
41.23387094422928
 30
0.0
 40
0.01
100
AcDbArc
 50
247.9849170973948
 51
0.0
  0
ARC
  5
158
330
1E
100
AcDbEntity
  8
0
100
AcDbCircle
 10
-49.31974841998144
 20
41.07623610554648
 30
0.0
 40
0.015
100
AcDbArc
 50
180.0
 51
285.3672734395926
  0
ARC
  5
159
330
1E
100
AcDbEntity
  8
0
100
AcDbCircle
 10
-50.09974841998143
 20
41.07678354117385
 30
0.0
 40
0.015
100
AcDbArc
 50
254.5523015710408
 51
0.0
  0
LINE
  5
15A
330
1E
100
AcDbEntity
  8
0
100
AcDbLine
 10
-50.08474841998143
 20
41.07678354117385
 30
0.0
 11
-50.08474841998143
 21
41.26794425875765
 31
0.0
  0
LINE
  5
15B
330
1E
100
AcDbEntity
  8
0
100
AcDbLine
 10
-49.33474841998144
 20
41.26794425875765
 30
0.0
 11
-49.33474841998144
 21
41.07623610554648
 31
0.0
  0
ARC
  5
15C
330
1E
100
AcDbEntity
  8
0
100
AcDbCircle
 10
-49.34974841998144
 20
42.28394425875765
 30
0.0
 40
0.015
100
AcDbArc
 50
0.0
 51
90.0
  0
LINE
  5
15D
330
1E
100
AcDbEntity
  8
0
100
AcDbLine
 10
-49.60074841998144
 20
42.42394425875765
 30
0.0
 11
-49.33474841998144
 21
42.42394425875765
 31
0.0
  0
LINE
  5
15E
330
1E
100
AcDbEntity
  8
0
100
AcDbLine
 10
-49.70974841998144
 20
42.29894425875765
 30
0.0
 11
-49.34974841998144
 21
42.29894425875765
 31
0.0
  0
ARC
  5
15F
330
1E
100
AcDbEntity
  8
0
100
AcDbCircle
 10
-50.06974841998144
 20
42.28394425875765
 30
0.0
 40
0.015
100
AcDbArc
 50
90.0
 51
180.0
  0
ARC
  5
160
330
1E
100
AcDbEntity
  8
0
100
AcDbCircle
 10
-50.08474841998143
 20
42.29894425875765
 30
0.0
 40
0.125
100
AcDbArc
 50
90.0
 51
180.0
  0
LINE
  5
161
330
1E
100
AcDbEntity
  8
0
100
AcDbLine
 10
-50.08474841998143
 20
42.42394425875765
 30
0.0
 11
-49.60074841998144
 21
42.42394425875765
 31
0.0
  0
LINE
  5
162
330
1E
100
AcDbEntity
  8
0
100
AcDbLine
 10
-50.06974841998144
 20
42.29894425875765
 30
0.0
 11
-49.70974841998144
 21
42.29894425875765
 31
0.0
  0
LINE
  5
163
330
1E
100
AcDbEntity
  8
0
100
AcDbLine
 10
-49.20974841998145
 20
42.29894425875765
 30
0.0
 11
-49.20974841998145
 21
41.23252467495674
 31
0.0
  0
ARC
  5
164
330
1E
100
AcDbEntity
  8
0
100
AcDbCircle
 10
-49.19974841998144
 20
41.23252467495674
 30
0.0
 40
0.01
100
AcDbArc
 50
180.0
 51
291.8638368190558
  0
TEXT
  5
168
330
1E
100
AcDbEntity
  8
ADPDIM
100
AcDbText
 10
-56.23547744453805
 20
39.53297989931187
 30
0.0
 40
0.125
  1
J U L I U S  B L U M  &  C O . ,  I N C .      ( 8 0 0 )  5 2 6 - 6 2 9 3        W W W . J U L I U S B L U M . C O M        P A R T  N o .  1 2 3 3
 41
1.25
  7
ARIAL_WIDE
 72
     1
 11
-49.70974841998144
 21
39.65797989931187
 31
0.0
100
AcDbText
 73
     3
  0
ENDSEC
  0
SECTION
  2
OBJECTS
  0
DICTIONARY
  5
C
330
0
100
AcDbDictionary
  3
ACAD_GROUP
350
D
  3
ACAD_LAYOUT
350
19
  3
ACAD_MLINESTYLE
350
16
  3
ACAD_PLOTSETTINGS
350
18
  3
ACAD_PLOTSTYLENAME
350
E
  3
ACDBHEADERROUNDTRIPXREC
350
335
  3
ACDBVARIABLEDICTIONARY
350
1D9
  0
DICTIONARY
  5
1A4
330
1E
100
AcDbDictionary
280
     1
  3
ACAD_LAYOUTSELFREF
360
357
  0
DICTIONARY
  5
1A6
330
1A
100
AcDbDictionary
280
     1
  3
ACAD_LAYOUTSELFREF
360
356
  0
DICTIONARY
  5
D
102
{ACAD_REACTORS
330
C
102
}
330
C
100
AcDbDictionary
  0
DICTIONARY
  5
19
102
{ACAD_REACTORS
330
C
102
}
330
C
100
AcDbDictionary
  0
DICTIONARY
  5
16
102
{ACAD_REACTORS
330
C
102
}
330
C
100
AcDbDictionary
  3
STANDARD
350
17
  0
DICTIONARY
  5
18
102
{ACAD_REACTORS
330
C
102
}
330
C
100
AcDbDictionary
  0
ACDBDICTIONARYWDFLT
  5
E
102
{ACAD_REACTORS
330
C
102
}
330
C
100
AcDbDictionary
281
     1
  3
Normal
350
F
100
AcDbDictionaryWithDefault
340
F
  0
DICTIONARY
  5
335
102
{ACAD_REACTORS
330
C
102
}
330
C
100
AcDbDictionary
  3
CEPSNTYPE
350
33F
  3
DIMSTYLEDATA
350
343
  3
FINGERPRINTGUID
350
340
  3
HYPERLINKBASE
350
338
  3
INSUNITS
350
33E
  3
LAYOUTDICT
350
33A
  3
LWETCUNION
350
33D
  3
PLOTSETDICT
350
33B
  3
PLOTSTYLNAMDICT
350
33C
  3
PSVPSCALE
350
342
  3
PUCSBASE
350
346
  3
PUCSORGBACK
350
34C
  3
PUCSORGBOTTOM
350
348
  3
PUCSORGFRONT
350
34B
  3
PUCSORGLEFT
350
349
  3
PUCSORGRIGHT
350
34A
  3
PUCSORGTOP
350
347
  3
PUCSORTHOREF
350
344
  3
PUCSORTHOVIEW
350
345
  3
STYLESHEET
350
339
  3
TSTACKALIGN
350
336
  3
TSTACKSIZE
350
337
  3
UCSBASE
350
34F
  3
UCSORGBACK
350
355
  3
UCSORGBOTTOM
350
351
  3
UCSORGFRONT
350
354
  3
UCSORGLEFT
350
352
  3
UCSORGRIGHT
350
353
  3
UCSORGTOP
350
350
  3
UCSORTHOREF
350
34D
  3
UCSORTHOVIEW
350
34E
  3
VERSIONGUID
350
341
  0
DICTIONARY
  5
1D9
102
{ACAD_REACTORS
330
C
102
}
330
C
100
AcDbDictionary
  3
DIMASSOC
350
1DB
  3
HIDETEXT
350
1DA
  0
XRECORD
  5
357
102
{ACAD_REACTORS
330
1A4
102
}
330
1A4
100
AcDbXrecord
340
1E
  0
XRECORD
  5
356
102
{ACAD_REACTORS
330
1A6
102
}
330
1A6
100
AcDbXrecord
340
1A
  0
MLINESTYLE
  5
17
102
{ACAD_REACTORS
330
16
102
}
330
16
100
AcDbMlineStyle
  2
STANDARD
 70
     0
  3

 62
   256
 51
90.0
 52
90.0
 71
     2
 49
0.5
 62
   256
  6
BYLAYER
 49
-0.5
 62
   256
  6
BYLAYER
  0
ACDBPLACEHOLDER
  5
F
102
{ACAD_REACTORS
330
E
102
}
330
E
100
AcDbPlaceHolder
280
     0
  0
XRECORD
  5
33F
102
{ACAD_REACTORS
330
335
102
}
330
335
100
AcDbXrecord
 90
        0
  0
XRECORD
  5
343
102
{ACAD_REACTORS
330
335
102
}
330
335
100
AcDbXrecord
1000
DSTYLE
1002
{
1070
   277
 70
     5
1070
   279
 70
     2
1002
}
  0
XRECORD
  5
340
102
{ACAD_REACTORS
330
335
102
}
330
335
100
AcDbXrecord
  1
{E7E6BD08-3C9A-4D69-99D5-1E30D7690D7C}
  0
XRECORD
  5
338
102
{ACAD_REACTORS
330
335
102
}
330
335
100
AcDbXrecord
  1

  0
XRECORD
  5
33E
102
{ACAD_REACTORS
330
335
102
}
330
335
100
AcDbXrecord
 90
        0
  0
XRECORD
  5
33A
102
{ACAD_REACTORS
330
335
102
}
330
335
100
AcDbXrecord
340
19
  0
XRECORD
  5
33D
102
{ACAD_REACTORS
330
335
102
}
330
335
100
AcDbXrecord
 90
    14877
  0
XRECORD
  5
33B
102
{ACAD_REACTORS
330
335
102
}
330
335
100
AcDbXrecord
340
18
  0
XRECORD
  5
33C
102
{ACAD_REACTORS
330
335
102
}
330
335
100
AcDbXrecord
340
E
  0
XRECORD
  5
342
102
{ACAD_REACTORS
330
335
102
}
330
335
100
AcDbXrecord
 40
0.0
  0
XRECORD
  5
346
102
{ACAD_REACTORS
330
335
102
}
330
335
100
AcDbXrecord
340
0
  0
XRECORD
  5
34C
102
{ACAD_REACTORS
330
335
102
}
330
335
100
AcDbXrecord
 10
0.0
 20
0.0
 30
0.0
  0
XRECORD
  5
348
102
{ACAD_REACTORS
330
335
102
}
330
335
100
AcDbXrecord
 10
0.0
 20
0.0
 30
0.0
  0
XRECORD
  5
34B
102
{ACAD_REACTORS
330
335
102
}
330
335
100
AcDbXrecord
 10
0.0
 20
0.0
 30
0.0
  0
XRECORD
  5
349
102
{ACAD_REACTORS
330
335
102
}
330
335
100
AcDbXrecord
 10
0.0
 20
0.0
 30
0.0
  0
XRECORD
  5
34A
102
{ACAD_REACTORS
330
335
102
}
330
335
100
AcDbXrecord
 10
0.0
 20
0.0
 30
0.0
  0
XRECORD
  5
347
102
{ACAD_REACTORS
330
335
102
}
330
335
100
AcDbXrecord
 10
0.0
 20
0.0
 30
0.0
  0
XRECORD
  5
344
102
{ACAD_REACTORS
330
335
102
}
330
335
100
AcDbXrecord
340
0
  0
XRECORD
  5
345
102
{ACAD_REACTORS
330
335
102
}
330
335
100
AcDbXrecord
 70
     0
  0
XRECORD
  5
339
102
{ACAD_REACTORS
330
335
102
}
330
335
100
AcDbXrecord
  1

  0
XRECORD
  5
336
102
{ACAD_REACTORS
330
335
102
}
330
335
100
AcDbXrecord
 90
        1
  0
XRECORD
  5
337
102
{ACAD_REACTORS
330
335
102
}
330
335
100
AcDbXrecord
 90
       70
  0
XRECORD
  5
34F
102
{ACAD_REACTORS
330
335
102
}
330
335
100
AcDbXrecord
340
0
  0
XRECORD
  5
355
102
{ACAD_REACTORS
330
335
102
}
330
335
100
AcDbXrecord
 10
0.0
 20
0.0
 30
0.0
  0
XRECORD
  5
351
102
{ACAD_REACTORS
330
335
102
}
330
335
100
AcDbXrecord
 10
0.0
 20
0.0
 30
0.0
  0
XRECORD
  5
354
102
{ACAD_REACTORS
330
335
102
}
330
335
100
AcDbXrecord
 10
0.0
 20
0.0
 30
0.0
  0
XRECORD
  5
352
102
{ACAD_REACTORS
330
335
102
}
330
335
100
AcDbXrecord
 10
0.0
 20
0.0
 30
0.0
  0
XRECORD
  5
353
102
{ACAD_REACTORS
330
335
102
}
330
335
100
AcDbXrecord
 10
0.0
 20
0.0
 30
0.0
  0
XRECORD
  5
350
102
{ACAD_REACTORS
330
335
102
}
330
335
100
AcDbXrecord
 10
0.0
 20
0.0
 30
0.0
  0
XRECORD
  5
34D
102
{ACAD_REACTORS
330
335
102
}
330
335
100
AcDbXrecord
340
0
  0
XRECORD
  5
34E
102
{ACAD_REACTORS
330
335
102
}
330
335
100
AcDbXrecord
 70
     0
  0
XRECORD
  5
341
102
{ACAD_REACTORS
330
335
102
}
330
335
100
AcDbXrecord
  1
{2B5C416C-90F5-4F22-BD09-64A2A96EFE6E}
  0
DICTIONARYVAR
  5
1DB
102
{ACAD_REACTORS
330
1D9
102
}
330
1D9
100
DictionaryVariables
280
     0
  1
2
  0
DICTIONARYVAR
  5
1DA
102
{ACAD_REACTORS
330
1D9
102
}
330
1D9
100
DictionaryVariables
280
     0
  1
1
  0
ENDSEC
  0
EOF
