  0
SECTION
  2
HEADER
  9
$ACADVER
  1
AC1015
  9
$ACADMAINTVER
 70
    20
  9
$DWGCODEPAGE
  3
ANSI_1252
  9
$INSBASE
 10
42.39774330245938
 20
6.158263822588867
 30
0.0
  9
$EXTMIN
 10
37.09072532493698
 20
5.119152274846369
 30
0.0
  9
$EXTMAX
 10
46.8793188617719
 20
8.80635299588426
 30
0.0
  9
$LIMMIN
 10
0.0
 20
0.0
  9
$LIMMAX
 10
36.0
 20
36.0
  9
$ORTHOMODE
 70
     1
  9
$REGENMODE
 70
     1
  9
$FILLMODE
 70
     1
  9
$QTEXTMODE
 70
     0
  9
$MIRRTEXT
 70
     1
  9
$LTSCALE
 40
1.0
  9
$ATTMODE
 70
     1
  9
$TEXTSIZE
 40
0.2
  9
$TRACEWID
 40
0.05
  9
$TEXTSTYLE
  7
STANDARD
  9
$CLAYER
  8
ADP1DETAIL
  9
$CELTYPE
  6
ByLayer
  9
$CECOLOR
 62
   256
  9
$CELTSCALE
 40
1.0
  9
$DISPSILH
 70
     0
  9
$DIMSCALE
 40
1.0
  9
$DIMASZ
 40
0.125
  9
$DIMEXO
 40
0.0625
  9
$DIMDLI
 40
0.38
  9
$DIMRND
 40
0.0
  9
$DIMDLE
 40
0.0
  9
$DIMEXE
 40
0.18
  9
$DIMTP
 40
0.0
  9
$DIMTM
 40
0.0
  9
$DIMTXT
 40
0.125
  9
$DIMCEN
 40
0.1875
  9
$DIMTSZ
 40
0.125
  9
$DIMTOL
 70
     0
  9
$DIMLIM
 70
     0
  9
$DIMTIH
 70
     0
  9
$DIMTOH
 70
     0
  9
$DIMSE1
 70
     0
  9
$DIMSE2
 70
     0
  9
$DIMTAD
 70
     0
  9
$DIMZIN
 70
     3
  9
$DIMBLK
  1

  9
$DIMASO
 70
     1
  9
$DIMSHO
 70
     1
  9
$DIMPOST
  1

  9
$DIMAPOST
  1

  9
$DIMALT
 70
     0
  9
$DIMALTD
 70
     1
  9
$DIMALTF
 40
25.4
  9
$DIMLFAC
 40
1.0
  9
$DIMTOFL
 70
     0
  9
$DIMTVP
 40
0.0
  9
$DIMTIX
 70
     0
  9
$DIMSOXD
 70
     0
  9
$DIMSAH
 70
     0
  9
$DIMBLK1
  1

  9
$DIMBLK2
  1

  9
$DIMSTYLE
  2
Standard
  9
$DIMCLRD
 70
     0
  9
$DIMCLRE
 70
     0
  9
$DIMCLRT
 70
     0
  9
$DIMTFAC
 40
1.0
  9
$DIMGAP
 40
0.125
  9
$DIMJUST
 70
     0
  9
$DIMSD1
 70
     0
  9
$DIMSD2
 70
     0
  9
$DIMTOLJ
 70
     1
  9
$DIMTZIN
 70
     3
  9
$DIMALTZ
 70
     3
  9
$DIMALTTZ
 70
     3
  9
$DIMUPT
 70
     0
  9
$DIMDEC
 70
     4
  9
$DIMTDEC
 70
     4
  9
$DIMALTU
 70
     5
  9
$DIMALTTD
 70
     1
  9
$DIMTXSTY
  7
STANDARD
  9
$DIMAUNIT
 70
     0
  9
$DIMADEC
 70
     0
  9
$DIMALTRND
 40
0.0
  9
$DIMAZIN
 70
     0
  9
$DIMDSEP
 70
    46
  9
$DIMATFIT
 70
     3
  9
$DIMFRAC
 70
     0
  9
$DIMLDRBLK
  1

  9
$DIMLUNIT
 70
     5
  9
$DIMLWD
 70
    -2
  9
$DIMLWE
 70
    -2
  9
$DIMTMOVE
 70
     2
  9
$LUNITS
 70
     5
  9
$LUPREC
 70
     4
  9
$SKETCHINC
 40
0.1
  9
$FILLETRAD
 40
0.0
  9
$AUNITS
 70
     0
  9
$AUPREC
 70
     0
  9
$MENU
  1
acad
  9
$ELEVATION
 40
0.0
  9
$PELEVATION
 40
0.0
  9
$THICKNESS
 40
0.0
  9
$LIMCHECK
 70
     0
  9
$CHAMFERA
 40
0.0
  9
$CHAMFERB
 40
0.0
  9
$CHAMFERC
 40
0.0
  9
$CHAMFERD
 40
0.0
  9
$SKPOLY
 70
     0
  9
$TDCREATE
 40
2450399.632585452
  9
$TDUCREATE
 40
2450399.799252118
  9
$TDUPDATE
 40
2454650.646071215
  9
$TDUUPDATE
 40
2454650.812737882
  9
$TDINDWG
 40
0.1047233218
  9
$TDUSRTIMER
 40
0.1047233218
  9
$USRTIMER
 70
     1
  9
$ANGBASE
 50
0.0
  9
$ANGDIR
 70
     0
  9
$PDMODE
 70
     0
  9
$PDSIZE
 40
0.0
  9
$PLINEWID
 40
0.0
  9
$SPLFRAME
 70
     0
  9
$SPLINETYPE
 70
     6
  9
$SPLINESEGS
 70
     8
  9
$HANDSEED
  5
83E
  9
$SURFTAB1
 70
     6
  9
$SURFTAB2
 70
     6
  9
$SURFTYPE
 70
     6
  9
$SURFU
 70
     6
  9
$SURFV
 70
     6
  9
$UCSBASE
  2

  9
$UCSNAME
  2

  9
$UCSORG
 10
0.0
 20
0.0
 30
0.0
  9
$UCSXDIR
 10
1.0
 20
0.0
 30
0.0
  9
$UCSYDIR
 10
0.0
 20
1.0
 30
0.0
  9
$UCSORTHOREF
  2

  9
$UCSORTHOVIEW
 70
     0
  9
$UCSORGTOP
 10
0.0
 20
0.0
 30
0.0
  9
$UCSORGBOTTOM
 10
0.0
 20
0.0
 30
0.0
  9
$UCSORGLEFT
 10
0.0
 20
0.0
 30
0.0
  9
$UCSORGRIGHT
 10
0.0
 20
0.0
 30
0.0
  9
$UCSORGFRONT
 10
0.0
 20
0.0
 30
0.0
  9
$UCSORGBACK
 10
0.0
 20
0.0
 30
0.0
  9
$PUCSBASE
  2

  9
$PUCSNAME
  2

  9
$PUCSORG
 10
0.0
 20
0.0
 30
0.0
  9
$PUCSXDIR
 10
1.0
 20
0.0
 30
0.0
  9
$PUCSYDIR
 10
0.0
 20
1.0
 30
0.0
  9
$PUCSORTHOREF
  2

  9
$PUCSORTHOVIEW
 70
     0
  9
$PUCSORGTOP
 10
0.0
 20
0.0
 30
0.0
  9
$PUCSORGBOTTOM
 10
0.0
 20
0.0
 30
0.0
  9
$PUCSORGLEFT
 10
0.0
 20
0.0
 30
0.0
  9
$PUCSORGRIGHT
 10
0.0
 20
0.0
 30
0.0
  9
$PUCSORGFRONT
 10
0.0
 20
0.0
 30
0.0
  9
$PUCSORGBACK
 10
0.0
 20
0.0
 30
0.0
  9
$USERI1
 70
     0
  9
$USERI2
 70
     0
  9
$USERI3
 70
     0
  9
$USERI4
 70
     0
  9
$USERI5
 70
     0
  9
$USERR1
 40
0.0
  9
$USERR2
 40
0.0
  9
$USERR3
 40
0.0
  9
$USERR4
 40
0.0
  9
$USERR5
 40
0.0
  9
$WORLDVIEW
 70
     1
  9
$SHADEDGE
 70
     3
  9
$SHADEDIF
 70
    70
  9
$TILEMODE
 70
     1
  9
$MAXACTVP
 70
    15
  9
$PINSBASE
 10
0.0004882914945483
 20
0.7501408034022604
 30
0.0
  9
$PLIMCHECK
 70
     0
  9
$PEXTMIN
 10
1.000000000000000E+20
 20
1.000000000000000E+20
 30
1.000000000000000E+20
  9
$PEXTMAX
 10
-1.000000000000000E+20
 20
-1.000000000000000E+20
 30
-1.000000000000000E+20
  9
$PLIMMIN
 10
0.0
 20
0.0
  9
$PLIMMAX
 10
12.0
 20
9.0
  9
$UNITMODE
 70
     0
  9
$VISRETAIN
 70
     0
  9
$PLINEGEN
 70
     0
  9
$PSLTSCALE
 70
     1
  9
$TREEDEPTH
 70
  3020
  9
$CMLSTYLE
  2
Standard
  9
$CMLJUST
 70
     0
  9
$CMLSCALE
 40
1.0
  9
$PROXYGRAPHICS
 70
     1
  9
$MEASUREMENT
 70
     0
  9
$CELWEIGHT
370
    -1
  9
$ENDCAPS
280
     0
  9
$JOINSTYLE
280
     0
  9
$LWDISPLAY
290
     0
  9
$INSUNITS
 70
     0
  9
$HYPERLINKBASE
  1

  9
$STYLESHEET
  1

  9
$XEDIT
290
     1
  9
$CEPSNTYPE
380
     0
  9
$PSTYLEMODE
290
     1
  9
$FINGERPRINTGUID
  2
{607D83B4-19EE-4D45-985F-327C3FAA6811}
  9
$VERSIONGUID
  2
{30D4A820-4476-40D1-A6BF-9CF9DB552EA4}
  9
$EXTNAMES
290
     1
  9
$PSVPSCALE
 40
0.0
  9
$OLESTARTUP
290
     0
  0
ENDSEC
  0
SECTION
  2
CLASSES
  0
CLASS
  1
ACDBDICTIONARYWDFLT
  2
AcDbDictionaryWithDefault
  3
ObjectDBX Classes
 90
        0
280
     0
281
     0
  0
CLASS
  1
ACDBPLACEHOLDER
  2
AcDbPlaceHolder
  3
ObjectDBX Classes
 90
        0
280
     0
281
     0
  0
CLASS
  1
LAYOUT
  2
AcDbLayout
  3
ObjectDBX Classes
 90
        0
280
     0
281
     0
  0
CLASS
  1
DICTIONARYVAR
  2
AcDbDictionaryVar
  3
ObjectDBX Classes
 90
        0
280
     0
281
     0
  0
CLASS
  1
MATERIAL
  2
AcDbMaterial
  3
ObjectDBX Classes
 90
     1024
280
     0
281
     0
  0
CLASS
  1
VISUALSTYLE
  2
AcDbVisualStyle
  3
ObjectDBX Classes
 90
     4095
280
     0
281
     0
  0
CLASS
  1
TABLESTYLE
  2
AcDbTableStyle
  3
ObjectDBX Classes
 90
     4095
280
     0
281
     0
  0
CLASS
  1
DIMASSOC
  2
AcDbDimAssoc
  3
"AcDbDimAssoc|Product Desc:     AcDim ARX App For Dimension|Company:          Autodesk, Inc.|WEB Address:      www.autodesk.com"
 90
    32768
280
     0
281
     0
  0
ENDSEC
  0
SECTION
  2
TABLES
  0
TABLE
  2
VPORT
  5
62
102
{ACAD_XDICTIONARY
360
65D
102
}
330
0
100
AcDbSymbolTable
 70
     1
  0
VPORT
  5
63
330
62
100
AcDbSymbolTableRecord
100
AcDbViewportTableRecord
  2
*Active
 70
     0
 10
0.0
 20
0.0
 11
1.0
 21
1.0
 12
41.9849426475819
 22
6.962256684270641
 13
0.0
 23
0.0
 14
0.5740882589684922
 24
0.5740882589684922
 15
0.5
 25
0.5
 16
0.0
 26
0.0
 36
1.0
 17
0.0
 27
0.0
 37
0.0
 40
5.417193799166538
 41
1.821092278719397
 42
50.0
 43
0.0
 44
0.0
 50
0.0
 51
0.0
 71
     0
 72
   100
 73
     1
 74
     0
 75
     0
 76
     0
 77
     0
 78
     0
281
     0
 65
     1
110
0.0
120
0.0
130
0.0
111
1.0
121
0.0
131
0.0
112
0.0
122
1.0
132
0.0
 79
     0
146
0.0
  0
ENDTAB
  0
TABLE
  2
LTYPE
  5
5D
330
0
100
AcDbSymbolTable
 70
     1
  0
LTYPE
  5
5E
330
5D
100
AcDbSymbolTableRecord
100
AcDbLinetypeTableRecord
  2
ByBlock
 70
     0
  3

 72
    65
 73
     0
 40
0.0
  0
LTYPE
  5
5F
330
5D
100
AcDbSymbolTableRecord
100
AcDbLinetypeTableRecord
  2
ByLayer
 70
     0
  3

 72
    65
 73
     0
 40
0.0
  0
LTYPE
  5
A
330
5D
100
AcDbSymbolTableRecord
100
AcDbLinetypeTableRecord
  2
CONTINUOUS
 70
     0
  3
Solid line
 72
    65
 73
     0
 40
0.0
  0
ENDTAB
  0
TABLE
  2
LAYER
  5
5A
330
0
100
AcDbSymbolTable
 70
     5
  0
LAYER
  5
6
330
5A
100
AcDbSymbolTableRecord
100
AcDbLayerTableRecord
  2
0
 70
     0
 62
     7
  6
CONTINUOUS
370
    -3
390
7
  0
LAYER
  5
C
330
5A
100
AcDbSymbolTableRecord
100
AcDbLayerTableRecord
  2
ADP1DETAIL
 70
     0
 62
     7
  6
CONTINUOUS
370
    -3
390
7
  0
LAYER
  5
23
330
5A
100
AcDbSymbolTableRecord
100
AcDbLayerTableRecord
  2
DEFPOINTS
 70
     0
 62
     7
  6
CONTINUOUS
290
     0
370
    -3
390
7
  0
LAYER
  5
17
330
5A
100
AcDbSymbolTableRecord
100
AcDbLayerTableRecord
  2
ADPDIM
 70
     0
 62
     3
  6
CONTINUOUS
370
    -3
390
7
  0
LAYER
  5
9F
330
5A
100
AcDbSymbolTableRecord
100
AcDbLayerTableRecord
  2
LAYER_1
 70
     0
 62
   160
  6
CONTINUOUS
370
    -3
390
7
  0
ENDTAB
  0
TABLE
  2
STYLE
  5
5B
330
0
100
AcDbSymbolTable
 70
     2
  0
STYLE
  5
18
330
5B
100
AcDbSymbolTableRecord
100
AcDbTextStyleTableRecord
  2
STANDARD
 70
     0
 40
0.0
 41
1.0
 50
0.0
 71
     0
 42
0.2
  3
txt
  4

  0
STYLE
  5
43
330
5B
100
AcDbSymbolTableRecord
100
AcDbTextStyleTableRecord
  2
ARIAL_WIDE
 70
     0
 40
0.0
 41
1.25
 50
0.0
 71
     0
 42
0.2
  3
ARIAL.TTF
  4

1001
ACAD
1000
Arial
1071
       34
  0
ENDTAB
  0
TABLE
  2
VIEW
  5
60
330
0
100
AcDbSymbolTable
 70
     0
  0
ENDTAB
  0
TABLE
  2
UCS
  5
61
330
0
100
AcDbSymbolTable
 70
     0
  0
ENDTAB
  0
TABLE
  2
APPID
  5
64
330
0
100
AcDbSymbolTable
 70
     2
  0
APPID
  5
27
330
64
100
AcDbSymbolTableRecord
100
AcDbRegAppTableRecord
  2
ACAD
 70
     0
  0
APPID
  5
A0
330
64
100
AcDbSymbolTableRecord
100
AcDbRegAppTableRecord
  2
DCO15
 70
     0
  0
ENDTAB
  0
TABLE
  2
DIMSTYLE
  5
65
330
0
100
AcDbSymbolTable
 70
     1
100
AcDbDimStyleTable
 71
     1
340
19
  0
DIMSTYLE
105
19
102
{ACAD_REACTORS
330
204
330
36F
330
590
330
28
330
7C5
102
}
330
65
100
AcDbSymbolTableRecord
100
AcDbDimStyleTableRecord
  2
Standard
 70
     0
340
18
  0
ENDTAB
  0
TABLE
  2
BLOCK_RECORD
  5
1
330
0
100
AcDbSymbolTable
 70
     5
  0
BLOCK_RECORD
  5
2
102
{ACAD_XDICTIONARY
360
3
102
}
330
1
100
AcDbSymbolTableRecord
100
AcDbBlockTableRecord
  2
*Model_Space
340
52
  0
BLOCK_RECORD
  5
54
102
{ACAD_XDICTIONARY
360
55
102
}
330
1
100
AcDbSymbolTableRecord
100
AcDbBlockTableRecord
  2
*Paper_Space
340
59
  0
BLOCK_RECORD
  5
C0
330
1
100
AcDbSymbolTableRecord
100
AcDbBlockTableRecord
  2
*D0
340
0
  0
BLOCK_RECORD
  5
205
330
1
100
AcDbSymbolTableRecord
100
AcDbBlockTableRecord
  2
*D1
340
0
  0
BLOCK_RECORD
  5
370
330
1
100
AcDbSymbolTableRecord
100
AcDbBlockTableRecord
  2
*D2
340
0
  0
BLOCK_RECORD
  5
591
330
1
100
AcDbSymbolTableRecord
100
AcDbBlockTableRecord
  2
*D3
340
0
  0
BLOCK_RECORD
  5
7C6
330
1
100
AcDbSymbolTableRecord
100
AcDbBlockTableRecord
  2
*D4
340
0
  0
ENDTAB
  0
ENDSEC
  0
SECTION
  2
BLOCKS
  0
BLOCK
  5
5
330
2
100
AcDbEntity
  8
0
100
AcDbBlockBegin
  2
*Model_Space
 70
     0
 10
0.0
 20
0.0
 30
0.0
  3
*Model_Space
  1

  0
ENDBLK
  5
51
330
2
100
AcDbEntity
  8
0
100
AcDbBlockEnd
  0
BLOCK
  5
57
330
54
100
AcDbEntity
 67
     1
  8
0
100
AcDbBlockBegin
  2
*Paper_Space
 70
     0
 10
0.0
 20
0.0
 30
0.0
  3
*Paper_Space
  1

  0
ENDBLK
  5
58
330
54
100
AcDbEntity
 67
     1
  8
0
100
AcDbBlockEnd
  0
BLOCK
  5
CB
330
C0
100
AcDbEntity
  8
0
100
AcDbBlockBegin
  2
*D0
 70
     1
 10
0.0
 20
0.0
 30
0.0
  3
*D0
  1

  0
LINE
  5
6E2
330
C0
100
AcDbEntity
  8
ADPDIM
 62
     0
370
    -2
100
AcDbLine
 10
43.76098854370159
 20
7.197154311314725
 30
0.0
 11
43.76098854370159
 21
8.80635299588426
 31
0.0
  0
LINE
  5
6E3
330
C0
100
AcDbEntity
  8
ADPDIM
 62
     0
370
    -2
100
AcDbLine
 10
41.26096352477325
 20
7.134654311314721
 30
0.0
 11
41.26096352477325
 21
8.80635299588426
 31
0.0
  0
LINE
  5
6E4
330
C0
100
AcDbEntity
  8
ADPDIM
 62
     0
370
    -2
100
AcDbLine
 10
43.76098854370159
 20
8.626352995884261
 30
0.0
 11
42.95889270090409
 21
8.626352995884261
 31
0.0
  0
LINE
  5
6E5
330
C0
100
AcDbEntity
  8
ADPDIM
 62
     0
370
    -2
100
AcDbLine
 10
41.26096352477325
 20
8.626352995884261
 30
0.0
 11
42.06305936757076
 21
8.626352995884261
 31
0.0
  0
LINE
  5
6E6
330
C0
100
AcDbEntity
  8
ADPDIM
 62
     0
370
    -2
100
AcDbLine
 10
41.13596352477325
 20
8.501352995884261
 30
0.0
 11
41.38596352477326
 21
8.751352995884261
 31
0.0
  0
LINE
  5
6E7
330
C0
100
AcDbEntity
  8
ADPDIM
 62
     0
370
    -2
100
AcDbLine
 10
43.63598854370159
 20
8.501352995884261
 30
0.0
 11
43.88598854370159
 21
8.751352995884261
 31
0.0
  0
MTEXT
  5
6E8
330
C0
100
AcDbEntity
  8
ADPDIM
 62
     0
100
AcDbMText
 10
42.51097603423743
 20
8.626352995884261
 30
0.0
 40
0.125
 41
0.0
 71
     5
 72
     1
  1
\A1;2.5000"
 73
     1
 44
1.0
1001
ACAD
1000
MTEXTBEGIN
1070
    73
1070
     1
1070
    44
1040
1.0
1070
    74
1070
     0
1000
MTEXTEND
  0
POINT
  5
6E9
330
C0
100
AcDbEntity
  8
DEFPOINTS
 62
     0
100
AcDbPoint
 10
43.76098854370159
 20
7.134654311314725
 30
0.0
  0
POINT
  5
6EA
330
C0
100
AcDbEntity
  8
DEFPOINTS
 62
     0
100
AcDbPoint
 10
41.26096352477325
 20
7.072154311314721
 30
0.0
  0
POINT
  5
6EB
330
C0
100
AcDbEntity
  8
DEFPOINTS
 62
     0
100
AcDbPoint
 10
41.26096352477325
 20
8.626352995884261
 30
0.0
  0
ENDBLK
  5
CC
330
C0
100
AcDbEntity
  8
0
100
AcDbBlockEnd
  0
BLOCK
  5
210
330
205
100
AcDbEntity
  8
0
100
AcDbBlockBegin
  2
*D1
 70
     1
 10
0.0
 20
0.0
 30
0.0
  3
*D1
  1

  0
LINE
  5
794
330
205
100
AcDbEntity
  8
ADPDIM
 62
     0
370
    -2
100
AcDbLine
 10
42.89066000429108
 20
6.914306707378145
 30
0.0
 11
44.00338480394759
 21
6.914306707378145
 31
0.0
  0
LINE
  5
795
330
205
100
AcDbEntity
  8
ADPDIM
 62
     0
370
    -2
100
AcDbLine
 10
42.89066000429108
 20
5.904877784525709
 30
0.0
 11
44.00338480394759
 21
5.904877784525709
 31
0.0
  0
LINE
  5
796
330
205
100
AcDbEntity
  8
ADPDIM
 62
     0
370
    -2
100
AcDbLine
 10
43.82338480394759
 20
6.914306707378145
 30
0.0
 11
43.82338480394759
 21
6.55542557928526
 31
0.0
  0
LINE
  5
797
330
205
100
AcDbEntity
  8
ADPDIM
 62
     0
370
    -2
100
AcDbLine
 10
43.82338480394759
 20
5.904877784525709
 30
0.0
 11
43.82338480394759
 21
6.263758912618594
 31
0.0
  0
LINE
  5
798
330
205
100
AcDbEntity
  8
ADPDIM
 62
     0
370
    -2
100
AcDbLine
 10
43.94838480394759
 20
5.779877784525709
 30
0.0
 11
43.69838480394759
 21
6.029877784525709
 31
0.0
  0
LINE
  5
799
330
205
100
AcDbEntity
  8
ADPDIM
 62
     0
370
    -2
100
AcDbLine
 10
43.94838480394759
 20
6.789306707378145
 30
0.0
 11
43.69838480394759
 21
7.039306707378145
 31
0.0
  0
MTEXT
  5
79A
330
205
100
AcDbEntity
  8
ADPDIM
 62
     0
100
AcDbMText
 10
43.82338480394759
 20
6.409592245951934
 30
0.0
 40
0.125
 41
0.0
 71
     5
 72
     1
  1
\A1;1
 11
0.0000000000000001
 21
1.0
 31
0.0
 73
     1
 44
1.0
1001
ACAD
1000
MTEXTBEGIN
1070
    73
1070
     1
1070
    44
1040
1.0
1070
    74
1070
     0
1000
MTEXTEND
  0
POINT
  5
79B
330
205
100
AcDbEntity
  8
DEFPOINTS
 62
     0
100
AcDbPoint
 10
42.82816000429107
 20
6.914306707378145
 30
0.0
  0
POINT
  5
79C
330
205
100
AcDbEntity
  8
DEFPOINTS
 62
     0
100
AcDbPoint
 10
42.82816000429107
 20
5.904877784525709
 30
0.0
  0
POINT
  5
79D
330
205
100
AcDbEntity
  8
DEFPOINTS
 62
     0
100
AcDbPoint
 10
43.82338480394759
 20
5.904877784525709
 30
0.0
  0
ENDBLK
  5
211
330
205
100
AcDbEntity
  8
0
100
AcDbBlockEnd
  0
BLOCK
  5
37B
330
370
100
AcDbEntity
  8
0
100
AcDbBlockBegin
  2
*D2
 70
     1
 10
0.0
 20
0.0
 30
0.0
  3
*D2
  1

  0
LINE
  5
79E
330
370
100
AcDbEntity
  8
ADPDIM
 62
     0
370
    -2
100
AcDbLine
 10
42.14676805264907
 20
5.943914527649553
 30
0.0
 11
42.14676805264907
 21
5.446683300583437
 31
0.0
  0
LINE
  5
79F
330
370
100
AcDbEntity
  8
ADPDIM
 62
     0
370
    -2
100
AcDbLine
 10
42.90687472644231
 20
5.943914527649553
 30
0.0
 11
42.90687472644231
 21
5.446683300583437
 31
0.0
  0
LINE
  5
7A0
330
370
100
AcDbEntity
  8
ADPDIM
 62
     0
370
    -2
100
AcDbLine
 10
42.14676805264907
 20
5.626683300583437
 30
0.0
 11
42.36015472287902
 21
5.626683300583437
 31
0.0
  0
LINE
  5
7A1
330
370
100
AcDbEntity
  8
ADPDIM
 62
     0
370
    -2
100
AcDbLine
 10
42.90687472644231
 20
5.626683300583437
 30
0.0
 11
42.69348805621235
 21
5.626683300583437
 31
0.0
  0
LINE
  5
7A2
330
370
100
AcDbEntity
  8
ADPDIM
 62
     0
370
    -2
100
AcDbLine
 10
42.78187472644231
 20
5.501683300583437
 30
0.0
 11
43.03187472644231
 21
5.751683300583437
 31
0.0
  0
LINE
  5
7A3
330
370
100
AcDbEntity
  8
ADPDIM
 62
     0
370
    -2
100
AcDbLine
 10
42.02176805264906
 20
5.501683300583437
 30
0.0
 11
42.27176805264906
 21
5.751683300583437
 31
0.0
  0
MTEXT
  5
7A4
330
370
100
AcDbEntity
  8
ADPDIM
 62
     0
100
AcDbMText
 10
42.52682138954568
 20
5.626683300583437
 30
0.0
 40
0.125
 41
0.0
 71
     5
 72
     1
  1
\A1;{\H1.000000x;\S3/4;}
 73
     1
 44
1.0
1001
ACAD
1000
MTEXTBEGIN
1070
    73
1070
     1
1070
    44
1040
1.0
1070
    74
1070
     0
1000
MTEXTEND
  0
POINT
  5
7A5
330
370
100
AcDbEntity
  8
DEFPOINTS
 62
     0
100
AcDbPoint
 10
42.14676805264907
 20
6.006414527649553
 30
0.0
  0
POINT
  5
7A6
330
370
100
AcDbEntity
  8
DEFPOINTS
 62
     0
100
AcDbPoint
 10
42.90687472644231
 20
6.006414527649553
 30
0.0
  0
POINT
  5
7A7
330
370
100
AcDbEntity
  8
DEFPOINTS
 62
     0
100
AcDbPoint
 10
42.90687472644231
 20
5.626683300583437
 30
0.0
  0
ENDBLK
  5
37C
330
370
100
AcDbEntity
  8
0
100
AcDbBlockEnd
  0
BLOCK
  5
59C
330
591
100
AcDbEntity
  8
0
100
AcDbBlockBegin
  2
*D3
 70
     1
 10
0.0
 20
0.0
 30
0.0
  3
*D3
  1

  0
LINE
  5
7A8
330
591
100
AcDbEntity
  8
ADPDIM
 62
     0
370
    -2
100
AcDbLine
 10
42.90089828536483
 20
6.910246960074218
 30
0.0
 11
42.90089828536483
 21
7.543657375533548
 31
0.0
  0
LINE
  5
7A9
330
591
100
AcDbEntity
  8
ADPDIM
 62
     0
370
    -2
100
AcDbLine
 10
43.02587120075452
 20
6.910246960074218
 30
0.0
 11
43.02587120075452
 21
7.543657375533548
 31
0.0
  0
LINE
  5
7AA
330
591
100
AcDbEntity
  8
ADPDIM
 62
     0
370
    -2
100
AcDbLine
 10
42.90089828536483
 20
7.363657375533549
 30
0.0
 11
42.65089828536483
 21
7.363657375533549
 31
0.0
  0
LINE
  5
7AB
330
591
100
AcDbEntity
  8
ADPDIM
 62
     0
370
    -2
100
AcDbLine
 10
43.02587120075452
 20
7.363657375533549
 30
0.0
 11
43.27587120075452
 21
7.363657375533549
 31
0.0
  0
MTEXT
  5
7AC
330
591
100
AcDbEntity
  8
ADPDIM
 62
     0
100
AcDbMText
 10
42.53390707505184
 20
7.478643167307197
 30
0.0
 40
0.125
 41
0.0
 71
     5
 72
     1
  1
\A1;0.125
 73
     1
 44
1.0
1001
ACAD
1000
MTEXTBEGIN
1070
    73
1070
     1
1070
    44
1040
1.0
1070
    74
1070
     0
1000
MTEXTEND
  0
LINE
  5
7AD
330
591
100
AcDbEntity
  8
ADPDIM
 62
     0
370
    -2
100
AcDbLine
 10
42.90087120075452
 20
7.238657375533549
 30
0.0
 11
43.15087120075452
 21
7.488657375533549
 31
0.0
  0
LINE
  5
7AE
330
591
100
AcDbEntity
  8
ADPDIM
 62
     0
370
    -2
100
AcDbLine
 10
42.77589828536483
 20
7.238657375533549
 30
0.0
 11
43.02589828536483
 21
7.488657375533549
 31
0.0
  0
POINT
  5
7AF
330
591
100
AcDbEntity
  8
DEFPOINTS
 62
     0
100
AcDbPoint
 10
42.90089828536483
 20
6.847746960074218
 30
0.0
  0
POINT
  5
7B0
330
591
100
AcDbEntity
  8
DEFPOINTS
 62
     0
100
AcDbPoint
 10
43.02587120075452
 20
6.847746960074218
 30
0.0
  0
POINT
  5
7B1
330
591
100
AcDbEntity
  8
DEFPOINTS
 62
     0
100
AcDbPoint
 10
43.02587120075452
 20
7.363657375533549
 30
0.0
  0
ENDBLK
  5
59D
330
591
100
AcDbEntity
  8
0
100
AcDbBlockEnd
  0
BLOCK
  5
7D1
330
7C6
100
AcDbEntity
  8
0
100
AcDbBlockBegin
  2
*D4
 70
     1
 10
0.0
 20
0.0
 30
0.0
  3
*D4
  1

  0
LINE
  5
7D3
330
7C6
100
AcDbEntity
  8
ADPDIM
 62
     0
370
    -2
100
AcDbLine
 10
42.32692596826433
 20
6.987294506342667
 30
0.0
 11
42.32692596826433
 21
6.368848386448444
 31
0.0
  0
LINE
  5
7D4
330
7C6
100
AcDbEntity
  8
ADPDIM
 62
     0
370
    -2
100
AcDbLine
 10
42.70166392244365
 20
6.987294506342667
 30
0.0
 11
42.70166392244365
 21
6.368848386448444
 31
0.0
  0
LINE
  5
7D5
330
7C6
100
AcDbEntity
  8
ADPDIM
 62
     0
370
    -2
100
AcDbLine
 10
42.32692596826433
 20
6.548848386448444
 30
0.0
 11
42.07692596826433
 21
6.548848386448444
 31
0.0
  0
LINE
  5
7D6
330
7C6
100
AcDbEntity
  8
ADPDIM
 62
     0
370
    -2
100
AcDbLine
 10
42.70166392244365
 20
6.548848386448444
 30
0.0
 11
42.95166392244365
 21
6.548848386448444
 31
0.0
  0
LINE
  5
7D7
330
7C6
100
AcDbEntity
  8
ADPDIM
 62
     0
370
    -2
100
AcDbLine
 10
42.57666392244366
 20
6.423848386448444
 30
0.0
 11
42.82666392244365
 21
6.673848386448444
 31
0.0
  0
LINE
  5
7D8
330
7C6
100
AcDbEntity
  8
ADPDIM
 62
     0
370
    -2
100
AcDbLine
 10
42.20192596826433
 20
6.423848386448444
 30
0.0
 11
42.45192596826433
 21
6.673848386448444
 31
0.0
  0
MTEXT
  5
7D9
330
7C6
100
AcDbEntity
  8
ADPDIM
 62
     0
100
AcDbMText
 10
42.514294945354
 20
6.548848386448444
 30
0.0
 40
0.125
 41
0.0
 71
     5
 72
     1
  1
\A1;{\H1.000000x;\S3/8;}
 73
     1
 44
1.0
1001
ACAD
1000
MTEXTBEGIN
1070
    73
1070
     1
1070
    44
1040
1.0
1070
    74
1070
     0
1000
MTEXTEND
  0
POINT
  5
7DA
330
7C6
100
AcDbEntity
  8
DEFPOINTS
 62
     0
100
AcDbPoint
 10
42.32692596826433
 20
7.049794506342667
 30
0.0
  0
POINT
  5
7DB
330
7C6
100
AcDbEntity
  8
DEFPOINTS
 62
     0
100
AcDbPoint
 10
42.70166392244365
 20
7.049794506342667
 30
0.0
  0
POINT
  5
7DC
330
7C6
100
AcDbEntity
  8
DEFPOINTS
 62
     0
100
AcDbPoint
 10
42.70166392244365
 20
6.548848386448444
 30
0.0
  0
ENDBLK
  5
7D2
330
7C6
100
AcDbEntity
  8
0
100
AcDbBlockEnd
  0
ENDSEC
  0
SECTION
  2
ENTITIES
  0
DIMENSION
  5
28
330
2
100
AcDbEntity
  8
ADPDIM
100
AcDbDimension
  2
*D0
 10
41.26096352477325
 20
8.626352995884261
 30
0.0
 11
42.51097603423743
 21
8.626352995884261
 31
0.0
 70
    32
  1
<>
 71
     5
 42
2.500025018928333
  3
Standard
100
AcDbAlignedDimension
 13
43.76098854370159
 23
7.134654311314725
 33
0.0
 14
41.26096352477325
 24
7.072154311314721
 34
0.0
100
AcDbRotatedDimension
1001
ACAD
1000
DSTYLE
1002
{
1070
     3
1000
"
1070
   276
1070
     2
1070
    41
1040
0.125
1070
    73
1070
     0
1070
    74
1070
     0
1070
    78
1070
     3
1070
   140
1040
0.125
1070
   141
1040
0.1875
1070
   142
1040
0.125
1070
   147
1040
0.125
1070
   171
1070
     1
1070
   273
1070
     5
1070
   274
1070
     1
1070
   277
1070
     2
1070
   279
1070
     2
1070
   284
1070
     3
1070
   285
1070
     3
1070
   286
1070
     3
1002
}
  0
TEXT
  5
42
330
2
100
AcDbEntity
  8
ADPDIM
100
AcDbText
 10
37.09072532493698
 20
5.14690636761581
 30
0.0
 40
0.09375
  1
J U L I U S  B L U M  &  C O . ,  I N C .      ( 8 0 0 )  5 2 6 - 6 2 9 3        W W W . J U L I U S B L U M . C O M        P A R T  N o .  1 2 3 2
 41
1.25
  7
ARIAL_WIDE
 72
     1
 11
41.98502209335443
 21
5.24065636761581
 31
0.0
100
AcDbText
 73
     3
  0
DIMENSION
  5
204
330
2
100
AcDbEntity
  8
ADPDIM
100
AcDbDimension
  2
*D1
 10
43.82338480394759
 20
5.904877784525709
 30
0.0
 11
43.82338480394759
 21
6.409592245951934
 31
0.0
 70
    32
 71
     5
 42
1.009428922852436
  3
Standard
100
AcDbAlignedDimension
 13
42.82816000429107
 23
6.914306707378145
 33
0.0
 14
42.82816000429107
 24
5.904877784525709
 34
0.0
 50
90.0
100
AcDbRotatedDimension
1001
ACAD
1000
DSTYLE
1002
{
1070
    41
1040
0.125
1070
    73
1070
     0
1070
    74
1070
     0
1070
    78
1070
     3
1070
   140
1040
0.125
1070
   141
1040
0.1875
1070
   142
1040
0.125
1070
   147
1040
0.125
1070
   171
1070
     1
1070
   273
1070
     5
1070
   274
1070
     1
1070
   277
1070
     5
1070
   279
1070
     2
1070
   284
1070
     3
1070
   285
1070
     3
1070
   286
1070
     3
1002
}
  0
DIMENSION
  5
36F
330
2
100
AcDbEntity
  8
ADPDIM
100
AcDbDimension
  2
*D2
 10
42.90687472644231
 20
5.626683300583437
 30
0.0
 11
42.52682138954568
 21
5.626683300583437
 31
0.0
 70
    32
 71
     5
 42
0.7601066737932456
  3
Standard
100
AcDbAlignedDimension
 13
42.14676805264907
 23
6.006414527649553
 33
0.0
 14
42.90687472644231
 24
6.006414527649553
 34
0.0
100
AcDbRotatedDimension
1001
ACAD
1000
DSTYLE
1002
{
1070
    41
1040
0.125
1070
    73
1070
     0
1070
    74
1070
     0
1070
    78
1070
     3
1070
   140
1040
0.125
1070
   141
1040
0.1875
1070
   142
1040
0.125
1070
   147
1040
0.125
1070
   171
1070
     1
1070
   273
1070
     5
1070
   274
1070
     1
1070
   277
1070
     5
1070
   279
1070
     2
1070
   284
1070
     3
1070
   285
1070
     3
1070
   286
1070
     3
1002
}
  0
DIMENSION
  5
590
330
2
100
AcDbEntity
  8
ADPDIM
100
AcDbDimension
  2
*D3
 10
43.02587120075452
 20
7.363657375533549
 30
0.0
 11
42.53390707505184
 21
7.478643167307197
 31
0.0
 70
   161
 71
     5
 42
0.1249729153896908
  3
Standard
100
AcDbAlignedDimension
 13
42.90089828536483
 23
6.847746960074218
 33
0.0
 14
43.02587120075452
 24
6.847746960074218
 34
0.0
1001
ACAD
1000
DSTYLE
1002
{
1070
   271
1070
     3
1070
    41
1040
0.125
1070
    73
1070
     0
1070
    74
1070
     0
1070
    78
1070
     3
1070
   140
1040
0.125
1070
   141
1040
0.1875
1070
   142
1040
0.125
1070
   147
1040
0.125
1070
   171
1070
     1
1070
   273
1070
     5
1070
   274
1070
     1
1070
   277
1070
     2
1070
   279
1070
     2
1070
   284
1070
     3
1070
   285
1070
     3
1070
   286
1070
     3
1002
}
  0
SPLINE
  5
793
330
2
100
AcDbEntity
  8
ADPDIM
 62
     7
100
AcDbSpline
210
0.0
220
0.0
230
1.0
 70
    11
 71
     3
 72
    95
 73
    91
 74
     0
 42
0.0000000001
 43
0.0000000001
 40
0.0
 40
0.0
 40
0.0
 40
0.0
 40
1.0
 40
1.0
 40
1.0
 40
2.0
 40
2.0
 40
2.0
 40
3.0
 40
3.0
 40
3.0
 40
4.0
 40
4.0
 40
4.0
 40
5.0
 40
5.0
 40
5.0
 40
6.0
 40
6.0
 40
6.0
 40
7.0
 40
7.0
 40
7.0
 40
8.0
 40
8.0
 40
8.0
 40
9.0
 40
9.0
 40
9.0
 40
10.0
 40
10.0
 40
10.0
 40
11.0
 40
11.0
 40
11.0
 40
12.0
 40
12.0
 40
12.0
 40
13.0
 40
13.0
 40
13.0
 40
14.0
 40
14.0
 40
14.0
 40
15.0
 40
15.0
 40
15.0
 40
16.0
 40
16.0
 40
16.0
 40
17.0
 40
17.0
 40
17.0
 40
18.0
 40
18.0
 40
18.0
 40
19.0
 40
19.0
 40
19.0
 40
20.0
 40
20.0
 40
20.0
 40
21.0
 40
21.0
 40
21.0
 40
22.0
 40
22.0
 40
22.0
 40
23.0
 40
23.0
 40
23.0
 40
24.0
 40
24.0
 40
24.0
 40
25.0
 40
25.0
 40
25.0
 40
26.0
 40
26.0
 40
26.0
 40
27.0
 40
27.0
 40
27.0
 40
28.0
 40
28.0
 40
28.0
 40
29.0
 40
29.0
 40
29.0
 40
30.0
 40
30.0
 40
30.0
 40
30.0
 10
42.51283487287497
 20
8.280234352488863
 30
0.0
 10
41.82580134519507
 20
8.280234352488863
 30
0.0
 10
41.26889250756621
 20
7.744179479501767
 30
0.0
 10
41.26889250756621
 20
7.082994069808256
 30
0.0
 10
41.26889250756621
 20
6.549733223151805
 30
0.0
 10
41.63075941051974
 20
6.097856829445173
 30
0.0
 10
42.13133554819235
 20
5.94293009406777
 30
0.0
 10
42.13133554819235
 20
5.94293009406777
 30
0.0
 10
42.14264663063235
 20
5.952270510593399
 30
0.0
 10
42.14264663063235
 20
5.952270510593399
 30
0.0
 10
42.14264663063235
 20
5.952270510593399
 30
0.0
 10
42.14264663063235
 20
6.168422866433592
 30
0.0
 10
42.14264663063235
 20
6.168422866433592
 30
0.0
 10
42.14264663063235
 20
6.168422866433592
 30
0.0
 10
42.10461007894273
 20
6.211669534855721
 30
0.0
 10
42.10461007894273
 20
6.211669534855721
 30
0.0
 10
42.10461007894273
 20
6.211669534855721
 30
0.0
 10
42.14264663063235
 20
6.251568770765775
 30
0.0
 10
42.14264663063235
 20
6.251568770765775
 30
0.0
 10
42.14264663063235
 20
6.251568770765775
 30
0.0
 10
42.14264663063235
 20
6.916628023729308
 30
0.0
 10
42.14264663063235
 20
6.916628023729308
 30
0.0
 10
42.14264663063235
 20
6.916628023729308
 30
0.0
 10
42.33211401035814
 20
6.916628023729308
 30
0.0
 10
42.33211401035814
 20
6.916628023729308
 30
0.0
 10
42.33211401035814
 20
6.916628023729308
 30
0.0
 10
42.33211401035814
 20
7.046961928312354
 30
0.0
 10
42.33211401035814
 20
7.046961928312354
 30
0.0
 10
42.33211401035814
 20
7.046961928312354
 30
0.0
 10
42.08039518407716
 20
7.046961928312354
 30
0.0
 10
42.08039518407716
 20
7.046961928312354
 30
0.0
 10
42.03766142870123
 20
7.046961928312354
 30
0.0
 10
42.02168013799842
 20
7.023070978528592
 30
0.0
 10
42.02168013799842
 20
6.977097772334531
 30
0.0
 10
42.02168013799842
 20
6.977097772334531
 30
0.0
 10
42.02386676730067
 20
6.6674602649676
 30
0.0
 10
42.02168013799842
 20
6.593114868691356
 30
0.0
 10
42.02168013799842
 20
6.540338815779208
 30
0.0
 10
42.02400849327395
 20
6.427174000532287
 30
0.0
 10
41.82704988353122
 20
6.427174000532287
 30
0.0
 10
41.57480464649229
 20
6.427174000532287
 30
0.0
 10
41.39329416783854
 20
6.806162750830834
 30
0.0
 10
41.39329416783854
 20
7.082994069808256
 30
0.0
 10
41.39329416783854
 20
7.678114929379384
 30
0.0
 10
41.89453169338654
 20
8.160529895902827
 30
0.0
 10
42.51283487287497
 20
8.160529895902827
 30
0.0
 10
43.13114480121925
 20
8.160529895902827
 30
0.0
 10
43.63236882905551
 20
7.678114929379384
 30
0.0
 10
43.63236882905551
 20
7.082994069808256
 30
0.0
 10
43.63236882905551
 20
6.661575262647986
 30
0.0
 10
43.4026917660496
 20
6.427174000532287
 30
0.0
 10
43.27141302164458
 20
6.427174000532287
 30
0.0
 10
43.14016127266307
 20
6.427174000532287
 30
0.0
 10
43.01962670680488
 20
6.486159000845866
 30
0.0
 10
43.02170535441319
 20
6.600403633032164
 30
0.0
 10
43.02316310728136
 20
6.684440386339336
 30
0.0
 10
43.02262319881166
 20
6.987248051564694
 30
0.0
 10
43.02262319881166
 20
6.987248051564694
 30
0.0
 10
43.02262319881166
 20
7.020479417874083
 30
0.0
 10
43.00737078454293
 20
7.046961928312354
 30
0.0
 10
42.95966987124587
 20
7.046961928312354
 30
0.0
 10
42.95966987124587
 20
7.046961928312354
 30
0.0
 10
42.70562268968935
 20
7.046961928312354
 30
0.0
 10
42.70562268968935
 20
7.046961928312354
 30
0.0
 10
42.70562268968935
 20
7.046961928312354
 30
0.0
 10
42.70562268968935
 20
6.916628023729308
 30
0.0
 10
42.70562268968935
 20
6.916628023729308
 30
0.0
 10
42.70562268968935
 20
6.916628023729308
 30
0.0
 10
42.89822828739519
 20
6.916628023729308
 30
0.0
 10
42.89822828739519
 20
6.916628023729308
 30
0.0
 10
42.89822828739519
 20
6.916628023729308
 30
0.0
 10
42.89822828739519
 20
6.251568770765775
 30
0.0
 10
42.89822828739519
 20
6.251568770765775
 30
0.0
 10
42.89822828739519
 20
6.251568770765775
 30
0.0
 10
42.93623784366134
 20
6.211669534855721
 30
0.0
 10
42.93623784366134
 20
6.211669534855721
 30
0.0
 10
42.93623784366134
 20
6.211669534855721
 30
0.0
 10
42.89822828739519
 20
6.168422866433592
 30
0.0
 10
42.89822828739519
 20
6.168422866433592
 30
0.0
 10
42.89822828739519
 20
6.168422866433592
 30
0.0
 10
42.89822828739519
 20
5.952270510593399
 30
0.0
 10
42.89822828739519
 20
5.952270510593399
 30
0.0
 10
42.89822828739519
 20
5.952270510593399
 30
0.0
 10
42.90854053916627
 20
5.945899590651062
 30
0.0
 10
42.90854053916627
 20
5.945899590651062
 30
0.0
 10
43.40425750061169
 20
6.103471877529945
 30
0.0
 10
43.75679073589544
 20
6.552999669393426
 30
0.0
 10
43.75679073589544
 20
7.082994069808256
 30
0.0
 10
43.75679073589544
 20
7.744179479501767
 30
0.0
 10
43.19990214483421
 20
8.280234352488863
 30
0.0
 10
42.51283487287497
 20
8.280234352488863
 30
0.0
  0
DIMENSION
  5
7C5
330
2
100
AcDbEntity
  8
ADPDIM
100
AcDbDimension
  2
*D4
 10
42.70166392244365
 20
6.548848386448444
 30
0.0
 11
42.514294945354
 21
6.548848386448444
 31
0.0
 70
    32
 71
     5
 42
0.3747379541793236
  3
Standard
100
AcDbAlignedDimension
 13
42.32692596826433
 23
7.049794506342667
 33
0.0
 14
42.70166392244365
 24
7.049794506342667
 34
0.0
100
AcDbRotatedDimension
1001
ACAD
1000
DSTYLE
1002
{
1070
    41
1040
0.125
1070
    73
1070
     0
1070
    74
1070
     0
1070
    78
1070
     3
1070
   140
1040
0.125
1070
   141
1040
0.1875
1070
   142
1040
0.125
1070
   147
1040
0.125
1070
   171
1070
     1
1070
   273
1070
     5
1070
   274
1070
     1
1070
   277
1070
     5
1070
   279
1070
     2
1070
   284
1070
     3
1070
   285
1070
     3
1070
   286
1070
     3
1002
}
  0
ENDSEC
  0
SECTION
  2
OBJECTS
  0
DICTIONARY
  5
9
330
0
100
AcDbDictionary
281
     1
  3
ACAD_COLOR
350
6B
  3
ACAD_GROUP
350
67
  3
ACAD_LAYOUT
350
53
  3
ACAD_MATERIAL
350
6A
  3
ACAD_MLINESTYLE
350
68
  3
ACAD_PLOTSETTINGS
350
69
  3
ACAD_PLOTSTYLENAME
350
8
  3
ACAD_TABLESTYLE
350
8D
  3
ACAD_VISUALSTYLE
350
7C
  3
AcDbVariableDictionary
350
74
  3
ASE_INDEX_DICTIONARY
350
670
  3
DWGPROPS
350
831
  0
DICTIONARY
  5
65D
330
62
100
AcDbDictionary
280
     1
281
     1
  0
DICTIONARY
  5
3
330
2
100
AcDbDictionary
280
     1
281
     1
  3
ACAD_LAYOUTSELFREF
360
4
  0
DICTIONARY
  5
55
330
54
100
AcDbDictionary
280
     1
281
     1
  3
ACAD_LAYOUTSELFREF
360
56
  0
DICTIONARY
  5
6B
102
{ACAD_REACTORS
330
9
102
}
330
9
100
AcDbDictionary
281
     1
  0
DICTIONARY
  5
67
102
{ACAD_REACTORS
330
9
102
}
330
9
100
AcDbDictionary
281
     1
  0
DICTIONARY
  5
53
102
{ACAD_REACTORS
330
9
102
}
330
9
100
AcDbDictionary
281
     1
  3
Layout1
350
59
  3
Model
350
52
  0
DICTIONARY
  5
6A
102
{ACAD_REACTORS
330
9
102
}
330
9
100
AcDbDictionary
281
     1
  3
ByBlock
350
7A
  3
ByLayer
350
79
  3
Global
350
7B
  0
DICTIONARY
  5
68
102
{ACAD_REACTORS
330
9
102
}
330
9
100
AcDbDictionary
281
     1
  3
Standard
350
6C
  0
DICTIONARY
  5
69
102
{ACAD_REACTORS
330
9
102
}
330
9
100
AcDbDictionary
281
     1
  0
ACDBDICTIONARYWDFLT
  5
8
102
{ACAD_REACTORS
330
9
102
}
330
9
100
AcDbDictionary
281
     1
  3
Normal
350
7
100
AcDbDictionaryWithDefault
340
7
  0
DICTIONARY
  5
8D
102
{ACAD_REACTORS
330
9
102
}
330
9
100
AcDbDictionary
281
     1
  3
Standard
350
8E
  0
DICTIONARY
  5
7C
102
{ACAD_REACTORS
330
9
102
}
330
9
100
AcDbDictionary
281
     1
  3
2dWireframe
350
82
  3
3D Hidden
350
84
  3
3dWireframe
350
83
  3
Basic
350
81
  3
Brighten
350
88
  3
ColorChange
350
8C
  3
Conceptual
350
85
  3
Dim
350
87
  3
Facepattern
350
8B
  3
Flat
350
7D
  3
FlatWithEdges
350
7E
  3
Gouraud
350
7F
  3
GouraudWithEdges
350
80
  3
Linepattern
350
8A
  3
Realistic
350
86
  3
Thicken
350
89
  0
DICTIONARY
  5
74
102
{ACAD_REACTORS
330
9
102
}
330
9
100
AcDbDictionary
281
     1
  3
CTABLESTYLE
350
54C
  3
DIMASSOC
350
76
  3
HIDETEXT
350
75
  3
INDEXCTL
350
66A
  3
PROJECTNAME
350
77
  3
SORTENTS
350
669
  0
DICTIONARY
  5
670
102
{ACAD_REACTORS
330
9
102
}
330
9
100
AcDbDictionary
281
     1
  3
ASEBlockHierarchyIndexRecord
350
671
1001
DCO15
1040
1628418316.553
  0
XRECORD
  5
831
102
{ACAD_REACTORS
330
9
102
}
330
9
100
AcDbXrecord
280
     1
  1
DWGPROPS COOKIE
  2

  3

  4

  6

  7

  8
John Smith
  9

300
=
301
=
302
=
303
=
304
=
305
=
306
=
307
=
308
=
309
=
 40
0.1047233217592593
 41
2450399.632585452
 42
2454650.646071215
  1

 90
        0
  0
XRECORD
  5
4
102
{ACAD_REACTORS
330
3
102
}
330
3
100
AcDbXrecord
280
     1
340
2
  0
XRECORD
  5
56
102
{ACAD_REACTORS
330
55
102
}
330
55
100
AcDbXrecord
280
     1
340
54
  0
LAYOUT
  5
59
102
{ACAD_XDICTIONARY
360
834
102
}
102
{ACAD_REACTORS
330
53
102
}
330
53
100
AcDbPlotSettings
  1

  2
Fax
  4

  6

 40
0.0
 41
0.0
 42
0.0
 43
0.0
 44
0.0
 45
0.0
 46
0.0
 47
0.0
 48
0.0
 49
0.0
140
0.0
141
0.0
142
1.0
143
1.0
 70
   688
 72
     0
 73
     0
 74
     5
  7
Default R14 pen assignments.ctb
 75
    16
147
1.0
148
0.0
149
0.0
100
AcDbLayout
  1
Layout1
 70
     1
 71
     1
 10
0.0
 20
0.0
 11
12.0
 21
9.0
 12
0.0004882914945483
 22
0.7501408034022604
 32
0.0
 14
1.000000000000000E+20
 24
1.000000000000000E+20
 34
1.000000000000000E+20
 15
-1.000000000000000E+20
 25
-1.000000000000000E+20
 35
-1.000000000000000E+20
146
0.0
 13
0.0
 23
0.0
 33
0.0
 16
1.0
 26
0.0
 36
0.0
 17
0.0
 27
1.0
 37
0.0
 76
     0
330
54
  0
LAYOUT
  5
52
102
{ACAD_XDICTIONARY
360
832
102
}
102
{ACAD_REACTORS
330
53
102
}
330
53
100
AcDbPlotSettings
  1

  2
Fax
  4

  6

 40
0.0
 41
0.0
 42
0.0
 43
0.0
 44
0.0
 45
0.0
 46
0.0
 47
0.0
 48
0.0
 49
0.0
140
0.0
141
0.0
142
1.0
143
1.0
 70
  1712
 72
     0
 73
     0
 74
     0
  7
Default R14 pen assignments.ctb
 75
     0
147
1.0
148
0.0
149
0.0
100
AcDbLayout
  1
Model
 70
     1
 71
     0
 10
0.0
 20
0.0
 11
12.0
 21
9.0
 12
0.0
 22
0.0
 32
0.0
 14
0.0
 24
0.0
 34
0.0
 15
0.0
 25
0.0
 35
0.0
146
0.0
 13
0.0
 23
0.0
 33
0.0
 16
1.0
 26
0.0
 36
0.0
 17
0.0
 27
1.0
 37
0.0
 76
     0
330
2
331
63
  0
MATERIAL
  5
7A
102
{ACAD_XDICTIONARY
360
838
102
}
102
{ACAD_REACTORS
330
6A
102
}
330
6A
100
AcDbMaterial
  1
ByBlock
  0
MATERIAL
  5
79
102
{ACAD_XDICTIONARY
360
836
102
}
102
{ACAD_REACTORS
330
6A
102
}
330
6A
100
AcDbMaterial
  1
ByLayer
  0
MATERIAL
  5
7B
102
{ACAD_XDICTIONARY
360
83A
102
}
102
{ACAD_REACTORS
330
6A
102
}
330
6A
100
AcDbMaterial
  1
Global
  0
MLINESTYLE
  5
6C
102
{ACAD_REACTORS
330
68
102
}
330
68
100
AcDbMlineStyle
  2
STANDARD
 70
     0
  3

 62
   256
 51
90.0
 52
90.0
 71
     2
 49
0.5
 62
   256
  6
BYLAYER
 49
-0.5
 62
   256
  6
BYLAYER
  0
ACDBPLACEHOLDER
  5
7
102
{ACAD_REACTORS
330
8
102
}
330
8
  0
TABLESTYLE
  5
8E
102
{ACAD_XDICTIONARY
360
83C
102
}
102
{ACAD_REACTORS
330
8D
102
}
330
8D
100
AcDbTableStyle
  3
Standard
 70
     0
 71
     0
 40
0.06
 41
0.06
280
     0
281
     0
  7
STANDARD
140
0.18
170
     2
 62
     0
 63
     7
283
     0
274
    -2
284
     1
 64
     0
275
    -2
285
     1
 65
     0
276
    -2
286
     1
 66
     0
277
    -2
287
     1
 67
     0
278
    -2
288
     1
 68
     0
279
    -2
289
     1
 69
     0
  7
STANDARD
140
0.25
170
     5
 62
     0
 63
     7
283
     0
274
    -2
284
     1
 64
     0
275
    -2
285
     1
 65
     0
276
    -2
286
     1
 66
     0
277
    -2
287
     1
 67
     0
278
    -2
288
     1
 68
     0
279
    -2
289
     1
 69
     0
  7
STANDARD
140
0.18
170
     5
 62
     0
 63
     7
283
     0
274
    -2
284
     1
 64
     0
275
    -2
285
     1
 65
     0
276
    -2
286
     1
 66
     0
277
    -2
287
     1
 67
     0
278
    -2
288
     1
 68
     0
279
    -2
289
     1
 69
     0
  0
VISUALSTYLE
  5
82
102
{ACAD_REACTORS
330
7C
102
}
330
7C
100
AcDbVisualStyle
  2
2dWireframe
 70
     4
 71
     0
 72
     2
 73
     0
 90
        0
 40
-0.6
 41
-30.0
 62
     5
 63
     7
 74
     1
 91
        4
 64
     7
 65
   257
 75
     1
175
     1
 42
1.0
 92
        0
 66
   257
 43
1.0
 76
     1
 77
     6
 78
     2
 67
     7
 79
     5
170
     0
171
     0
290
     0
174
     0
 93
        1
 44
0.0
173
     0
291
     0
 45
0.0
1001
ACAD
1000
AcDbSavedByObjectVersion
1070
     0
  0
VISUALSTYLE
  5
84
102
{ACAD_REACTORS
330
7C
102
}
330
7C
100
AcDbVisualStyle
  2
3D Hidden
 70
     6
 71
     1
 72
     2
 73
     2
 90
        0
 40
-0.6
 41
-30.0
 62
     5
 63
     7
 74
     2
 91
        2
 64
     7
 65
   257
 75
     2
175
     1
 42
40.0
 92
        0
 66
   257
 43
1.0
 76
     1
 77
     6
 78
     2
 67
     7
 79
     3
170
     0
171
     0
290
     0
174
     0
 93
        1
 44
0.0
173
     0
291
     0
 45
0.0
1001
ACAD
1000
AcDbSavedByObjectVersion
1070
     0
  0
VISUALSTYLE
  5
83
102
{ACAD_REACTORS
330
7C
102
}
330
7C
100
AcDbVisualStyle
  2
3dWireframe
 70
     5
 71
     0
 72
     2
 73
     0
 90
        0
 40
-0.6
 41
-30.0
 62
     5
 63
     7
 74
     1
 91
        4
 64
     7
 65
   257
 75
     1
175
     1
 42
1.0
 92
        0
 66
   257
 43
1.0
 76
     1
 77
     6
 78
     2
 67
     7
 79
     5
170
     0
171
     0
290
     0
174
     0
 93
        1
 44
0.0
173
     0
291
     0
 45
0.0
1001
ACAD
1000
AcDbSavedByObjectVersion
1070
     0
  0
VISUALSTYLE
  5
81
102
{ACAD_REACTORS
330
7C
102
}
330
7C
100
AcDbVisualStyle
  2
Basic
 70
     7
 71
     1
 72
     0
 73
     1
 90
        0
 40
-0.6
 41
-30.0
 62
     5
 63
     7
 74
     0
 91
        4
 64
     7
 65
   257
 75
     1
175
     1
 42
1.0
 92
        8
 66
     7
 43
1.0
 76
     1
 77
     6
 78
     2
 67
     7
 79
     5
170
     0
171
     0
290
     0
174
     0
 93
        1
 44
0.0
173
     0
291
     1
 45
0.0
1001
ACAD
1000
AcDbSavedByObjectVersion
1070
     0
  0
VISUALSTYLE
  5
88
102
{ACAD_REACTORS
330
7C
102
}
330
7C
100
AcDbVisualStyle
  2
Brighten
 70
    12
 71
     2
 72
     2
 73
     0
 90
        0
 40
-0.6
 41
-30.0
 62
     5
 63
     7
 74
     1
 91
        4
 64
     7
 65
   257
 75
     1
175
     1
 42
1.0
 92
        8
 66
     7
 43
1.0
 76
     1
 77
     6
 78
     2
 67
     7
 79
     5
170
     0
171
     0
290
     0
174
     0
 93
        1
 44
50.0
173
     0
291
     1
 45
0.0
1001
ACAD
1000
AcDbSavedByObjectVersion
1070
     0
  0
VISUALSTYLE
  5
8C
102
{ACAD_REACTORS
330
7C
102
}
330
7C
100
AcDbVisualStyle
  2
ColorChange
 70
    16
 71
     2
 72
     2
 73
     3
 90
        0
 40
-0.6
 41
-30.0
 62
     5
 63
     8
 74
     1
 91
        4
 64
     7
 65
   257
 75
     1
175
     1
 42
1.0
 92
        8
 66
     8
 43
1.0
 76
     1
 77
     6
 78
     2
 67
     7
 79
     5
170
     0
171
     0
290
     0
174
     0
 93
        1
 44
0.0
173
     0
291
     1
 45
0.0
1001
ACAD
1000
AcDbSavedByObjectVersion
1070
     0
  0
VISUALSTYLE
  5
85
102
{ACAD_REACTORS
330
7C
102
}
330
7C
100
AcDbVisualStyle
  2
Conceptual
 70
     9
 71
     3
 72
     2
 73
     0
 90
        0
 40
-0.6
 41
-30.0
 62
     5
 63
     7
 74
     2
 91
        2
 64
     7
 65
   257
 75
     1
175
     1
 42
40.0
 92
        8
 66
     7
 43
1.0
 76
     1
 77
     6
 78
     2
 67
     7
 79
     3
170
     0
171
     0
290
     0
174
     0
 93
        1
 44
0.0
173
     0
291
     0
 45
0.0
1001
ACAD
1000
AcDbSavedByObjectVersion
1070
     0
  0
VISUALSTYLE
  5
87
102
{ACAD_REACTORS
330
7C
102
}
330
7C
100
AcDbVisualStyle
  2
Dim
 70
    11
 71
     2
 72
     2
 73
     0
 90
        0
 40
-0.6
 41
-30.0
 62
     5
 63
     7
 74
     1
 91
        4
 64
     7
 65
   257
 75
     1
175
     1
 42
1.0
 92
        8
 66
     7
 43
1.0
 76
     1
 77
     6
 78
     2
 67
     7
 79
     5
170
     0
171
     0
290
     0
174
     0
 93
        1
 44
-50.0
173
     0
291
     1
 45
0.0
1001
ACAD
1000
AcDbSavedByObjectVersion
1070
     0
  0
VISUALSTYLE
  5
8B
102
{ACAD_REACTORS
330
7C
102
}
330
7C
100
AcDbVisualStyle
  2
Facepattern
 70
    15
 71
     2
 72
     2
 73
     0
 90
        0
 40
-0.6
 41
-30.0
 62
     5
 63
     7
 74
     1
 91
        4
 64
     7
 65
   257
 75
     1
175
     1
 42
1.0
 92
        8
 66
     7
 43
1.0
 76
     1
 77
     6
 78
     2
 67
     7
 79
     5
170
     0
171
     0
290
     0
174
     0
 93
        1
 44
0.0
173
     0
291
     1
 45
0.0
1001
ACAD
1000
AcDbSavedByObjectVersion
1070
     0
  0
VISUALSTYLE
  5
7D
102
{ACAD_REACTORS
330
7C
102
}
330
7C
100
AcDbVisualStyle
  2
Flat
 70
     0
 71
     2
 72
     1
 73
     1
 90
        2
 40
-0.6
 41
30.0
 62
     5
 63
     7
 74
     0
 91
        4
 64
     7
 65
   257
 75
     1
175
     1
 42
1.0
 92
        8
 66
     7
 43
1.0
 76
     1
 77
     6
 78
     2
 67
     7
 79
     5
170
     0
171
     0
290
     0
174
     0
 93
       13
 44
0.0
173
     0
291
     1
 45
0.0
1001
ACAD
1000
AcDbSavedByObjectVersion
1070
     0
  0
VISUALSTYLE
  5
7E
102
{ACAD_REACTORS
330
7C
102
}
330
7C
100
AcDbVisualStyle
  2
FlatWithEdges
 70
     1
 71
     2
 72
     1
 73
     1
 90
        2
 40
-0.6
 41
30.0
 62
     5
 63
     7
 74
     1
 91
        4
 64
     7
 65
   257
 75
     1
175
     1
 42
1.0
 92
        0
 66
   257
 43
1.0
 76
     1
 77
     6
 78
     2
 67
     7
 79
     5
170
     0
171
     0
290
     0
174
     0
 93
       13
 44
0.0
173
     0
291
     1
 45
0.0
1001
ACAD
1000
AcDbSavedByObjectVersion
1070
     0
  0
VISUALSTYLE
  5
7F
102
{ACAD_REACTORS
330
7C
102
}
330
7C
100
AcDbVisualStyle
  2
Gouraud
 70
     2
 71
     2
 72
     2
 73
     1
 90
        2
 40
-0.6
 41
30.0
 62
     5
 63
     7
 74
     0
 91
        4
 64
     7
 65
   257
 75
     1
175
     1
 42
1.0
 92
        0
 66
     7
 43
1.0
 76
     1
 77
     6
 78
     2
 67
     7
 79
     5
170
     0
171
     0
290
     0
174
     0
 93
       13
 44
0.0
173
     0
291
     1
 45
0.0
1001
ACAD
1000
AcDbSavedByObjectVersion
1070
     0
  0
VISUALSTYLE
  5
80
102
{ACAD_REACTORS
330
7C
102
}
330
7C
100
AcDbVisualStyle
  2
GouraudWithEdges
 70
     3
 71
     2
 72
     2
 73
     1
 90
        2
 40
-0.6
 41
30.0
 62
     5
 63
     7
 74
     1
 91
        4
 64
     7
 65
   257
 75
     1
175
     1
 42
1.0
 92
        0
 66
   257
 43
1.0
 76
     1
 77
     6
 78
     2
 67
     7
 79
     5
170
     0
171
     0
290
     0
174
     0
 93
       13
 44
0.0
173
     0
291
     1
 45
0.0
1001
ACAD
1000
AcDbSavedByObjectVersion
1070
     0
  0
VISUALSTYLE
  5
8A
102
{ACAD_REACTORS
330
7C
102
}
330
7C
100
AcDbVisualStyle
  2
Linepattern
 70
    14
 71
     2
 72
     2
 73
     0
 90
        0
 40
-0.6
 41
-30.0
 62
     5
 63
     7
 74
     1
 91
        4
 64
     7
 65
   257
 75
     7
175
     7
 42
1.0
 92
        8
 66
     7
 43
1.0
 76
     1
 77
     6
 78
     2
 67
     7
 79
     5
170
     0
171
     0
290
     0
174
     0
 93
        1
 44
0.0
173
     0
291
     1
 45
0.0
1001
ACAD
1000
AcDbSavedByObjectVersion
1070
     0
  0
VISUALSTYLE
  5
86
102
{ACAD_REACTORS
330
7C
102
}
330
7C
100
AcDbVisualStyle
  2
Realistic
 70
     8
 71
     2
 72
     2
 73
     0
 90
        0
 40
-0.6
 41
-30.0
 62
     5
 63
     7
 74
     1
 91
        0
 64
     7
 65
   257
 75
     1
175
     1
 42
1.0
 92
        8
 66
     8
 43
1.0
 76
     1
 77
     6
 78
     2
 67
     7
 79
     5
170
     0
171
     0
290
     0
174
     0
 93
       13
 44
0.0
173
     0
291
     0
 45
0.0
1001
ACAD
1000
AcDbSavedByObjectVersion
1070
     0
  0
VISUALSTYLE
  5
89
102
{ACAD_REACTORS
330
7C
102
}
330
7C
100
AcDbVisualStyle
  2
Thicken
 70
    13
 71
     2
 72
     2
 73
     0
 90
        0
 40
-0.6
 41
-30.0
 62
     5
 63
     7
 74
     1
 91
        4
 64
     7
 65
   257
 75
     1
175
     1
 42
1.0
 92
       12
 66
     7
 43
1.0
 76
     1
 77
     6
 78
     2
 67
     7
 79
     5
170
     0
171
     0
290
     0
174
     0
 93
        1
 44
0.0
173
     0
291
     1
 45
0.0
1001
ACAD
1000
AcDbSavedByObjectVersion
1070
     0
  0
DICTIONARYVAR
  5
54C
102
{ACAD_REACTORS
330
74
102
}
330
74
100
DictionaryVariables
280
     0
  1
STANDARD
  0
DICTIONARYVAR
  5
76
102
{ACAD_REACTORS
330
74
102
}
330
74
100
DictionaryVariables
280
     0
  1
2
  0
DICTIONARYVAR
  5
75
102
{ACAD_REACTORS
330
74
102
}
330
74
100
DictionaryVariables
280
     0
  1
1
  0
DICTIONARYVAR
  5
66A
102
{ACAD_REACTORS
330
74
102
}
330
74
100
DictionaryVariables
280
     0
  1
0
  0
DICTIONARYVAR
  5
77
102
{ACAD_REACTORS
330
74
102
}
330
74
100
DictionaryVariables
280
     0
  1

  0
DICTIONARYVAR
  5
669
102
{ACAD_REACTORS
330
74
102
}
330
74
100
DictionaryVariables
280
     0
  1
127
  0
XRECORD
  5
671
102
{ACAD_REACTORS
330
670
102
}
330
670
100
AcDbXrecord
280
     1
  0
DICTIONARY
  5
834
330
59
100
AcDbDictionary
280
     1
281
     1
  3
ACAD_XREC_ROUNDTRIP
360
835
  0
DICTIONARY
  5
832
330
52
100
AcDbDictionary
280
     1
281
     1
  3
ACAD_XREC_ROUNDTRIP
360
833
  0
DICTIONARY
  5
838
330
7A
100
AcDbDictionary
280
     1
281
     1
  3
ACAD_XREC_ROUNDTRIP
360
839
  0
DICTIONARY
  5
836
330
79
100
AcDbDictionary
280
     1
281
     1
  3
ACAD_XREC_ROUNDTRIP
360
837
  0
DICTIONARY
  5
83A
330
7B
100
AcDbDictionary
280
     1
281
     1
  3
ACAD_XREC_ROUNDTRIP
360
83B
  0
DICTIONARY
  5
83C
330
8E
100
AcDbDictionary
280
     1
281
     1
  3
ACAD_XREC_ROUNDTRIP
360
83D
  0
XRECORD
  5
835
102
{ACAD_REACTORS
330
834
102
}
330
834
100
AcDbXrecord
280
     1
102
SHADEPLOT
 70
     0
102
SHADEPLOTRESLEVEL
 70
     2
102
SHADEPLOTCUSTOMDPI
 70
   300
  0
XRECORD
  5
833
102
{ACAD_REACTORS
330
832
102
}
330
832
100
AcDbXrecord
280
     1
102
SHADEPLOT
 70
     0
102
SHADEPLOTRESLEVEL
 70
     2
102
SHADEPLOTCUSTOMDPI
 70
   300
  0
XRECORD
  5
839
102
{ACAD_REACTORS
330
838
102
}
330
838
100
AcDbXrecord
280
     1
102
MATERIAL
148
0.0
149
0.0
149
0.0
 93
        0
 94
       63
282
     0
 72
     1
 77
     1
171
     1
175
     1
179
     1
273
     0
  0
XRECORD
  5
837
102
{ACAD_REACTORS
330
836
102
}
330
836
100
AcDbXrecord
280
     1
102
MATERIAL
148
0.0
149
0.0
149
0.0
 93
        0
 94
       63
282
     0
 72
     1
 77
     1
171
     1
175
     1
179
     1
273
     0
  0
XRECORD
  5
83B
102
{ACAD_REACTORS
330
83A
102
}
330
83A
100
AcDbXrecord
280
     1
102
MATERIAL
148
0.0
149
0.0
149
0.0
 93
        0
 94
       63
282
     0
 72
     1
 77
     1
171
     1
175
     1
179
     1
273
     0
  0
XRECORD
  5
83D
102
{ACAD_REACTORS
330
83C
102
}
330
83C
100
AcDbXrecord
280
     1
102
ACAD_ROUNDTRIP_PRE2007_TABLESTYLE
 90
      512
 91
        0
  1

 92
      512
 93
        0
  2

 94
      512
 95
        0
  3

  0
ENDSEC
  0
EOF
