  0
SECTION
  2
HEADER
  9
$ACADVER
  1
AC1014
  9
$ACADMAINTVER
 70
     9
  9
$DWGCODEPAGE
  3
ANSI_1252
  9
$INSBASE
 10
-62.47171306587564
 20
58.15063716627186
 30
0.0
  9
$EXTMIN
 10
-75.49881513739897
 20
52.23237506689947
 30
0.0
  9
$EXTMAX
 10
-49.39589903917251
 20
64.15063716627186
 30
0.0
  9
$LIMMIN
 10
0.0
 20
0.0
  9
$LIMMAX
 10
36.0
 20
36.0
  9
$ORTHOMODE
 70
     0
  9
$REGENMODE
 70
     1
  9
$FILLMODE
 70
     1
  9
$QTEXTMODE
 70
     0
  9
$MIRRTEXT
 70
     1
  9
$DRAGMODE
 70
     0
  9
$LTSCALE
 40
1.0
  9
$OSMODE
 70
    37
  9
$ATTMODE
 70
     1
  9
$TEXTSIZE
 40
0.2
  9
$TRACEWID
 40
0.05
  9
$TEXTSTYLE
  7
STANDARD
  9
$CLAYER
  8
ADPDIM
  9
$CELTYPE
  6
BYLAYER
  9
$CECOLOR
 62
   256
  9
$CELTSCALE
 40
1.0
  9
$DELOBJ
 70
     1
  9
$DISPSILH
 70
     0
  9
$DIMSCALE
 40
1.0
  9
$DIMASZ
 40
0.125
  9
$DIMEXO
 40
0.0625
  9
$DIMDLI
 40
0.38
  9
$DIMRND
 40
0.0
  9
$DIMDLE
 40
0.0
  9
$DIMEXE
 40
0.18
  9
$DIMTP
 40
0.0
  9
$DIMTM
 40
0.0
  9
$DIMTXT
 40
0.125
  9
$DIMCEN
 40
0.1875
  9
$DIMTSZ
 40
0.125
  9
$DIMTOL
 70
     0
  9
$DIMLIM
 70
     0
  9
$DIMTIH
 70
     0
  9
$DIMTOH
 70
     0
  9
$DIMSE1
 70
     0
  9
$DIMSE2
 70
     0
  9
$DIMTAD
 70
     0
  9
$DIMZIN
 70
     3
  9
$DIMBLK
  1

  9
$DIMASO
 70
     1
  9
$DIMSHO
 70
     1
  9
$DIMPOST
  1

  9
$DIMAPOST
  1

  9
$DIMALT
 70
     0
  9
$DIMALTD
 70
     1
  9
$DIMALTF
 40
25.4
  9
$DIMLFAC
 40
1.0
  9
$DIMTOFL
 70
     0
  9
$DIMTVP
 40
0.0
  9
$DIMTIX
 70
     0
  9
$DIMSOXD
 70
     0
  9
$DIMSAH
 70
     0
  9
$DIMBLK1
  1

  9
$DIMBLK2
  1

  9
$DIMSTYLE
  2
STANDARD
  9
$DIMCLRD
 70
     0
  9
$DIMCLRE
 70
     0
  9
$DIMCLRT
 70
     0
  9
$DIMTFAC
 40
1.0
  9
$DIMGAP
 40
0.125
  9
$DIMJUST
 70
     0
  9
$DIMSD1
 70
     0
  9
$DIMSD2
 70
     0
  9
$DIMTOLJ
 70
     1
  9
$DIMTZIN
 70
     3
  9
$DIMALTZ
 70
     3
  9
$DIMALTTZ
 70
     3
  9
$DIMFIT
 70
     5
  9
$DIMUPT
 70
     0
  9
$DIMUNIT
 70
     5
  9
$DIMDEC
 70
     4
  9
$DIMTDEC
 70
     4
  9
$DIMALTU
 70
     5
  9
$DIMALTTD
 70
     1
  9
$DIMTXSTY
  7
STANDARD
  9
$DIMAUNIT
 70
     0
  9
$LUNITS
 70
     5
  9
$LUPREC
 70
     4
  9
$SKETCHINC
 40
0.1
  9
$FILLETRAD
 40
0.187
  9
$AUNITS
 70
     0
  9
$AUPREC
 70
     0
  9
$MENU
  1
acad
  9
$ELEVATION
 40
0.0
  9
$PELEVATION
 40
0.0
  9
$THICKNESS
 40
0.0
  9
$LIMCHECK
 70
     0
  9
$BLIPMODE
 70
     0
  9
$CHAMFERA
 40
0.0
  9
$CHAMFERB
 40
0.0
  9
$CHAMFERC
 40
0.0
  9
$CHAMFERD
 40
0.0
  9
$SKPOLY
 70
     0
  9
$TDCREATE
 40
2450406.501621331
  9
$TDUPDATE
 40
2452297.080187708
  9
$TDINDWG
 40
0.0120804398
  9
$TDUSRTIMER
 40
0.0120804398
  9
$USRTIMER
 70
     1
  9
$ANGBASE
 50
0.0
  9
$ANGDIR
 70
     0
  9
$PDMODE
 70
     0
  9
$PDSIZE
 40
0.0
  9
$PLINEWID
 40
0.0
  9
$COORDS
 70
     2
  9
$SPLFRAME
 70
     0
  9
$SPLINETYPE
 70
     6
  9
$SPLINESEGS
 70
     8
  9
$ATTDIA
 70
     0
  9
$ATTREQ
 70
     1
  9
$HANDLING
 70
 22529
  9
$HANDSEED
  5
3AE
  9
$SURFTAB1
 70
     6
  9
$SURFTAB2
 70
     6
  9
$SURFTYPE
 70
     6
  9
$SURFU
 70
     6
  9
$SURFV
 70
     6
  9
$UCSNAME
  2

  9
$UCSORG
 10
0.0
 20
0.0
 30
0.0
  9
$UCSXDIR
 10
1.0
 20
0.0
 30
0.0
  9
$UCSYDIR
 10
0.0
 20
1.0
 30
0.0
  9
$PUCSNAME
  2

  9
$PUCSORG
 10
0.0
 20
0.0
 30
0.0
  9
$PUCSXDIR
 10
1.0
 20
0.0
 30
0.0
  9
$PUCSYDIR
 10
0.0
 20
1.0
 30
0.0
  9
$USERI1
 70
     0
  9
$USERI2
 70
     0
  9
$USERI3
 70
     0
  9
$USERI4
 70
     0
  9
$USERI5
 70
     0
  9
$USERR1
 40
0.0
  9
$USERR2
 40
0.0
  9
$USERR3
 40
0.0
  9
$USERR4
 40
0.0
  9
$USERR5
 40
0.0
  9
$WORLDVIEW
 70
     1
  9
$SHADEDGE
 70
     3
  9
$SHADEDIF
 70
    70
  9
$TILEMODE
 70
     1
  9
$MAXACTVP
 70
    15
  9
$PINSBASE
 10
0.0008545024320483
 20
1.750284242913068
 30
0.0
  9
$PLIMCHECK
 70
     0
  9
$PEXTMIN
 10
1.000000000000000E+20
 20
1.000000000000000E+20
 30
1.000000000000000E+20
  9
$PEXTMAX
 10
-1.000000000000000E+20
 20
-1.000000000000000E+20
 30
-1.000000000000000E+20
  9
$PLIMMIN
 10
0.0
 20
0.0
  9
$PLIMMAX
 10
12.0
 20
9.0
  9
$UNITMODE
 70
     0
  9
$VISRETAIN
 70
     0
  9
$PLINEGEN
 70
     0
  9
$PSLTSCALE
 70
     1
  9
$TREEDEPTH
 70
  3020
  9
$PICKSTYLE
 70
     1
  9
$CMLSTYLE
  2
STANDARD
  9
$CMLJUST
 70
     0
  9
$CMLSCALE
 40
1.0
  9
$PROXYGRAPHICS
 70
     1
  9
$MEASUREMENT
 70
     0
  0
ENDSEC
  0
SECTION
  2
CLASSES
  0
CLASS
  1
ACDBDICTIONARYWDFLT
  2
AcDbDictionaryWithDefault
  3
AutoCAD 2000
 90
        0
280
     0
281
     0
  0
CLASS
  1
ACDBPLACEHOLDER
  2
AcDbPlaceHolder
  3
AutoCAD 2000
 90
        0
280
     0
281
     0
  0
CLASS
  1
LAYOUT
  2
AcDbLayout
  3
AutoCAD 2000
 90
        0
280
     0
281
     0
  0
CLASS
  1
DICTIONARYVAR
  2
AcDbDictionaryVar
  3
AutoCAD 2000
 90
        0
280
     0
281
     0
  0
CLASS
  1
LONG_TRANSACTION
  2
AcDbLongTransaction
  3
AutoCAD 2000
 90
        0
280
     0
281
     0
  0
CLASS
  1
LWPOLYLINE
  2
AcDbPolyline
  3
AutoCAD 2000
 90
        0
280
     0
281
     1
  0
CLASS
  1
HATCH
  2
AcDbHatch
  3
AutoCAD 2000
 90
        0
280
     0
281
     1
  0
CLASS
  1
XRECORD
  2
AcDbXrecord
  3
AutoCAD 2000
 90
        0
280
     0
281
     0
  0
CLASS
  1
LONG_TRANSACTION
  2
AcDbLongTransaction
  3
AutoCAD 2000
 90
        0
280
     0
281
     0
  0
CLASS
  1
LWPOLYLINE
  2
AcDbPolyline
  3
AutoCAD 2000
 90
        0
280
     0
281
     1
  0
CLASS
  1
HATCH
  2
AcDbHatch
  3
AutoCAD 2000
 90
        0
280
     0
281
     1
  0
CLASS
  1
XRECORD
  2
AcDbXrecord
  3
AutoCAD 2000
 90
        0
280
     0
281
     0
  0
CLASS
  1
LONG_TRANSACTION
  2
AcDbLongTransaction
  3
AutoCAD 2000
 90
        0
280
     0
281
     0
  0
CLASS
  1
LWPOLYLINE
  2
AcDbPolyline
  3
AutoCAD 2000
 90
        0
280
     0
281
     1
  0
CLASS
  1
HATCH
  2
AcDbHatch
  3
AutoCAD 2000
 90
        0
280
     0
281
     1
  0
CLASS
  1
XRECORD
  2
AcDbXrecord
  3
AutoCAD 2000
 90
        0
280
     0
281
     0
  0
CLASS
  1
LONG_TRANSACTION
  2
AcDbLongTransaction
  3
AutoCAD 2000
 90
        0
280
     0
281
     0
  0
CLASS
  1
LWPOLYLINE
  2
AcDbPolyline
  3
AutoCAD 2000
 90
        0
280
     0
281
     1
  0
CLASS
  1
HATCH
  2
AcDbHatch
  3
AutoCAD 2000
 90
        0
280
     0
281
     1
  0
CLASS
  1
XRECORD
  2
AcDbXrecord
  3
AutoCAD 2000
 90
        0
280
     0
281
     0
  0
CLASS
  1
LONG_TRANSACTION
  2
AcDbLongTransaction
  3
AutoCAD 2000
 90
        0
280
     0
281
     0
  0
CLASS
  1
LWPOLYLINE
  2
AcDbPolyline
  3
AutoCAD 2000
 90
        0
280
     0
281
     1
  0
CLASS
  1
HATCH
  2
AcDbHatch
  3
AutoCAD 2000
 90
        0
280
     0
281
     1
  0
CLASS
  1
XRECORD
  2
AcDbXrecord
  3
AutoCAD 2000
 90
        0
280
     0
281
     0
  0
CLASS
  1
LONG_TRANSACTION
  2
AcDbLongTransaction
  3
AutoCAD 2000
 90
        0
280
     0
281
     0
  0
CLASS
  1
LWPOLYLINE
  2
AcDbPolyline
  3
AutoCAD 2000
 90
        0
280
     0
281
     1
  0
CLASS
  1
HATCH
  2
AcDbHatch
  3
AutoCAD 2000
 90
        0
280
     0
281
     1
  0
CLASS
  1
XRECORD
  2
AcDbXrecord
  3
AutoCAD 2000
 90
        0
280
     0
281
     0
  0
ENDSEC
  0
SECTION
  2
TABLES
  0
TABLE
  2
VPORT
  5
8
330
0
100
AcDbSymbolTable
 70
     2
  0
VPORT
  5
38A
330
8
100
AcDbSymbolTableRecord
100
AcDbViewportTableRecord
  2
*ACTIVE
 70
     0
 10
0.0
 20
0.0
 11
1.0
 21
1.0
 12
-62.42933107721619
 22
58.19314478007584
 13
0.0
 23
0.0
 14
0.5740882589684922
 24
0.5740882589684922
 15
0.5
 25
0.5
 16
0.0
 26
0.0
 36
1.0
 17
0.0
 27
0.0
 37
0.0
 40
16.73188545981272
 41
1.570528967254408
 42
50.0
 43
0.0
 44
0.0
 50
0.0
 51
0.0
 71
     0
 72
   100
 73
     1
 74
     0
 75
     0
 76
     0
 77
     0
 78
     0
  0
ENDTAB
  0
TABLE
  2
LTYPE
  5
5
330
0
100
AcDbSymbolTable
 70
     2
  0
LTYPE
  5
13
330
5
100
AcDbSymbolTableRecord
100
AcDbLinetypeTableRecord
  2
BYBLOCK
 70
     0
  3

 72
    65
 73
     0
 40
0.0
  0
LTYPE
  5
14
330
5
100
AcDbSymbolTableRecord
100
AcDbLinetypeTableRecord
  2
BYLAYER
 70
     0
  3

 72
    65
 73
     0
 40
0.0
  0
LTYPE
  5
15
330
5
100
AcDbSymbolTableRecord
100
AcDbLinetypeTableRecord
  2
CONTINUOUS
 70
     0
  3
Solid line
 72
    65
 73
     0
 40
0.0
  0
LTYPE
  5
145
330
5
100
AcDbSymbolTableRecord
100
AcDbLinetypeTableRecord
  2
HIDDEN2
 70
     0
  3
_ _ _ _ _ _ _ _ _ _ _ _ _ _ _ _ _ _ _ _ _ _ _ _
 72
    65
 73
     2
 40
0.1875
 49
0.125
 74
     0
 49
-0.0625
 74
     0
  0
ENDTAB
  0
TABLE
  2
LAYER
  5
2
330
0
100
AcDbSymbolTable
 70
     5
  0
LAYER
  5
10
330
2
100
AcDbSymbolTableRecord
100
AcDbLayerTableRecord
  2
0
 70
     0
 62
     7
  6
CONTINUOUS
  0
LAYER
  5
149
330
2
100
AcDbSymbolTableRecord
100
AcDbLayerTableRecord
  2
ADP1DETAIL
 70
     0
 62
     7
  6
CONTINUOUS
  0
LAYER
  5
14B
330
2
100
AcDbSymbolTableRecord
100
AcDbLayerTableRecord
  2
DEFPOINTS
 70
     0
 62
     7
  6
CONTINUOUS
  0
LAYER
  5
14F
330
2
100
AcDbSymbolTableRecord
100
AcDbLayerTableRecord
  2
ADPDIM
 70
     0
 62
     3
  6
CONTINUOUS
  0
LAYER
  5
150
330
2
100
AcDbSymbolTableRecord
100
AcDbLayerTableRecord
  2
ADP2DETAIL
 70
     0
 62
     5
  6
CONTINUOUS
  0
ENDTAB
  0
TABLE
  2
STYLE
  5
3
330
0
100
AcDbSymbolTable
 70
     2
  0
STYLE
  5
11
330
3
100
AcDbSymbolTableRecord
100
AcDbTextStyleTableRecord
  2
STANDARD
 70
     0
 40
0.0
 41
1.0
 50
0.0
 71
     0
 42
0.2
  3
txt
  4

  0
STYLE
  5
1BD
330
3
100
AcDbSymbolTableRecord
100
AcDbTextStyleTableRecord
  2
ARIAL_WIDE
 70
     0
 40
0.0
 41
1.25
 50
0.0
 71
     0
 42
0.2
  3
ARIAL.TTF
  4

1001
ACAD
1000
Arial
1071
       34
  0
ENDTAB
  0
TABLE
  2
VIEW
  5
6
330
0
100
AcDbSymbolTable
 70
     0
  0
ENDTAB
  0
TABLE
  2
UCS
  5
7
330
0
100
AcDbSymbolTable
 70
     0
  0
ENDTAB
  0
TABLE
  2
APPID
  5
9
330
0
100
AcDbSymbolTable
 70
     1
  0
APPID
  5
12
330
9
100
AcDbSymbolTableRecord
100
AcDbRegAppTableRecord
  2
ACAD
 70
     0
  0
ENDTAB
  0
TABLE
  2
DIMSTYLE
  5
A
330
0
100
AcDbSymbolTable
 70
     1
  0
DIMSTYLE
105
1BB
330
A
100
AcDbSymbolTableRecord
100
AcDbDimStyleTableRecord
  2
STANDARD
 70
     0
  3

  4

  5

  6

  7

 40
1.0
 41
0.18
 42
0.0625
 43
0.38
 44
0.18
 45
0.0
 46
0.0
 47
0.0
 48
0.0
140
0.18
141
0.09
142
0.0
143
25.4
144
1.0
145
0.0
146
1.0
147
0.09
 71
     0
 72
     0
 73
     1
 74
     1
 75
     0
 76
     0
 77
     0
 78
     0
170
     0
171
     2
172
     0
173
     0
174
     0
175
     0
176
     0
177
     0
178
     0
270
     2
271
     4
272
     4
273
     2
274
     2
340
11
275
     0
280
     0
281
     0
282
     0
283
     1
284
     0
285
     0
286
     0
287
     3
288
     0
  0
ENDTAB
  0
TABLE
  2
BLOCK_RECORD
  5
1
330
0
100
AcDbSymbolTable
 70
     6
  0
BLOCK_RECORD
  5
1E
102
{ACAD_XDICTIONARY
360
1FA
102
}
330
1
100
AcDbSymbolTableRecord
100
AcDbBlockTableRecord
  2
*MODEL_SPACE
  0
BLOCK_RECORD
  5
1A
102
{ACAD_XDICTIONARY
360
1FC
102
}
330
1
100
AcDbSymbolTableRecord
100
AcDbBlockTableRecord
  2
*PAPER_SPACE
  0
BLOCK_RECORD
  5
9E
330
1
100
AcDbSymbolTableRecord
100
AcDbBlockTableRecord
  2
1137
  0
BLOCK_RECORD
  5
12D
330
1
100
AcDbSymbolTableRecord
100
AcDbBlockTableRecord
  2
*D1
  0
BLOCK_RECORD
  5
12E
330
1
100
AcDbSymbolTableRecord
100
AcDbBlockTableRecord
  2
*D2
  0
BLOCK_RECORD
  5
12F
330
1
100
AcDbSymbolTableRecord
100
AcDbBlockTableRecord
  2
*D3
  0
BLOCK_RECORD
  5
130
330
1
100
AcDbSymbolTableRecord
100
AcDbBlockTableRecord
  2
*D4
  0
BLOCK_RECORD
  5
131
330
1
100
AcDbSymbolTableRecord
100
AcDbBlockTableRecord
  2
*D5
  0
ENDTAB
  0
ENDSEC
  0
SECTION
  2
BLOCKS
  0
BLOCK
  5
153
330
1E
100
AcDbEntity
  8
0
100
AcDbBlockBegin
  2
*MODEL_SPACE
 70
     0
 10
0.0
 20
0.0
 30
0.0
  3
*MODEL_SPACE
  1

  0
ENDBLK
  5
154
330
1E
100
AcDbEntity
  8
0
100
AcDbBlockEnd
  0
BLOCK
  5
151
330
1A
100
AcDbEntity
 67
     1
  8
0
100
AcDbBlockBegin
  2
*PAPER_SPACE
 70
     0
 10
0.0
 20
0.0
 30
0.0
  3
*PAPER_SPACE
  1

  0
ENDBLK
  5
152
330
1A
100
AcDbEntity
 67
     1
  8
0
100
AcDbBlockEnd
  0
BLOCK
  5
156
330
9E
100
AcDbEntity
  8
0
100
AcDbBlockBegin
  2
1137
 70
     0
 10
0.0
 20
0.0
 30
0.0
  3
1137
  1

  0
ARC
  5
157
330
9E
100
AcDbEntity
  8
0
100
AcDbCircle
 10
1.472018949042936
 20
0.0300877710471825
 30
0.0
 40
1.495070063896797
100
AcDbArc
 50
285.2389943380912
 51
254.6805806725412
  0
LINE
  5
158
330
9E
100
AcDbEntity
  8
0
100
AcDbLine
 10
1.096016887262731
 20
-1.144240528538946
 30
0.0
 11
1.096016887262731
 21
-0.1902405285389443
 31
0.0
  0
LINE
  5
159
330
9E
100
AcDbEntity
  8
0
100
AcDbLine
 10
0.9710168872627313
 20
-1.240313843067323
 30
0.0
 11
0.9710168872627313
 21
-0.1752405285389456
 31
0.0
  0
LINE
  5
15A
330
9E
100
AcDbEntity
  8
0
100
AcDbLine
 10
1.846016887262731
 20
-0.1902405285389461
 30
0.0
 11
1.846016887262731
 21
-1.144240528538946
 31
0.0
  0
LINE
  5
15B
330
9E
100
AcDbEntity
  8
0
100
AcDbLine
 10
1.971016887262731
 20
-0.1752405285389473
 30
0.0
 11
1.971016887262731
 21
-1.241660112339865
 31
0.0
  0
ARC
  5
15C
330
9E
100
AcDbEntity
  8
0
100
AcDbCircle
 10
1.472688035655021
 20
0.0251574667231944
 30
0.0
 40
1.375
100
AcDbArc
 50
291.8638368190544
 51
247.98491709739
  0
LINE
  5
15D
330
9E
100
AcDbEntity
  8
0
100
AcDbLine
 10
1.065016887262732
 20
-1.175240528538945
 30
0.0
 11
1.096016887262731
 21
-1.206240528538946
 31
0.0
  0
LINE
  5
15E
330
9E
100
AcDbEntity
  8
0
100
AcDbLine
 10
1.096016887262731
 20
-1.144240528538946
 30
0.0
 11
1.065016887262732
 21
-1.175240528538945
 31
0.0
  0
ARC
  5
15F
330
9E
100
AcDbEntity
  8
0
100
AcDbCircle
 10
1.08101688726273
 20
-1.39740124612275
 30
0.0
 40
0.015
100
AcDbArc
 50
254.5523015710408
 51
0.0
  0
ARC
  5
160
330
9E
100
AcDbEntity
  8
0
100
AcDbCircle
 10
0.9610168872627333
 20
-1.240313843067323
 30
0.0
 40
0.01
100
AcDbArc
 50
247.9849170973948
 51
0.0
  0
LINE
  5
161
330
9E
100
AcDbEntity
  8
0
100
AcDbLine
 10
1.096016887262731
 20
-1.39740124612275
 30
0.0
 11
1.096016887262731
 21
-1.206240528538946
 31
0.0
  0
LINE
  5
162
330
9E
100
AcDbEntity
  8
0
100
AcDbLine
 10
1.87701688726273
 20
-1.175240528538945
 30
0.0
 11
1.846016887262731
 21
-1.206240528538946
 31
0.0
  0
LINE
  5
163
330
9E
100
AcDbEntity
  8
0
100
AcDbLine
 10
1.846016887262731
 20
-1.144240528538946
 30
0.0
 11
1.87701688726273
 21
-1.175240528538945
 31
0.0
  0
ARC
  5
164
330
9E
100
AcDbEntity
  8
0
100
AcDbCircle
 10
1.981016887262729
 20
-1.241660112339865
 30
0.0
 40
0.01
100
AcDbArc
 50
180.0
 51
291.8638368190558
  0
ARC
  5
165
330
9E
100
AcDbEntity
  8
0
100
AcDbCircle
 10
1.861016887262731
 20
-1.397948681750119
 30
0.0
 40
0.015
100
AcDbArc
 50
180.0
 51
285.3672734395926
  0
LINE
  5
166
330
9E
100
AcDbEntity
  8
0
100
AcDbLine
 10
1.846016887262731
 20
-1.206240528538946
 30
0.0
 11
1.846016887262731
 21
-1.397948681750119
 31
0.0
  0
LINE
  5
167
330
9E
100
AcDbEntity
  8
0
100
AcDbLine
 10
1.111016887262731
 20
-0.1752405285389438
 30
0.0
 11
1.471016887262731
 21
-0.1752405285389456
 31
0.0
  0
LINE
  5
168
330
9E
100
AcDbEntity
  8
0
100
AcDbLine
 10
1.096016887262731
 20
-0.0502405285389456
 30
0.0
 11
1.580016887262733
 21
-0.0502405285389456
 31
0.0
  0
ARC
  5
169
330
9E
100
AcDbEntity
  8
0
100
AcDbCircle
 10
1.096016887262731
 20
-0.1752405285389456
 30
0.0
 40
0.125
100
AcDbArc
 50
90.0
 51
180.0
  0
ARC
  5
16A
330
9E
100
AcDbEntity
  8
0
100
AcDbCircle
 10
1.111016887262731
 20
-0.1902405285389443
 30
0.0
 40
0.015
100
AcDbArc
 50
90.0
 51
180.0
  0
ARC
  5
16B
330
9E
100
AcDbEntity
  8
0
100
AcDbCircle
 10
1.846016887262731
 20
-0.1752405285389473
 30
0.0
 40
0.125
100
AcDbArc
 50
0.0
 51
90.0
  0
LINE
  5
16C
330
9E
100
AcDbEntity
  8
0
100
AcDbLine
 10
1.471016887262731
 20
-0.1752405285389456
 30
0.0
 11
1.83101688726273
 21
-0.1752405285389456
 31
0.0
  0
ARC
  5
16D
330
9E
100
AcDbEntity
  8
0
100
AcDbCircle
 10
1.83101688726273
 20
-0.1902405285389461
 30
0.0
 40
0.015
100
AcDbArc
 50
0.0
 51
90.0
  0
LINE
  5
16E
330
9E
100
AcDbEntity
  8
0
100
AcDbLine
 10
1.580016887262733
 20
-0.0502405285389456
 30
0.0
 11
1.846016887262731
 21
-0.0502405285389473
 31
0.0
  0
ENDBLK
  5
16F
330
9E
100
AcDbEntity
  8
0
100
AcDbBlockEnd
  0
BLOCK
  5
170
330
12D
100
AcDbEntity
  8
0
100
AcDbBlockBegin
  2
*D1
 70
     1
 10
0.0
 20
0.0
 30
0.0
  3
*D1
  1

  0
LINE
  5
171
330
12D
100
AcDbEntity
  8
0
  6
BYBLOCK
 62
     0
100
AcDbLine
 10
-63.97171306587565
 20
58.08813716627185
 30
0.0
 11
-63.97171306587565
 21
57.33170478032636
 31
0.0
  0
LINE
  5
172
330
12D
100
AcDbEntity
  8
0
  6
BYBLOCK
 62
     0
100
AcDbLine
 10
-59.47171306587565
 20
60.83813716627186
 30
0.0
 11
-59.47171306587565
 21
57.33170478032636
 31
0.0
  0
LINE
  5
173
330
12D
100
AcDbEntity
  8
0
  6
BYBLOCK
 62
     0
100
AcDbLine
 10
-63.97171306587565
 20
57.51170478032637
 30
0.0
 11
-62.11754639920898
 21
57.51170478032637
 31
0.0
  0
LINE
  5
174
330
12D
100
AcDbEntity
  8
0
  6
BYBLOCK
 62
     0
100
AcDbLine
 10
-59.47171306587565
 20
57.51170478032637
 30
0.0
 11
-61.32587973254231
 21
57.51170478032637
 31
0.0
  0
LINE
  5
175
330
12D
100
AcDbEntity
  8
0
  6
BYBLOCK
 62
     0
100
AcDbLine
 10
-64.09671306587565
 20
57.38670478032637
 30
0.0
 11
-63.84671306587565
 21
57.63670478032636
 31
0.0
  0
LINE
  5
176
330
12D
100
AcDbEntity
  8
0
  6
BYBLOCK
 62
     0
100
AcDbLine
 10
-59.59671306587565
 20
57.38670478032637
 30
0.0
 11
-59.34671306587564
 21
57.63670478032636
 31
0.0
  0
TEXT
  5
177
330
12D
100
AcDbEntity
  8
0
  6
BYBLOCK
 62
     0
100
AcDbText
 10
-61.99254639920898
 20
57.44920478032637
 30
0.0
 40
0.125
  1
4 1/2
 72
     1
 11
-61.72171306587564
 21
57.51170478032637
 31
0.0
100
AcDbText
 73
     2
  0
POINT
  5
179
330
12D
100
AcDbEntity
  8
DEFPOINTS
  6
BYBLOCK
 62
     0
100
AcDbPoint
 10
-63.97171306587565
 20
58.15063716627186
 30
0.0
  0
POINT
  5
17A
330
12D
100
AcDbEntity
  8
DEFPOINTS
  6
BYBLOCK
 62
     0
100
AcDbPoint
 10
-59.47171306587565
 20
60.90063716627185
 30
0.0
  0
POINT
  5
17B
330
12D
100
AcDbEntity
  8
DEFPOINTS
  6
BYBLOCK
 62
     0
100
AcDbPoint
 10
-59.47171306587565
 20
57.51170478032637
 30
0.0
  0
ENDBLK
  5
17C
330
12D
100
AcDbEntity
  8
0
100
AcDbBlockEnd
  0
BLOCK
  5
17D
330
12E
100
AcDbEntity
  8
0
100
AcDbBlockBegin
  2
*D2
 70
     1
 10
0.0
 20
0.0
 30
0.0
  3
*D2
  1

  0
LINE
  5
17E
330
12E
100
AcDbEntity
  8
0
  6
BYBLOCK
 62
     0
100
AcDbLine
 10
-62.9245827172156
 20
56.44081282360591
 30
0.0
 11
-63.03395992135805
 21
56.55019002774836
 31
0.0
  0
LINE
  5
17F
330
12E
100
AcDbEntity
  8
0
  6
BYBLOCK
 62
     0
100
AcDbLine
 10
-62.83619436956729
 20
56.52920117125423
 30
0.0
 11
-62.94557157370974
 21
56.63857837539668
 31
0.0
  0
LINE
  5
180
330
12E
100
AcDbEntity
  8
0
  6
BYBLOCK
 62
     0
100
AcDbLine
 10
-62.90668070074447
 20
56.42291080713478
 30
0.0
 11
-63.0834573960411
 21
56.24613411183815
 31
0.0
  0
LINE
  5
181
330
12E
100
AcDbEntity
  8
0
  6
BYBLOCK
 62
     0
100
AcDbLine
 10
-62.81829235309615
 20
56.51129915478311
 30
0.0
 11
-62.64151565779951
 21
56.68807585007973
 31
0.0
  0
LINE
  5
182
330
12E
100
AcDbEntity
  8
0
  6
BYBLOCK
 62
     0
100
AcDbLine
 10
-62.90668070074447
 20
56.24613411183815
 30
0.0
 11
-62.90668070074447
 21
56.59968750243141
 31
0.0
  0
LINE
  5
183
330
12E
100
AcDbEntity
  8
0
  6
BYBLOCK
 62
     0
100
AcDbLine
 10
-62.81829235309615
 20
56.33452245948646
 30
0.0
 11
-62.81829235309615
 21
56.68807585007973
 31
0.0
  0
TEXT
  5
184
330
12E
100
AcDbEntity
  8
0
  6
BYBLOCK
 62
     0
100
AcDbText
 10
-62.50893313632704
 20
56.73227002390389
 30
0.0
 40
0.125
  1
1/8
 50
45.0
 72
     1
 11
-62.45000757122816
 21
56.87958393665109
 31
0.0
100
AcDbText
 73
     2
  0
POINT
  5
185
330
12E
100
AcDbEntity
  8
DEFPOINTS
  6
BYBLOCK
 62
     0
100
AcDbPoint
 10
-62.88038854339145
 20
56.39661864978176
 30
0.0
  0
POINT
  5
186
330
12E
100
AcDbEntity
  8
DEFPOINTS
  6
BYBLOCK
 62
     0
100
AcDbPoint
 10
-62.79200019574313
 20
56.48500699743007
 30
0.0
  0
POINT
  5
187
330
12E
100
AcDbEntity
  8
DEFPOINTS
  6
BYBLOCK
 62
     0
100
AcDbPoint
 10
-62.81829235309615
 20
56.51129915478311
 30
0.0
  0
ENDBLK
  5
188
330
12E
100
AcDbEntity
  8
0
100
AcDbBlockEnd
  0
BLOCK
  5
189
330
12F
100
AcDbEntity
  8
0
100
AcDbBlockBegin
  2
*D3
 70
     1
 10
0.0
 20
0.0
 30
0.0
  3
*D3
  1

  0
LINE
  5
18A
330
12F
100
AcDbEntity
  8
0
  6
BYBLOCK
 62
     0
100
AcDbLine
 10
-63.11278084299246
 20
54.32517640028972
 30
0.0
 11
-62.96996736623102
 21
54.11998305036018
 31
0.0
  0
LINE
  5
18B
330
12F
100
AcDbEntity
  8
0
  6
BYBLOCK
 62
     0
100
AcDbLine
 10
-63.28678425633794
 20
54.35636633687378
 30
0.0
 11
-62.93877742964696
 21
54.29398646370567
 31
0.0
  0
LINE
  5
18C
330
12F
100
AcDbEntity
  8
0
  6
BYBLOCK
 62
     0
100
AcDbLine
 10
-64.15716170356107
 20
55.55633649986702
 30
0.0
 11
-63.78216170356107
 21
55.55633649986702
 31
0.0
  0
LINE
  5
18D
330
12F
100
AcDbEntity
  8
0
  6
BYBLOCK
 62
     0
100
AcDbLine
 10
-63.96966170356107
 20
55.36883649986703
 30
0.0
 11
-63.96966170356107
 21
55.74383649986703
 31
0.0
  0
TEXT
  5
18E
330
12F
100
AcDbEntity
  8
0
  6
BYBLOCK
 62
     0
100
AcDbText
 10
-62.94985896533268
 20
53.98168300620504
 30
0.0
 40
0.125
  1
%%c3
 50
304.8377108684945
 72
     1
 11
-62.83905501253303
 21
53.93188914625809
 31
0.0
100
AcDbText
 73
     2
  0
POINT
  5
18F
330
12F
100
AcDbEntity
  8
DEFPOINTS
  6
BYBLOCK
 62
     0
100
AcDbPoint
 10
-63.11278084299246
 20
54.32517640028972
 30
0.0
  0
POINT
  5
190
330
12F
100
AcDbEntity
  8
DEFPOINTS
  6
BYBLOCK
 62
     0
100
AcDbPoint
 10
-64.82654256412968
 20
56.78749659944433
 30
0.0
  0
ENDBLK
  5
191
330
12F
100
AcDbEntity
  8
0
100
AcDbBlockEnd
  0
BLOCK
  5
192
330
130
100
AcDbEntity
  8
0
100
AcDbBlockBegin
  2
*D4
 70
     1
 10
0.0
 20
0.0
 30
0.0
  3
*D4
  1

  0
LINE
  5
193
330
130
100
AcDbEntity
  8
0
  6
BYBLOCK
 62
     0
100
AcDbLine
 10
-64.34812550914634
 20
54.05460337456115
 30
0.0
 11
-64.34812550914634
 21
53.54811020470912
 31
0.0
  0
LINE
  5
194
330
130
100
AcDbEntity
  8
0
  6
BYBLOCK
 62
     0
100
AcDbLine
 10
-63.59812550914634
 20
54.05460337456115
 30
0.0
 11
-63.59812550914634
 21
53.54811020470912
 31
0.0
  0
LINE
  5
195
330
130
100
AcDbEntity
  8
0
  6
BYBLOCK
 62
     0
100
AcDbLine
 10
-64.34812550914634
 20
53.72811020470912
 30
0.0
 11
-64.59812550914634
 21
53.72811020470912
 31
0.0
  0
LINE
  5
196
330
130
100
AcDbEntity
  8
0
  6
BYBLOCK
 62
     0
100
AcDbLine
 10
-63.59812550914634
 20
53.72811020470912
 30
0.0
 11
-63.34812550914634
 21
53.72811020470912
 31
0.0
  0
LINE
  5
197
330
130
100
AcDbEntity
  8
0
  6
BYBLOCK
 62
     0
100
AcDbLine
 10
-64.47312550914634
 20
53.60311020470913
 30
0.0
 11
-64.22312550914634
 21
53.85311020470912
 31
0.0
  0
LINE
  5
198
330
130
100
AcDbEntity
  8
0
  6
BYBLOCK
 62
     0
100
AcDbLine
 10
-63.72312550914634
 20
53.60311020470913
 30
0.0
 11
-63.47312550914634
 21
53.85311020470912
 31
0.0
  0
TEXT
  5
199
330
130
100
AcDbEntity
  8
0
  6
BYBLOCK
 62
     0
100
AcDbText
 10
-63.22312550914634
 20
53.66561020470912
 30
0.0
 40
0.125
  1
3/4
 72
     1
 11
-63.05645884247968
 21
53.72811020470912
 31
0.0
100
AcDbText
 73
     2
  0
POINT
  5
19A
330
130
100
AcDbEntity
  8
DEFPOINTS
  6
BYBLOCK
 62
     0
100
AcDbPoint
 10
-64.34812550914634
 20
54.11710337456114
 30
0.0
  0
POINT
  5
19B
330
130
100
AcDbEntity
  8
DEFPOINTS
  6
BYBLOCK
 62
     0
100
AcDbPoint
 10
-63.59812550914634
 20
54.11710337456114
 30
0.0
  0
POINT
  5
19C
330
130
100
AcDbEntity
  8
DEFPOINTS
  6
BYBLOCK
 62
     0
100
AcDbPoint
 10
-63.59812550914634
 20
53.72811020470912
 30
0.0
  0
ENDBLK
  5
19D
330
130
100
AcDbEntity
  8
0
100
AcDbBlockEnd
  0
BLOCK
  5
19E
330
131
100
AcDbEntity
  8
0
100
AcDbBlockBegin
  2
*D5
 70
     1
 10
0.0
 20
0.0
 30
0.0
  3
*D5
  1

  0
LINE
  5
19F
330
131
100
AcDbEntity
  8
0
  6
BYBLOCK
 62
     0
100
AcDbLine
 10
-64.41062550914634
 20
54.11710337456114
 30
0.0
 11
-65.85320670233004
 21
54.11710337456114
 31
0.0
  0
LINE
  5
1A0
330
131
100
AcDbEntity
  8
0
  6
BYBLOCK
 62
     0
100
AcDbLine
 10
-64.41062550914634
 20
55.36710337456114
 30
0.0
 11
-65.85320670233004
 21
55.36710337456114
 31
0.0
  0
LINE
  5
1A1
330
131
100
AcDbEntity
  8
0
  6
BYBLOCK
 62
     0
100
AcDbLine
 10
-65.67320670233003
 20
54.11710337456114
 30
0.0
 11
-65.67320670233003
 21
54.36710337456115
 31
0.0
  0
LINE
  5
1A2
330
131
100
AcDbEntity
  8
0
  6
BYBLOCK
 62
     0
100
AcDbLine
 10
-65.67320670233003
 20
55.36710337456114
 30
0.0
 11
-65.67320670233003
 21
55.11710337456115
 31
0.0
  0
LINE
  5
1A3
330
131
100
AcDbEntity
  8
0
  6
BYBLOCK
 62
     0
100
AcDbLine
 10
-65.54820670233003
 20
53.99210337456114
 30
0.0
 11
-65.79820670233003
 21
54.24210337456115
 31
0.0
  0
LINE
  5
1A4
330
131
100
AcDbEntity
  8
0
  6
BYBLOCK
 62
     0
100
AcDbLine
 10
-65.54820670233003
 20
55.24210337456114
 30
0.0
 11
-65.79820670233003
 21
55.49210337456115
 31
0.0
  0
TEXT
  5
1A5
330
131
100
AcDbEntity
  8
0
  6
BYBLOCK
 62
     0
100
AcDbText
 10
-65.61070670233004
 20
54.49210337456115
 30
0.0
 40
0.125
  1
1 1/4
 50
90.0
 72
     1
 11
-65.67320670233003
 21
54.74210337456114
 31
0.0
100
AcDbText
 73
     2
  0
POINT
  5
1A6
330
131
100
AcDbEntity
  8
DEFPOINTS
  6
BYBLOCK
 62
     0
100
AcDbPoint
 10
-64.34812550914634
 20
54.11710337456114
 30
0.0
  0
POINT
  5
1A7
330
131
100
AcDbEntity
  8
DEFPOINTS
  6
BYBLOCK
 62
     0
100
AcDbPoint
 10
-64.34812550914634
 20
55.36710337456114
 30
0.0
  0
POINT
  5
1A8
330
131
100
AcDbEntity
  8
DEFPOINTS
  6
BYBLOCK
 62
     0
100
AcDbPoint
 10
-65.67320670233003
 20
55.36710337456114
 30
0.0
  0
ENDBLK
  5
1A9
330
131
100
AcDbEntity
  8
0
100
AcDbBlockEnd
  0
ENDSEC
  0
SECTION
  2
ENTITIES
  0
DIMENSION
  5
1AA
330
1E
100
AcDbEntity
  8
ADPDIM
100
AcDbDimension
  2
*D2
 10
-62.81829235309615
 20
56.51129915478311
 30
0.0
 11
-62.45000757122816
 21
56.87958393665109
 31
0.0
 70
     1
100
AcDbAlignedDimension
 13
-62.88038854339145
 23
56.39661864978176
 33
0.0
 14
-62.79200019574313
 24
56.48500699743007
 34
0.0
  0
DIMENSION
  5
1AB
330
1E
100
AcDbEntity
  8
ADPDIM
100
AcDbDimension
  2
*D3
 10
-64.82654256412968
 20
56.78749659944433
 30
0.0
 11
-62.83905501253303
 21
53.93188914625809
 31
0.0
 70
     3
100
AcDbDiametricDimension
 15
-63.11278084299246
 25
54.32517640028972
 35
0.0
 40
0.0
  0
INSERT
  5
1AC
330
1E
100
AcDbEntity
  8
ADP1DETAIL
100
AcDbBlockReference
  2
1137
 10
-65.44272995313838
 20
55.53117903314383
 30
0.0
  0
DIMENSION
  5
1AD
330
1E
100
AcDbEntity
  8
ADPDIM
100
AcDbDimension
  2
*D5
 10
-65.67320670233003
 20
55.36710337456114
 30
0.0
 11
-65.67320670233003
 21
54.74210337456114
 31
0.0
100
AcDbAlignedDimension
 13
-64.34812550914634
 23
54.11710337456114
 33
0.0
 14
-64.34812550914634
 24
55.36710337456114
 34
0.0
 50
90.0
100
AcDbRotatedDimension
  0
DIMENSION
  5
1AE
330
1E
100
AcDbEntity
  8
ADPDIM
100
AcDbDimension
  2
*D4
 10
-63.59812550914634
 20
53.72811020470912
 30
0.0
 11
-63.05645884247968
 21
53.72811020470912
 31
0.0
100
AcDbAlignedDimension
 13
-64.34812550914634
 23
54.11710337456114
 33
0.0
 14
-63.59812550914634
 24
54.11710337456114
 34
0.0
100
AcDbRotatedDimension
  0
LINE
  5
1AF
330
1E
100
AcDbEntity
  8
ADP2DETAIL
  6
HIDDEN2
100
AcDbLine
 10
-63.59671306587564
 20
62.27563716627185
 30
0.0
 11
-63.59671306587564
 21
58.15063716627186
 31
0.0
  0
LINE
  5
1B0
330
1E
100
AcDbEntity
  8
ADP2DETAIL
  6
HIDDEN2
100
AcDbLine
 10
-64.34671306587564
 20
58.15063716627186
 30
0.0
 11
-64.34671306587564
 21
63.02563716627187
 31
0.0
  0
LINE
  5
1B1
330
1E
100
AcDbEntity
  8
ADP1DETAIL
100
AcDbLine
 10
-59.47171306587565
 20
64.15063716627186
 30
0.0
 11
-59.47171306587565
 21
61.15063716627186
 31
0.0
  0
LINE
  5
1B2
330
1E
100
AcDbEntity
  8
ADP1DETAIL
100
AcDbLine
 10
-62.47171306587564
 20
61.15063716627186
 30
0.0
 11
-65.47171306587564
 21
64.15063716627186
 31
0.0
  0
LINE
  5
1B3
330
1E
100
AcDbEntity
  8
ADP1DETAIL
100
AcDbLine
 10
-65.47171306587564
 20
58.15063716627186
 30
0.0
 11
-65.47171306587564
 21
64.15063716627186
 31
0.0
  0
DIMENSION
  5
1B4
330
1E
100
AcDbEntity
  8
ADPDIM
100
AcDbDimension
  2
*D1
 10
-59.47171306587565
 20
57.51170478032637
 30
0.0
 11
-61.72171306587564
 21
57.51170478032637
 31
0.0
100
AcDbAlignedDimension
 13
-63.97171306587565
 23
58.15063716627186
 33
0.0
 14
-59.47171306587565
 24
60.90063716627185
 34
0.0
100
AcDbRotatedDimension
  0
LINE
  5
1B5
330
1E
100
AcDbEntity
  8
ADP1DETAIL
100
AcDbLine
 10
-59.47171306587565
 20
61.15063716627186
 30
0.0
 11
-62.47171306587564
 21
61.15063716627186
 31
0.0
  0
LINE
  5
1B6
330
1E
100
AcDbEntity
  8
ADP1DETAIL
100
AcDbLine
 10
-62.47171306587564
 20
61.15063716627186
 30
0.0
 11
-62.47171306587564
 21
58.15063716627186
 31
0.0
  0
LINE
  5
1B7
330
1E
100
AcDbEntity
  8
ADP1DETAIL
100
AcDbLine
 10
-62.47171306587564
 20
58.15063716627186
 30
0.0
 11
-65.47171306587564
 21
58.15063716627186
 31
0.0
  0
LINE
  5
1B8
330
1E
100
AcDbEntity
  8
ADP2DETAIL
  6
HIDDEN2
100
AcDbLine
 10
-59.47171306587565
 20
62.27563716627185
 30
0.0
 11
-63.59671306587564
 21
62.27563716627185
 31
0.0
  0
LINE
  5
1B9
330
1E
100
AcDbEntity
  8
ADP2DETAIL
  6
HIDDEN2
100
AcDbLine
 10
-64.34671306587564
 20
63.02563716627187
 30
0.0
 11
-59.47171306587565
 21
63.02563716627186
 31
0.0
  0
LINE
  5
1BA
330
1E
100
AcDbEntity
  8
ADP1DETAIL
100
AcDbLine
 10
-65.47171306587564
 20
64.15063716627186
 30
0.0
 11
-59.47171306587565
 21
64.15063716627186
 31
0.0
  0
TEXT
  5
1BE
330
1E
100
AcDbEntity
  8
ADPDIM
100
AcDbText
 10
-75.49881513739897
 20
52.3063859809513
 30
0.0
 40
0.25
  1
J U L I U S  B L U M  &  C O . ,  I N C .      ( 8 0 0 )  5 2 6 - 6 2 9 3        W W W . J U L I U S B L U M . C O M        P A R T  N o .  1 2 1 3
 41
1.25
  7
ARIAL_WIDE
 72
     1
 11
-62.44735708828574
 21
52.55638598095131
 31
0.0
100
AcDbText
 73
     3
  0
ENDSEC
  0
SECTION
  2
OBJECTS
  0
DICTIONARY
  5
C
330
0
100
AcDbDictionary
  3
ACAD_GROUP
350
D
  3
ACAD_LAYOUT
350
19
  3
ACAD_MLINESTYLE
350
16
  3
ACAD_PLOTSETTINGS
350
18
  3
ACAD_PLOTSTYLENAME
350
E
  3
ACDBHEADERROUNDTRIPXREC
350
38B
  3
ACDBVARIABLEDICTIONARY
350
22F
  0
DICTIONARY
  5
1FA
330
1E
100
AcDbDictionary
280
     1
  3
ACAD_LAYOUTSELFREF
360
3AD
  0
DICTIONARY
  5
1FC
330
1A
100
AcDbDictionary
280
     1
  3
ACAD_LAYOUTSELFREF
360
3AC
  0
DICTIONARY
  5
D
102
{ACAD_REACTORS
330
C
102
}
330
C
100
AcDbDictionary
  0
DICTIONARY
  5
19
102
{ACAD_REACTORS
330
C
102
}
330
C
100
AcDbDictionary
  0
DICTIONARY
  5
16
102
{ACAD_REACTORS
330
C
102
}
330
C
100
AcDbDictionary
  3
STANDARD
350
17
  0
DICTIONARY
  5
18
102
{ACAD_REACTORS
330
C
102
}
330
C
100
AcDbDictionary
  0
ACDBDICTIONARYWDFLT
  5
E
102
{ACAD_REACTORS
330
C
102
}
330
C
100
AcDbDictionary
281
     1
  3
Normal
350
F
100
AcDbDictionaryWithDefault
340
F
  0
DICTIONARY
  5
38B
102
{ACAD_REACTORS
330
C
102
}
330
C
100
AcDbDictionary
  3
CEPSNTYPE
350
395
  3
DIMSTYLEDATA
350
399
  3
FINGERPRINTGUID
350
396
  3
HYPERLINKBASE
350
38E
  3
INSUNITS
350
394
  3
LAYOUTDICT
350
390
  3
LWETCUNION
350
393
  3
PLOTSETDICT
350
391
  3
PLOTSTYLNAMDICT
350
392
  3
PSVPSCALE
350
398
  3
PUCSBASE
350
39C
  3
PUCSORGBACK
350
3A2
  3
PUCSORGBOTTOM
350
39E
  3
PUCSORGFRONT
350
3A1
  3
PUCSORGLEFT
350
39F
  3
PUCSORGRIGHT
350
3A0
  3
PUCSORGTOP
350
39D
  3
PUCSORTHOREF
350
39A
  3
PUCSORTHOVIEW
350
39B
  3
STYLESHEET
350
38F
  3
TSTACKALIGN
350
38C
  3
TSTACKSIZE
350
38D
  3
UCSBASE
350
3A5
  3
UCSORGBACK
350
3AB
  3
UCSORGBOTTOM
350
3A7
  3
UCSORGFRONT
350
3AA
  3
UCSORGLEFT
350
3A8
  3
UCSORGRIGHT
350
3A9
  3
UCSORGTOP
350
3A6
  3
UCSORTHOREF
350
3A3
  3
UCSORTHOVIEW
350
3A4
  3
VERSIONGUID
350
397
  0
DICTIONARY
  5
22F
102
{ACAD_REACTORS
330
C
102
}
330
C
100
AcDbDictionary
  3
DIMASSOC
350
231
  3
HIDETEXT
350
230
  0
XRECORD
  5
3AD
102
{ACAD_REACTORS
330
1FA
102
}
330
1FA
100
AcDbXrecord
340
1E
  0
XRECORD
  5
3AC
102
{ACAD_REACTORS
330
1FC
102
}
330
1FC
100
AcDbXrecord
340
1A
  0
MLINESTYLE
  5
17
102
{ACAD_REACTORS
330
16
102
}
330
16
100
AcDbMlineStyle
  2
STANDARD
 70
     0
  3

 62
   256
 51
90.0
 52
90.0
 71
     2
 49
0.5
 62
   256
  6
BYLAYER
 49
-0.5
 62
   256
  6
BYLAYER
  0
ACDBPLACEHOLDER
  5
F
102
{ACAD_REACTORS
330
E
102
}
330
E
100
AcDbPlaceHolder
280
     0
  0
XRECORD
  5
395
102
{ACAD_REACTORS
330
38B
102
}
330
38B
100
AcDbXrecord
 90
        0
  0
XRECORD
  5
399
102
{ACAD_REACTORS
330
38B
102
}
330
38B
100
AcDbXrecord
1000
DSTYLE
1002
{
1070
   277
 70
     5
1070
   279
 70
     2
1002
}
  0
XRECORD
  5
396
102
{ACAD_REACTORS
330
38B
102
}
330
38B
100
AcDbXrecord
  1
{39672DCD-79CF-41AB-8071-B3B01B112340}
  0
XRECORD
  5
38E
102
{ACAD_REACTORS
330
38B
102
}
330
38B
100
AcDbXrecord
  1

  0
XRECORD
  5
394
102
{ACAD_REACTORS
330
38B
102
}
330
38B
100
AcDbXrecord
 90
        0
  0
XRECORD
  5
390
102
{ACAD_REACTORS
330
38B
102
}
330
38B
100
AcDbXrecord
340
19
  0
XRECORD
  5
393
102
{ACAD_REACTORS
330
38B
102
}
330
38B
100
AcDbXrecord
 90
    14877
  0
XRECORD
  5
391
102
{ACAD_REACTORS
330
38B
102
}
330
38B
100
AcDbXrecord
340
18
  0
XRECORD
  5
392
102
{ACAD_REACTORS
330
38B
102
}
330
38B
100
AcDbXrecord
340
E
  0
XRECORD
  5
398
102
{ACAD_REACTORS
330
38B
102
}
330
38B
100
AcDbXrecord
 40
0.0
  0
XRECORD
  5
39C
102
{ACAD_REACTORS
330
38B
102
}
330
38B
100
AcDbXrecord
340
0
  0
XRECORD
  5
3A2
102
{ACAD_REACTORS
330
38B
102
}
330
38B
100
AcDbXrecord
 10
0.0
 20
0.0
 30
0.0
  0
XRECORD
  5
39E
102
{ACAD_REACTORS
330
38B
102
}
330
38B
100
AcDbXrecord
 10
0.0
 20
0.0
 30
0.0
  0
XRECORD
  5
3A1
102
{ACAD_REACTORS
330
38B
102
}
330
38B
100
AcDbXrecord
 10
0.0
 20
0.0
 30
0.0
  0
XRECORD
  5
39F
102
{ACAD_REACTORS
330
38B
102
}
330
38B
100
AcDbXrecord
 10
0.0
 20
0.0
 30
0.0
  0
XRECORD
  5
3A0
102
{ACAD_REACTORS
330
38B
102
}
330
38B
100
AcDbXrecord
 10
0.0
 20
0.0
 30
0.0
  0
XRECORD
  5
39D
102
{ACAD_REACTORS
330
38B
102
}
330
38B
100
AcDbXrecord
 10
0.0
 20
0.0
 30
0.0
  0
XRECORD
  5
39A
102
{ACAD_REACTORS
330
38B
102
}
330
38B
100
AcDbXrecord
340
0
  0
XRECORD
  5
39B
102
{ACAD_REACTORS
330
38B
102
}
330
38B
100
AcDbXrecord
 70
     0
  0
XRECORD
  5
38F
102
{ACAD_REACTORS
330
38B
102
}
330
38B
100
AcDbXrecord
  1

  0
XRECORD
  5
38C
102
{ACAD_REACTORS
330
38B
102
}
330
38B
100
AcDbXrecord
 90
        1
  0
XRECORD
  5
38D
102
{ACAD_REACTORS
330
38B
102
}
330
38B
100
AcDbXrecord
 90
       70
  0
XRECORD
  5
3A5
102
{ACAD_REACTORS
330
38B
102
}
330
38B
100
AcDbXrecord
340
0
  0
XRECORD
  5
3AB
102
{ACAD_REACTORS
330
38B
102
}
330
38B
100
AcDbXrecord
 10
0.0
 20
0.0
 30
0.0
  0
XRECORD
  5
3A7
102
{ACAD_REACTORS
330
38B
102
}
330
38B
100
AcDbXrecord
 10
0.0
 20
0.0
 30
0.0
  0
XRECORD
  5
3AA
102
{ACAD_REACTORS
330
38B
102
}
330
38B
100
AcDbXrecord
 10
0.0
 20
0.0
 30
0.0
  0
XRECORD
  5
3A8
102
{ACAD_REACTORS
330
38B
102
}
330
38B
100
AcDbXrecord
 10
0.0
 20
0.0
 30
0.0
  0
XRECORD
  5
3A9
102
{ACAD_REACTORS
330
38B
102
}
330
38B
100
AcDbXrecord
 10
0.0
 20
0.0
 30
0.0
  0
XRECORD
  5
3A6
102
{ACAD_REACTORS
330
38B
102
}
330
38B
100
AcDbXrecord
 10
0.0
 20
0.0
 30
0.0
  0
XRECORD
  5
3A3
102
{ACAD_REACTORS
330
38B
102
}
330
38B
100
AcDbXrecord
340
0
  0
XRECORD
  5
3A4
102
{ACAD_REACTORS
330
38B
102
}
330
38B
100
AcDbXrecord
 70
     0
  0
XRECORD
  5
397
102
{ACAD_REACTORS
330
38B
102
}
330
38B
100
AcDbXrecord
  1
{A33866E4-D86E-40FE-A4C8-C1D08C7E72AD}
  0
DICTIONARYVAR
  5
231
102
{ACAD_REACTORS
330
22F
102
}
330
22F
100
DictionaryVariables
280
     0
  1
2
  0
DICTIONARYVAR
  5
230
102
{ACAD_REACTORS
330
22F
102
}
330
22F
100
DictionaryVariables
280
     0
  1
1
  0
ENDSEC
  0
EOF
