  0
SECTION
  2
HEADER
  9
$ACADVER
  1
AC1014
  9
$ACADMAINTVER
 70
     9
  9
$DWGCODEPAGE
  3
ANSI_1252
  9
$INSBASE
 10
13.56345220806768
 20
8.598127152283476
 30
0.0
  9
$EXTMIN
 10
3.762023074874859
 20
3.43824658169124
 30
0.0
  9
$EXTMAX
 10
23.33921014854471
 20
12.84812715228347
 30
0.0
  9
$LIMMIN
 10
0.0
 20
0.0
  9
$LIMMAX
 10
36.0
 20
36.0
  9
$ORTHOMODE
 70
     1
  9
$REGENMODE
 70
     1
  9
$FILLMODE
 70
     1
  9
$QTEXTMODE
 70
     0
  9
$MIRRTEXT
 70
     1
  9
$DRAGMODE
 70
     0
  9
$LTSCALE
 40
1.0
  9
$OSMODE
 70
    37
  9
$ATTMODE
 70
     1
  9
$TEXTSIZE
 40
0.2
  9
$TRACEWID
 40
0.05
  9
$TEXTSTYLE
  7
STANDARD
  9
$CLAYER
  8
0
  9
$CELTYPE
  6
BYLAYER
  9
$CECOLOR
 62
   256
  9
$CELTSCALE
 40
1.0
  9
$DELOBJ
 70
     1
  9
$DISPSILH
 70
     0
  9
$DIMSCALE
 40
1.0
  9
$DIMASZ
 40
0.125
  9
$DIMEXO
 40
0.0625
  9
$DIMDLI
 40
0.38
  9
$DIMRND
 40
0.0
  9
$DIMDLE
 40
0.0
  9
$DIMEXE
 40
0.18
  9
$DIMTP
 40
0.0
  9
$DIMTM
 40
0.0
  9
$DIMTXT
 40
0.125
  9
$DIMCEN
 40
0.1875
  9
$DIMTSZ
 40
0.125
  9
$DIMTOL
 70
     0
  9
$DIMLIM
 70
     0
  9
$DIMTIH
 70
     0
  9
$DIMTOH
 70
     0
  9
$DIMSE1
 70
     0
  9
$DIMSE2
 70
     0
  9
$DIMTAD
 70
     0
  9
$DIMZIN
 70
     3
  9
$DIMBLK
  1

  9
$DIMASO
 70
     1
  9
$DIMSHO
 70
     1
  9
$DIMPOST
  1

  9
$DIMAPOST
  1

  9
$DIMALT
 70
     0
  9
$DIMALTD
 70
     1
  9
$DIMALTF
 40
25.4
  9
$DIMLFAC
 40
1.0
  9
$DIMTOFL
 70
     0
  9
$DIMTVP
 40
0.0
  9
$DIMTIX
 70
     0
  9
$DIMSOXD
 70
     0
  9
$DIMSAH
 70
     0
  9
$DIMBLK1
  1

  9
$DIMBLK2
  1

  9
$DIMSTYLE
  2
STANDARD
  9
$DIMCLRD
 70
     0
  9
$DIMCLRE
 70
     0
  9
$DIMCLRT
 70
     0
  9
$DIMTFAC
 40
1.0
  9
$DIMGAP
 40
0.125
  9
$DIMJUST
 70
     0
  9
$DIMSD1
 70
     0
  9
$DIMSD2
 70
     0
  9
$DIMTOLJ
 70
     1
  9
$DIMTZIN
 70
     3
  9
$DIMALTZ
 70
     3
  9
$DIMALTTZ
 70
     3
  9
$DIMFIT
 70
     5
  9
$DIMUPT
 70
     0
  9
$DIMUNIT
 70
     5
  9
$DIMDEC
 70
     4
  9
$DIMTDEC
 70
     4
  9
$DIMALTU
 70
     5
  9
$DIMALTTD
 70
     1
  9
$DIMTXSTY
  7
STANDARD
  9
$DIMAUNIT
 70
     0
  9
$LUNITS
 70
     5
  9
$LUPREC
 70
     4
  9
$SKETCHINC
 40
0.1
  9
$FILLETRAD
 40
0.187
  9
$AUNITS
 70
     0
  9
$AUPREC
 70
     0
  9
$MENU
  1
acad
  9
$ELEVATION
 40
0.0
  9
$PELEVATION
 40
0.0
  9
$THICKNESS
 40
0.0
  9
$LIMCHECK
 70
     0
  9
$BLIPMODE
 70
     0
  9
$CHAMFERA
 40
0.0
  9
$CHAMFERB
 40
0.0
  9
$CHAMFERC
 40
0.0
  9
$CHAMFERD
 40
0.0
  9
$SKPOLY
 70
     0
  9
$TDCREATE
 40
2450406.481867859
  9
$TDUPDATE
 40
2452297.080137974
  9
$TDINDWG
 40
0.0130381944
  9
$TDUSRTIMER
 40
0.0130381944
  9
$USRTIMER
 70
     1
  9
$ANGBASE
 50
0.0
  9
$ANGDIR
 70
     0
  9
$PDMODE
 70
     0
  9
$PDSIZE
 40
0.0
  9
$PLINEWID
 40
0.0
  9
$COORDS
 70
     2
  9
$SPLFRAME
 70
     0
  9
$SPLINETYPE
 70
     6
  9
$SPLINESEGS
 70
     8
  9
$ATTDIA
 70
     0
  9
$ATTREQ
 70
     1
  9
$HANDLING
 70
 22529
  9
$HANDSEED
  5
303
  9
$SURFTAB1
 70
     6
  9
$SURFTAB2
 70
     6
  9
$SURFTYPE
 70
     6
  9
$SURFU
 70
     6
  9
$SURFV
 70
     6
  9
$UCSNAME
  2

  9
$UCSORG
 10
0.0
 20
0.0
 30
0.0
  9
$UCSXDIR
 10
1.0
 20
0.0
 30
0.0
  9
$UCSYDIR
 10
0.0
 20
1.0
 30
0.0
  9
$PUCSNAME
  2

  9
$PUCSORG
 10
0.0
 20
0.0
 30
0.0
  9
$PUCSXDIR
 10
1.0
 20
0.0
 30
0.0
  9
$PUCSYDIR
 10
0.0
 20
1.0
 30
0.0
  9
$USERI1
 70
     0
  9
$USERI2
 70
     0
  9
$USERI3
 70
     0
  9
$USERI4
 70
     0
  9
$USERI5
 70
     0
  9
$USERR1
 40
0.0
  9
$USERR2
 40
0.0
  9
$USERR3
 40
0.0
  9
$USERR4
 40
0.0
  9
$USERR5
 40
0.0
  9
$WORLDVIEW
 70
     1
  9
$SHADEDGE
 70
     3
  9
$SHADEDIF
 70
    70
  9
$TILEMODE
 70
     1
  9
$MAXACTVP
 70
    15
  9
$PINSBASE
 10
0.0008545024320483
 20
1.750284242913068
 30
0.0
  9
$PLIMCHECK
 70
     0
  9
$PEXTMIN
 10
1.000000000000000E+20
 20
1.000000000000000E+20
 30
1.000000000000000E+20
  9
$PEXTMAX
 10
-1.000000000000000E+20
 20
-1.000000000000000E+20
 30
-1.000000000000000E+20
  9
$PLIMMIN
 10
0.0
 20
0.0
  9
$PLIMMAX
 10
12.0
 20
9.0
  9
$UNITMODE
 70
     0
  9
$VISRETAIN
 70
     0
  9
$PLINEGEN
 70
     0
  9
$PSLTSCALE
 70
     1
  9
$TREEDEPTH
 70
  3020
  9
$PICKSTYLE
 70
     1
  9
$CMLSTYLE
  2
STANDARD
  9
$CMLJUST
 70
     0
  9
$CMLSCALE
 40
1.0
  9
$PROXYGRAPHICS
 70
     1
  9
$MEASUREMENT
 70
     0
  0
ENDSEC
  0
SECTION
  2
CLASSES
  0
CLASS
  1
ACDBDICTIONARYWDFLT
  2
AcDbDictionaryWithDefault
  3
AutoCAD 2000
 90
        0
280
     0
281
     0
  0
CLASS
  1
ACDBPLACEHOLDER
  2
AcDbPlaceHolder
  3
AutoCAD 2000
 90
        0
280
     0
281
     0
  0
CLASS
  1
LAYOUT
  2
AcDbLayout
  3
AutoCAD 2000
 90
        0
280
     0
281
     0
  0
CLASS
  1
DICTIONARYVAR
  2
AcDbDictionaryVar
  3
AutoCAD 2000
 90
        0
280
     0
281
     0
  0
CLASS
  1
LONG_TRANSACTION
  2
AcDbLongTransaction
  3
AutoCAD 2000
 90
        0
280
     0
281
     0
  0
CLASS
  1
LWPOLYLINE
  2
AcDbPolyline
  3
AutoCAD 2000
 90
        0
280
     0
281
     1
  0
CLASS
  1
HATCH
  2
AcDbHatch
  3
AutoCAD 2000
 90
        0
280
     0
281
     1
  0
CLASS
  1
XRECORD
  2
AcDbXrecord
  3
AutoCAD 2000
 90
        0
280
     0
281
     0
  0
CLASS
  1
LONG_TRANSACTION
  2
AcDbLongTransaction
  3
AutoCAD 2000
 90
        0
280
     0
281
     0
  0
CLASS
  1
LWPOLYLINE
  2
AcDbPolyline
  3
AutoCAD 2000
 90
        0
280
     0
281
     1
  0
CLASS
  1
HATCH
  2
AcDbHatch
  3
AutoCAD 2000
 90
        0
280
     0
281
     1
  0
CLASS
  1
XRECORD
  2
AcDbXrecord
  3
AutoCAD 2000
 90
        0
280
     0
281
     0
  0
CLASS
  1
LONG_TRANSACTION
  2
AcDbLongTransaction
  3
AutoCAD 2000
 90
        0
280
     0
281
     0
  0
CLASS
  1
LWPOLYLINE
  2
AcDbPolyline
  3
AutoCAD 2000
 90
        0
280
     0
281
     1
  0
CLASS
  1
HATCH
  2
AcDbHatch
  3
AutoCAD 2000
 90
        0
280
     0
281
     1
  0
CLASS
  1
XRECORD
  2
AcDbXrecord
  3
AutoCAD 2000
 90
        0
280
     0
281
     0
  0
CLASS
  1
LONG_TRANSACTION
  2
AcDbLongTransaction
  3
AutoCAD 2000
 90
        0
280
     0
281
     0
  0
CLASS
  1
LWPOLYLINE
  2
AcDbPolyline
  3
AutoCAD 2000
 90
        0
280
     0
281
     1
  0
CLASS
  1
HATCH
  2
AcDbHatch
  3
AutoCAD 2000
 90
        0
280
     0
281
     1
  0
CLASS
  1
XRECORD
  2
AcDbXrecord
  3
AutoCAD 2000
 90
        0
280
     0
281
     0
  0
CLASS
  1
LONG_TRANSACTION
  2
AcDbLongTransaction
  3
AutoCAD 2000
 90
        0
280
     0
281
     0
  0
CLASS
  1
LWPOLYLINE
  2
AcDbPolyline
  3
AutoCAD 2000
 90
        0
280
     0
281
     1
  0
CLASS
  1
HATCH
  2
AcDbHatch
  3
AutoCAD 2000
 90
        0
280
     0
281
     1
  0
CLASS
  1
XRECORD
  2
AcDbXrecord
  3
AutoCAD 2000
 90
        0
280
     0
281
     0
  0
CLASS
  1
LONG_TRANSACTION
  2
AcDbLongTransaction
  3
AutoCAD 2000
 90
        0
280
     0
281
     0
  0
CLASS
  1
LWPOLYLINE
  2
AcDbPolyline
  3
AutoCAD 2000
 90
        0
280
     0
281
     1
  0
CLASS
  1
HATCH
  2
AcDbHatch
  3
AutoCAD 2000
 90
        0
280
     0
281
     1
  0
CLASS
  1
XRECORD
  2
AcDbXrecord
  3
AutoCAD 2000
 90
        0
280
     0
281
     0
  0
ENDSEC
  0
SECTION
  2
TABLES
  0
TABLE
  2
VPORT
  5
8
330
0
100
AcDbSymbolTable
 70
     2
  0
VPORT
  5
2DF
330
8
100
AcDbSymbolTableRecord
100
AcDbViewportTableRecord
  2
*ACTIVE
 70
     0
 10
0.0
 20
0.0
 11
1.0
 21
1.0
 12
13.56633788526454
 22
8.143890453204388
 13
0.0
 23
0.0
 14
0.5740882589684922
 24
0.5740882589684922
 15
0.5
 25
0.5
 16
0.0
 26
0.0
 36
1.0
 17
0.0
 27
0.0
 37
0.0
 40
12.54575361678661
 41
1.570528967254407
 42
50.0
 43
0.0
 44
0.0
 50
0.0
 51
0.0
 71
     0
 72
   100
 73
     1
 74
     0
 75
     0
 76
     0
 77
     0
 78
     0
  0
ENDTAB
  0
TABLE
  2
LTYPE
  5
5
330
0
100
AcDbSymbolTable
 70
     2
  0
LTYPE
  5
13
330
5
100
AcDbSymbolTableRecord
100
AcDbLinetypeTableRecord
  2
BYBLOCK
 70
     0
  3

 72
    65
 73
     0
 40
0.0
  0
LTYPE
  5
14
330
5
100
AcDbSymbolTableRecord
100
AcDbLinetypeTableRecord
  2
BYLAYER
 70
     0
  3

 72
    65
 73
     0
 40
0.0
  0
LTYPE
  5
15
330
5
100
AcDbSymbolTableRecord
100
AcDbLinetypeTableRecord
  2
CONTINUOUS
 70
     0
  3
Solid line
 72
    65
 73
     0
 40
0.0
  0
LTYPE
  5
9B
330
5
100
AcDbSymbolTableRecord
100
AcDbLinetypeTableRecord
  2
HIDDEN2
 70
     0
  3
_ _ _ _ _ _ _ _ _ _ _ _ _ _ _ _ _ _ _ _ _ _ _ _
 72
    65
 73
     2
 40
0.1875
 49
0.125
 74
     0
 49
-0.0625
 74
     0
  0
ENDTAB
  0
TABLE
  2
LAYER
  5
2
330
0
100
AcDbSymbolTable
 70
     5
  0
LAYER
  5
10
330
2
100
AcDbSymbolTableRecord
100
AcDbLayerTableRecord
  2
0
 70
     0
 62
     7
  6
CONTINUOUS
  0
LAYER
  5
9F
330
2
100
AcDbSymbolTableRecord
100
AcDbLayerTableRecord
  2
ADP1DETAIL
 70
     0
 62
     7
  6
CONTINUOUS
  0
LAYER
  5
A1
330
2
100
AcDbSymbolTableRecord
100
AcDbLayerTableRecord
  2
DEFPOINTS
 70
     0
 62
     7
  6
CONTINUOUS
  0
LAYER
  5
A2
330
2
100
AcDbSymbolTableRecord
100
AcDbLayerTableRecord
  2
ADPDIM
 70
     0
 62
     3
  6
CONTINUOUS
  0
LAYER
  5
A4
330
2
100
AcDbSymbolTableRecord
100
AcDbLayerTableRecord
  2
ADP2DETAIL
 70
     0
 62
     5
  6
CONTINUOUS
  0
ENDTAB
  0
TABLE
  2
STYLE
  5
3
330
0
100
AcDbSymbolTable
 70
     2
  0
STYLE
  5
11
330
3
100
AcDbSymbolTableRecord
100
AcDbTextStyleTableRecord
  2
STANDARD
 70
     0
 40
0.0
 41
1.0
 50
0.0
 71
     0
 42
0.2
  3
txt
  4

  0
STYLE
  5
112
330
3
100
AcDbSymbolTableRecord
100
AcDbTextStyleTableRecord
  2
ARIAL_WIDE
 70
     0
 40
0.0
 41
1.25
 50
0.0
 71
     0
 42
0.2
  3
ARIAL.TTF
  4

1001
ACAD
1000
Arial
1071
       34
  0
ENDTAB
  0
TABLE
  2
VIEW
  5
6
330
0
100
AcDbSymbolTable
 70
     0
  0
ENDTAB
  0
TABLE
  2
UCS
  5
7
330
0
100
AcDbSymbolTable
 70
     0
  0
ENDTAB
  0
TABLE
  2
APPID
  5
9
330
0
100
AcDbSymbolTable
 70
     1
  0
APPID
  5
12
330
9
100
AcDbSymbolTableRecord
100
AcDbRegAppTableRecord
  2
ACAD
 70
     0
  0
ENDTAB
  0
TABLE
  2
DIMSTYLE
  5
A
330
0
100
AcDbSymbolTable
 70
     1
  0
DIMSTYLE
105
110
330
A
100
AcDbSymbolTableRecord
100
AcDbDimStyleTableRecord
  2
STANDARD
 70
     0
  3

  4

  5

  6

  7

 40
1.0
 41
0.18
 42
0.0625
 43
0.38
 44
0.18
 45
0.0
 46
0.0
 47
0.0
 48
0.0
140
0.18
141
0.09
142
0.0
143
25.4
144
1.0
145
0.0
146
1.0
147
0.09
 71
     0
 72
     0
 73
     1
 74
     1
 75
     0
 76
     0
 77
     0
 78
     0
170
     0
171
     2
172
     0
173
     0
174
     0
175
     0
176
     0
177
     0
178
     0
270
     2
271
     4
272
     4
273
     2
274
     2
340
11
275
     0
280
     0
281
     0
282
     0
283
     1
284
     0
285
     0
286
     0
287
     3
288
     0
  0
ENDTAB
  0
TABLE
  2
BLOCK_RECORD
  5
1
330
0
100
AcDbSymbolTable
 70
     6
  0
BLOCK_RECORD
  5
1E
102
{ACAD_XDICTIONARY
360
14F
102
}
330
1
100
AcDbSymbolTableRecord
100
AcDbBlockTableRecord
  2
*MODEL_SPACE
  0
BLOCK_RECORD
  5
1A
102
{ACAD_XDICTIONARY
360
151
102
}
330
1
100
AcDbSymbolTableRecord
100
AcDbBlockTableRecord
  2
*PAPER_SPACE
  0
BLOCK_RECORD
  5
2E
330
1
100
AcDbSymbolTableRecord
100
AcDbBlockTableRecord
  2
1132
  0
BLOCK_RECORD
  5
83
330
1
100
AcDbSymbolTableRecord
100
AcDbBlockTableRecord
  2
*D1
  0
BLOCK_RECORD
  5
84
330
1
100
AcDbSymbolTableRecord
100
AcDbBlockTableRecord
  2
*D2
  0
BLOCK_RECORD
  5
85
330
1
100
AcDbSymbolTableRecord
100
AcDbBlockTableRecord
  2
*D3
  0
BLOCK_RECORD
  5
86
330
1
100
AcDbSymbolTableRecord
100
AcDbBlockTableRecord
  2
*D4
  0
BLOCK_RECORD
  5
87
330
1
100
AcDbSymbolTableRecord
100
AcDbBlockTableRecord
  2
*D5
  0
ENDTAB
  0
ENDSEC
  0
SECTION
  2
BLOCKS
  0
BLOCK
  5
A7
330
1E
100
AcDbEntity
  8
0
100
AcDbBlockBegin
  2
*MODEL_SPACE
 70
     0
 10
0.0
 20
0.0
 30
0.0
  3
*MODEL_SPACE
  1

  0
ENDBLK
  5
A8
330
1E
100
AcDbEntity
  8
0
100
AcDbBlockEnd
  0
BLOCK
  5
A5
330
1A
100
AcDbEntity
 67
     1
  8
0
100
AcDbBlockBegin
  2
*PAPER_SPACE
 70
     0
 10
0.0
 20
0.0
 30
0.0
  3
*PAPER_SPACE
  1

  0
ENDBLK
  5
A6
330
1A
100
AcDbEntity
 67
     1
  8
0
100
AcDbBlockEnd
  0
BLOCK
  5
AA
330
2E
100
AcDbEntity
  8
0
100
AcDbBlockBegin
  2
1132
 70
     0
 10
0.0
 20
0.0
 30
0.0
  3
1132
  1

  0
ARC
  5
AB
330
2E
100
AcDbEntity
  8
0
100
AcDbCircle
 10
1.270106125698241
 20
0.1005934813653386
 30
0.0
 40
1.253592553131254
100
AcDbArc
 50
288.6518744621844
 51
251.2939446683538
  0
ARC
  5
AC
330
2E
100
AcDbEntity
  8
0
100
AcDbCircle
 10
1.269992730643568
 20
0.1017244304341016
 30
0.0
 40
1.118368799028893
100
AcDbArc
 50
297.804461754916
 51
242.1439665945637
  0
LINE
  5
AD
330
2E
100
AcDbEntity
  8
0
100
AcDbLine
 10
0.894553571212711
 20
0.2730158955838942
 30
0.0
 11
1.378553571212709
 21
0.2730158955838942
 31
0.0
  0
ARC
  5
AE
330
2E
100
AcDbEntity
  8
0
100
AcDbCircle
 10
0.8745535712127114
 20
-1.067862412409485
 30
0.0
 40
0.02
100
AcDbArc
 50
251.061706175175
 51
0.0
  0
ARC
  5
AF
330
2E
100
AcDbEntity
  8
0
100
AcDbCircle
 10
0.909553571212708
 20
0.1330158955838954
 30
0.0
 40
0.015
100
AcDbArc
 50
90.0
 51
180.0
  0
ARC
  5
B0
330
2E
100
AcDbEntity
  8
0
100
AcDbCircle
 10
0.894553571212711
 20
0.1480158955838942
 30
0.0
 40
0.125
100
AcDbArc
 50
90.0
 51
180.0
  0
LINE
  5
B1
330
2E
100
AcDbEntity
  8
0
100
AcDbLine
 10
0.7695535712127111
 20
-0.8738504628294325
 30
0.0
 11
0.7695535712127111
 21
0.1480158955838942
 31
0.0
  0
LINE
  5
B2
330
2E
100
AcDbEntity
  8
0
100
AcDbLine
 10
0.894553571212711
 20
-0.820984104416107
 30
0.0
 11
0.894553571212711
 21
0.1330158955838954
 31
0.0
  0
LINE
  5
B3
330
2E
100
AcDbEntity
  8
0
100
AcDbLine
 10
0.894553571212711
 20
-1.067862412409485
 30
0.0
 11
0.894553571212711
 21
-0.8829841044161064
 31
0.0
  0
LINE
  5
B4
330
2E
100
AcDbEntity
  8
0
100
AcDbLine
 10
0.894553571212711
 20
-0.820984104416107
 30
0.0
 11
0.8635535712127087
 21
-0.8519841044161058
 31
0.0
  0
LINE
  5
B5
330
2E
100
AcDbEntity
  8
0
100
AcDbLine
 10
0.8635535712127087
 20
-0.8519841044161058
 30
0.0
 11
0.894553571212711
 21
-0.8829841044161064
 31
0.0
  0
ARC
  5
B6
330
2E
100
AcDbEntity
  8
0
100
AcDbCircle
 10
0.7545535712127105
 20
-0.8738504628294325
 30
0.0
 40
0.015
100
AcDbArc
 50
241.660836366854
 51
0.0
  0
ARC
  5
B7
330
2E
100
AcDbEntity
  8
0
100
AcDbCircle
 10
1.644553571212707
 20
0.1480158955838924
 30
0.0
 40
0.125
100
AcDbArc
 50
0.0
 51
90.0
  0
LINE
  5
B8
330
2E
100
AcDbEntity
  8
0
100
AcDbLine
 10
1.269553571212711
 20
0.1480158955838942
 30
0.0
 11
1.62955357121271
 21
0.1480158955838942
 31
0.0
  0
LINE
  5
B9
330
2E
100
AcDbEntity
  8
0
100
AcDbLine
 10
0.909553571212708
 20
0.1480158955838959
 30
0.0
 11
1.269553571212711
 21
0.1480158955838942
 31
0.0
  0
LINE
  5
BA
330
2E
100
AcDbEntity
  8
0
100
AcDbLine
 10
1.769553571212707
 20
0.1480158955838924
 30
0.0
 11
1.769553571212707
 21
-0.8743140118383934
 31
0.0
  0
LINE
  5
BB
330
2E
100
AcDbEntity
  8
0
100
AcDbLine
 10
1.644553571212711
 20
0.1330158955838936
 30
0.0
 11
1.644553571212711
 21
-0.820984104416107
 31
0.0
  0
LINE
  5
BC
330
2E
100
AcDbEntity
  8
0
100
AcDbLine
 10
1.644553571212711
 20
-0.8829841044161064
 30
0.0
 11
1.644553571212711
 21
-1.068235938089982
 31
0.0
  0
ARC
  5
BD
330
2E
100
AcDbEntity
  8
0
100
AcDbCircle
 10
1.66455357121271
 20
-1.068235938089982
 30
0.0
 40
0.02
100
AcDbArc
 50
180.0
 51
288.8841129553643
  0
LINE
  5
BE
330
2E
100
AcDbEntity
  8
0
100
AcDbLine
 10
1.644553571212711
 20
-0.820984104416107
 30
0.0
 11
1.675553571212709
 21
-0.8519841044161058
 31
0.0
  0
LINE
  5
BF
330
2E
100
AcDbEntity
  8
0
100
AcDbLine
 10
1.675553571212709
 20
-0.8519841044161058
 30
0.0
 11
1.644553571212711
 21
-0.8829841044161064
 31
0.0
  0
ARC
  5
C0
330
2E
100
AcDbEntity
  8
0
100
AcDbCircle
 10
1.784553571212708
 20
-0.8743140118383934
 30
0.0
 40
0.015
100
AcDbArc
 50
180.0
 51
298.2875919826288
  0
ARC
  5
C1
330
2E
100
AcDbEntity
  8
0
100
AcDbCircle
 10
1.62955357121271
 20
0.1330158955838936
 30
0.0
 40
0.015
100
AcDbArc
 50
0.0
 51
90.0
  0
LINE
  5
C2
330
2E
100
AcDbEntity
  8
0
100
AcDbLine
 10
1.378553571212709
 20
0.2730158955838942
 30
0.0
 11
1.644553571212707
 21
0.2730158955838924
 31
0.0
  0
ENDBLK
  5
C3
330
2E
100
AcDbEntity
  8
0
100
AcDbBlockEnd
  0
BLOCK
  5
C4
330
83
100
AcDbEntity
  8
0
100
AcDbBlockBegin
  2
*D1
 70
     1
 10
0.0
 20
0.0
 30
0.0
  3
*D1
  1

  0
LINE
  5
C5
330
83
100
AcDbEntity
  8
0
  6
BYBLOCK
 62
     0
100
AcDbLine
 10
12.31345220806768
 20
8.535627152283476
 30
0.0
 11
12.31345220806768
 21
7.919716064650051
 31
0.0
  0
LINE
  5
C6
330
83
100
AcDbEntity
  8
0
  6
BYBLOCK
 62
     0
100
AcDbLine
 10
15.31345220806768
 20
10.28562715228347
 30
0.0
 11
15.31345220806768
 21
7.919716064650051
 31
0.0
  0
LINE
  5
C7
330
83
100
AcDbEntity
  8
0
  6
BYBLOCK
 62
     0
100
AcDbLine
 10
12.31345220806768
 20
8.099716064650051
 30
0.0
 11
13.64678554140101
 21
8.099716064650051
 31
0.0
  0
LINE
  5
C8
330
83
100
AcDbEntity
  8
0
  6
BYBLOCK
 62
     0
100
AcDbLine
 10
15.31345220806768
 20
8.099716064650051
 30
0.0
 11
13.98011887473434
 21
8.099716064650051
 31
0.0
  0
LINE
  5
C9
330
83
100
AcDbEntity
  8
0
  6
BYBLOCK
 62
     0
100
AcDbLine
 10
12.18845220806768
 20
7.974716064650051
 30
0.0
 11
12.43845220806768
 21
8.224716064650051
 31
0.0
  0
LINE
  5
CA
330
83
100
AcDbEntity
  8
0
  6
BYBLOCK
 62
     0
100
AcDbLine
 10
15.18845220806768
 20
7.974716064650051
 30
0.0
 11
15.43845220806768
 21
8.224716064650051
 31
0.0
  0
TEXT
  5
CB
330
83
100
AcDbEntity
  8
0
  6
BYBLOCK
 62
     0
100
AcDbText
 10
13.77178554140101
 20
8.037216064650051
 30
0.0
 40
0.125
  1
3
 72
     1
 11
13.81345220806768
 21
8.099716064650051
 31
0.0
100
AcDbText
 73
     2
  0
POINT
  5
CD
330
83
100
AcDbEntity
  8
DEFPOINTS
  6
BYBLOCK
 62
     0
100
AcDbPoint
 10
12.31345220806768
 20
8.598127152283476
 30
0.0
  0
POINT
  5
CE
330
83
100
AcDbEntity
  8
DEFPOINTS
  6
BYBLOCK
 62
     0
100
AcDbPoint
 10
15.31345220806768
 20
10.34812715228347
 30
0.0
  0
POINT
  5
CF
330
83
100
AcDbEntity
  8
DEFPOINTS
  6
BYBLOCK
 62
     0
100
AcDbPoint
 10
15.31345220806768
 20
8.099716064650051
 30
0.0
  0
ENDBLK
  5
D0
330
83
100
AcDbEntity
  8
0
100
AcDbBlockEnd
  0
BLOCK
  5
D1
330
84
100
AcDbEntity
  8
0
100
AcDbBlockBegin
  2
*D2
 70
     1
 10
0.0
 20
0.0
 30
0.0
  3
*D2
  1

  0
LINE
  5
D2
330
84
100
AcDbEntity
  8
0
  6
BYBLOCK
 62
     0
100
AcDbLine
 10
13.03383005688467
 20
7.014178487580363
 30
0.0
 11
12.94745824936817
 21
7.100550295096865
 31
0.0
  0
LINE
  5
D3
330
84
100
AcDbEntity
  8
0
  6
BYBLOCK
 62
     0
100
AcDbLine
 10
13.12221840453299
 20
7.102566835228683
 30
0.0
 11
13.03584659701648
 21
7.188938642745184
 31
0.0
  0
LINE
  5
D4
330
84
100
AcDbEntity
  8
0
  6
BYBLOCK
 62
     0
100
AcDbLine
 10
13.07473746998175
 20
6.973271074483288
 30
0.0
 11
12.89796077468511
 21
6.79649437918665
 31
0.0
  0
LINE
  5
D5
330
84
100
AcDbEntity
  8
0
  6
BYBLOCK
 62
     0
100
AcDbLine
 10
13.16312581763007
 20
7.061659422131607
 30
0.0
 11
13.3399025129267
 21
7.238436117428246
 31
0.0
  0
LINE
  5
D6
330
84
100
AcDbEntity
  8
0
  6
BYBLOCK
 62
     0
100
AcDbLine
 10
13.07473746998175
 20
6.796494379186651
 30
0.0
 11
13.07473746998175
 21
7.150047769779924
 31
0.0
  0
LINE
  5
D7
330
84
100
AcDbEntity
  8
0
  6
BYBLOCK
 62
     0
100
AcDbLine
 10
13.16312581763007
 20
6.884882726834971
 30
0.0
 11
13.16312581763006
 21
7.238436117428244
 31
0.0
  0
TEXT
  5
D8
330
84
100
AcDbEntity
  8
0
  6
BYBLOCK
 62
     0
100
AcDbText
 10
13.47248503439918
 20
7.282630291252407
 30
0.0
 40
0.125
  1
1/8
 50
45.00000000000057
 72
     1
 11
13.53141059949805
 21
7.429944203999605
 31
0.0
100
AcDbText
 73
     2
  0
POINT
  5
D9
330
84
100
AcDbEntity
  8
DEFPOINTS
  6
BYBLOCK
 62
     0
100
AcDbPoint
 10
13.07802423070883
 20
6.969984313756205
 30
0.0
  0
POINT
  5
DA
330
84
100
AcDbEntity
  8
DEFPOINTS
  6
BYBLOCK
 62
     0
100
AcDbPoint
 10
13.16641257835715
 20
7.058372661404524
 30
0.0
  0
POINT
  5
DB
330
84
100
AcDbEntity
  8
DEFPOINTS
  6
BYBLOCK
 62
     0
100
AcDbPoint
 10
13.16312581763007
 20
7.061659422131607
 30
0.0
  0
ENDBLK
  5
DC
330
84
100
AcDbEntity
  8
0
100
AcDbBlockEnd
  0
BLOCK
  5
DD
330
85
100
AcDbEntity
  8
0
100
AcDbBlockBegin
  2
*D3
 70
     1
 10
0.0
 20
0.0
 30
0.0
  3
*D3
  1

  0
LINE
  5
DE
330
85
100
AcDbEntity
  8
0
  6
BYBLOCK
 62
     0
100
AcDbLine
 10
11.9357685048898
 20
4.90719444078722
 30
0.0
 11
11.9357685048898
 21
4.400701270935201
 31
0.0
  0
LINE
  5
DF
330
85
100
AcDbEntity
  8
0
  6
BYBLOCK
 62
     0
100
AcDbLine
 10
12.6857685048898
 20
4.90719444078722
 30
0.0
 11
12.6857685048898
 21
4.400701270935201
 31
0.0
  0
LINE
  5
E0
330
85
100
AcDbEntity
  8
0
  6
BYBLOCK
 62
     0
100
AcDbLine
 10
11.9357685048898
 20
4.5807012709352
 30
0.0
 11
11.6857685048898
 21
4.5807012709352
 31
0.0
  0
LINE
  5
E1
330
85
100
AcDbEntity
  8
0
  6
BYBLOCK
 62
     0
100
AcDbLine
 10
12.6857685048898
 20
4.5807012709352
 30
0.0
 11
12.9357685048898
 21
4.5807012709352
 31
0.0
  0
LINE
  5
E2
330
85
100
AcDbEntity
  8
0
  6
BYBLOCK
 62
     0
100
AcDbLine
 10
11.8107685048898
 20
4.4557012709352
 30
0.0
 11
12.0607685048898
 21
4.7057012709352
 31
0.0
  0
LINE
  5
E3
330
85
100
AcDbEntity
  8
0
  6
BYBLOCK
 62
     0
100
AcDbLine
 10
12.5607685048898
 20
4.4557012709352
 30
0.0
 11
12.8107685048898
 21
4.7057012709352
 31
0.0
  0
TEXT
  5
E4
330
85
100
AcDbEntity
  8
0
  6
BYBLOCK
 62
     0
100
AcDbText
 10
13.0607685048898
 20
4.5182012709352
 30
0.0
 40
0.125
  1
3/4
 72
     1
 11
13.22743517155647
 21
4.5807012709352
 31
0.0
100
AcDbText
 73
     2
  0
POINT
  5
E5
330
85
100
AcDbEntity
  8
DEFPOINTS
  6
BYBLOCK
 62
     0
100
AcDbPoint
 10
11.9357685048898
 20
4.96969444078722
 30
0.0
  0
POINT
  5
E6
330
85
100
AcDbEntity
  8
DEFPOINTS
  6
BYBLOCK
 62
     0
100
AcDbPoint
 10
12.6857685048898
 20
4.96969444078722
 30
0.0
  0
POINT
  5
E7
330
85
100
AcDbEntity
  8
DEFPOINTS
  6
BYBLOCK
 62
     0
100
AcDbPoint
 10
12.6857685048898
 20
4.5807012709352
 30
0.0
  0
ENDBLK
  5
E8
330
85
100
AcDbEntity
  8
0
100
AcDbBlockEnd
  0
BLOCK
  5
E9
330
86
100
AcDbEntity
  8
0
100
AcDbBlockBegin
  2
*D4
 70
     1
 10
0.0
 20
0.0
 30
0.0
  3
*D4
  1

  0
LINE
  5
EA
330
86
100
AcDbEntity
  8
0
  6
BYBLOCK
 62
     0
100
AcDbLine
 10
13.14828379729805
 20
5.257958864523038
 30
0.0
 11
13.31958489507431
 21
5.075871155161184
 31
0.0
  0
LINE
  5
EB
330
86
100
AcDbEntity
  8
0
  6
BYBLOCK
 62
     0
100
AcDbLine
 10
12.97158939372899
 20
5.263352170315832
 30
0.0
 11
13.32497820086711
 21
5.252565558730243
 31
0.0
  0
LINE
  5
EC
330
86
100
AcDbEntity
  8
0
  6
BYBLOCK
 62
     0
100
AcDbLine
 10
12.10427830841673
 20
6.168397411332308
 30
0.0
 11
12.47927830841673
 21
6.168397411332308
 31
0.0
  0
LINE
  5
ED
330
86
100
AcDbEntity
  8
0
  6
BYBLOCK
 62
     0
100
AcDbLine
 10
12.29177830841673
 20
5.980897411332308
 30
0.0
 11
12.29177830841673
 21
6.355897411332308
 31
0.0
  0
TEXT
  5
EE
330
86
100
AcDbEntity
  8
0
  6
BYBLOCK
 62
     0
100
AcDbText
 10
13.35971351662198
 20
4.942002026036192
 30
0.0
 40
0.125
  1
%%c2 1/2
 50
313.2516834707784
 72
     1
 11
13.63363690766413
 21
4.742043687997786
 31
0.0
100
AcDbText
 73
     2
  0
POINT
  5
EF
330
86
100
AcDbEntity
  8
DEFPOINTS
  6
BYBLOCK
 62
     0
100
AcDbPoint
 10
13.14828379729805
 20
5.257958864523038
 30
0.0
  0
POINT
  5
F0
330
86
100
AcDbEntity
  8
DEFPOINTS
  6
BYBLOCK
 62
     0
100
AcDbPoint
 10
11.43527281953541
 20
7.078835958141576
 30
0.0
  0
ENDBLK
  5
F1
330
86
100
AcDbEntity
  8
0
100
AcDbBlockEnd
  0
BLOCK
  5
F2
330
87
100
AcDbEntity
  8
0
100
AcDbBlockBegin
  2
*D5
 70
     1
 10
0.0
 20
0.0
 30
0.0
  3
*D5
  1

  0
LINE
  5
F3
330
87
100
AcDbEntity
  8
0
  6
BYBLOCK
 62
     0
100
AcDbLine
 10
11.8732685048898
 20
4.96969444078722
 30
0.0
 11
10.43068731170611
 21
4.96969444078722
 31
0.0
  0
LINE
  5
F4
330
87
100
AcDbEntity
  8
0
  6
BYBLOCK
 62
     0
100
AcDbLine
 10
11.8732685048898
 20
6.21969444078722
 30
0.0
 11
10.43068731170611
 21
6.21969444078722
 31
0.0
  0
LINE
  5
F5
330
87
100
AcDbEntity
  8
0
  6
BYBLOCK
 62
     0
100
AcDbLine
 10
10.61068731170611
 20
4.96969444078722
 30
0.0
 11
10.61068731170611
 21
5.21969444078722
 31
0.0
  0
LINE
  5
F6
330
87
100
AcDbEntity
  8
0
  6
BYBLOCK
 62
     0
100
AcDbLine
 10
10.61068731170611
 20
6.21969444078722
 30
0.0
 11
10.61068731170611
 21
5.96969444078722
 31
0.0
  0
LINE
  5
F7
330
87
100
AcDbEntity
  8
0
  6
BYBLOCK
 62
     0
100
AcDbLine
 10
10.73568731170611
 20
4.84469444078722
 30
0.0
 11
10.48568731170611
 21
5.09469444078722
 31
0.0
  0
LINE
  5
F8
330
87
100
AcDbEntity
  8
0
  6
BYBLOCK
 62
     0
100
AcDbLine
 10
10.73568731170611
 20
6.09469444078722
 30
0.0
 11
10.48568731170611
 21
6.34469444078722
 31
0.0
  0
TEXT
  5
F9
330
87
100
AcDbEntity
  8
0
  6
BYBLOCK
 62
     0
100
AcDbText
 10
10.67318731170611
 20
5.34469444078722
 30
0.0
 40
0.125
  1
1 1/4
 50
90.0
 72
     1
 11
10.61068731170611
 21
5.59469444078722
 31
0.0
100
AcDbText
 73
     2
  0
POINT
  5
FA
330
87
100
AcDbEntity
  8
DEFPOINTS
  6
BYBLOCK
 62
     0
100
AcDbPoint
 10
11.9357685048898
 20
4.96969444078722
 30
0.0
  0
POINT
  5
FB
330
87
100
AcDbEntity
  8
DEFPOINTS
  6
BYBLOCK
 62
     0
100
AcDbPoint
 10
11.9357685048898
 20
6.21969444078722
 30
0.0
  0
POINT
  5
FC
330
87
100
AcDbEntity
  8
DEFPOINTS
  6
BYBLOCK
 62
     0
100
AcDbPoint
 10
10.61068731170611
 20
6.21969444078722
 30
0.0
  0
ENDBLK
  5
FD
330
87
100
AcDbEntity
  8
0
100
AcDbBlockEnd
  0
ENDSEC
  0
SECTION
  2
ENTITIES
  0
LINE
  5
FE
330
1E
100
AcDbEntity
  8
ADP2DETAIL
  6
HIDDEN2
100
AcDbLine
 10
15.31345220806768
 20
11.22312715228348
 30
0.0
 11
12.68845220806768
 21
11.22312715228348
 31
0.0
  0
LINE
  5
FF
330
1E
100
AcDbEntity
  8
ADP2DETAIL
  6
HIDDEN2
100
AcDbLine
 10
11.93845220806768
 20
11.97312715228348
 30
0.0
 11
15.31345220806768
 21
11.97312715228348
 31
0.0
  0
DIMENSION
  5
100
330
1E
100
AcDbEntity
  8
ADPDIM
100
AcDbDimension
  2
*D2
 10
13.16312581763007
 20
7.061659422131607
 30
0.0
 11
13.53141059949805
 21
7.429944203999605
 31
0.0
 70
     1
100
AcDbAlignedDimension
 13
13.07802423070883
 23
6.969984313756205
 33
0.0
 14
13.16641257835715
 24
7.058372661404524
 34
0.0
  0
DIMENSION
  5
101
330
1E
100
AcDbEntity
  8
ADPDIM
100
AcDbDimension
  2
*D1
 10
15.31345220806768
 20
8.099716064650051
 30
0.0
 11
13.81345220806768
 21
8.099716064650051
 31
0.0
100
AcDbAlignedDimension
 13
12.31345220806768
 23
8.598127152283476
 33
0.0
 14
15.31345220806768
 24
10.34812715228347
 34
0.0
100
AcDbRotatedDimension
  0
DIMENSION
  5
102
330
1E
100
AcDbEntity
  8
ADPDIM
100
AcDbDimension
  2
*D3
 10
12.6857685048898
 20
4.5807012709352
 30
0.0
 11
13.22743517155647
 21
4.5807012709352
 31
0.0
100
AcDbAlignedDimension
 13
11.9357685048898
 23
4.96969444078722
 33
0.0
 14
12.6857685048898
 24
4.96969444078722
 34
0.0
100
AcDbRotatedDimension
  0
DIMENSION
  5
103
330
1E
100
AcDbEntity
  8
ADPDIM
100
AcDbDimension
  2
*D4
 10
11.43527281953541
 20
7.078835958141576
 30
0.0
 11
13.63363690766413
 21
4.742043687997786
 31
0.0
 70
     3
100
AcDbDiametricDimension
 15
13.14828379729805
 25
5.257958864523038
 35
0.0
 40
0.0
  0
LINE
  5
104
330
1E
100
AcDbEntity
  8
ADP1DETAIL
100
AcDbLine
 10
11.06345220806768
 20
12.84812715228347
 30
0.0
 11
15.31345220806768
 21
12.84812715228347
 31
0.0
  0
LINE
  5
105
330
1E
100
AcDbEntity
  8
ADP1DETAIL
100
AcDbLine
 10
13.56345220806768
 20
8.598127152283476
 30
0.0
 11
11.06345220806768
 21
8.598127152283476
 31
0.0
  0
LINE
  5
106
330
1E
100
AcDbEntity
  8
ADP1DETAIL
100
AcDbLine
 10
13.56345220806768
 20
10.34812715228347
 30
0.0
 11
11.06345220806768
 21
12.84812715228347
 31
0.0
  0
INSERT
  5
107
330
1E
100
AcDbEntity
  8
ADP1DETAIL
100
AcDbBlockReference
  2
1132
 10
11.04151130711717
 20
6.064368371827166
 30
0.0
  0
LINE
  5
108
330
1E
100
AcDbEntity
  8
ADP2DETAIL
  6
HIDDEN2
100
AcDbLine
 10
11.93845220806768
 20
8.598127152283476
 30
0.0
 11
11.93845220806768
 21
11.97312715228348
 31
0.0
  0
LINE
  5
109
330
1E
100
AcDbEntity
  8
ADP1DETAIL
100
AcDbLine
 10
11.06345220806768
 20
8.598127152283476
 30
0.0
 11
11.06345220806768
 21
12.84812715228347
 31
0.0
  0
DIMENSION
  5
10A
330
1E
100
AcDbEntity
  8
ADPDIM
100
AcDbDimension
  2
*D5
 10
10.61068731170611
 20
6.21969444078722
 30
0.0
 11
10.61068731170611
 21
5.59469444078722
 31
0.0
100
AcDbAlignedDimension
 13
11.9357685048898
 23
4.96969444078722
 33
0.0
 14
11.9357685048898
 24
6.21969444078722
 34
0.0
 50
90.0
100
AcDbRotatedDimension
  0
LINE
  5
10B
330
1E
100
AcDbEntity
  8
ADP2DETAIL
  6
HIDDEN2
100
AcDbLine
 10
12.68845220806768
 20
11.22312715228348
 30
0.0
 11
12.68845220806768
 21
8.598127152283476
 31
0.0
  0
LINE
  5
10C
330
1E
100
AcDbEntity
  8
ADP1DETAIL
100
AcDbLine
 10
15.31345220806768
 20
12.84812715228347
 30
0.0
 11
15.31345220806768
 21
10.34812715228347
 31
0.0
  0
LINE
  5
10D
330
1E
100
AcDbEntity
  8
ADP1DETAIL
100
AcDbLine
 10
15.31345220806768
 20
10.34812715228347
 30
0.0
 11
13.56345220806768
 21
10.34812715228347
 31
0.0
  0
LINE
  5
10E
330
1E
100
AcDbEntity
  8
ADP1DETAIL
100
AcDbLine
 10
13.56345220806768
 20
10.34812715228347
 30
0.0
 11
13.56345220806768
 21
8.598127152283476
 31
0.0
  0
LINE
  5
10F
330
1E
100
AcDbEntity
  8
ADP1DETAIL
100
AcDbLine
 10
13.56345220806768
 20
10.34812715228347
 30
0.0
 11
13.56345220806768
 21
10.34812715228347
 31
0.0
  0
TEXT
  5
113
330
1E
100
AcDbEntity
  8
ADPDIM
100
AcDbText
 10
3.762023074874859
 20
3.493754767230122
 30
0.0
 40
0.1875
  1
J U L I U S  B L U M  &  C O . ,  I N C .      ( 8 0 0 )  5 2 6 - 6 2 9 3        W W W . J U L I U S B L U M . C O M        P A R T  N o .  1 2 1 1
 41
1.25
  7
ARIAL_WIDE
 72
     1
 11
13.55061661170978
 21
3.681254767230122
 31
0.0
100
AcDbText
 73
     3
  0
ENDSEC
  0
SECTION
  2
OBJECTS
  0
DICTIONARY
  5
C
330
0
100
AcDbDictionary
  3
ACAD_GROUP
350
D
  3
ACAD_LAYOUT
350
19
  3
ACAD_MLINESTYLE
350
16
  3
ACAD_PLOTSETTINGS
350
18
  3
ACAD_PLOTSTYLENAME
350
E
  3
ACDBHEADERROUNDTRIPXREC
350
2E0
  3
ACDBVARIABLEDICTIONARY
350
184
  0
DICTIONARY
  5
14F
330
1E
100
AcDbDictionary
280
     1
  3
ACAD_LAYOUTSELFREF
360
302
  0
DICTIONARY
  5
151
330
1A
100
AcDbDictionary
280
     1
  3
ACAD_LAYOUTSELFREF
360
301
  0
DICTIONARY
  5
D
102
{ACAD_REACTORS
330
C
102
}
330
C
100
AcDbDictionary
  0
DICTIONARY
  5
19
102
{ACAD_REACTORS
330
C
102
}
330
C
100
AcDbDictionary
  0
DICTIONARY
  5
16
102
{ACAD_REACTORS
330
C
102
}
330
C
100
AcDbDictionary
  3
STANDARD
350
17
  0
DICTIONARY
  5
18
102
{ACAD_REACTORS
330
C
102
}
330
C
100
AcDbDictionary
  0
ACDBDICTIONARYWDFLT
  5
E
102
{ACAD_REACTORS
330
C
102
}
330
C
100
AcDbDictionary
281
     1
  3
Normal
350
F
100
AcDbDictionaryWithDefault
340
F
  0
DICTIONARY
  5
2E0
102
{ACAD_REACTORS
330
C
102
}
330
C
100
AcDbDictionary
  3
CEPSNTYPE
350
2EA
  3
DIMSTYLEDATA
350
2EE
  3
FINGERPRINTGUID
350
2EB
  3
HYPERLINKBASE
350
2E3
  3
INSUNITS
350
2E9
  3
LAYOUTDICT
350
2E5
  3
LWETCUNION
350
2E8
  3
PLOTSETDICT
350
2E6
  3
PLOTSTYLNAMDICT
350
2E7
  3
PSVPSCALE
350
2ED
  3
PUCSBASE
350
2F1
  3
PUCSORGBACK
350
2F7
  3
PUCSORGBOTTOM
350
2F3
  3
PUCSORGFRONT
350
2F6
  3
PUCSORGLEFT
350
2F4
  3
PUCSORGRIGHT
350
2F5
  3
PUCSORGTOP
350
2F2
  3
PUCSORTHOREF
350
2EF
  3
PUCSORTHOVIEW
350
2F0
  3
STYLESHEET
350
2E4
  3
TSTACKALIGN
350
2E1
  3
TSTACKSIZE
350
2E2
  3
UCSBASE
350
2FA
  3
UCSORGBACK
350
300
  3
UCSORGBOTTOM
350
2FC
  3
UCSORGFRONT
350
2FF
  3
UCSORGLEFT
350
2FD
  3
UCSORGRIGHT
350
2FE
  3
UCSORGTOP
350
2FB
  3
UCSORTHOREF
350
2F8
  3
UCSORTHOVIEW
350
2F9
  3
VERSIONGUID
350
2EC
  0
DICTIONARY
  5
184
102
{ACAD_REACTORS
330
C
102
}
330
C
100
AcDbDictionary
  3
DIMASSOC
350
186
  3
HIDETEXT
350
185
  0
XRECORD
  5
302
102
{ACAD_REACTORS
330
14F
102
}
330
14F
100
AcDbXrecord
340
1E
  0
XRECORD
  5
301
102
{ACAD_REACTORS
330
151
102
}
330
151
100
AcDbXrecord
340
1A
  0
MLINESTYLE
  5
17
102
{ACAD_REACTORS
330
16
102
}
330
16
100
AcDbMlineStyle
  2
STANDARD
 70
     0
  3

 62
   256
 51
90.0
 52
90.0
 71
     2
 49
0.5
 62
   256
  6
BYLAYER
 49
-0.5
 62
   256
  6
BYLAYER
  0
ACDBPLACEHOLDER
  5
F
102
{ACAD_REACTORS
330
E
102
}
330
E
100
AcDbPlaceHolder
280
     0
  0
XRECORD
  5
2EA
102
{ACAD_REACTORS
330
2E0
102
}
330
2E0
100
AcDbXrecord
 90
        0
  0
XRECORD
  5
2EE
102
{ACAD_REACTORS
330
2E0
102
}
330
2E0
100
AcDbXrecord
1000
DSTYLE
1002
{
1070
   277
 70
     5
1070
   279
 70
     2
1002
}
  0
XRECORD
  5
2EB
102
{ACAD_REACTORS
330
2E0
102
}
330
2E0
100
AcDbXrecord
  1
{30412602-3A5D-4ACE-8D2B-7FED75ACDBAA}
  0
XRECORD
  5
2E3
102
{ACAD_REACTORS
330
2E0
102
}
330
2E0
100
AcDbXrecord
  1

  0
XRECORD
  5
2E9
102
{ACAD_REACTORS
330
2E0
102
}
330
2E0
100
AcDbXrecord
 90
        0
  0
XRECORD
  5
2E5
102
{ACAD_REACTORS
330
2E0
102
}
330
2E0
100
AcDbXrecord
340
19
  0
XRECORD
  5
2E8
102
{ACAD_REACTORS
330
2E0
102
}
330
2E0
100
AcDbXrecord
 90
    14877
  0
XRECORD
  5
2E6
102
{ACAD_REACTORS
330
2E0
102
}
330
2E0
100
AcDbXrecord
340
18
  0
XRECORD
  5
2E7
102
{ACAD_REACTORS
330
2E0
102
}
330
2E0
100
AcDbXrecord
340
E
  0
XRECORD
  5
2ED
102
{ACAD_REACTORS
330
2E0
102
}
330
2E0
100
AcDbXrecord
 40
0.0
  0
XRECORD
  5
2F1
102
{ACAD_REACTORS
330
2E0
102
}
330
2E0
100
AcDbXrecord
340
0
  0
XRECORD
  5
2F7
102
{ACAD_REACTORS
330
2E0
102
}
330
2E0
100
AcDbXrecord
 10
0.0
 20
0.0
 30
0.0
  0
XRECORD
  5
2F3
102
{ACAD_REACTORS
330
2E0
102
}
330
2E0
100
AcDbXrecord
 10
0.0
 20
0.0
 30
0.0
  0
XRECORD
  5
2F6
102
{ACAD_REACTORS
330
2E0
102
}
330
2E0
100
AcDbXrecord
 10
0.0
 20
0.0
 30
0.0
  0
XRECORD
  5
2F4
102
{ACAD_REACTORS
330
2E0
102
}
330
2E0
100
AcDbXrecord
 10
0.0
 20
0.0
 30
0.0
  0
XRECORD
  5
2F5
102
{ACAD_REACTORS
330
2E0
102
}
330
2E0
100
AcDbXrecord
 10
0.0
 20
0.0
 30
0.0
  0
XRECORD
  5
2F2
102
{ACAD_REACTORS
330
2E0
102
}
330
2E0
100
AcDbXrecord
 10
0.0
 20
0.0
 30
0.0
  0
XRECORD
  5
2EF
102
{ACAD_REACTORS
330
2E0
102
}
330
2E0
100
AcDbXrecord
340
0
  0
XRECORD
  5
2F0
102
{ACAD_REACTORS
330
2E0
102
}
330
2E0
100
AcDbXrecord
 70
     0
  0
XRECORD
  5
2E4
102
{ACAD_REACTORS
330
2E0
102
}
330
2E0
100
AcDbXrecord
  1

  0
XRECORD
  5
2E1
102
{ACAD_REACTORS
330
2E0
102
}
330
2E0
100
AcDbXrecord
 90
        1
  0
XRECORD
  5
2E2
102
{ACAD_REACTORS
330
2E0
102
}
330
2E0
100
AcDbXrecord
 90
       70
  0
XRECORD
  5
2FA
102
{ACAD_REACTORS
330
2E0
102
}
330
2E0
100
AcDbXrecord
340
0
  0
XRECORD
  5
300
102
{ACAD_REACTORS
330
2E0
102
}
330
2E0
100
AcDbXrecord
 10
0.0
 20
0.0
 30
0.0
  0
XRECORD
  5
2FC
102
{ACAD_REACTORS
330
2E0
102
}
330
2E0
100
AcDbXrecord
 10
0.0
 20
0.0
 30
0.0
  0
XRECORD
  5
2FF
102
{ACAD_REACTORS
330
2E0
102
}
330
2E0
100
AcDbXrecord
 10
0.0
 20
0.0
 30
0.0
  0
XRECORD
  5
2FD
102
{ACAD_REACTORS
330
2E0
102
}
330
2E0
100
AcDbXrecord
 10
0.0
 20
0.0
 30
0.0
  0
XRECORD
  5
2FE
102
{ACAD_REACTORS
330
2E0
102
}
330
2E0
100
AcDbXrecord
 10
0.0
 20
0.0
 30
0.0
  0
XRECORD
  5
2FB
102
{ACAD_REACTORS
330
2E0
102
}
330
2E0
100
AcDbXrecord
 10
0.0
 20
0.0
 30
0.0
  0
XRECORD
  5
2F8
102
{ACAD_REACTORS
330
2E0
102
}
330
2E0
100
AcDbXrecord
340
0
  0
XRECORD
  5
2F9
102
{ACAD_REACTORS
330
2E0
102
}
330
2E0
100
AcDbXrecord
 70
     0
  0
XRECORD
  5
2EC
102
{ACAD_REACTORS
330
2E0
102
}
330
2E0
100
AcDbXrecord
  1
{46A5A61E-66A1-4AE5-B6A6-E0C9AEB3E2FF}
  0
DICTIONARYVAR
  5
186
102
{ACAD_REACTORS
330
184
102
}
330
184
100
DictionaryVariables
280
     0
  1
2
  0
DICTIONARYVAR
  5
185
102
{ACAD_REACTORS
330
184
102
}
330
184
100
DictionaryVariables
280
     0
  1
1
  0
ENDSEC
  0
EOF
