  0
SECTION
  2
HEADER
  9
$ACADVER
  1
AC1014
  9
$ACADMAINTVER
 70
     9
  9
$DWGCODEPAGE
  3
ANSI_1252
  9
$INSBASE
 10
9.638098316448962
 20
3.737369347287841
 30
0.0
  9
$EXTMIN
 10
0.1415731039965031
 20
2.653385979881891
 30
0.0
  9
$EXTMAX
 10
16.45589566538804
 20
7.362369347287842
 30
0.0
  9
$LIMMIN
 10
0.0
 20
0.0
  9
$LIMMAX
 10
36.0
 20
36.0
  9
$ORTHOMODE
 70
     1
  9
$REGENMODE
 70
     1
  9
$FILLMODE
 70
     1
  9
$QTEXTMODE
 70
     0
  9
$MIRRTEXT
 70
     1
  9
$DRAGMODE
 70
     0
  9
$LTSCALE
 40
1.0
  9
$OSMODE
 70
    37
  9
$ATTMODE
 70
     1
  9
$TEXTSIZE
 40
0.2
  9
$TRACEWID
 40
0.05
  9
$TEXTSTYLE
  7
STANDARD
  9
$CLAYER
  8
ADP1DETAIL
  9
$CELTYPE
  6
BYLAYER
  9
$CECOLOR
 62
   256
  9
$CELTSCALE
 40
1.0
  9
$DELOBJ
 70
     1
  9
$DISPSILH
 70
     0
  9
$DIMSCALE
 40
1.0
  9
$DIMASZ
 40
0.125
  9
$DIMEXO
 40
0.0625
  9
$DIMDLI
 40
0.38
  9
$DIMRND
 40
0.0
  9
$DIMDLE
 40
0.0
  9
$DIMEXE
 40
0.18
  9
$DIMTP
 40
0.0
  9
$DIMTM
 40
0.0
  9
$DIMTXT
 40
0.125
  9
$DIMCEN
 40
0.1875
  9
$DIMTSZ
 40
0.125
  9
$DIMTOL
 70
     0
  9
$DIMLIM
 70
     0
  9
$DIMTIH
 70
     0
  9
$DIMTOH
 70
     0
  9
$DIMSE1
 70
     0
  9
$DIMSE2
 70
     0
  9
$DIMTAD
 70
     0
  9
$DIMZIN
 70
     3
  9
$DIMBLK
  1

  9
$DIMASO
 70
     1
  9
$DIMSHO
 70
     1
  9
$DIMPOST
  1

  9
$DIMAPOST
  1

  9
$DIMALT
 70
     0
  9
$DIMALTD
 70
     1
  9
$DIMALTF
 40
25.4
  9
$DIMLFAC
 40
1.0
  9
$DIMTOFL
 70
     0
  9
$DIMTVP
 40
0.0
  9
$DIMTIX
 70
     0
  9
$DIMSOXD
 70
     0
  9
$DIMSAH
 70
     0
  9
$DIMBLK1
  1

  9
$DIMBLK2
  1

  9
$DIMSTYLE
  2
STANDARD
  9
$DIMCLRD
 70
     0
  9
$DIMCLRE
 70
     0
  9
$DIMCLRT
 70
     0
  9
$DIMTFAC
 40
1.0
  9
$DIMGAP
 40
0.125
  9
$DIMJUST
 70
     0
  9
$DIMSD1
 70
     0
  9
$DIMSD2
 70
     0
  9
$DIMTOLJ
 70
     1
  9
$DIMTZIN
 70
     3
  9
$DIMALTZ
 70
     3
  9
$DIMALTTZ
 70
     3
  9
$DIMFIT
 70
     5
  9
$DIMUPT
 70
     0
  9
$DIMUNIT
 70
     5
  9
$DIMDEC
 70
     4
  9
$DIMTDEC
 70
     4
  9
$DIMALTU
 70
     5
  9
$DIMALTTD
 70
     1
  9
$DIMTXSTY
  7
STANDARD
  9
$DIMAUNIT
 70
     0
  9
$LUNITS
 70
     5
  9
$LUPREC
 70
     4
  9
$SKETCHINC
 40
0.1
  9
$FILLETRAD
 40
0.062
  9
$AUNITS
 70
     0
  9
$AUPREC
 70
     0
  9
$MENU
  1
acad
  9
$ELEVATION
 40
0.0
  9
$PELEVATION
 40
0.0
  9
$THICKNESS
 40
0.0
  9
$LIMCHECK
 70
     0
  9
$BLIPMODE
 70
     0
  9
$CHAMFERA
 40
0.0
  9
$CHAMFERB
 40
0.0
  9
$CHAMFERC
 40
0.0
  9
$CHAMFERD
 40
0.0
  9
$SKPOLY
 70
     0
  9
$TDCREATE
 40
2450277.405411261
  9
$TDUPDATE
 40
2452297.079868877
  9
$TDINDWG
 40
0.0283360417
  9
$TDUSRTIMER
 40
0.0283360417
  9
$USRTIMER
 70
     1
  9
$ANGBASE
 50
0.0
  9
$ANGDIR
 70
     0
  9
$PDMODE
 70
     0
  9
$PDSIZE
 40
0.0
  9
$PLINEWID
 40
0.0
  9
$COORDS
 70
     2
  9
$SPLFRAME
 70
     0
  9
$SPLINETYPE
 70
     6
  9
$SPLINESEGS
 70
     8
  9
$ATTDIA
 70
     0
  9
$ATTREQ
 70
     1
  9
$HANDLING
 70
 22529
  9
$HANDSEED
  5
453
  9
$SURFTAB1
 70
     6
  9
$SURFTAB2
 70
     6
  9
$SURFTYPE
 70
     6
  9
$SURFU
 70
     6
  9
$SURFV
 70
     6
  9
$UCSNAME
  2

  9
$UCSORG
 10
0.0
 20
0.0
 30
0.0
  9
$UCSXDIR
 10
1.0
 20
0.0
 30
0.0
  9
$UCSYDIR
 10
0.0
 20
1.0
 30
0.0
  9
$PUCSNAME
  2

  9
$PUCSORG
 10
0.0
 20
0.0
 30
0.0
  9
$PUCSXDIR
 10
1.0
 20
0.0
 30
0.0
  9
$PUCSYDIR
 10
0.0
 20
1.0
 30
0.0
  9
$USERI1
 70
     0
  9
$USERI2
 70
     0
  9
$USERI3
 70
     0
  9
$USERI4
 70
     0
  9
$USERI5
 70
     0
  9
$USERR1
 40
0.0
  9
$USERR2
 40
0.0
  9
$USERR3
 40
0.0
  9
$USERR4
 40
0.0
  9
$USERR5
 40
0.0
  9
$WORLDVIEW
 70
     1
  9
$SHADEDGE
 70
     3
  9
$SHADEDIF
 70
    70
  9
$TILEMODE
 70
     1
  9
$MAXACTVP
 70
    15
  9
$PINSBASE
 10
0.1875030102684863
 20
0.0
 30
0.0
  9
$PLIMCHECK
 70
     0
  9
$PEXTMIN
 10
1.000000000000000E+20
 20
1.000000000000000E+20
 30
1.000000000000000E+20
  9
$PEXTMAX
 10
-1.000000000000000E+20
 20
-1.000000000000000E+20
 30
-1.000000000000000E+20
  9
$PLIMMIN
 10
0.0
 20
0.0
  9
$PLIMMAX
 10
12.0
 20
9.0
  9
$UNITMODE
 70
     0
  9
$VISRETAIN
 70
     0
  9
$PLINEGEN
 70
     0
  9
$PSLTSCALE
 70
     1
  9
$TREEDEPTH
 70
  3020
  9
$PICKSTYLE
 70
     1
  9
$CMLSTYLE
  2
STANDARD
  9
$CMLJUST
 70
     0
  9
$CMLSCALE
 40
1.0
  9
$PROXYGRAPHICS
 70
     1
  9
$MEASUREMENT
 70
     0
  0
ENDSEC
  0
SECTION
  2
CLASSES
  0
CLASS
  1
ACDBDICTIONARYWDFLT
  2
AcDbDictionaryWithDefault
  3
AutoCAD 2000
 90
        0
280
     0
281
     0
  0
CLASS
  1
ACDBPLACEHOLDER
  2
AcDbPlaceHolder
  3
AutoCAD 2000
 90
        0
280
     0
281
     0
  0
CLASS
  1
LAYOUT
  2
AcDbLayout
  3
AutoCAD 2000
 90
        0
280
     0
281
     0
  0
CLASS
  1
DICTIONARYVAR
  2
AcDbDictionaryVar
  3
AutoCAD 2000
 90
        0
280
     0
281
     0
  0
CLASS
  1
LONG_TRANSACTION
  2
AcDbLongTransaction
  3
AutoCAD 2000
 90
        0
280
     0
281
     0
  0
CLASS
  1
LWPOLYLINE
  2
AcDbPolyline
  3
AutoCAD 2000
 90
        0
280
     0
281
     1
  0
CLASS
  1
HATCH
  2
AcDbHatch
  3
AutoCAD 2000
 90
        0
280
     0
281
     1
  0
CLASS
  1
XRECORD
  2
AcDbXrecord
  3
AutoCAD 2000
 90
        0
280
     0
281
     0
  0
CLASS
  1
LONG_TRANSACTION
  2
AcDbLongTransaction
  3
AutoCAD 2000
 90
        0
280
     0
281
     0
  0
CLASS
  1
LWPOLYLINE
  2
AcDbPolyline
  3
AutoCAD 2000
 90
        0
280
     0
281
     1
  0
CLASS
  1
HATCH
  2
AcDbHatch
  3
AutoCAD 2000
 90
        0
280
     0
281
     1
  0
CLASS
  1
XRECORD
  2
AcDbXrecord
  3
AutoCAD 2000
 90
        0
280
     0
281
     0
  0
CLASS
  1
LONG_TRANSACTION
  2
AcDbLongTransaction
  3
AutoCAD 2000
 90
        0
280
     0
281
     0
  0
CLASS
  1
LWPOLYLINE
  2
AcDbPolyline
  3
AutoCAD 2000
 90
        0
280
     0
281
     1
  0
CLASS
  1
HATCH
  2
AcDbHatch
  3
AutoCAD 2000
 90
        0
280
     0
281
     1
  0
CLASS
  1
XRECORD
  2
AcDbXrecord
  3
AutoCAD 2000
 90
        0
280
     0
281
     0
  0
CLASS
  1
LONG_TRANSACTION
  2
AcDbLongTransaction
  3
AutoCAD 2000
 90
        0
280
     0
281
     0
  0
CLASS
  1
LWPOLYLINE
  2
AcDbPolyline
  3
AutoCAD 2000
 90
        0
280
     0
281
     1
  0
CLASS
  1
HATCH
  2
AcDbHatch
  3
AutoCAD 2000
 90
        0
280
     0
281
     1
  0
CLASS
  1
XRECORD
  2
AcDbXrecord
  3
AutoCAD 2000
 90
        0
280
     0
281
     0
  0
CLASS
  1
LONG_TRANSACTION
  2
AcDbLongTransaction
  3
AutoCAD 2000
 90
        0
280
     0
281
     0
  0
CLASS
  1
LWPOLYLINE
  2
AcDbPolyline
  3
AutoCAD 2000
 90
        0
280
     0
281
     1
  0
CLASS
  1
HATCH
  2
AcDbHatch
  3
AutoCAD 2000
 90
        0
280
     0
281
     1
  0
CLASS
  1
XRECORD
  2
AcDbXrecord
  3
AutoCAD 2000
 90
        0
280
     0
281
     0
  0
CLASS
  1
LONG_TRANSACTION
  2
AcDbLongTransaction
  3
AutoCAD 2000
 90
        0
280
     0
281
     0
  0
CLASS
  1
LWPOLYLINE
  2
AcDbPolyline
  3
AutoCAD 2000
 90
        0
280
     0
281
     1
  0
CLASS
  1
HATCH
  2
AcDbHatch
  3
AutoCAD 2000
 90
        0
280
     0
281
     1
  0
CLASS
  1
XRECORD
  2
AcDbXrecord
  3
AutoCAD 2000
 90
        0
280
     0
281
     0
  0
CLASS
  1
LONG_TRANSACTION
  2
AcDbLongTransaction
  3
AutoCAD 2000
 90
        0
280
     0
281
     0
  0
CLASS
  1
LWPOLYLINE
  2
AcDbPolyline
  3
AutoCAD 2000
 90
        0
280
     0
281
     1
  0
CLASS
  1
HATCH
  2
AcDbHatch
  3
AutoCAD 2000
 90
        0
280
     0
281
     1
  0
CLASS
  1
XRECORD
  2
AcDbXrecord
  3
AutoCAD 2000
 90
        0
280
     0
281
     0
  0
ENDSEC
  0
SECTION
  2
TABLES
  0
TABLE
  2
VPORT
  5
8
330
0
100
AcDbSymbolTable
 70
     2
  0
VPORT
  5
42F
330
8
100
AcDbSymbolTableRecord
100
AcDbViewportTableRecord
  2
*ACTIVE
 70
     0
 10
0.0
 20
0.0
 11
1.0
 21
1.0
 12
8.310868511544814
 22
5.007293769865409
 13
0.0
 23
0.0
 14
0.5740882589684922
 24
0.5740882589684922
 15
0.5
 25
0.5
 16
0.0
 26
0.0
 36
1.0
 17
0.0
 27
0.0
 37
0.0
 40
10.45655474262775
 41
1.570528967254408
 42
50.0
 43
0.0
 44
0.0
 50
0.0
 51
0.0
 71
     0
 72
   100
 73
     1
 74
     0
 75
     0
 76
     0
 77
     0
 78
     0
  0
ENDTAB
  0
TABLE
  2
LTYPE
  5
5
330
0
100
AcDbSymbolTable
 70
     2
  0
LTYPE
  5
13
330
5
100
AcDbSymbolTableRecord
100
AcDbLinetypeTableRecord
  2
BYBLOCK
 70
     0
  3

 72
    65
 73
     0
 40
0.0
  0
LTYPE
  5
14
330
5
100
AcDbSymbolTableRecord
100
AcDbLinetypeTableRecord
  2
BYLAYER
 70
     0
  3

 72
    65
 73
     0
 40
0.0
  0
LTYPE
  5
15
330
5
100
AcDbSymbolTableRecord
100
AcDbLinetypeTableRecord
  2
CONTINUOUS
 70
     0
  3
Solid line
 72
    65
 73
     0
 40
0.0
  0
LTYPE
  5
2E
330
5
100
AcDbSymbolTableRecord
100
AcDbLinetypeTableRecord
  2
HIDDEN2
 70
     0
  3
_ _ _ _ _ _ _ _ _ _ _ _ _ _ _ _ _ _ _ _ _ _ _ _
 72
    65
 73
     2
 40
0.1875
 49
0.125
 74
     0
 49
-0.0625
 74
     0
  0
ENDTAB
  0
TABLE
  2
LAYER
  5
2
330
0
100
AcDbSymbolTable
 70
     5
  0
LAYER
  5
10
330
2
100
AcDbSymbolTableRecord
100
AcDbLayerTableRecord
  2
0
 70
     0
 62
     7
  6
CONTINUOUS
  0
LAYER
  5
2F
330
2
100
AcDbSymbolTableRecord
100
AcDbLayerTableRecord
  2
ADP2DETAIL
 70
     0
 62
     5
  6
CONTINUOUS
  0
LAYER
  5
30
330
2
100
AcDbSymbolTableRecord
100
AcDbLayerTableRecord
  2
ADPDIM
 70
     0
 62
     3
  6
CONTINUOUS
  0
LAYER
  5
32
330
2
100
AcDbSymbolTableRecord
100
AcDbLayerTableRecord
  2
ADP1DETAIL
 70
     0
 62
     7
  6
CONTINUOUS
  0
LAYER
  5
34
330
2
100
AcDbSymbolTableRecord
100
AcDbLayerTableRecord
  2
DEFPOINTS
 70
     0
 62
     7
  6
CONTINUOUS
  0
ENDTAB
  0
TABLE
  2
STYLE
  5
3
330
0
100
AcDbSymbolTable
 70
     2
  0
STYLE
  5
11
330
3
100
AcDbSymbolTableRecord
100
AcDbTextStyleTableRecord
  2
STANDARD
 70
     0
 40
0.0
 41
1.0
 50
0.0
 71
     0
 42
0.2
  3
txt
  4

  0
STYLE
  5
228
330
3
100
AcDbSymbolTableRecord
100
AcDbTextStyleTableRecord
  2
ARIAL_WIDE
 70
     0
 40
0.0
 41
1.25
 50
0.0
 71
     0
 42
0.2
  3
ARIAL.TTF
  4

1001
ACAD
1000
Arial
1071
       34
  0
ENDTAB
  0
TABLE
  2
VIEW
  5
6
330
0
100
AcDbSymbolTable
 70
     0
  0
ENDTAB
  0
TABLE
  2
UCS
  5
7
330
0
100
AcDbSymbolTable
 70
     0
  0
ENDTAB
  0
TABLE
  2
APPID
  5
9
330
0
100
AcDbSymbolTable
 70
     1
  0
APPID
  5
12
330
9
100
AcDbSymbolTableRecord
100
AcDbRegAppTableRecord
  2
ACAD
 70
     0
  0
ENDTAB
  0
TABLE
  2
DIMSTYLE
  5
A
330
0
100
AcDbSymbolTable
 70
     1
  0
DIMSTYLE
105
226
330
A
100
AcDbSymbolTableRecord
100
AcDbDimStyleTableRecord
  2
STANDARD
 70
     0
  3

  4

  5

  6

  7

 40
1.0
 41
0.18
 42
0.0625
 43
0.38
 44
0.18
 45
0.0
 46
0.0
 47
0.0
 48
0.0
140
0.18
141
0.09
142
0.0
143
25.4
144
1.0
145
0.0
146
1.0
147
0.09
 71
     0
 72
     0
 73
     1
 74
     1
 75
     0
 76
     0
 77
     0
 78
     0
170
     0
171
     2
172
     0
173
     0
174
     0
175
     0
176
     0
177
     0
178
     0
270
     2
271
     4
272
     4
273
     2
274
     2
340
11
275
     0
280
     0
281
     0
282
     0
283
     1
284
     0
285
     0
286
     0
287
     3
288
     0
  0
ENDTAB
  0
TABLE
  2
BLOCK_RECORD
  5
1
330
0
100
AcDbSymbolTable
 70
     3
  0
BLOCK_RECORD
  5
1E
102
{ACAD_XDICTIONARY
360
265
102
}
330
1
100
AcDbSymbolTableRecord
100
AcDbBlockTableRecord
  2
*MODEL_SPACE
  0
BLOCK_RECORD
  5
1A
102
{ACAD_XDICTIONARY
360
267
102
}
330
1
100
AcDbSymbolTableRecord
100
AcDbBlockTableRecord
  2
*PAPER_SPACE
  0
BLOCK_RECORD
  5
2A
330
1
100
AcDbSymbolTableRecord
100
AcDbBlockTableRecord
  2
CS
  0
BLOCK_RECORD
  5
2B
330
1
100
AcDbSymbolTableRecord
100
AcDbBlockTableRecord
  2
*D1
  0
BLOCK_RECORD
  5
2C
330
1
100
AcDbSymbolTableRecord
100
AcDbBlockTableRecord
  2
*D2
  0
ENDTAB
  0
ENDSEC
  0
SECTION
  2
BLOCKS
  0
BLOCK
  5
37
330
1E
100
AcDbEntity
  8
0
100
AcDbBlockBegin
  2
*MODEL_SPACE
 70
     0
 10
0.0
 20
0.0
 30
0.0
  3
*MODEL_SPACE
  1

  0
ENDBLK
  5
38
330
1E
100
AcDbEntity
  8
0
100
AcDbBlockEnd
  0
BLOCK
  5
35
330
1A
100
AcDbEntity
 67
     1
  8
0
100
AcDbBlockBegin
  2
*PAPER_SPACE
 70
     0
 10
0.0
 20
0.0
 30
0.0
  3
*PAPER_SPACE
  1

  0
ENDBLK
  5
36
330
1A
100
AcDbEntity
 67
     1
  8
0
100
AcDbBlockEnd
  0
BLOCK
  5
3A
330
2A
100
AcDbEntity
  8
0
100
AcDbBlockBegin
  2
CS
 70
     0
 10
0.0
 20
0.0
 30
0.0
  3
CS
  1

  0
LINE
  5
3B
330
2A
100
AcDbEntity
  8
ADP1DETAIL
100
AcDbLine
 10
1.425081607495451
 20
-0.6942187193926337
 30
0.0
 11
1.417082255600474
 21
-0.721348230432465
 31
0.0
  0
LINE
  5
3C
330
2A
100
AcDbEntity
  8
ADP1DETAIL
100
AcDbLine
 10
-1.412602297407778
 20
-0.7222301364449866
 30
0.0
 11
-1.420601649302756
 21
-0.6951006254051553
 31
0.0
  0
ARC
  5
3D
330
2A
100
AcDbEntity
  8
ADP1DETAIL
100
AcDbCircle
 10
0.0024801093049689
 20
-1.482497925481798
 30
0.0
 40
1.482499999999999
100
AcDbArc
 50
297.3596970285019
 51
242.8320059896267
  0
LINE
  5
3E
330
2A
100
AcDbEntity
  8
ADP1DETAIL
100
AcDbLine
 10
-1.26066399739407
 20
-2.452012216487988
 30
0.0
 11
-1.288682735745039
 21
-2.448145654550037
 31
0.0
  0
LINE
  5
3F
330
2A
100
AcDbEntity
  8
ADP1DETAIL
100
AcDbLine
 10
-1.45699746181102
 20
-2.172902566820924
 30
0.0
 11
-1.447655759235324
 21
-2.146205514680525
 31
0.0
  0
LINE
  5
40
330
2A
100
AcDbEntity
  8
ADP1DETAIL
100
AcDbLine
 10
-1.400350971836266
 20
-2.280002600256825
 30
0.0
 11
-1.393030463760576
 21
-2.252682092181135
 31
0.0
  0
LINE
  5
41
330
2A
100
AcDbEntity
  8
ADP1DETAIL
100
AcDbLine
 10
-1.373030463760576
 20
-2.287323108332513
 30
0.0
 11
-1.400350971836266
 21
-2.280002600256825
 31
0.0
  0
LINE
  5
42
330
2A
100
AcDbEntity
  8
ADP1DETAIL
100
AcDbLine
 10
-1.352213982787114
 20
-2.321361343625055
 30
0.0
 11
-1.379708504487348
 21
-2.314724230060001
 31
0.0
  0
LINE
  5
43
330
2A
100
AcDbEntity
  8
ADP1DETAIL
100
AcDbLine
 10
-1.379708504487348
 20
-2.314724230060001
 30
0.0
 11
-1.373071390922296
 21
-2.287229708359769
 31
0.0
  0
LINE
  5
44
330
2A
100
AcDbEntity
  8
ADP1DETAIL
100
AcDbLine
 10
-1.358206818939565
 20
-2.348920436765483
 30
0.0
 11
-1.352257225753865
 21
-2.321268993025155
 31
0.0
  0
LINE
  5
45
330
2A
100
AcDbEntity
  8
ADP1DETAIL
100
AcDbLine
 10
-1.335859281414679
 20
-2.382569962780181
 30
0.0
 11
-1.33060090708963
 21
-2.354778786132589
 31
0.0
  0
LINE
  5
46
330
2A
100
AcDbEntity
  8
ADP1DETAIL
100
AcDbLine
 10
-1.330555375199235
 20
-2.354870029951184
 30
0.0
 11
-1.358206818939565
 21
-2.348920436765483
 31
0.0
  0
LINE
  5
47
330
2A
100
AcDbEntity
  8
ADP1DETAIL
100
AcDbLine
 10
-1.430300409670619
 20
-2.182244269396619
 30
0.0
 11
-1.45699746181102
 21
-2.172902566820924
 31
0.0
  0
LINE
  5
48
330
2A
100
AcDbEntity
  8
ADP1DETAIL
100
AcDbLine
 10
-1.412085816308865
 20
-2.217742944450977
 30
0.0
 11
-1.439007465632158
 21
-2.20906972142181
 31
0.0
  0
LINE
  5
49
330
2A
100
AcDbEntity
  8
ADP1DETAIL
100
AcDbLine
 10
-1.439007465632158
 20
-2.20906972142181
 30
0.0
 11
-1.430334242602992
 21
-2.182148072098518
 31
0.0
  0
LINE
  5
4A
330
2A
100
AcDbEntity
  8
ADP1DETAIL
100
AcDbLine
 10
-1.392991877845684
 20
-2.25277648346594
 30
0.0
 11
-1.420121388885513
 21
-2.244777131570963
 31
0.0
  0
LINE
  5
4B
330
2A
100
AcDbEntity
  8
ADP1DETAIL
100
AcDbLine
 10
-1.420121388885513
 20
-2.244777131570963
 30
0.0
 11
-1.412122036990536
 21
-2.217647620531131
 31
0.0
  0
LINE
  5
4C
330
2A
100
AcDbEntity
  8
ADP1DETAIL
100
AcDbLine
 10
-1.373030463760574
 20
-2.287323108332515
 30
0.0
 11
-1.400350971836262
 21
-2.280002600256826
 31
0.0
  0
LINE
  5
4D
330
2A
100
AcDbEntity
  8
ADP1DETAIL
100
AcDbLine
 10
-1.400350971836262
 20
-2.280002600256826
 30
0.0
 11
-1.393030463760574
 21
-2.252682092181139
 31
0.0
  0
LINE
  5
4E
330
2A
100
AcDbEntity
  8
ADP1DETAIL
100
AcDbLine
 10
-1.284766150387472
 20
-2.420215777017009
 30
0.0
 11
-1.312679783946485
 21
-2.415651890347389
 31
0.0
  0
LINE
  5
4F
330
2A
100
AcDbEntity
  8
ADP1DETAIL
100
AcDbLine
 10
-1.312679783946485
 20
-2.415651890347389
 30
0.0
 11
-1.308115897276865
 21
-2.387738256788376
 31
0.0
  0
LINE
  5
50
330
2A
100
AcDbEntity
  8
ADP1DETAIL
100
AcDbLine
 10
-1.288682735745039
 20
-2.448145654550037
 30
0.0
 11
-1.284816173807088
 21
-2.42012691619907
 31
0.0
  0
LINE
  5
51
330
2A
100
AcDbEntity
  8
ADP1DETAIL
100
AcDbLine
 10
-1.308068104767086
 20
-2.387828337105228
 30
0.0
 11
-1.335859281414679
 21
-2.382569962780181
 31
0.0
  0
LINE
  5
52
330
2A
100
AcDbEntity
  8
ADP1DETAIL
100
AcDbLine
 10
-1.617168530634373
 20
-1.429608663885606
 30
0.0
 11
-1.596676133159595
 21
-1.41011349408035
 31
0.0
  0
LINE
  5
53
330
2A
100
AcDbEntity
  8
ADP1DETAIL
100
AcDbLine
 10
-1.597673360829118
 20
-1.450101061360383
 30
0.0
 11
-1.617168530634373
 21
-1.429608663885606
 31
0.0
  0
LINE
  5
54
330
2A
100
AcDbEntity
  8
ADP1DETAIL
100
AcDbLine
 10
-1.59765958156924
 20
-1.490000023152399
 30
0.0
 11
-1.61765958156924
 21
-1.470000023152399
 31
0.0
  0
LINE
  5
55
330
2A
100
AcDbEntity
  8
ADP1DETAIL
100
AcDbLine
 10
-1.61765958156924
 20
-1.470000023152399
 30
0.0
 11
-1.59765958156924
 21
-1.4500000231524
 31
0.0
  0
LINE
  5
56
330
2A
100
AcDbEntity
  8
ADP1DETAIL
100
AcDbLine
 10
-1.596651097875099
 20
-1.529886240102463
 30
0.0
 11
-1.617143495349877
 21
-1.51039107029721
 31
0.0
  0
LINE
  5
57
330
2A
100
AcDbEntity
  8
ADP1DETAIL
100
AcDbLine
 10
-1.617143495349877
 20
-1.51039107029721
 30
0.0
 11
-1.597648325544621
 21
-1.489898672822432
 31
0.0
  0
LINE
  5
58
330
2A
100
AcDbEntity
  8
ADP1DETAIL
100
AcDbLine
 10
-1.594648536656462
 20
-1.569734917502277
 30
0.0
 11
-1.615620592794053
 21
-1.550756696791113
 31
0.0
  0
LINE
  5
59
330
2A
100
AcDbEntity
  8
ADP1DETAIL
100
AcDbLine
 10
-1.615620592794053
 20
-1.550756696791113
 30
0.0
 11
-1.596642372082889
 21
-1.52978464065352
 31
0.0
  0
LINE
  5
5A
330
2A
100
AcDbEntity
  8
ADP1DETAIL
100
AcDbLine
 10
-1.59165314277747
 20
-1.609521283979482
 30
0.0
 11
-1.613091820592822
 21
-1.591071809907587
 31
0.0
  0
LINE
  5
5B
330
2A
100
AcDbEntity
  8
ADP1DETAIL
100
AcDbLine
 10
-1.613091820592822
 20
-1.591071809907587
 30
0.0
 11
-1.594642346520927
 21
-1.569633132092237
 31
0.0
  0
LINE
  5
5C
330
2A
100
AcDbEntity
  8
ADP1DETAIL
100
AcDbLine
 10
-1.587666778282789
 20
-1.649220606896436
 30
0.0
 11
-1.609558750722014
 21
-1.631311348321043
 31
0.0
  0
LINE
  5
5D
330
2A
100
AcDbEntity
  8
ADP1DETAIL
100
AcDbLine
 10
-1.605023579465047
 20
-1.671450297685842
 30
0.0
 11
-1.587665669425994
 21
-1.64911863946089
 31
0.0
  0
LINE
  5
5E
330
2A
100
AcDbEntity
  8
ADP1DETAIL
100
AcDbLine
 10
-1.609558750722014
 20
-1.631311348321043
 30
0.0
 11
-1.591649492146624
 21
-1.60941937588182
 31
0.0
  0
LINE
  5
5F
330
2A
100
AcDbEntity
  8
ADP1DETAIL
100
AcDbLine
 10
-1.576731664199606
 20
-1.728259477387101
 30
0.0
 11
-1.599489126047631
 21
-1.711463706186124
 31
0.0
  0
LINE
  5
60
330
2A
100
AcDbEntity
  8
ADP1DETAIL
100
AcDbLine
 10
-1.599489126047631
 20
-1.711463706186124
 30
0.0
 11
-1.582693354846652
 21
-1.688706244338099
 31
0.0
  0
LINE
  5
61
330
2A
100
AcDbEntity
  8
ADP1DETAIL
100
AcDbLine
 10
-1.569789712271662
 20
-1.767549891553652
 30
0.0
 11
-1.592958830885244
 21
-1.751326700046748
 31
0.0
  0
LINE
  5
62
330
2A
100
AcDbEntity
  8
ADP1DETAIL
100
AcDbLine
 10
-1.592958830885244
 20
-1.751326700046748
 30
0.0
 11
-1.576735639378338
 21
-1.728157581433166
 31
0.0
  0
LINE
  5
63
330
2A
100
AcDbEntity
  8
ADP1DETAIL
100
AcDbLine
 10
-1.585436753444437
 20
-1.791014498995723
 30
0.0
 11
-1.569796226551453
 21
-1.767448126374766
 31
0.0
  0
LINE
  5
64
330
2A
100
AcDbEntity
  8
ADP1DETAIL
100
AcDbLine
 10
-1.582691921240094
 20
-1.688808207724894
 30
0.0
 11
-1.605023579465047
 21
-1.671450297685842
 31
0.0
  0
LINE
  5
65
330
2A
100
AcDbEntity
  8
ADP1DETAIL
100
AcDbLine
 10
-1.447624335084023
 20
-2.146302525557182
 30
0.0
 11
-1.474080194192868
 21
-2.136298150573562
 31
0.0
  0
LINE
  5
66
330
2A
100
AcDbEntity
  8
ADP1DETAIL
100
AcDbLine
 10
-1.474080194192868
 20
-2.136298150573562
 30
0.0
 11
-1.464075819209247
 21
-2.109842291464717
 31
0.0
  0
LINE
  5
67
330
2A
100
AcDbEntity
  8
ADP1DETAIL
100
AcDbLine
 10
-1.54553332498272
 20
-1.94752227351533
 30
0.0
 11
-1.532316972355216
 21
-1.922515713911389
 31
0.0
  0
LINE
  5
68
330
2A
100
AcDbEntity
  8
ADP1DETAIL
100
AcDbLine
 10
-1.520526765378781
 20
-1.960738626142834
 30
0.0
 11
-1.54553332498272
 21
-1.94752227351533
 31
0.0
  0
LINE
  5
69
330
2A
100
AcDbEntity
  8
ADP1DETAIL
100
AcDbLine
 10
-1.507806416951872
 20
-1.998555554598842
 30
0.0
 11
-1.533134696880249
 21
-1.985966740680535
 31
0.0
  0
LINE
  5
6A
330
2A
100
AcDbEntity
  8
ADP1DETAIL
100
AcDbLine
 10
-1.533134696880249
 20
-1.985966740680535
 30
0.0
 11
-1.52054588296194
 21
-1.960638460752159
 31
0.0
  0
LINE
  5
6B
330
2A
100
AcDbEntity
  8
ADP1DETAIL
100
AcDbLine
 10
-1.494147220052395
 20
-2.036043601787383
 30
0.0
 11
-1.519781475334626
 21
-2.024090152238178
 31
0.0
  0
LINE
  5
6C
330
2A
100
AcDbEntity
  8
ADP1DETAIL
100
AcDbLine
 10
-1.505481961189058
 20
-2.061868809303254
 30
0.0
 11
-1.494171306703503
 21
-2.035944513843043
 31
0.0
  0
LINE
  5
6D
330
2A
100
AcDbEntity
  8
ADP1DETAIL
100
AcDbLine
 10
-1.519781475334626
 20
-2.024090152238178
 30
0.0
 11
-1.507828025785421
 21
-1.998455896955945
 31
0.0
  0
LINE
  5
6E
330
2A
100
AcDbEntity
  8
ADP1DETAIL
100
AcDbLine
 10
-1.552978592796566
 20
-1.845550571233044
 30
0.0
 11
-1.576927569719329
 21
-1.830502431668532
 31
0.0
  0
LINE
  5
6F
330
2A
100
AcDbEntity
  8
ADP1DETAIL
100
AcDbLine
 10
-1.576927569719329
 20
-1.830502431668532
 30
0.0
 11
-1.561879430154819
 21
-1.80655345474577
 31
0.0
  0
LINE
  5
70
330
2A
100
AcDbEntity
  8
ADP1DETAIL
100
AcDbLine
 10
-1.543119875646457
 20
-1.8842123487155
 30
0.0
 11
-1.567436569324843
 21
-1.869765950944724
 31
0.0
  0
LINE
  5
71
330
2A
100
AcDbEntity
  8
ADP1DETAIL
100
AcDbLine
 10
-1.567436569324843
 20
-1.869765950944724
 30
0.0
 11
-1.552990171554068
 21
-1.845449257266338
 31
0.0
  0
LINE
  5
72
330
2A
100
AcDbEntity
  8
ADP1DETAIL
100
AcDbLine
 10
-1.532300357906622
 20
-1.922616324783431
 30
0.0
 11
-1.556969652208483
 21
-1.908780649207292
 31
0.0
  0
LINE
  5
73
330
2A
100
AcDbEntity
  8
ADP1DETAIL
100
AcDbLine
 10
-1.556969652208483
 20
-1.908780649207292
 30
0.0
 11
-1.543133976632343
 21
-1.884111354905432
 31
0.0
  0
LINE
  5
74
330
2A
100
AcDbEntity
  8
ADP1DETAIL
100
AcDbLine
 10
-1.479557665728847
 20
-2.073179463788811
 30
0.0
 11
-1.505481961189058
 21
-2.061868809303254
 31
0.0
  0
LINE
  5
75
330
2A
100
AcDbEntity
  8
ADP1DETAIL
100
AcDbLine
 10
-1.464046823373399
 20
-2.109940055614478
 30
0.0
 11
-1.490245043536301
 21
-2.099279227302563
 31
0.0
  0
LINE
  5
76
330
2A
100
AcDbEntity
  8
ADP1DETAIL
100
AcDbLine
 10
-1.490245043536301
 20
-2.099279227302563
 30
0.0
 11
-1.479584215224386
 21
-2.073081007139661
 31
0.0
  0
LINE
  5
77
330
2A
100
AcDbEntity
  8
ADP1DETAIL
100
AcDbLine
 10
-1.561870380823478
 20
-1.806655025888705
 30
0.0
 11
-1.585436753444437
 21
-1.791014498995723
 31
0.0
  0
LINE
  5
78
330
2A
100
AcDbEntity
  8
ADP1DETAIL
100
AcDbLine
 10
-1.430792367219712
 20
-0.7577413839897567
 30
0.0
 11
-1.439465590248877
 21
-0.7308197346664631
 31
0.0
  0
LINE
  5
79
330
2A
100
AcDbEntity
  8
ADP1DETAIL
100
AcDbLine
 10
-1.439465590248877
 20
-0.7308197346664631
 30
0.0
 11
-1.412543940925585
 21
-0.7221465116372983
 31
0.0
  0
LINE
  5
7A
330
2A
100
AcDbEntity
  8
ADP1DETAIL
100
AcDbLine
 10
-1.44809146326477
 20
-0.7936950850227884
 30
0.0
 11
-1.457433165840466
 21
-0.7669980328823894
 31
0.0
  0
LINE
  5
7B
330
2A
100
AcDbEntity
  8
ADP1DETAIL
100
AcDbLine
 10
-1.457433165840466
 20
-0.7669980328823894
 30
0.0
 11
-1.430736113700067
 21
-0.757656330306693
 31
0.0
  0
LINE
  5
7C
330
2A
100
AcDbEntity
  8
ADP1DETAIL
100
AcDbLine
 10
-1.464488831802107
 20
-0.8300688894292509
 30
0.0
 11
-1.47449320678573
 21
-0.803613030320406
 31
0.0
  0
LINE
  5
7D
330
2A
100
AcDbEntity
  8
ADP1DETAIL
100
AcDbLine
 10
-1.47449320678573
 20
-0.803613030320406
 30
0.0
 11
-1.448037347676883
 21
-0.7936086553367847
 31
0.0
  0
LINE
  5
7E
330
2A
100
AcDbEntity
  8
ADP1DETAIL
100
AcDbLine
 10
-1.494538180458121
 20
-0.9039861162021889
 30
0.0
 11
-1.505848834943678
 21
-0.8780618207419781
 31
0.0
  0
LINE
  5
7F
330
2A
100
AcDbEntity
  8
ADP1DETAIL
100
AcDbLine
 10
-1.508171480819946
 20
-0.9414835889596062
 30
0.0
 11
-1.520124930369151
 21
-0.9158493336773751
 31
0.0
  0
LINE
  5
80
330
2A
100
AcDbEntity
  8
ADP1DETAIL
100
AcDbLine
 10
-1.533454519690666
 20
-0.9539810145078817
 30
0.0
 11
-1.50812623976229
 21
-0.9413922005895738
 31
0.0
  0
LINE
  5
81
330
2A
100
AcDbEntity
  8
ADP1DETAIL
100
AcDbLine
 10
-1.520124930369151
 20
-0.9158493336773751
 30
0.0
 11
-1.494490675086918
 21
-0.9038958841281701
 31
0.0
  0
LINE
  5
82
330
2A
100
AcDbEntity
  8
ADP1DETAIL
100
AcDbLine
 10
-1.532612964128155
 20
-1.017439718811958
 30
0.0
 11
-1.545829316755659
 21
-0.9924331592080175
 31
0.0
  0
LINE
  5
83
330
2A
100
AcDbEntity
  8
ADP1DETAIL
100
AcDbLine
 10
-1.545829316755659
 20
-0.9924331592080175
 30
0.0
 11
-1.520822757151719
 21
-0.9792168065805118
 31
0.0
  0
LINE
  5
84
330
2A
100
AcDbEntity
  8
ADP1DETAIL
100
AcDbLine
 10
-1.543405953368662
 20
-1.05585115884228
 30
0.0
 11
-1.557241628944801
 21
-1.031181864540421
 31
0.0
  0
LINE
  5
85
330
2A
100
AcDbEntity
  8
ADP1DETAIL
100
AcDbLine
 10
-1.557241628944801
 20
-1.031181864540421
 30
0.0
 11
-1.532572334642942
 21
-1.017346188964282
 31
0.0
  0
LINE
  5
86
330
2A
100
AcDbEntity
  8
ADP1DETAIL
100
AcDbLine
 10
-1.520865705772358
 20
-0.9793092944362573
 30
0.0
 11
-1.533454519690666
 21
-0.9539810145078817
 31
0.0
  0
LINE
  5
87
330
2A
100
AcDbEntity
  8
ADP1DETAIL
100
AcDbLine
 10
-1.479974279637167
 20
-0.8668401859429248
 30
0.0
 11
-1.490635107949081
 21
-0.8406419657800228
 31
0.0
  0
LINE
  5
88
330
2A
100
AcDbEntity
  8
ADP1DETAIL
100
AcDbLine
 10
-1.490635107949081
 20
-0.8406419657800228
 30
0.0
 11
-1.464436887786179
 21
-0.829981137468108
 31
0.0
  0
LINE
  5
89
330
2A
100
AcDbEntity
  8
ADP1DETAIL
100
AcDbLine
 10
-1.505848834943678
 20
-0.8780618207419781
 30
0.0
 11
-1.479924539483466
 21
-0.8667511662564226
 31
0.0
  0
LINE
  5
8A
330
2A
100
AcDbEntity
  8
ADP1DETAIL
100
AcDbLine
 10
-1.593133207576265
 20
-1.188658090274406
 30
0.0
 11
-1.569964088962683
 21
-1.1724348987675
 31
0.0
  0
LINE
  5
8B
330
2A
100
AcDbEntity
  8
ADP1DETAIL
100
AcDbLine
 10
-1.593133207576267
 20
-1.188658090274406
 30
0.0
 11
-1.569964088962684
 21
-1.172434898767502
 31
0.0
  0
LINE
  5
8C
330
2A
100
AcDbEntity
  8
ADP1DETAIL
100
AcDbLine
 10
-1.57691001606936
 20
-1.211827208887989
 30
0.0
 11
-1.593133207576265
 21
-1.188658090274406
 31
0.0
  0
LINE
  5
8D
330
2A
100
AcDbEntity
  8
ADP1DETAIL
100
AcDbLine
 10
-1.582843022395989
 20
-1.251282585934433
 30
0.0
 11
-1.599638793596968
 21
-1.228525124086406
 31
0.0
  0
LINE
  5
8E
330
2A
100
AcDbEntity
  8
ADP1DETAIL
100
AcDbLine
 10
-1.599638793596968
 20
-1.228525124086406
 30
0.0
 11
-1.576881331748943
 21
-1.211729352885427
 31
0.0
  0
LINE
  5
8F
330
2A
100
AcDbEntity
  8
ADP1DETAIL
100
AcDbLine
 10
-1.605148444833961
 20
-1.26854195526638
 30
0.0
 11
-1.58281678660901
 21
-1.251184045227327
 31
0.0
  0
LINE
  5
90
330
2A
100
AcDbEntity
  8
ADP1DETAIL
100
AcDbLine
 10
-1.591749477714309
 20
-1.330575680350753
 30
0.0
 11
-1.6096587362897
 21
-1.308683707911528
 31
0.0
  0
LINE
  5
91
330
2A
100
AcDbEntity
  8
ADP1DETAIL
100
AcDbLine
 10
-1.6096587362897
 20
-1.308683707911528
 30
0.0
 11
-1.587766763850476
 21
-1.290774449336138
 31
0.0
  0
LINE
  5
92
330
2A
100
AcDbEntity
  8
ADP1DETAIL
100
AcDbLine
 10
-1.594717390132755
 20
-1.370364106278721
 30
0.0
 11
-1.61316686420465
 21
-1.348925428463369
 31
0.0
  0
LINE
  5
93
330
2A
100
AcDbEntity
  8
ADP1DETAIL
100
AcDbLine
 10
-1.61316686420465
 20
-1.348925428463369
 30
0.0
 11
-1.591728186389298
 21
-1.330475954391474
 31
0.0
  0
LINE
  5
94
330
2A
100
AcDbEntity
  8
ADP1DETAIL
100
AcDbLine
 10
-1.596692427089047
 20
-1.410214157357358
 30
0.0
 11
-1.615670647800213
 21
-1.389242101219766
 31
0.0
  0
LINE
  5
95
330
2A
100
AcDbEntity
  8
ADP1DETAIL
100
AcDbLine
 10
-1.615670647800213
 20
-1.389242101219766
 30
0.0
 11
-1.59469859166262
 21
-1.370263880508602
 31
0.0
  0
LINE
  5
96
330
2A
100
AcDbEntity
  8
ADP1DETAIL
100
AcDbLine
 10
-1.587790534794908
 20
-1.290873613491333
 30
0.0
 11
-1.605148444833961
 21
-1.26854195526638
 31
0.0
  0
LINE
  5
97
330
2A
100
AcDbEntity
  8
ADP1DETAIL
100
AcDbLine
 10
-1.57691001606936
 20
-1.211827208887989
 30
0.0
 11
-1.593133207576267
 21
-1.188658090274406
 31
0.0
  0
LINE
  5
98
330
2A
100
AcDbEntity
  8
ADP1DETAIL
100
AcDbLine
 10
-1.553237964183233
 20
-1.094519736593356
 30
0.0
 11
-1.567684361954013
 21
-1.07020304291497
 31
0.0
  0
LINE
  5
99
330
2A
100
AcDbEntity
  8
ADP1DETAIL
100
AcDbLine
 10
-1.562102884640019
 20
-1.133421414285248
 30
0.0
 11
-1.57715102420453
 21
-1.109472437362484
 31
0.0
  0
LINE
  5
9A
330
2A
100
AcDbEntity
  8
ADP1DETAIL
100
AcDbLine
 10
-1.57715102420453
 20
-1.109472437362484
 30
0.0
 11
-1.553202047281768
 21
-1.094424297797974
 31
0.0
  0
LINE
  5
9B
330
2A
100
AcDbEntity
  8
ADP1DETAIL
100
AcDbLine
 10
-1.569995203985332
 20
-1.172532009234702
 30
0.0
 11
-1.585635730878314
 21
-1.148965636613745
 31
0.0
  0
LINE
  5
9C
330
2A
100
AcDbEntity
  8
ADP1DETAIL
100
AcDbLine
 10
-1.585635730878314
 20
-1.148965636613745
 30
0.0
 11
-1.562069358257357
 21
-1.133325109720763
 31
0.0
  0
LINE
  5
9D
330
2A
100
AcDbEntity
  8
ADP1DETAIL
100
AcDbLine
 10
-1.567684361954013
 20
-1.07020304291497
 30
0.0
 11
-1.543367668275624
 21
-1.055756645144194
 31
0.0
  0
LINE
  5
9E
330
2A
100
AcDbEntity
  8
ADP1DETAIL
100
AcDbLine
 10
-0.6519795769740142
 20
-2.867123316242532
 30
0.0
 11
-0.6629784627422382
 21
-2.890611886038403
 31
0.0
  0
LINE
  5
9F
330
2A
100
AcDbEntity
  8
ADP1DETAIL
100
AcDbLine
 10
-0.771917190771676
 20
-2.892579684089522
 30
0.0
 11
-0.779916542666653
 21
-2.865450173049692
 31
0.0
  0
ARC
  5
A0
330
2A
100
AcDbEntity
  8
ADP1DETAIL
100
AcDbCircle
 10
-0.7082598380442935
 20
-2.869408182334698
 30
0.0
 40
0.05
100
AcDbArc
 50
243.0829156713569
 51
334.907930614481
  0
LINE
  5
A1
330
2A
100
AcDbEntity
  8
ADP1DETAIL
100
AcDbLine
 10
-0.7447876797318447
 20
-2.884580332194545
 30
0.0
 11
-0.771917190771676
 21
-2.892579684089522
 31
0.0
  0
LINE
  5
A2
330
2A
100
AcDbEntity
  8
ADP1DETAIL
100
AcDbLine
 10
-0.7361980815103682
 20
-2.911443625035644
 30
0.0
 11
-0.7448713045395348
 21
-2.884521975712353
 31
0.0
  0
LINE
  5
A3
330
2A
100
AcDbEntity
  8
ADP1DETAIL
100
AcDbLine
 10
-0.9149448776389252
 20
-2.780680124739745
 30
0.0
 11
-0.9428585111979383
 21
-2.785244011409366
 31
0.0
  0
LINE
  5
A4
330
2A
100
AcDbEntity
  8
ADP1DETAIL
100
AcDbLine
 10
-1.007267909775514
 20
-2.736487194580432
 30
0.0
 11
-1.010434743387699
 21
-2.708380768893897
 31
0.0
  0
LINE
  5
A5
330
2A
100
AcDbEntity
  8
ADP1DETAIL
100
AcDbLine
 10
-0.9791614840889781
 20
-2.733320360968246
 30
0.0
 11
-1.007267909775514
 21
-2.736487194580432
 31
0.0
  0
LINE
  5
A6
330
2A
100
AcDbEntity
  8
ADP1DETAIL
100
AcDbLine
 10
-0.9473484046622306
 20
-2.757400546169701
 30
0.0
 11
-0.9753671430131998
 21
-2.76126710810765
 31
0.0
  0
LINE
  5
A7
330
2A
100
AcDbEntity
  8
ADP1DETAIL
100
AcDbLine
 10
-0.9753671430131998
 20
-2.76126710810765
 30
0.0
 11
-0.979233704951147
 21
-2.733248369756681
 31
0.0
  0
LINE
  5
A8
330
2A
100
AcDbEntity
  8
ADP1DETAIL
100
AcDbLine
 10
-0.9428585111979383
 20
-2.785244011409366
 30
0.0
 11
-0.9474223978675606
 21
-2.757330377850353
 31
0.0
  0
LINE
  5
A9
330
2A
100
AcDbEntity
  8
ADP1DETAIL
100
AcDbLine
 10
-1.100119564881604
 20
-2.629300203804948
 30
0.0
 11
-1.12840163822852
 21
-2.62965280442842
 31
0.0
  0
LINE
  5
AA
330
2A
100
AcDbEntity
  8
ADP1DETAIL
100
AcDbLine
 10
-1.070862183978986
 20
-2.656428288968994
 30
0.0
 11
-1.099126676171
 21
-2.657485871650173
 31
0.0
  0
LINE
  5
AB
330
2A
100
AcDbEntity
  8
ADP1DETAIL
100
AcDbLine
 10
-1.099126676171
 20
-2.657485871650173
 30
0.0
 11
-1.100184258852177
 21
-2.62922137945816
 31
0.0
  0
LINE
  5
AC
330
2A
100
AcDbEntity
  8
ADP1DETAIL
100
AcDbLine
 10
-1.040937574868289
 20
-2.682818535491545
 30
0.0
 11
-1.069166915679579
 21
-2.684580442798962
 31
0.0
  0
LINE
  5
AD
330
2A
100
AcDbEntity
  8
ADP1DETAIL
100
AcDbLine
 10
-1.069166915679579
 20
-2.684580442798962
 30
0.0
 11
-1.070928822986997
 21
-2.656351101987672
 31
0.0
  0
LINE
  5
AE
330
2A
100
AcDbEntity
  8
ADP1DETAIL
100
AcDbLine
 10
-1.010364339763777
 20
-2.708454538245351
 30
0.0
 11
-1.038540980819886
 21
-2.710919674914
 31
0.0
  0
LINE
  5
AF
330
2A
100
AcDbEntity
  8
ADP1DETAIL
100
AcDbLine
 10
-1.038540980819886
 20
-2.710919674914
 30
0.0
 11
-1.041006117488535
 21
-2.682743033857891
 31
0.0
  0
LINE
  5
B0
330
2A
100
AcDbEntity
  8
ADP1DETAIL
100
AcDbLine
 10
-1.12840163822852
 20
-2.62965280442842
 30
0.0
 11
-1.128754238851993
 21
-2.601370731081507
 31
0.0
  0
LINE
  5
B1
330
2A
100
AcDbEntity
  8
ADP1DETAIL
100
AcDbLine
 10
-1.235776628552818
 20
-2.483197889706765
 30
0.0
 11
-1.263883054239354
 21
-2.480031056094579
 31
0.0
  0
LINE
  5
B2
330
2A
100
AcDbEntity
  8
ADP1DETAIL
100
AcDbLine
 10
-1.263883054239354
 20
-2.480031056094579
 30
0.0
 11
-1.260716220627168
 21
-2.451924630408043
 31
0.0
  0
LINE
  5
B3
330
2A
100
AcDbEntity
  8
ADP1DETAIL
100
AcDbLine
 10
-1.210119514748095
 20
-2.513753410536235
 30
0.0
 11
-1.238296155804205
 21
-2.511288273867586
 31
0.0
  0
LINE
  5
B4
330
2A
100
AcDbEntity
  8
ADP1DETAIL
100
AcDbLine
 10
-1.238296155804205
 20
-2.511288273867586
 30
0.0
 11
-1.235831019135556
 21
-2.483111632811477
 31
0.0
  0
LINE
  5
B5
330
2A
100
AcDbEntity
  8
ADP1DETAIL
100
AcDbLine
 10
-1.183708605365451
 20
-2.543659784564704
 30
0.0
 11
-1.211937946176741
 21
-2.541897877257287
 31
0.0
  0
LINE
  5
B6
330
2A
100
AcDbEntity
  8
ADP1DETAIL
100
AcDbLine
 10
-1.156560318376913
 20
-2.572898420913494
 30
0.0
 11
-1.184824810568928
 21
-2.571840838232315
 31
0.0
  0
LINE
  5
B7
330
2A
100
AcDbEntity
  8
ADP1DETAIL
100
AcDbLine
 10
-1.184824810568928
 20
-2.571840838232315
 30
0.0
 11
-1.183767227887747
 21
-2.543576346040302
 31
0.0
  0
LINE
  5
B8
330
2A
100
AcDbEntity
  8
ADP1DETAIL
100
AcDbLine
 10
-1.156973603481878
 20
-2.601098543170232
 30
0.0
 11
-1.156621002858406
 21
-2.572816469823319
 31
0.0
  0
LINE
  5
B9
330
2A
100
AcDbEntity
  8
ADP1DETAIL
100
AcDbLine
 10
-1.211937946176741
 20
-2.541897877257287
 30
0.0
 11
-1.210176038869326
 21
-2.513668536445996
 31
0.0
  0
LINE
  5
BA
330
2A
100
AcDbEntity
  8
ADP1DETAIL
100
AcDbLine
 10
-1.128691530134963
 20
-2.601451143793706
 30
0.0
 11
-1.156973603481878
 21
-2.601098543170232
 31
0.0
  0
ARC
  5
BB
330
2A
100
AcDbEntity
  8
ADP1DETAIL
100
AcDbCircle
 10
-0.6972609522760696
 20
-2.845919612538828
 30
0.0
 40
0.05
100
AcDbArc
 50
334.907930614481
 51
62.83200598962848
  0
LINE
  5
BC
330
2A
100
AcDbEntity
  8
ADP1DETAIL
100
AcDbLine
 10
-0.8819710462179344
 20
-2.80314462525431
 30
0.0
 11
-0.9097622228655257
 21
-2.808402999579357
 31
0.0
  0
LINE
  5
BD
330
2A
100
AcDbEntity
  8
ADP1DETAIL
100
AcDbLine
 10
-0.9097622228655257
 20
-2.808402999579357
 30
0.0
 11
-0.9150205971905744
 21
-2.780611822931764
 31
0.0
  0
LINE
  5
BE
330
2A
100
AcDbEntity
  8
ADP1DETAIL
100
AcDbLine
 10
-0.8484474081198722
 20
-2.824780082971191
 30
0.0
 11
-0.8760988518602026
 21
-2.830729676156892
 31
0.0
  0
LINE
  5
BF
330
2A
100
AcDbEntity
  8
ADP1DETAIL
100
AcDbLine
 10
-0.8760988518602026
 20
-2.830729676156892
 30
0.0
 11
-0.8820484450459034
 21
-2.803078232416561
 31
0.0
  0
LINE
  5
C0
330
2A
100
AcDbEntity
  8
ADP1DETAIL
100
AcDbLine
 10
-0.8143948028449781
 20
-2.845573048511033
 30
0.0
 11
-0.8418893245452121
 21
-2.852210162076087
 31
0.0
  0
LINE
  5
C1
330
2A
100
AcDbEntity
  8
ADP1DETAIL
100
AcDbLine
 10
-0.8418893245452121
 20
-2.852210162076087
 30
0.0
 11
-0.8485264381102641
 21
-2.824715640375853
 31
0.0
  0
LINE
  5
C2
330
2A
100
AcDbEntity
  8
ADP1DETAIL
100
AcDbLine
 10
-0.8071549067942154
 20
-2.872831104293631
 30
0.0
 11
-0.8144754148699053
 21
-2.845510596217941
 31
0.0
  0
LINE
  5
C3
330
2A
100
AcDbEntity
  8
ADP1DETAIL
100
AcDbLine
 10
-0.7798343987185277
 20
-2.865510596217943
 30
0.0
 11
-0.8071549067942154
 21
-2.872831104293631
 31
0.0
  0
LINE
  5
C4
330
2A
100
AcDbEntity
  8
ADP1DETAIL
100
AcDbLine
 10
1.512766635561812
 20
-0.940440296364752
 30
0.0
 11
1.538094915490189
 21
-0.9530291102830616
 31
0.0
  0
LINE
  5
C5
330
2A
100
AcDbEntity
  8
ADP1DETAIL
100
AcDbLine
 10
1.538094915490189
 20
-0.9530291102830616
 30
0.0
 11
1.525506101571879
 21
-0.978357390211439
 31
0.0
  0
LINE
  5
C6
330
2A
100
AcDbEntity
  8
ADP1DETAIL
100
AcDbLine
 10
1.525486983988718
 20
-0.9782572248207621
 30
0.0
 11
1.55049354359266
 21
-0.9914735774482679
 31
0.0
  0
LINE
  5
C7
330
2A
100
AcDbEntity
  8
ADP1DETAIL
100
AcDbLine
 10
1.525825924382294
 20
-1.959686556527339
 30
0.0
 11
1.538414738300607
 21
-1.985014836455714
 31
0.0
  0
LINE
  5
C8
330
2A
100
AcDbEntity
  8
ADP1DETAIL
100
AcDbLine
 10
1.538414738300607
 20
-1.985014836455714
 30
0.0
 11
1.51308645837223
 21
-1.997603650374022
 31
0.0
  0
LINE
  5
C9
330
2A
100
AcDbEntity
  8
ADP1DETAIL
100
AcDbLine
 10
1.550789535365597
 20
-1.946562691755579
 30
0.0
 11
1.525782975761655
 21
-1.959779044383083
 31
0.0
  0
LINE
  5
CA
330
2A
100
AcDbEntity
  8
ADP1DETAIL
100
AcDbLine
 10
1.453051681874706
 20
-2.145300765940808
 30
0.0
 11
1.462393384450402
 21
-2.171997818081207
 31
0.0
  0
LINE
  5
CB
330
2A
100
AcDbEntity
  8
ADP1DETAIL
100
AcDbLine
 10
0.8477064138831753
 20
-2.851686539274114
 30
0.0
 11
0.8202118921829413
 21
-2.845049425709061
 31
0.0
  0
LINE
  5
CC
330
2A
100
AcDbEntity
  8
ADP1DETAIL
100
AcDbLine
 10
0.6726535917028098
 20
-2.88839450504309
 30
0.0
 11
0.6615683263337875
 21
-2.864924693824424
 31
0.0
  0
LINE
  5
CD
330
2A
100
AcDbEntity
  8
ADP1DETAIL
100
AcDbLine
 10
0.7857586672891124
 20
-2.864969912632449
 30
0.0
 11
0.7777593153941354
 21
-2.892099423672281
 31
0.0
  0
ARC
  5
CE
330
2A
100
AcDbEntity
  8
ADP1DETAIL
100
AcDbCircle
 10
0.7178643139370458
 20
-2.867040568753522
 30
0.0
 40
0.05
100
AcDbArc
 50
205.2823110848848
 51
297.1073260280082
  0
LINE
  5
CF
330
2A
100
AcDbEntity
  8
ADP1DETAIL
100
AcDbLine
 10
0.7507251282741479
 20
-2.884063851095631
 30
0.0
 11
0.7420519052449813
 21
-2.910985500418925
 31
0.0
  0
LINE
  5
D0
330
2A
100
AcDbEntity
  8
ADP1DETAIL
100
AcDbLine
 10
0.7777593153941354
 20
-2.892099423672281
 30
0.0
 11
0.7506298043543041
 21
-2.884100071777303
 31
0.0
  0
ARC
  5
D1
330
2A
100
AcDbEntity
  8
ADP1DETAIL
100
AcDbCircle
 10
0.7067790485680235
 20
-2.843570757534856
 30
0.0
 40
0.05
100
AcDbArc
 50
117.3596970285016
 51
205.2823110848846
  0
LINE
  5
D2
330
2A
100
AcDbEntity
  8
ADP1DETAIL
100
AcDbLine
 10
0.8203052921556839
 20
-2.845008498547342
 30
0.0
 11
0.8129847840799957
 21
-2.872329006623031
 31
0.0
  0
LINE
  5
D3
330
2A
100
AcDbEntity
  8
ADP1DETAIL
100
AcDbLine
 10
0.8129847840799957
 20
-2.872329006623031
 30
0.0
 11
0.785664276004308
 21
-2.865008498547342
 31
0.0
  0
LINE
  5
D4
330
2A
100
AcDbEntity
  8
ADP1DETAIL
100
AcDbLine
 10
1.190468055473347
 20
-2.571104710957765
 30
0.0
 11
1.162203563281329
 21
-2.572162293638942
 31
0.0
  0
LINE
  5
D5
330
2A
100
AcDbEntity
  8
ADP1DETAIL
100
AcDbLine
 10
1.016180073529936
 20
-2.707754663339585
 30
0.0
 11
1.013013239917752
 21
-2.73586108902612
 31
0.0
  0
LINE
  5
D6
330
2A
100
AcDbEntity
  8
ADP1DETAIL
100
AcDbLine
 10
0.984994400311157
 20
-2.732642032180837
 30
0.0
 11
0.9811278383732098
 21
-2.760660770531805
 31
0.0
  0
LINE
  5
D7
330
2A
100
AcDbEntity
  8
ADP1DETAIL
100
AcDbLine
 10
1.013013239917752
 20
-2.73586108902612
 30
0.0
 11
0.9849068142312145
 21
-2.732694255413933
 31
0.0
  0
LINE
  5
D8
330
2A
100
AcDbEntity
  8
ADP1DETAIL
100
AcDbLine
 10
1.046735594359409
 20
-2.68209754953486
 30
0.0
 11
1.044270457690759
 21
-2.71027419059097
 31
0.0
  0
LINE
  5
D9
330
2A
100
AcDbEntity
  8
ADP1DETAIL
100
AcDbLine
 10
1.044270457690759
 20
-2.71027419059097
 30
0.0
 11
1.016093816634649
 21
-2.707809053922321
 31
0.0
  0
LINE
  5
DA
330
2A
100
AcDbEntity
  8
ADP1DETAIL
100
AcDbLine
 10
1.076641968387873
 20
-2.655686640152217
 30
0.0
 11
1.074880061080458
 21
-2.683915980963509
 31
0.0
  0
LINE
  5
DB
330
2A
100
AcDbEntity
  8
ADP1DETAIL
100
AcDbLine
 10
1.074880061080458
 20
-2.683915980963509
 30
0.0
 11
1.046650720269168
 21
-2.68215407365609
 31
0.0
  0
LINE
  5
DC
330
2A
100
AcDbEntity
  8
ADP1DETAIL
100
AcDbLine
 10
1.105880604736666
 20
-2.628538353163677
 30
0.0
 11
1.104823022055489
 21
-2.656802845355692
 31
0.0
  0
LINE
  5
DD
330
2A
100
AcDbEntity
  8
ADP1DETAIL
100
AcDbLine
 10
1.104823022055489
 20
-2.656802845355692
 30
0.0
 11
1.076558529863474
 21
-2.655745262674514
 31
0.0
  0
LINE
  5
DE
330
2A
100
AcDbEntity
  8
ADP1DETAIL
100
AcDbLine
 10
1.13443332761688
 20
-2.600669564921728
 30
0.0
 11
1.134080726993408
 21
-2.628951638268643
 31
0.0
  0
LINE
  5
DF
330
2A
100
AcDbEntity
  8
ADP1DETAIL
100
AcDbLine
 10
1.134080726993408
 20
-2.628951638268643
 30
0.0
 11
1.105798653646493
 21
-2.62859903764517
 31
0.0
  0
LINE
  5
E0
330
2A
100
AcDbEntity
  8
ADP1DETAIL
100
AcDbLine
 10
1.162282387628122
 20
-2.572097599668371
 30
0.0
 11
1.162634988251594
 21
-2.600379673015286
 31
0.0
  0
LINE
  5
E1
330
2A
100
AcDbEntity
  8
ADP1DETAIL
100
AcDbLine
 10
1.162634988251594
 20
-2.600379673015286
 30
0.0
 11
1.134352914904679
 21
-2.600732273638759
 31
0.0
  0
LINE
  5
E2
330
2A
100
AcDbEntity
  8
ADP1DETAIL
100
AcDbLine
 10
0.8543435274482273
 20
-2.824192017573881
 30
0.0
 11
0.8477064138831753
 21
-2.851686539274114
 31
0.0
  0
LINE
  5
E3
330
2A
100
AcDbEntity
  8
ADP1DETAIL
100
AcDbLine
 10
0.8878522137743569
 20
-2.802533409986001
 30
0.0
 11
0.8819026205886579
 21
-2.830184853726331
 31
0.0
  0
LINE
  5
E4
330
2A
100
AcDbEntity
  8
ADP1DETAIL
100
AcDbLine
 10
0.8819026205886579
 20
-2.830184853726331
 30
0.0
 11
0.8542511768483276
 21
-2.82423526054063
 31
0.0
  0
LINE
  5
E5
330
2A
100
AcDbEntity
  8
ADP1DETAIL
100
AcDbLine
 10
0.9208105209284003
 20
-2.780046139553851
 30
0.0
 11
0.9155521466033516
 21
-2.807837316201444
 31
0.0
  0
LINE
  5
E6
330
2A
100
AcDbEntity
  8
ADP1DETAIL
100
AcDbLine
 10
0.9155521466033516
 20
-2.807837316201444
 30
0.0
 11
0.8877609699557602
 21
-2.802578941876396
 31
0.0
  0
LINE
  5
E7
330
2A
100
AcDbEntity
  8
ADP1DETAIL
100
AcDbLine
 10
0.9531979608401837
 20
-2.756744185174238
 30
0.0
 11
0.9486340741705614
 21
-2.784657818733251
 31
0.0
  0
LINE
  5
E8
330
2A
100
AcDbEntity
  8
ADP1DETAIL
100
AcDbLine
 10
0.9486340741705614
 20
-2.784657818733251
 30
0.0
 11
0.9207204406115483
 21
-2.780093932063629
 31
0.0
  0
LINE
  5
E9
330
2A
100
AcDbEntity
  8
ADP1DETAIL
100
AcDbLine
 10
0.9811278383732098
 20
-2.760660770531805
 30
0.0
 11
0.9531091000222442
 21
-2.756794208593856
 31
0.0
  0
LINE
  5
EA
330
2A
100
AcDbEntity
  8
ADP1DETAIL
100
AcDbLine
 10
1.405813288116801
 20
-2.279132941580982
 30
0.0
 11
1.378492780041112
 21
-2.28645344965667
 31
0.0
  0
LINE
  5
EB
330
2A
100
AcDbEntity
  8
ADP1DETAIL
100
AcDbLine
 10
1.398492780041115
 20
-2.251812433505293
 30
0.0
 11
1.405813288116801
 21
-2.279132941580982
 31
0.0
  0
LINE
  5
EC
330
2A
100
AcDbEntity
  8
ADP1DETAIL
100
AcDbLine
 10
1.417562516017715
 20
-2.21676571451861
 30
0.0
 11
1.425561867912696
 21
-2.243895225558441
 31
0.0
  0
LINE
  5
ED
330
2A
100
AcDbEntity
  8
ADP1DETAIL
100
AcDbLine
 10
1.425561867912696
 20
-2.243895225558441
 30
0.0
 11
1.398432356872865
 21
-2.251894577453418
 31
0.0
  0
LINE
  5
EE
330
2A
100
AcDbEntity
  8
ADP1DETAIL
100
AcDbLine
 10
1.444425808858815
 20
-2.208176116297135
 30
0.0
 11
1.417504159535523
 21
-2.2168493393263
 31
0.0
  0
LINE
  5
EF
330
2A
100
AcDbEntity
  8
ADP1DETAIL
100
AcDbLine
 10
1.462393384450402
 20
-2.171997818081207
 30
0.0
 11
1.435696332310007
 21
-2.181339520656903
 31
0.0
  0
LINE
  5
F0
330
2A
100
AcDbEntity
  8
ADP1DETAIL
100
AcDbLine
 10
1.435752585829648
 20
-2.181254466973843
 30
0.0
 11
1.444425808858815
 21
-2.208176116297135
 31
0.0
  0
LINE
  5
F1
330
2A
100
AcDbEntity
  8
ADP1DETAIL
100
AcDbLine
 10
1.336126809077478
 20
-2.353949081004699
 30
0.0
 11
1.341385183402527
 21
-2.381740257652292
 31
0.0
  0
LINE
  5
F2
330
2A
100
AcDbEntity
  8
ADP1DETAIL
100
AcDbLine
 10
1.357762266794365
 20
-2.320425442906637
 30
0.0
 11
1.363711859980062
 21
-2.348076886646969
 31
0.0
  0
LINE
  5
F3
330
2A
100
AcDbEntity
  8
ADP1DETAIL
100
AcDbLine
 10
1.363711859980062
 20
-2.348076886646969
 30
0.0
 11
1.336060416239734
 21
-2.354026479832669
 31
0.0
  0
LINE
  5
F4
330
2A
100
AcDbEntity
  8
ADP1DETAIL
100
AcDbLine
 10
1.378555232334205
 20
-2.286372837631745
 30
0.0
 11
1.385192345899257
 21
-2.313867359331977
 31
0.0
  0
LINE
  5
F5
330
2A
100
AcDbEntity
  8
ADP1DETAIL
100
AcDbLine
 10
1.385192345899257
 20
-2.313867359331977
 30
0.0
 11
1.357697824199027
 21
-2.32050447289703
 31
0.0
  0
LINE
  5
F6
330
2A
100
AcDbEntity
  8
ADP1DETAIL
100
AcDbLine
 10
1.398492780041115
 20
-2.251812433505293
 30
0.0
 11
1.405813288116801
 21
-2.27913294158098
 31
0.0
  0
LINE
  5
F7
330
2A
100
AcDbEntity
  8
ADP1DETAIL
100
AcDbLine
 10
1.405813288116801
 20
-2.27913294158098
 30
0.0
 11
1.378492780041115
 21
-2.286453449656669
 31
0.0
  0
LINE
  5
F8
330
2A
100
AcDbEntity
  8
ADP1DETAIL
100
AcDbLine
 10
1.241436722068522
 20
-2.482342374550543
 30
0.0
 11
1.243901858737173
 21
-2.510519015606654
 31
0.0
  0
LINE
  5
F9
330
2A
100
AcDbEntity
  8
ADP1DETAIL
100
AcDbLine
 10
1.26630254479142
 20
-2.451139518875744
 30
0.0
 11
1.269469378403604
 21
-2.479245944562278
 31
0.0
  0
LINE
  5
FA
330
2A
100
AcDbEntity
  8
ADP1DETAIL
100
AcDbLine
 10
1.269469378403604
 20
-2.479245944562278
 30
0.0
 11
1.24136295271707
 21
-2.482412778174464
 31
0.0
  0
LINE
  5
FB
330
2A
100
AcDbEntity
  8
ADP1DETAIL
100
AcDbLine
 10
1.290382729992876
 20
-2.419326439448997
 30
0.0
 11
1.294249291930823
 21
-2.447345177799964
 31
0.0
  0
LINE
  5
FC
330
2A
100
AcDbEntity
  8
ADP1DETAIL
100
AcDbLine
 10
1.294249291930823
 20
-2.447345177799964
 30
0.0
 11
1.266230553579854
 21
-2.451211739737914
 31
0.0
  0
LINE
  5
FD
330
2A
100
AcDbEntity
  8
ADP1DETAIL
100
AcDbLine
 10
1.313662308562916
 20
-2.386922912425692
 30
0.0
 11
1.318226195232538
 21
-2.414836545984704
 31
0.0
  0
LINE
  5
FE
330
2A
100
AcDbEntity
  8
ADP1DETAIL
100
AcDbLine
 10
1.318226195232538
 20
-2.414836545984704
 30
0.0
 11
1.290312561673525
 21
-2.419400432654326
 31
0.0
  0
LINE
  5
FF
330
2A
100
AcDbEntity
  8
ADP1DETAIL
100
AcDbLine
 10
1.243901858737173
 20
-2.510519015606654
 30
0.0
 11
1.215725217681059
 21
-2.512984152275302
 31
0.0
  0
LINE
  5
100
330
2A
100
AcDbEntity
  8
ADP1DETAIL
100
AcDbLine
 10
1.341385183402527
 20
-2.381740257652292
 30
0.0
 11
1.313594006754938
 21
-2.386998631977339
 31
0.0
  0
LINE
  5
101
330
2A
100
AcDbEntity
  8
ADP1DETAIL
100
AcDbLine
 10
1.189410472792166
 20
-2.54284021876575
 30
0.0
 11
1.190468055473347
 21
-2.571104710957765
 31
0.0
  0
LINE
  5
102
330
2A
100
AcDbEntity
  8
ADP1DETAIL
100
AcDbLine
 10
1.217562626622134
 20
-2.541144950466346
 30
0.0
 11
1.189333285810844
 21
-2.542906857773764
 31
0.0
  0
LINE
  5
103
330
2A
100
AcDbEntity
  8
ADP1DETAIL
100
AcDbLine
 10
1.215800719314716
 20
-2.512915609655054
 30
0.0
 11
1.217562626622134
 21
-2.541144950466346
 31
0.0
  0
LINE
  5
104
330
2A
100
AcDbEntity
  8
ADP1DETAIL
100
AcDbLine
 10
1.469449050412043
 20
-2.108926961534345
 30
0.0
 11
1.479453425395666
 21
-2.135382820643192
 31
0.0
  0
LINE
  5
105
330
2A
100
AcDbEntity
  8
ADP1DETAIL
100
AcDbLine
 10
1.479453425395666
 20
-2.135382820643192
 30
0.0
 11
1.452997566286819
 21
-2.145387195626813
 31
0.0
  0
LINE
  5
106
330
2A
100
AcDbEntity
  8
ADP1DETAIL
100
AcDbLine
 10
1.484934498247104
 20
-2.072155665020671
 30
0.0
 11
1.495595326559017
 21
-2.098353885183575
 31
0.0
  0
LINE
  5
107
330
2A
100
AcDbEntity
  8
ADP1DETAIL
100
AcDbLine
 10
1.495595326559017
 20
-2.098353885183575
 30
0.0
 11
1.469397106396117
 21
-2.109014713495488
 31
0.0
  0
LINE
  5
108
330
2A
100
AcDbEntity
  8
ADP1DETAIL
100
AcDbLine
 10
1.499498399068061
 20
-2.035009734761406
 30
0.0
 11
1.510809053553616
 21
-2.060934030221618
 31
0.0
  0
LINE
  5
109
330
2A
100
AcDbEntity
  8
ADP1DETAIL
100
AcDbLine
 10
1.510809053553616
 20
-2.060934030221618
 30
0.0
 11
1.484884758093405
 21
-2.072244684707175
 31
0.0
  0
LINE
  5
10A
330
2A
100
AcDbEntity
  8
ADP1DETAIL
100
AcDbLine
 10
1.513131699429882
 20
-1.997512262003992
 30
0.0
 11
1.525085148979089
 21
-2.023146517286223
 31
0.0
  0
LINE
  5
10B
330
2A
100
AcDbEntity
  8
ADP1DETAIL
100
AcDbLine
 10
1.525085148979089
 20
-2.023146517286223
 30
0.0
 11
1.499450893696858
 21
-2.035099966835426
 31
0.0
  0
LINE
  5
10C
330
2A
100
AcDbEntity
  8
ADP1DETAIL
100
AcDbLine
 10
1.499107438662333
 20
-0.9029522491762147
 30
0.0
 11
1.524741693944564
 21
-0.9149056987254198
 31
0.0
  0
LINE
  5
10D
330
2A
100
AcDbEntity
  8
ADP1DETAIL
100
AcDbLine
 10
1.524741693944564
 20
-0.9149056987254198
 30
0.0
 11
1.512788244395361
 21
-0.9405399540076508
 31
0.0
  0
LINE
  5
10E
330
2A
100
AcDbEntity
  8
ADP1DETAIL
100
AcDbLine
 10
1.484517884338783
 20
-0.8658163871747852
 30
0.0
 11
1.510442179798998
 21
-0.8771270416603407
 31
0.0
  0
LINE
  5
10F
330
2A
100
AcDbEntity
  8
ADP1DETAIL
100
AcDbLine
 10
1.510442179798998
 20
-0.8771270416603407
 30
0.0
 11
1.499131525313442
 21
-0.9030513371205532
 31
0.0
  0
LINE
  5
110
330
2A
100
AcDbEntity
  8
ADP1DETAIL
100
AcDbLine
 10
1.469007041983337
 20
-0.8290557953491202
 30
0.0
 11
1.495205262146241
 21
-0.8397166236610331
 31
0.0
  0
LINE
  5
111
330
2A
100
AcDbEntity
  8
ADP1DETAIL
100
AcDbLine
 10
1.495205262146241
 20
-0.8397166236610331
 30
0.0
 11
1.484544433834324
 21
-0.8659148438239352
 31
0.0
  0
LINE
  5
112
330
2A
100
AcDbEntity
  8
ADP1DETAIL
100
AcDbLine
 10
1.452584553693961
 20
-0.7926933254064146
 30
0.0
 11
1.479040412802808
 21
-0.8026977003900359
 31
0.0
  0
LINE
  5
113
330
2A
100
AcDbEntity
  8
ADP1DETAIL
100
AcDbLine
 10
1.479040412802808
 20
-0.8026977003900359
 30
0.0
 11
1.469036037819185
 21
-0.8291535594988808
 31
0.0
  0
LINE
  5
114
330
2A
100
AcDbEntity
  8
ADP1DETAIL
100
AcDbLine
 10
1.435260628280557
 20
-0.7567515815669755
 30
0.0
 11
1.461957680420956
 21
-0.7660932841426736
 31
0.0
  0
LINE
  5
115
330
2A
100
AcDbEntity
  8
ADP1DETAIL
100
AcDbLine
 10
1.417046034918802
 20
-0.721252906512623
 30
0.0
 11
1.443967684242094
 21
-0.7299261295417879
 31
0.0
  0
LINE
  5
116
330
2A
100
AcDbEntity
  8
ADP1DETAIL
100
AcDbLine
 10
1.443967684242094
 20
-0.7299261295417879
 30
0.0
 11
1.435294461212931
 21
-0.7568477788650796
 31
0.0
  0
LINE
  5
117
330
2A
100
AcDbEntity
  8
ADP1DETAIL
100
AcDbLine
 10
1.461957680420956
 20
-0.7660932841426736
 30
0.0
 11
1.45261597784526
 21
-0.7927903362830726
 31
0.0
  0
LINE
  5
118
330
2A
100
AcDbEntity
  8
ADP1DETAIL
100
AcDbLine
 10
1.601611316485039
 20
-1.409109610861134
 30
0.0
 11
1.622103713959814
 21
-1.42860478066639
 31
0.0
  0
LINE
  5
119
330
2A
100
AcDbEntity
  8
ADP1DETAIL
100
AcDbLine
 10
1.592750753404848
 20
-1.648122237472263
 30
0.0
 11
1.610108663443901
 21
-1.670453895697216
 31
0.0
  0
LINE
  5
11A
330
2A
100
AcDbEntity
  8
ADP1DETAIL
100
AcDbLine
 10
1.596709696324248
 20
-1.608420170612843
 30
0.0
 11
1.614618954899638
 21
-1.630312143052067
 31
0.0
  0
LINE
  5
11B
330
2A
100
AcDbEntity
  8
ADP1DETAIL
100
AcDbLine
 10
1.614618954899638
 20
-1.630312143052067
 30
0.0
 11
1.592726982460414
 21
-1.648221401627459
 31
0.0
  0
LINE
  5
11C
330
2A
100
AcDbEntity
  8
ADP1DETAIL
100
AcDbLine
 10
1.599677608742693
 20
-1.568631744684877
 30
0.0
 11
1.61812708281459
 21
-1.590070422500227
 31
0.0
  0
LINE
  5
11D
330
2A
100
AcDbEntity
  8
ADP1DETAIL
100
AcDbLine
 10
1.61812708281459
 20
-1.590070422500227
 30
0.0
 11
1.596688404999236
 21
-1.608519896572124
 31
0.0
  0
LINE
  5
11E
330
2A
100
AcDbEntity
  8
ADP1DETAIL
100
AcDbLine
 10
1.601652645698985
 20
-1.528781693606239
 30
0.0
 11
1.62063086641015
 21
-1.54975374974383
 31
0.0
  0
LINE
  5
11F
330
2A
100
AcDbEntity
  8
ADP1DETAIL
100
AcDbLine
 10
1.62063086641015
 20
-1.54975374974383
 30
0.0
 11
1.599658810272556
 21
-1.568731970454996
 31
0.0
  0
LINE
  5
120
330
2A
100
AcDbEntity
  8
ADP1DETAIL
100
AcDbLine
 10
1.602633579439055
 20
-1.488894789603216
 30
0.0
 11
1.622128749244312
 21
-1.509387187077992
 31
0.0
  0
LINE
  5
121
330
2A
100
AcDbEntity
  8
ADP1DETAIL
100
AcDbLine
 10
1.622128749244312
 20
-1.509387187077992
 30
0.0
 11
1.601636351769533
 21
-1.528882356883247
 31
0.0
  0
LINE
  5
122
330
2A
100
AcDbEntity
  8
ADP1DETAIL
100
AcDbLine
 10
1.602619800179178
 20
-1.448995827811199
 30
0.0
 11
1.622619800179178
 21
-1.468995827811196
 31
0.0
  0
LINE
  5
123
330
2A
100
AcDbEntity
  8
ADP1DETAIL
100
AcDbLine
 10
1.622103713959814
 20
-1.42860478066639
 30
0.0
 11
1.602608544154561
 21
-1.449097178141167
 31
0.0
  0
LINE
  5
124
330
2A
100
AcDbEntity
  8
ADP1DETAIL
100
AcDbLine
 10
1.622619800179178
 20
-1.468995827811196
 30
0.0
 11
1.602619800179178
 21
-1.488995827811198
 31
0.0
  0
LINE
  5
125
330
2A
100
AcDbEntity
  8
ADP1DETAIL
100
AcDbLine
 10
1.574955422595268
 20
-1.766463841728892
 30
0.0
 11
1.590595949488252
 21
-1.790030214349851
 31
0.0
  0
LINE
  5
126
330
2A
100
AcDbEntity
  8
ADP1DETAIL
100
AcDbLine
 10
1.581870234679298
 20
-1.727168642075607
 30
0.0
 11
1.598093426186204
 21
-1.750337760689191
 31
0.0
  0
LINE
  5
127
330
2A
100
AcDbEntity
  8
ADP1DETAIL
100
AcDbLine
 10
1.598093426186204
 20
-1.750337760689191
 30
0.0
 11
1.57492430757262
 21
-1.766560952196096
 31
0.0
  0
LINE
  5
128
330
2A
100
AcDbEntity
  8
ADP1DETAIL
100
AcDbLine
 10
1.587803241005927
 20
-1.687713265029167
 30
0.0
 11
1.604599012206906
 21
-1.710470726877192
 31
0.0
  0
LINE
  5
129
330
2A
100
AcDbEntity
  8
ADP1DETAIL
100
AcDbLine
 10
1.604599012206906
 20
-1.710470726877192
 30
0.0
 11
1.581841550358879
 21
-1.727266498078169
 31
0.0
  0
LINE
  5
12A
330
2A
100
AcDbEntity
  8
ADP1DETAIL
100
AcDbLine
 10
1.610108663443901
 20
-1.670453895697216
 30
0.0
 11
1.587777005218947
 21
-1.68781180573627
 31
0.0
  0
LINE
  5
12B
330
2A
100
AcDbEntity
  8
ADP1DETAIL
100
AcDbLine
 10
1.537573182738091
 20
-1.921556132151639
 30
0.0
 11
1.550789535365597
 21
-1.946562691755579
 31
0.0
  0
LINE
  5
12C
330
2A
100
AcDbEntity
  8
ADP1DETAIL
100
AcDbLine
 10
1.548366171978598
 20
-1.883144692121316
 30
0.0
 11
1.562201847554741
 21
-1.907813986423176
 31
0.0
  0
LINE
  5
12D
330
2A
100
AcDbEntity
  8
ADP1DETAIL
100
AcDbLine
 10
1.562201847554741
 20
-1.907813986423176
 30
0.0
 11
1.537532553252878
 21
-1.921649661999316
 31
0.0
  0
LINE
  5
12E
330
2A
100
AcDbEntity
  8
ADP1DETAIL
100
AcDbLine
 10
1.558198182793175
 20
-1.844476114370239
 30
0.0
 11
1.572644580563951
 21
-1.868792808048628
 31
0.0
  0
LINE
  5
12F
330
2A
100
AcDbEntity
  8
ADP1DETAIL
100
AcDbLine
 10
1.567063103249955
 20
-1.80557443667835
 30
0.0
 11
1.582111242814468
 21
-1.829523413601112
 31
0.0
  0
LINE
  5
130
330
2A
100
AcDbEntity
  8
ADP1DETAIL
100
AcDbLine
 10
1.582111242814468
 20
-1.829523413601112
 30
0.0
 11
1.558162265891704
 21
-1.844571553165621
 31
0.0
  0
LINE
  5
131
330
2A
100
AcDbEntity
  8
ADP1DETAIL
100
AcDbLine
 10
1.572644580563951
 20
-1.868792808048628
 30
0.0
 11
1.548327886885564
 21
-1.883239205819402
 31
0.0
  0
LINE
  5
132
330
2A
100
AcDbEntity
  8
ADP1DETAIL
100
AcDbLine
 10
1.590595949488252
 20
-1.790030214349851
 30
0.0
 11
1.567029576867296
 21
-1.805670741242833
 31
0.0
  0
LINE
  5
133
330
2A
100
AcDbEntity
  8
ADP1DETAIL
100
AcDbLine
 10
1.537260576516564
 20
-1.016379526180166
 30
0.0
 11
1.561929870818422
 21
-1.030215201756305
 31
0.0
  0
LINE
  5
134
330
2A
100
AcDbEntity
  8
ADP1DETAIL
100
AcDbLine
 10
1.561929870818422
 20
-1.030215201756305
 30
0.0
 11
1.548094195242283
 21
-1.054884496058166
 31
0.0
  0
LINE
  5
135
330
2A
100
AcDbEntity
  8
ADP1DETAIL
100
AcDbLine
 10
1.55049354359266
 20
-0.9914735774482679
 30
0.0
 11
1.537277190965154
 21
-1.016480137052209
 31
0.0
  0
LINE
  5
136
330
2A
100
AcDbEntity
  8
ADP1DETAIL
100
AcDbLine
 10
1.574749930881599
 20
-1.171445959409945
 30
0.0
 11
1.597919049495184
 21
-1.18766915091685
 31
0.0
  0
LINE
  5
137
330
2A
100
AcDbEntity
  8
ADP1DETAIL
100
AcDbLine
 10
1.574749930881599
 20
-1.171445959409945
 30
0.0
 11
1.597919049495184
 21
-1.18766915091685
 31
0.0
  0
LINE
  5
138
330
2A
100
AcDbEntity
  8
ADP1DETAIL
100
AcDbLine
 10
1.597919049495184
 20
-1.18766915091685
 30
0.0
 11
1.581695857988277
 21
-1.210838269530434
 31
0.0
  0
LINE
  5
139
330
2A
100
AcDbEntity
  8
ADP1DETAIL
100
AcDbLine
 10
1.5996087552664
 20
-1.369260933461319
 30
0.0
 11
1.620580811403991
 21
-1.388239154172485
 31
0.0
  0
LINE
  5
13A
330
2A
100
AcDbEntity
  8
ADP1DETAIL
100
AcDbLine
 10
1.620580811403991
 20
-1.388239154172485
 30
0.0
 11
1.601602590692829
 21
-1.409211210310077
 31
0.0
  0
LINE
  5
13B
330
2A
100
AcDbEntity
  8
ADP1DETAIL
100
AcDbLine
 10
1.59661336138741
 20
-1.329474566984115
 30
0.0
 11
1.61805203920276
 21
-1.347924041056009
 31
0.0
  0
LINE
  5
13C
330
2A
100
AcDbEntity
  8
ADP1DETAIL
100
AcDbLine
 10
1.61805203920276
 20
-1.347924041056009
 30
0.0
 11
1.599602565130867
 21
-1.369362718871361
 31
0.0
  0
LINE
  5
13D
330
2A
100
AcDbEntity
  8
ADP1DETAIL
100
AcDbLine
 10
1.592626996892727
 20
-1.289775244067163
 30
0.0
 11
1.614518969331951
 21
-1.307684502642553
 31
0.0
  0
LINE
  5
13E
330
2A
100
AcDbEntity
  8
ADP1DETAIL
100
AcDbLine
 10
1.614518969331951
 20
-1.307684502642553
 30
0.0
 11
1.596609710756561
 21
-1.329576475081777
 31
0.0
  0
LINE
  5
13F
330
2A
100
AcDbEntity
  8
ADP1DETAIL
100
AcDbLine
 10
1.587652139850034
 20
-1.250187643238701
 30
0.0
 11
1.609983798074987
 21
-1.267545553277756
 31
0.0
  0
LINE
  5
140
330
2A
100
AcDbEntity
  8
ADP1DETAIL
100
AcDbLine
 10
1.609983798074987
 20
-1.267545553277756
 30
0.0
 11
1.592625888035934
 21
-1.289877211502707
 31
0.0
  0
LINE
  5
141
330
2A
100
AcDbEntity
  8
ADP1DETAIL
100
AcDbLine
 10
1.581691882809545
 20
-1.210736373576496
 30
0.0
 11
1.604449344657572
 21
-1.227532144777475
 31
0.0
  0
LINE
  5
142
330
2A
100
AcDbEntity
  8
ADP1DETAIL
100
AcDbLine
 10
1.604449344657572
 20
-1.227532144777475
 30
0.0
 11
1.58765357345659
 21
-1.2502896066255
 31
0.0
  0
LINE
  5
143
330
2A
100
AcDbEntity
  8
ADP1DETAIL
100
AcDbLine
 10
1.597919049495184
 20
-1.18766915091685
 30
0.0
 11
1.581695857988277
 21
-1.210838269530432
 31
0.0
  0
LINE
  5
144
330
2A
100
AcDbEntity
  8
ADP1DETAIL
100
AcDbLine
 10
1.566830599433414
 20
-1.132340825074889
 30
0.0
 11
1.590396972054376
 21
-1.147981351967873
 31
0.0
  0
LINE
  5
145
330
2A
100
AcDbEntity
  8
ADP1DETAIL
100
AcDbLine
 10
1.590396972054376
 20
-1.147981351967873
 30
0.0
 11
1.574756445161392
 21
-1.171547724588831
 31
0.0
  0
LINE
  5
146
330
2A
100
AcDbEntity
  8
ADP1DETAIL
100
AcDbLine
 10
1.581887788329266
 20
-1.108493419295065
 30
0.0
 11
1.566839648764757
 21
-1.132442396217827
 31
0.0
  0
LINE
  5
147
330
2A
100
AcDbEntity
  8
ADP1DETAIL
100
AcDbLine
 10
1.572396787934783
 20
-1.069229900018873
 30
0.0
 11
1.557950390164007
 21
-1.09354659369726
 31
0.0
  0
LINE
  5
148
330
2A
100
AcDbEntity
  8
ADP1DETAIL
100
AcDbLine
 10
1.557938811406506
 20
-1.093445279730556
 30
0.0
 11
1.581887788329266
 21
-1.108493419295065
 31
0.0
  0
LINE
  5
149
330
2A
100
AcDbEntity
  8
ADP1DETAIL
100
AcDbLine
 10
1.548080094256397
 20
-1.054783502248099
 30
0.0
 11
1.572396787934783
 21
-1.069229900018873
 31
0.0
  0
LINE
  5
14A
330
2A
100
AcDbEntity
  8
ADP1DETAIL
100
AcDbLine
 10
0.1230526063233981
 20
0.1461490480278211
 30
0.0
 11
0.1415020803952949
 21
0.124710370212469
 31
0.0
  0
LINE
  5
14B
330
2A
100
AcDbEntity
  8
ADP1DETAIL
100
AcDbLine
 10
-1.289289073320883
 20
-0.4916506731636332
 30
0.0
 11
-1.261270334969916
 21
-0.4877841112256843
 31
0.0
  0
LINE
  5
14C
330
2A
100
AcDbEntity
  8
ADP1DETAIL
100
AcDbLine
 10
-1.285422511382934
 20
-0.5196694115146006
 30
0.0
 11
-1.289289073320883
 21
-0.4916506731636332
 31
0.0
  0
LINE
  5
14D
330
2A
100
AcDbEntity
  8
ADP1DETAIL
100
AcDbLine
 10
-1.308702089952976
 20
-0.552072938537906
 30
0.0
 11
-1.313265976622599
 21
-0.5241593049788929
 31
0.0
  0
LINE
  5
14E
330
2A
100
AcDbEntity
  8
ADP1DETAIL
100
AcDbLine
 10
-1.313265976622599
 20
-0.5241593049788929
 30
0.0
 11
-1.285352343063586
 21
-0.5195954183092724
 31
0.0
  0
LINE
  5
14F
330
2A
100
AcDbEntity
  8
ADP1DETAIL
100
AcDbLine
 10
-1.331166590467542
 20
-0.5850467699588986
 30
0.0
 11
-1.336424964792589
 21
-0.5572555933113055
 31
0.0
  0
LINE
  5
150
330
2A
100
AcDbEntity
  8
ADP1DETAIL
100
AcDbLine
 10
-1.352802048184424
 20
-0.6185704080569572
 30
0.0
 11
-1.358751641370124
 21
-0.5909189643166269
 31
0.0
  0
LINE
  5
151
330
2A
100
AcDbEntity
  8
ADP1DETAIL
100
AcDbLine
 10
-1.358751641370124
 20
-0.5909189643166269
 30
0.0
 11
-1.331100197629794
 21
-0.5849693711309279
 31
0.0
  0
LINE
  5
152
330
2A
100
AcDbEntity
  8
ADP1DETAIL
100
AcDbLine
 10
-1.373595013724266
 20
-0.6526230133318532
 30
0.0
 11
-1.380232127289319
 21
-0.6251284916316209
 31
0.0
  0
LINE
  5
153
330
2A
100
AcDbEntity
  8
ADP1DETAIL
100
AcDbLine
 10
-1.380232127289319
 20
-0.6251284916316209
 30
0.0
 11
-1.352737605589087
 21
-0.6184913780665689
 31
0.0
  0
LINE
  5
154
330
2A
100
AcDbEntity
  8
ADP1DETAIL
100
AcDbLine
 10
-1.393532561431177
 20
-0.6871834174583054
 30
0.0
 11
-1.400853069506865
 21
-0.6598629093826159
 31
0.0
  0
LINE
  5
155
330
2A
100
AcDbEntity
  8
ADP1DETAIL
100
AcDbLine
 10
-1.400853069506865
 20
-0.6598629093826159
 30
0.0
 11
-1.373532561431176
 21
-0.6525424013069277
 31
0.0
  0
LINE
  5
156
330
2A
100
AcDbEntity
  8
ADP1DETAIL
100
AcDbLine
 10
-1.420601649302756
 20
-0.6951006254051553
 30
0.0
 11
-1.393472138262925
 21
-0.6871012735101783
 31
0.0
  0
LINE
  5
157
330
2A
100
AcDbEntity
  8
ADP1DETAIL
100
AcDbLine
 10
-1.336424964792589
 20
-0.5572555933113055
 30
0.0
 11
-1.308633788144998
 21
-0.5519972189862586
 31
0.0
  0
LINE
  5
158
330
2A
100
AcDbEntity
  8
ADP1DETAIL
100
AcDbLine
 10
-0.589890774516487
 20
0.0384641450122292
 30
0.0
 11
-0.5639664790562762
 21
0.0271534905266737
 31
0.0
  0
LINE
  5
159
330
2A
100
AcDbEntity
  8
ADP1DETAIL
100
AcDbLine
 10
-0.6012014290020425
 20
0.0125398495520184
 30
0.0
 11
-0.589890774516487
 21
0.0384641450122292
 31
0.0
  0
LINE
  5
15A
330
2A
100
AcDbEntity
  8
ADP1DETAIL
100
AcDbLine
 10
-0.9436738555606236
 20
-0.1543380322303456
 30
0.0
 11
-0.9157602220016105
 21
-0.1589019188999661
 31
0.0
  0
LINE
  5
15B
330
2A
100
AcDbEntity
  8
ADP1DETAIL
100
AcDbLine
 10
-1.039310239080821
 20
-0.2287216603726261
 30
0.0
 11
-1.011133598024709
 21
-0.2311867970412749
 31
0.0
  0
LINE
  5
15C
330
2A
100
AcDbEntity
  8
ADP1DETAIL
100
AcDbLine
 10
-1.041775375749468
 20
-0.2568983014287358
 30
0.0
 11
-1.039310239080821
 21
-0.2287216603726261
 31
0.0
  0
LINE
  5
15D
330
2A
100
AcDbEntity
  8
ADP1DETAIL
100
AcDbLine
 10
-1.06991984247052
 20
-0.2550798700000882
 30
0.0
 11
-1.041690501659228
 21
-0.2568417773075051
 31
0.0
  0
LINE
  5
15E
330
2A
100
AcDbEntity
  8
ADP1DETAIL
100
AcDbLine
 10
-1.039310239080821
 20
-0.2287216603726261
 30
0.0
 11
-1.011133598024711
 21
-0.2311867970412749
 31
0.0
  0
LINE
  5
15F
330
2A
100
AcDbEntity
  8
ADP1DETAIL
100
AcDbLine
 10
-1.04177537574947
 20
-0.2568983014287358
 30
0.0
 11
-1.039310239080821
 21
-0.2287216603726261
 31
0.0
  0
LINE
  5
160
330
2A
100
AcDbEntity
  8
ADP1DETAIL
100
AcDbLine
 10
-1.00805302130781
 20
-0.2031347619374753
 30
0.0
 11
-0.9799465956212767
 21
-0.206301595549661
 31
0.0
  0
LINE
  5
161
330
2A
100
AcDbEntity
  8
ADP1DETAIL
100
AcDbLine
 10
-1.011219854919996
 20
-0.2312411876240095
 30
0.0
 11
-1.00805302130781
 21
-0.2031347619374753
 31
0.0
  0
LINE
  5
162
330
2A
100
AcDbEntity
  8
ADP1DETAIL
100
AcDbLine
 10
-0.976167619763272
 20
-0.1783350804317916
 30
0.0
 11
-0.9481488814123046
 21
-0.1822016423697406
 31
0.0
  0
LINE
  5
163
330
2A
100
AcDbEntity
  8
ADP1DETAIL
100
AcDbLine
 10
-0.980034181701221
 20
-0.2063538187827607
 30
0.0
 11
-0.976167619763272
 21
-0.1783350804317916
 31
0.0
  0
LINE
  5
164
330
2A
100
AcDbEntity
  8
ADP1DETAIL
100
AcDbLine
 10
-0.9482377422302423
 20
-0.1822516657893587
 30
0.0
 11
-0.9436738555606236
 21
-0.1543380322303456
 31
0.0
  0
LINE
  5
165
330
2A
100
AcDbEntity
  8
ADP1DETAIL
100
AcDbLine
 10
-1.099862803445548
 20
-0.2821930056079047
 30
0.0
 11
-1.071598311253534
 21
-0.2832505882890821
 31
0.0
  0
LINE
  5
166
330
2A
100
AcDbEntity
  8
ADP1DETAIL
100
AcDbLine
 10
-1.129120508383467
 20
-0.3100442126949527
 30
0.0
 11
-1.100838435036552
 21
-0.3103968133184267
 31
0.0
  0
LINE
  5
167
330
2A
100
AcDbEntity
  8
ADP1DETAIL
100
AcDbLine
 10
-1.100920386126725
 20
-0.3104574977999182
 30
0.0
 11
-1.099862803445548
 21
-0.2821930056079047
 31
0.0
  0
LINE
  5
168
330
2A
100
AcDbEntity
  8
ADP1DETAIL
100
AcDbLine
 10
-1.071681749777939
 20
-0.2833092108113799
 30
0.0
 11
-1.06991984247052
 21
-0.2550798700000882
 31
0.0
  0
LINE
  5
169
330
2A
100
AcDbEntity
  8
ADP1DETAIL
100
AcDbLine
 10
-1.210840500704779
 20
-0.4260802413085436
 30
0.0
 11
-1.212602408012196
 21
-0.3978509004972519
 31
0.0
  0
LINE
  5
16A
330
2A
100
AcDbEntity
  8
ADP1DETAIL
100
AcDbLine
 10
-1.236476503458584
 20
-0.4566534764130541
 30
0.0
 11
-1.238941640127233
 21
-0.4284768353569444
 31
0.0
  0
LINE
  5
16B
330
2A
100
AcDbEntity
  8
ADP1DETAIL
100
AcDbLine
 10
-1.238941640127233
 20
-0.4284768353569444
 30
0.0
 11
-1.210764999071123
 21
-0.4260116986882956
 31
0.0
  0
LINE
  5
16C
330
2A
100
AcDbEntity
  8
ADP1DETAIL
100
AcDbLine
 10
-1.26134232618148
 20
-0.4878563320878531
 30
0.0
 11
-1.264509159793668
 21
-0.4597499064013189
 31
0.0
  0
LINE
  5
16D
330
2A
100
AcDbEntity
  8
ADP1DETAIL
100
AcDbLine
 10
-1.264509159793668
 20
-0.4597499064013189
 30
0.0
 11
-1.236402734107132
 21
-0.4565830727891332
 31
0.0
  0
LINE
  5
16E
330
2A
100
AcDbEntity
  8
ADP1DETAIL
100
AcDbLine
 10
-1.157322169018181
 20
-0.3668982512952272
 30
0.0
 11
-1.157674769641655
 21
-0.3386161779483103
 31
0.0
  0
LINE
  5
16F
330
2A
100
AcDbEntity
  8
ADP1DETAIL
100
AcDbLine
 10
-1.18445025418223
 20
-0.3961556321978481
 30
0.0
 11
-1.185507836863408
 21
-0.3678911400058329
 31
0.0
  0
LINE
  5
170
330
2A
100
AcDbEntity
  8
ADP1DETAIL
100
AcDbLine
 10
-1.185507836863408
 20
-0.3678911400058329
 30
0.0
 11
-1.157243344671393
 21
-0.3668335573246537
 31
0.0
  0
LINE
  5
171
330
2A
100
AcDbEntity
  8
ADP1DETAIL
100
AcDbLine
 10
-1.212602408012196
 20
-0.3978509004972519
 30
0.0
 11
-1.184373067200905
 21
-0.3960889931898332
 31
0.0
  0
LINE
  5
172
330
2A
100
AcDbEntity
  8
ADP1DETAIL
100
AcDbLine
 10
-1.157674769641655
 20
-0.3386161779483103
 30
0.0
 11
-1.129392696294738
 21
-0.3382635773248381
 31
0.0
  0
LINE
  5
173
330
2A
100
AcDbEntity
  8
ADP1DETAIL
100
AcDbLine
 10
-1.129473109006939
 20
-0.3383262860418679
 30
0.0
 11
-1.129120508383467
 21
-0.3100442126949527
 31
0.0
  0
LINE
  5
174
330
2A
100
AcDbEntity
  8
ADP1DETAIL
100
AcDbLine
 10
-0.7727990967841958
 20
-0.0468964272913155
 30
0.0
 11
-0.7456695857443645
 21
-0.0548957791862943
 31
0.0
  0
LINE
  5
175
330
2A
100
AcDbEntity
  8
ADP1DETAIL
100
AcDbLine
 10
-0.7807984486791728
 20
-0.0740259383311468
 30
0.0
 11
-0.7727990967841958
 21
-0.0468964272913155
 31
0.0
  0
LINE
  5
176
330
2A
100
AcDbEntity
  8
ADP1DETAIL
100
AcDbLine
 10
-0.7370916866350435
 20
-0.0280103505446725
 30
0.0
 11
-0.7101700373117499
 21
-0.0366835735738391
 31
0.0
  0
LINE
  5
177
330
2A
100
AcDbEntity
  8
ADP1DETAIL
100
AcDbLine
 10
-0.7457649096642083
 20
-0.0549319998679643
 30
0.0
 11
-0.7370916866350435
 21
-0.0280103505446725
 31
0.0
  0
LINE
  5
178
330
2A
100
AcDbEntity
  8
ADP1DETAIL
100
AcDbLine
 10
-0.7009245320341578
 20
-0.0100203543658086
 30
0.0
 11
-0.6742274798937569
 21
-0.0193620569415067
 31
0.0
  0
LINE
  5
179
330
2A
100
AcDbEntity
  8
ADP1DETAIL
100
AcDbLine
 10
-0.7102662346098541
 20
-0.0367174065062077
 30
0.0
 11
-0.7009245320341578
 21
-0.0100203543658086
 31
0.0
  0
LINE
  5
17A
330
2A
100
AcDbEntity
  8
ADP1DETAIL
100
AcDbLine
 10
-0.6643201157867953
 20
0.0070623780160393
 30
0.0
 11
-0.6378642566779505
 21
-0.0029419969675821
 31
0.0
  0
LINE
  5
17B
330
2A
100
AcDbEntity
  8
ADP1DETAIL
100
AcDbLine
 10
-0.6743244907704167
 20
-0.0193934810928056
 30
0.0
 11
-0.6643201157867953
 21
0.0070623780160393
 31
0.0
  0
LINE
  5
17C
330
2A
100
AcDbEntity
  8
ADP1DETAIL
100
AcDbLine
 10
-0.6273011925157963
 20
0.023227227359472
 30
0.0
 11
-0.6011029723528943
 21
0.0125663990475573
 31
0.0
  0
LINE
  5
17D
330
2A
100
AcDbEntity
  8
ADP1DETAIL
100
AcDbLine
 10
-0.6379620208277111
 20
-0.0029709928034301
 30
0.0
 11
-0.6273011925157963
 21
0.023227227359472
 31
0.0
  0
LINE
  5
17E
330
2A
100
AcDbEntity
  8
ADP1DETAIL
100
AcDbLine
 10
-0.9105919279934138
 20
-0.1311585347621538
 30
0.0
 11
-0.8828007513458224
 21
-0.1364169090872007
 31
0.0
  0
LINE
  5
17F
330
2A
100
AcDbEntity
  8
ADP1DETAIL
100
AcDbLine
 10
-0.9158503023184607
 20
-0.1589497114097451
 30
0.0
 11
-0.9105919279934138
 21
-0.1311585347621538
 31
0.0
  0
LINE
  5
180
330
2A
100
AcDbEntity
  8
ADP1DETAIL
100
AcDbLine
 10
-0.8769424019787184
 20
-0.1088109972372653
 30
0.0
 11
-0.849290958238388
 21
-0.1147605904229643
 31
0.0
  0
LINE
  5
181
330
2A
100
AcDbEntity
  8
ADP1DETAIL
100
AcDbLine
 10
-0.8828919951644191
 20
-0.1364624409775956
 30
0.0
 11
-0.8769424019787184
 21
-0.1088109972372653
 31
0.0
  0
LINE
  5
182
330
2A
100
AcDbEntity
  8
ADP1DETAIL
100
AcDbLine
 10
-0.842746195273234
 20
-0.0873093116894825
 30
0.0
 11
-0.8152516735730017
 21
-0.0939464252545364
 31
0.0
  0
LINE
  5
183
330
2A
100
AcDbEntity
  8
ADP1DETAIL
100
AcDbLine
 10
-0.8493833088382878
 20
-0.1148038333897148
 30
0.0
 11
-0.842746195273234
 21
-0.0873093116894825
 31
0.0
  0
LINE
  5
184
330
2A
100
AcDbEntity
  8
ADP1DETAIL
100
AcDbLine
 10
-0.8153450735457461
 20
-0.0939873524162547
 30
0.0
 11
-0.8080245654700579
 21
-0.0666668443405651
 31
0.0
  0
LINE
  5
185
330
2A
100
AcDbEntity
  8
ADP1DETAIL
100
AcDbLine
 10
-0.8080245654700579
 20
-0.0666668443405651
 30
0.0
 11
-0.7807040573943685
 21
-0.0739873524162551
 31
0.0
  0
LINE
  5
186
330
2A
100
AcDbEntity
  8
ADP1DETAIL
100
AcDbLine
 10
-0.2394856713993576
 20
0.1324713098708035
 30
0.0
 11
-0.2167282095513308
 21
0.1156755386698238
 31
0.0
  0
LINE
  5
187
330
2A
100
AcDbEntity
  8
ADP1DETAIL
100
AcDbLine
 10
-0.3977879161579558
 20
0.1004187531480145
 30
0.0
 11
-0.3734712224795693
 21
0.0859723553772387
 31
0.0
  0
LINE
  5
188
330
2A
100
AcDbEntity
  8
ADP1DETAIL
100
AcDbLine
 10
-0.4122343139287317
 20
0.076102059469628
 30
0.0
 11
-0.3977879161579558
 21
0.1004187531480145
 31
0.0
  0
LINE
  5
189
330
2A
100
AcDbEntity
  8
ADP1DETAIL
100
AcDbLine
 10
-0.3585243968817657
 20
0.1099097535425013
 30
0.0
 11
-0.3345754199590036
 21
0.0948616139779901
 31
0.0
  0
LINE
  5
18A
330
2A
100
AcDbEntity
  8
ADP1DETAIL
100
AcDbLine
 10
-0.3735725364462752
 20
0.0859607766197392
 30
0.0
 11
-0.3585243968817657
 21
0.1099097535425013
 31
0.0
  0
LINE
  5
18B
330
2A
100
AcDbEntity
  8
ADP1DETAIL
100
AcDbLine
 10
-0.319036464208958
 20
0.1184189372676077
 30
0.0
 11
-0.2954700915879993
 21
0.1027784103746239
 31
0.0
  0
LINE
  5
18C
330
2A
100
AcDbEntity
  8
ADP1DETAIL
100
AcDbLine
 10
-0.33467699110194
 20
0.094852564646649
 30
0.0
 11
-0.319036464208958
 21
0.1184189372676077
 31
0.0
  0
LINE
  5
18D
330
2A
100
AcDbEntity
  8
ADP1DETAIL
100
AcDbLine
 10
-0.2793486652599793
 20
0.125941014708415
 30
0.0
 11
-0.256179546646397
 21
0.1097178232015104
 31
0.0
  0
LINE
  5
18E
330
2A
100
AcDbEntity
  8
ADP1DETAIL
100
AcDbLine
 10
-0.2955718567668839
 20
0.1027718960948327
 30
0.0
 11
-0.2793486652599793
 21
0.125941014708415
 31
0.0
  0
LINE
  5
18F
330
2A
100
AcDbEntity
  8
ADP1DETAIL
100
AcDbLine
 10
-0.2562814426003364
 20
0.1097138480227766
 30
0.0
 11
-0.2394856713993576
 21
0.1324713098708035
 31
0.0
  0
LINE
  5
190
330
2A
100
AcDbEntity
  8
ADP1DETAIL
100
AcDbLine
 10
-0.5521121174514115
 20
0.0527636591577974
 30
0.0
 11
-0.5264778621691804
 21
0.0408102096085923
 31
0.0
  0
LINE
  5
191
330
2A
100
AcDbEntity
  8
ADP1DETAIL
100
AcDbLine
 10
-0.5640655670006165
 20
0.0271294038755645
 30
0.0
 11
-0.5521121174514115
 21
0.0527636591577974
 31
0.0
  0
LINE
  5
192
330
2A
100
AcDbEntity
  8
ADP1DETAIL
100
AcDbLine
 10
-0.5139887058937678
 20
0.0661168807034187
 30
0.0
 11
-0.4886604259653922
 21
0.0535280667851108
 31
0.0
  0
LINE
  5
193
330
2A
100
AcDbEntity
  8
ADP1DETAIL
100
AcDbLine
 10
-0.5265775198120757
 20
0.0407886007750431
 30
0.0
 11
-0.5139887058937678
 21
0.0661168807034187
 31
0.0
  0
LINE
  5
194
330
2A
100
AcDbEntity
  8
ADP1DETAIL
100
AcDbLine
 10
-0.4755442387285616
 20
0.0785155088058929
 30
0.0
 11
-0.4505376791246221
 21
0.0652991561783871
 31
0.0
  0
LINE
  5
195
330
2A
100
AcDbEntity
  8
ADP1DETAIL
100
AcDbLine
 10
-0.4887605913560656
 20
0.0535089492019516
 30
0.0
 11
-0.4755442387285616
 21
0.0785155088058929
 31
0.0
  0
LINE
  5
196
330
2A
100
AcDbEntity
  8
ADP1DETAIL
100
AcDbLine
 10
-0.4506382899966646
 20
0.0652825417297933
 30
0.0
 11
-0.4368026144205235
 21
0.0899518360316538
 31
0.0
  0
LINE
  5
197
330
2A
100
AcDbEntity
  8
ADP1DETAIL
100
AcDbLine
 10
-0.4368026144205235
 20
0.0899518360316538
 30
0.0
 11
-0.4121333201186648
 21
0.0761161604555145
 31
0.0
  0
LINE
  5
198
330
2A
100
AcDbEntity
  8
ADP1DETAIL
100
AcDbLine
 10
0.1016139285080477
 20
0.1276995739559243
 30
0.0
 11
0.1230526063233981
 21
0.1461490480278211
 31
0.0
  0
LINE
  5
199
330
2A
100
AcDbEntity
  8
ADP1DETAIL
100
AcDbLine
 10
0.0617638774294083
 20
0.12967461091222
 30
0.0
 11
0.0827359335670028
 21
0.1486528316233837
 31
0.0
  0
LINE
  5
19A
330
2A
100
AcDbEntity
  8
ADP1DETAIL
100
AcDbLine
 10
0.0827359335670028
 20
0.1486528316233837
 30
0.0
 11
0.1017141542781665
 21
0.1276807754857927
 31
0.0
  0
LINE
  5
19B
330
2A
100
AcDbEntity
  8
ADP1DETAIL
100
AcDbLine
 10
0.0218769734263873
 20
0.1306555446522903
 30
0.0
 11
0.0423693709011648
 21
0.1501507144575438
 31
0.0
  0
LINE
  5
19C
330
2A
100
AcDbEntity
  8
ADP1DETAIL
100
AcDbLine
 10
0.0423693709011648
 20
0.1501507144575438
 30
0.0
 11
0.0618645407064182
 21
0.1296583169827663
 31
0.0
  0
LINE
  5
19D
330
2A
100
AcDbEntity
  8
ADP1DETAIL
100
AcDbLine
 10
-0.0180219883656321
 20
0.1306417653924132
 30
0.0
 11
0.0019780116343675
 21
0.1506417653924128
 31
0.0
  0
LINE
  5
19E
330
2A
100
AcDbEntity
  8
ADP1DETAIL
100
AcDbLine
 10
0.0019780116343675
 20
0.1506417653924128
 30
0.0
 11
0.0219780116343671
 21
0.1306417653924132
 31
0.0
  0
LINE
  5
19F
330
2A
100
AcDbEntity
  8
ADP1DETAIL
100
AcDbLine
 10
-0.0787786620043445
 20
0.1486027766172242
 30
0.0
 11
-0.0578066058667535
 21
0.1296245559060605
 31
0.0
  0
LINE
  5
1A0
330
2A
100
AcDbEntity
  8
ADP1DETAIL
100
AcDbLine
 10
-0.0384130355104411
 20
0.1501256791730476
 30
0.0
 11
-0.0179206380356636
 21
0.1306305093677924
 31
0.0
  0
LINE
  5
1A1
330
2A
100
AcDbEntity
  8
ADP1DETAIL
100
AcDbLine
 10
-0.0579082053156963
 20
0.1296332816982701
 30
0.0
 11
-0.0384130355104411
 21
0.1501256791730476
 31
0.0
  0
LINE
  5
1A2
330
2A
100
AcDbEntity
  8
ADP1DETAIL
100
AcDbLine
 10
-0.0180219883656321
 20
0.1306417653924115
 30
0.0
 11
0.0019780116343675
 21
0.150641765392411
 31
0.0
  0
LINE
  5
1A3
330
2A
100
AcDbEntity
  8
ADP1DETAIL
100
AcDbLine
 10
0.0019780116343675
 20
0.150641765392411
 30
0.0
 11
0.0219780116343671
 21
0.1306417653924115
 31
0.0
  0
LINE
  5
1A4
330
2A
100
AcDbEntity
  8
ADP1DETAIL
100
AcDbLine
 10
-0.199472262899075
 20
0.1380057632882181
 30
0.0
 11
-0.177140604674122
 21
0.1206478532491637
 31
0.0
  0
LINE
  5
1A5
330
2A
100
AcDbEntity
  8
ADP1DETAIL
100
AcDbLine
 10
-0.2168301729381294
 20
0.115674105063265
 30
0.0
 11
-0.199472262899075
 21
0.1380057632882181
 31
0.0
  0
LINE
  5
1A6
330
2A
100
AcDbEntity
  8
ADP1DETAIL
100
AcDbLine
 10
-0.159333313534276
 20
0.1425409345451865
 30
0.0
 11
-0.1374413410950517
 21
0.1246316759697947
 31
0.0
  0
LINE
  5
1A7
330
2A
100
AcDbEntity
  8
ADP1DETAIL
100
AcDbLine
 10
-0.1772425721096678
 20
0.1206489621059621
 30
0.0
 11
-0.159333313534276
 21
0.1425409345451865
 31
0.0
  0
LINE
  5
1A8
330
2A
100
AcDbEntity
  8
ADP1DETAIL
100
AcDbLine
 10
-0.1190937751208203
 20
0.1460740044159934
 30
0.0
 11
-0.09765509730547
 21
0.1276245303440984
 31
0.0
  0
LINE
  5
1A9
330
2A
100
AcDbEntity
  8
ADP1DETAIL
100
AcDbLine
 10
-0.1375432491927153
 20
0.1246353266006412
 30
0.0
 11
-0.1190937751208203
 21
0.1460740044159934
 31
0.0
  0
LINE
  5
1AA
330
2A
100
AcDbEntity
  8
ADP1DETAIL
100
AcDbLine
 10
-0.0977568827155082
 20
0.1276307204796332
 30
0.0
 11
-0.0787786620043445
 21
0.1486027766172242
 31
0.0
  0
LINE
  5
1AB
330
2A
100
AcDbEntity
  8
ADP1DETAIL
100
AcDbLine
 10
0.8193550214549141
 20
-0.0934228024525616
 30
0.0
 11
0.8468495431551463
 21
-0.0867856888875078
 31
0.0
  0
LINE
  5
1AC
330
2A
100
AcDbEntity
  8
ADP1DETAIL
100
AcDbLine
 10
0.5939162140447892
 20
0.0388310187668495
 30
0.0
 11
0.6052268685303446
 21
0.0129067233066369
 31
0.0
  0
LINE
  5
1AD
330
2A
100
AcDbEntity
  8
ADP1DETAIL
100
AcDbLine
 10
0.7847946173284637
 20
-0.0734852547456537
 30
0.0
 11
0.8121151254041532
 21
-0.0661647466699638
 31
0.0
  0
LINE
  5
1AE
330
2A
100
AcDbEntity
  8
ADP1DETAIL
100
AcDbLine
 10
0.8121151254041532
 20
-0.0661647466699638
 30
0.0
 11
0.8194356334798413
 21
-0.0934852547456533
 31
0.0
  0
LINE
  5
1AF
330
2A
100
AcDbEntity
  8
ADP1DETAIL
100
AcDbLine
 10
0.7497478983417807
 20
-0.0544155187690496
 30
0.0
 11
0.7768774093816102
 21
-0.0464161668740726
 31
0.0
  0
LINE
  5
1B0
330
2A
100
AcDbEntity
  8
ADP1DETAIL
100
AcDbLine
 10
0.7768774093816102
 20
-0.0464161668740726
 30
0.0
 11
0.784876761276589
 21
-0.0735456779139021
 31
0.0
  0
LINE
  5
1B1
330
2A
100
AcDbEntity
  8
ADP1DETAIL
100
AcDbLine
 10
0.7142366507970124
 20
-0.0362254489571168
 30
0.0
 11
0.7411583001203042
 21
-0.0275522259279519
 31
0.0
  0
LINE
  5
1B2
330
2A
100
AcDbEntity
  8
ADP1DETAIL
100
AcDbLine
 10
0.7411583001203042
 20
-0.0275522259279519
 30
0.0
 11
0.7498315231494708
 21
-0.0544738752512437
 31
0.0
  0
LINE
  5
1B3
330
2A
100
AcDbEntity
  8
ADP1DETAIL
100
AcDbLine
 10
0.6782829497639789
 20
-0.0189263529120609
 30
0.0
 11
0.704980001904378
 21
-0.0095846503363628
 31
0.0
  0
LINE
  5
1B4
330
2A
100
AcDbEntity
  8
ADP1DETAIL
100
AcDbLine
 10
0.704980001904378
 20
-0.0095846503363628
 30
0.0
 11
0.7143217044800743
 21
-0.0362817024767619
 31
0.0
  0
LINE
  5
1B5
330
2A
100
AcDbEntity
  8
ADP1DETAIL
100
AcDbLine
 10
0.6419091453575163
 20
-0.002528984374722
 30
0.0
 11
0.668365004466363
 21
0.0074753906088993
 31
0.0
  0
LINE
  5
1B6
330
2A
100
AcDbEntity
  8
ADP1DETAIL
100
AcDbLine
 10
0.6313360690067463
 20
0.0236172917722524
 30
0.0
 11
0.6419968973186592
 21
-0.0025809283906497
 31
0.0
  0
LINE
  5
1B7
330
2A
100
AcDbEntity
  8
ADP1DETAIL
100
AcDbLine
 10
0.668365004466363
 20
0.0074753906088993
 30
0.0
 11
0.6783693794499826
 21
-0.0189804684999455
 31
0.0
  0
LINE
  5
1B8
330
2A
100
AcDbEntity
  8
ADP1DETAIL
100
AcDbLine
 10
0.6051378488438442
 20
0.0129564634603359
 30
0.0
 11
0.6313360690067463
 21
0.0236172917722524
 31
0.0
  0
LINE
  5
1B9
330
2A
100
AcDbEntity
  8
ADP1DETAIL
100
AcDbLine
 10
0.4545383159748085
 20
0.0655951479513259
 30
0.0
 11
0.4795448755787497
 21
0.0788115005788299
 31
0.0
  0
LINE
  5
1BA
330
2A
100
AcDbEntity
  8
ADP1DETAIL
100
AcDbLine
 10
0.4161268759444852
 20
0.0763881371918345
 30
0.0
 11
0.4407961702463457
 21
0.0902238127679738
 31
0.0
  0
LINE
  5
1BB
330
2A
100
AcDbEntity
  8
ADP1DETAIL
100
AcDbLine
 10
0.4407961702463457
 20
0.0902238127679738
 30
0.0
 11
0.454631845822485
 21
0.0655545184661133
 31
0.0
  0
LINE
  5
1BC
330
2A
100
AcDbEntity
  8
ADP1DETAIL
100
AcDbLine
 10
0.3774582981934103
 20
0.086220148006408
 30
0.0
 11
0.4017749918717968
 21
0.1006665457771838
 31
0.0
  0
LINE
  5
1BD
330
2A
100
AcDbEntity
  8
ADP1DETAIL
100
AcDbLine
 10
0.4017749918717968
 20
0.1006665457771838
 30
0.0
 11
0.4162213896425726
 21
0.0763498520987955
 31
0.0
  0
LINE
  5
1BE
330
2A
100
AcDbEntity
  8
ADP1DETAIL
100
AcDbLine
 10
0.3385566205015191
 20
0.0950850684631899
 30
0.0
 11
0.3625055974242812
 21
0.1101332080277011
 31
0.0
  0
LINE
  5
1BF
330
2A
100
AcDbEntity
  8
ADP1DETAIL
100
AcDbLine
 10
0.3625055974242812
 20
0.1101332080277011
 30
0.0
 11
0.3775537369887925
 21
0.0861842311049372
 31
0.0
  0
LINE
  5
1C0
330
2A
100
AcDbEntity
  8
ADP1DETAIL
100
AcDbLine
 10
0.2994460255520632
 20
0.1029773878085027
 30
0.0
 11
0.323012398173022
 21
0.1186179147014865
 31
0.0
  0
LINE
  5
1C1
330
2A
100
AcDbEntity
  8
ADP1DETAIL
100
AcDbLine
 10
0.323012398173022
 20
0.1186179147014865
 30
0.0
 11
0.3386529250660057
 21
0.0950515420805278
 31
0.0
  0
LINE
  5
1C2
330
2A
100
AcDbEntity
  8
ADP1DETAIL
100
AcDbLine
 10
0.2833199445123622
 20
0.1261153913994359
 30
0.0
 11
0.2995431360192686
 21
0.1029462727858537
 31
0.0
  0
LINE
  5
1C3
330
2A
100
AcDbEntity
  8
ADP1DETAIL
100
AcDbLine
 10
0.2206954488523358
 20
0.11582520621916
 30
0.0
 11
0.2434529107003627
 21
0.1326209774201388
 31
0.0
  0
LINE
  5
1C4
330
2A
100
AcDbEntity
  8
ADP1DETAIL
100
AcDbLine
 10
0.2434529107003627
 20
0.1326209774201388
 30
0.0
 11
0.2602486819013396
 21
0.1098635155721119
 31
0.0
  0
LINE
  5
1C5
330
2A
100
AcDbEntity
  8
ADP1DETAIL
100
AcDbLine
 10
0.1811044212954336
 20
0.1207727186180794
 30
0.0
 11
0.2034360795203867
 21
0.138130628657132
 31
0.0
  0
LINE
  5
1C6
330
2A
100
AcDbEntity
  8
ADP1DETAIL
100
AcDbLine
 10
0.2034360795203867
 20
0.138130628657132
 30
0.0
 11
0.2207939895594411
 21
0.1157989704321807
 31
0.0
  0
LINE
  5
1C7
330
2A
100
AcDbEntity
  8
ADP1DETAIL
100
AcDbLine
 10
0.1414023544360159
 20
0.1247316615374796
 30
0.0
 11
0.1632943268752385
 21
0.1426409201128713
 31
0.0
  0
LINE
  5
1C8
330
2A
100
AcDbEntity
  8
ADP1DETAIL
100
AcDbLine
 10
0.1632943268752385
 20
0.1426409201128713
 30
0.0
 11
0.1812035854506302
 21
0.120748947673647
 31
0.0
  0
LINE
  5
1C9
330
2A
100
AcDbEntity
  8
ADP1DETAIL
100
AcDbLine
 10
0.2601508258987799
 20
0.1098921998925313
 30
0.0
 11
0.2833199445123622
 21
0.1261153913994359
 31
0.0
  0
LINE
  5
1CA
330
2A
100
AcDbEntity
  8
ADP1DETAIL
100
AcDbLine
 10
0.5679919185845784
 20
0.0275203642812922
 30
0.0
 11
0.5939162140447892
 21
0.0388310187668495
 31
0.0
  0
LINE
  5
1CB
330
2A
100
AcDbEntity
  8
ADP1DETAIL
100
AcDbLine
 10
0.530494445827161
 20
0.041153664643117
 30
0.0
 11
0.5561287011093939
 21
0.0531071141923221
 31
0.0
  0
LINE
  5
1CC
330
2A
100
AcDbEntity
  8
ADP1DETAIL
100
AcDbLine
 10
0.5561287011093939
 20
0.0531071141923221
 30
0.0
 11
0.5680821506585972
 21
0.027472858910091
 31
0.0
  0
LINE
  5
1CD
330
2A
100
AcDbEntity
  8
ADP1DETAIL
100
AcDbLine
 10
0.4926687403505099
 20
0.0538478895955272
 30
0.0
 11
0.5179970202788855
 21
0.0664367035138369
 31
0.0
  0
LINE
  5
1CE
330
2A
100
AcDbEntity
  8
ADP1DETAIL
100
AcDbLine
 10
0.5179970202788855
 20
0.0664367035138369
 30
0.0
 11
0.5305858341971934
 21
0.0411084235854613
 31
0.0
  0
LINE
  5
1CF
330
2A
100
AcDbEntity
  8
ADP1DETAIL
100
AcDbLine
 10
0.4795448755787497
 20
0.0788115005788299
 30
0.0
 11
0.4927612282062555
 21
0.0538049409748886
 31
0.0
  0
LINE
  5
1D0
330
2A
100
AcDbEntity
  8
ADP1DETAIL
100
AcDbLine
 10
1.161520536986847
 20
-0.3660974300501021
 30
0.0
 11
1.189785029178862
 21
-0.3671550127312813
 31
0.0
  0
LINE
  5
1D1
330
2A
100
AcDbEntity
  8
ADP1DETAIL
100
AcDbLine
 10
1.043501199429824
 20
-0.228076176049596
 30
0.0
 11
1.045966336098471
 21
-0.2562528171057057
 31
0.0
  0
LINE
  5
1D2
330
2A
100
AcDbEntity
  8
ADP1DETAIL
100
AcDbLine
 10
1.015324558373714
 20
-0.2305413127182447
 30
0.0
 11
1.043501199429824
 21
-0.228076176049596
 31
0.0
  0
LINE
  5
1D3
330
2A
100
AcDbEntity
  8
ADP1DETAIL
100
AcDbLine
 10
0.9841217026989124
 20
-0.2056754899953486
 30
0.0
 11
1.01222812838545
 21
-0.2025086563831628
 31
0.0
  0
LINE
  5
1D4
330
2A
100
AcDbEntity
  8
ADP1DETAIL
100
AcDbLine
 10
1.01222812838545
 20
-0.2025086563831628
 30
0.0
 11
1.015394961997634
 21
-0.230615082069697
 31
0.0
  0
LINE
  5
1D5
330
2A
100
AcDbEntity
  8
ADP1DETAIL
100
AcDbLine
 10
0.9803273616231376
 20
-0.1777287428559457
 30
0.0
 11
0.9841939235610848
 21
-0.2057474812069131
 31
0.0
  0
LINE
  5
1D6
330
2A
100
AcDbEntity
  8
ADP1DETAIL
100
AcDbLine
 10
1.045897793478227
 20
-0.2561773154720512
 30
0.0
 11
1.074127134289517
 21
-0.2544154081646344
 31
0.0
  0
LINE
  5
1D7
330
2A
100
AcDbEntity
  8
ADP1DETAIL
100
AcDbLine
 10
1.015324558373714
 20
-0.2305413127182447
 30
0.0
 11
1.043501199429824
 21
-0.228076176049596
 31
0.0
  0
LINE
  5
1D8
330
2A
100
AcDbEntity
  8
ADP1DETAIL
100
AcDbLine
 10
1.043501199429824
 20
-0.228076176049596
 30
0.0
 11
1.045966336098471
 21
-0.2562528171057057
 31
0.0
  0
LINE
  5
1D9
330
2A
100
AcDbEntity
  8
ADP1DETAIL
100
AcDbLine
 10
1.105079783491541
 20
-0.3096956471586498
 30
0.0
 11
1.133361856838456
 21
-0.3093430465351741
 31
0.0
  0
LINE
  5
1DA
330
2A
100
AcDbEntity
  8
ADP1DETAIL
100
AcDbLine
 10
1.07582240258892
 20
-0.2825675619946004
 30
0.0
 11
1.104086894780939
 21
-0.2815099793134212
 31
0.0
  0
LINE
  5
1DB
330
2A
100
AcDbEntity
  8
ADP1DETAIL
100
AcDbLine
 10
1.104086894780939
 20
-0.2815099793134212
 30
0.0
 11
1.105144477462117
 21
-0.3097744715054365
 31
0.0
  0
LINE
  5
1DC
330
2A
100
AcDbEntity
  8
ADP1DETAIL
100
AcDbLine
 10
1.074127134289517
 20
-0.2544154081646344
 30
0.0
 11
1.075889041596935
 21
-0.282644748975926
 31
0.0
  0
LINE
  5
1DD
330
2A
100
AcDbEntity
  8
ADP1DETAIL
100
AcDbLine
 10
1.133651748744901
 20
-0.33754470716989
 30
0.0
 11
1.161933822091816
 21
-0.337897307793364
 31
0.0
  0
LINE
  5
1DE
330
2A
100
AcDbEntity
  8
ADP1DETAIL
100
AcDbLine
 10
1.161933822091816
 20
-0.337897307793364
 30
0.0
 11
1.161581221468344
 21
-0.3661793811402774
 31
0.0
  0
LINE
  5
1DF
330
2A
100
AcDbEntity
  8
ADP1DETAIL
100
AcDbLine
 10
1.133361856838456
 20
-0.3093430465351741
 30
0.0
 11
1.133714457461932
 21
-0.3376251198820892
 31
0.0
  0
LINE
  5
1E0
330
2A
100
AcDbEntity
  8
ADP1DETAIL
100
AcDbLine
 10
0.919905096248863
 20
-0.1583157262238526
 30
0.0
 11
0.9478187298078761
 21
-0.1537518395542321
 31
0.0
  0
LINE
  5
1E1
330
2A
100
AcDbEntity
  8
ADP1DETAIL
100
AcDbLine
 10
0.9478187298078761
 20
-0.1537518395542321
 30
0.0
 11
0.9523826164774948
 21
-0.1816654731132434
 31
0.0
  0
LINE
  5
1E2
330
2A
100
AcDbEntity
  8
ADP1DETAIL
100
AcDbLine
 10
0.8869312648278704
 20
-0.1358512257092865
 30
0.0
 11
0.9147224414754635
 21
-0.1305928513842396
 31
0.0
  0
LINE
  5
1E3
330
2A
100
AcDbEntity
  8
ADP1DETAIL
100
AcDbLine
 10
0.9147224414754635
 20
-0.1305928513842396
 30
0.0
 11
0.9199808158005104
 21
-0.1583840280318327
 31
0.0
  0
LINE
  5
1E4
330
2A
100
AcDbEntity
  8
ADP1DETAIL
100
AcDbLine
 10
0.8534076267298082
 20
-0.1142157679924036
 30
0.0
 11
0.8810590704701386
 21
-0.1082661748067046
 31
0.0
  0
LINE
  5
1E5
330
2A
100
AcDbEntity
  8
ADP1DETAIL
100
AcDbLine
 10
0.8810590704701386
 20
-0.1082661748067046
 30
0.0
 11
0.8870086636558394
 21
-0.135917618547035
 31
0.0
  0
LINE
  5
1E6
330
2A
100
AcDbEntity
  8
ADP1DETAIL
100
AcDbLine
 10
0.8468495431551463
 20
-0.0867856888875078
 30
0.0
 11
0.8534866567202001
 21
-0.1142802105877418
 31
0.0
  0
LINE
  5
1E7
330
2A
100
AcDbEntity
  8
ADP1DETAIL
100
AcDbLine
 10
0.9523086232721684
 20
-0.1815953047938965
 30
0.0
 11
0.9803273616231376
 21
-0.1777287428559457
 31
0.0
  0
LINE
  5
1E8
330
2A
100
AcDbEntity
  8
ADP1DETAIL
100
AcDbLine
 10
1.39795209645562
 20
-0.6862193674976567
 30
0.0
 11
1.425081607495451
 21
-0.6942187193926337
 31
0.0
  0
LINE
  5
1E9
330
2A
100
AcDbEntity
  8
ADP1DETAIL
100
AcDbLine
 10
1.377990682370514
 20
-0.6516727426310834
 30
0.0
 11
1.405311190446203
 21
-0.6589932507067715
 31
0.0
  0
LINE
  5
1EA
330
2A
100
AcDbEntity
  8
ADP1DETAIL
100
AcDbLine
 10
1.405311190446203
 20
-0.6589932507067715
 30
0.0
 11
1.397990682370513
 21
-0.6863137587824593
 31
0.0
  0
LINE
  5
1EB
330
2A
100
AcDbEntity
  8
ADP1DETAIL
100
AcDbLine
 10
1.357174201397052
 20
-0.6176345073385435
 30
0.0
 11
1.384668723097286
 21
-0.6242716209035955
 31
0.0
  0
LINE
  5
1EC
330
2A
100
AcDbEntity
  8
ADP1DETAIL
100
AcDbLine
 10
1.384668723097286
 20
-0.6242716209035955
 30
0.0
 11
1.378031609532234
 21
-0.6517661426038277
 31
0.0
  0
LINE
  5
1ED
330
2A
100
AcDbEntity
  8
ADP1DETAIL
100
AcDbLine
 10
1.335515593809171
 20
-0.5841258210124103
 30
0.0
 11
1.363167037549503
 21
-0.5900754141981111
 31
0.0
  0
LINE
  5
1EE
330
2A
100
AcDbEntity
  8
ADP1DETAIL
100
AcDbLine
 10
1.363167037549503
 20
-0.5900754141981111
 30
0.0
 11
1.357217444363802
 21
-0.6177268579384414
 31
0.0
  0
LINE
  5
1EF
330
2A
100
AcDbEntity
  8
ADP1DETAIL
100
AcDbLine
 10
1.340819500024613
 20
-0.5564258881834157
 30
0.0
 11
1.335561125699568
 21
-0.584217064831007
 31
0.0
  0
LINE
  5
1F0
330
2A
100
AcDbEntity
  8
ADP1DETAIL
100
AcDbLine
 10
1.216898164786679
 20
-0.3970979737063107
 30
0.0
 11
1.215136257479263
 21
-0.4253273145176025
 31
0.0
  0
LINE
  5
1F1
330
2A
100
AcDbEntity
  8
ADP1DETAIL
100
AcDbLine
 10
1.289726368997412
 20
-0.5187800739465854
 30
0.0
 11
1.317640002556421
 21
-0.5233439606162058
 31
0.0
  0
LINE
  5
1F2
330
2A
100
AcDbEntity
  8
ADP1DETAIL
100
AcDbLine
 10
1.317640002556421
 20
-0.5233439606162058
 30
0.0
 11
1.313076115886799
 21
-0.5512575941752207
 31
0.0
  0
LINE
  5
1F3
330
2A
100
AcDbEntity
  8
ADP1DETAIL
100
AcDbLine
 10
1.265624216004008
 20
-0.4869836344756103
 30
0.0
 11
1.293642954354977
 21
-0.4908501964135575
 31
0.0
  0
LINE
  5
1F4
330
2A
100
AcDbEntity
  8
ADP1DETAIL
100
AcDbLine
 10
1.293642954354977
 20
-0.4908501964135575
 30
0.0
 11
1.289776392417026
 21
-0.5188689347645266
 31
0.0
  0
LINE
  5
1F5
330
2A
100
AcDbEntity
  8
ADP1DETAIL
100
AcDbLine
 10
1.240736847162756
 20
-0.4557979612568328
 30
0.0
 11
1.268843272849293
 21
-0.4589647948690186
 31
0.0
  0
LINE
  5
1F6
330
2A
100
AcDbEntity
  8
ADP1DETAIL
100
AcDbLine
 10
1.268843272849293
 20
-0.4589647948690186
 30
0.0
 11
1.265676439237106
 21
-0.4870712205555528
 31
0.0
  0
LINE
  5
1F7
330
2A
100
AcDbEntity
  8
ADP1DETAIL
100
AcDbLine
 10
1.215079733358033
 20
-0.4252424404273612
 30
0.0
 11
1.243256374414142
 21
-0.42770757709601
 31
0.0
  0
LINE
  5
1F8
330
2A
100
AcDbEntity
  8
ADP1DETAIL
100
AcDbLine
 10
1.243256374414142
 20
-0.42770757709601
 30
0.0
 11
1.240791237745495
 21
-0.4558842181521215
 31
0.0
  0
LINE
  5
1F9
330
2A
100
AcDbEntity
  8
ADP1DETAIL
100
AcDbLine
 10
1.188668823975389
 20
-0.3953360663988921
 30
0.0
 11
1.216898164786679
 21
-0.3970979737063107
 31
0.0
  0
LINE
  5
1FA
330
2A
100
AcDbEntity
  8
ADP1DETAIL
100
AcDbLine
 10
1.189785029178862
 20
-0.3671550127312813
 30
0.0
 11
1.188727446497685
 21
-0.3954195049232965
 31
0.0
  0
LINE
  5
1FB
330
2A
100
AcDbEntity
  8
ADP1DETAIL
100
AcDbLine
 10
1.313028323377023
 20
-0.551167513858367
 30
0.0
 11
1.340819500024613
 21
-0.5564258881834157
 31
0.0
  0
ENDBLK
  5
1FC
330
2A
100
AcDbEntity
  8
0
100
AcDbBlockEnd
  0
BLOCK
  5
1FD
330
2B
100
AcDbEntity
  8
0
100
AcDbBlockBegin
  2
*D1
 70
     1
 10
0.0
 20
0.0
 30
0.0
  3
*D1
  1

  0
LINE
  5
1FE
330
2B
100
AcDbEntity
  8
0
  6
BYBLOCK
 62
     0
100
AcDbLine
 10
9.450598316448962
 20
3.737369347287841
 30
0.0
 11
9.147899920221497
 21
3.737369347287841
 31
0.0
  0
LINE
  5
1FF
330
2B
100
AcDbEntity
  8
0
  6
BYBLOCK
 62
     0
100
AcDbLine
 10
9.450598316448962
 20
7.237369347287842
 30
0.0
 11
9.147899920221497
 21
7.237369347287842
 31
0.0
  0
LINE
  5
200
330
2B
100
AcDbEntity
  8
0
  6
BYBLOCK
 62
     0
100
AcDbLine
 10
9.327899920221497
 20
3.737369347287841
 30
0.0
 11
9.327899920221497
 21
5.091536013954508
 31
0.0
  0
LINE
  5
201
330
2B
100
AcDbEntity
  8
0
  6
BYBLOCK
 62
     0
100
AcDbLine
 10
9.327899920221497
 20
7.237369347287842
 30
0.0
 11
9.327899920221497
 21
5.883202680621174
 31
0.0
  0
LINE
  5
202
330
2B
100
AcDbEntity
  8
0
  6
BYBLOCK
 62
     0
100
AcDbLine
 10
9.452899920221497
 20
3.612369347287841
 30
0.0
 11
9.202899920221497
 21
3.862369347287841
 31
0.0
  0
LINE
  5
203
330
2B
100
AcDbEntity
  8
0
  6
BYBLOCK
 62
     0
100
AcDbLine
 10
9.452899920221497
 20
7.112369347287842
 30
0.0
 11
9.202899920221497
 21
7.362369347287842
 31
0.0
  0
TEXT
  5
204
330
2B
100
AcDbEntity
  8
0
  6
BYBLOCK
 62
     0
100
AcDbText
 10
9.390399920221497
 20
5.216536013954508
 30
0.0
 40
0.125
  1
3 1/2
 50
90.0
 72
     1
 11
9.327899920221497
 21
5.487369347287841
 31
0.0
100
AcDbText
 73
     2
  0
POINT
  5
206
330
2B
100
AcDbEntity
  8
DEFPOINTS
  6
BYBLOCK
 62
     0
100
AcDbPoint
 10
9.513098316448962
 20
3.737369347287841
 30
0.0
  0
POINT
  5
207
330
2B
100
AcDbEntity
  8
DEFPOINTS
  6
BYBLOCK
 62
     0
100
AcDbPoint
 10
9.513098316448962
 20
7.237369347287842
 30
0.0
  0
POINT
  5
208
330
2B
100
AcDbEntity
  8
DEFPOINTS
  6
BYBLOCK
 62
     0
100
AcDbPoint
 10
9.327899920221497
 20
7.237369347287842
 30
0.0
  0
ENDBLK
  5
209
330
2B
100
AcDbEntity
  8
0
100
AcDbBlockEnd
  0
BLOCK
  5
20A
330
2C
100
AcDbEntity
  8
0
100
AcDbBlockBegin
  2
*D2
 70
     1
 10
0.0
 20
0.0
 30
0.0
  3
*D2
  1

  0
LINE
  5
20B
330
2C
100
AcDbEntity
  8
0
  6
BYBLOCK
 62
     0
100
AcDbLine
 10
9.513098316448962
 20
3.674869347287841
 30
0.0
 11
9.513098316448962
 21
3.376829085972098
 31
0.0
  0
LINE
  5
20C
330
2C
100
AcDbEntity
  8
0
  6
BYBLOCK
 62
     0
100
AcDbLine
 10
9.638098316448962
 20
3.674869347287841
 30
0.0
 11
9.638098316448962
 21
3.376829085972098
 31
0.0
  0
LINE
  5
20D
330
2C
100
AcDbEntity
  8
0
  6
BYBLOCK
 62
     0
100
AcDbLine
 10
9.513098316448962
 20
3.556829085972098
 30
0.0
 11
9.263098316448962
 21
3.556829085972098
 31
0.0
  0
LINE
  5
20E
330
2C
100
AcDbEntity
  8
0
  6
BYBLOCK
 62
     0
100
AcDbLine
 10
9.638098316448962
 20
3.556829085972098
 30
0.0
 11
9.888098316448962
 21
3.556829085972098
 31
0.0
  0
LINE
  5
20F
330
2C
100
AcDbEntity
  8
0
  6
BYBLOCK
 62
     0
100
AcDbLine
 10
9.388098316448962
 20
3.431829085972098
 30
0.0
 11
9.638098316448962
 21
3.681829085972098
 31
0.0
  0
LINE
  5
210
330
2C
100
AcDbEntity
  8
0
  6
BYBLOCK
 62
     0
100
AcDbLine
 10
9.513098316448962
 20
3.431829085972098
 30
0.0
 11
9.763098316448962
 21
3.681829085972098
 31
0.0
  0
TEXT
  5
211
330
2C
100
AcDbEntity
  8
0
  6
BYBLOCK
 62
     0
100
AcDbText
 10
10.01309831644896
 20
3.494329085972098
 30
0.0
 40
0.125
  1
1/8
 72
     1
 11
10.15893164978229
 21
3.556829085972098
 31
0.0
100
AcDbText
 73
     2
  0
POINT
  5
212
330
2C
100
AcDbEntity
  8
DEFPOINTS
  6
BYBLOCK
 62
     0
100
AcDbPoint
 10
9.513098316448962
 20
3.737369347287841
 30
0.0
  0
POINT
  5
213
330
2C
100
AcDbEntity
  8
DEFPOINTS
  6
BYBLOCK
 62
     0
100
AcDbPoint
 10
9.638098316448962
 20
3.737369347287841
 30
0.0
  0
POINT
  5
214
330
2C
100
AcDbEntity
  8
DEFPOINTS
  6
BYBLOCK
 62
     0
100
AcDbPoint
 10
9.638098316448962
 20
3.556829085972098
 30
0.0
  0
ENDBLK
  5
215
330
2C
100
AcDbEntity
  8
0
100
AcDbBlockEnd
  0
ENDSEC
  0
SECTION
  2
ENTITIES
  0
INSERT
  5
216
330
1E
100
AcDbEntity
  8
ADP2DETAIL
  6
HIDDEN2
100
AcDbBlockReference
  2
CS
 10
7.205299051906937
 20
6.987369347287842
 30
0.0
  0
CIRCLE
  5
217
330
1E
100
AcDbEntity
  8
ADP1DETAIL
100
AcDbCircle
 10
7.205299051906937
 20
5.487369347287842
 30
0.0
 40
1.75
  0
LINE
  5
218
330
1E
100
AcDbEntity
  8
ADP1DETAIL
100
AcDbLine
 10
10.70059831644896
 20
4.043988769114591
 30
0.0
 11
10.70059831644896
 21
7.115922121697274
 31
0.0
  0
LINE
  5
219
330
1E
100
AcDbEntity
  8
ADP1DETAIL
100
AcDbLine
 10
10.76309831644896
 20
4.106488769114591
 30
0.0
 11
10.76309831644896
 21
7.053422121697274
 31
0.0
  0
LINE
  5
21A
330
1E
100
AcDbEntity
  8
ADP1DETAIL
100
AcDbLine
 10
9.513098316448962
 20
3.737369347287841
 30
0.0
 11
9.513098316448962
 21
7.237369347287842
 31
0.0
  0
LINE
  5
21B
330
1E
100
AcDbEntity
  8
ADP1DETAIL
100
AcDbLine
 10
9.638098316448962
 20
7.237369347287842
 30
0.0
 11
9.638098316448962
 21
3.737369347287841
 31
0.0
  0
DIMENSION
  5
21C
330
1E
100
AcDbEntity
  8
ADPDIM
100
AcDbDimension
  2
*D1
 10
9.327899920221497
 20
7.237369347287842
 30
0.0
 11
9.327899920221497
 21
5.487369347287841
 31
0.0
100
AcDbAlignedDimension
 13
9.513098316448962
 23
3.737369347287841
 33
0.0
 14
9.513098316448962
 24
7.237369347287842
 34
0.0
 50
90.0
100
AcDbRotatedDimension
  0
DIMENSION
  5
21D
330
1E
100
AcDbEntity
  8
ADPDIM
100
AcDbDimension
  2
*D2
 10
9.638098316448962
 20
3.556829085972098
 30
0.0
 11
10.15893164978229
 21
3.556829085972098
 31
0.0
100
AcDbAlignedDimension
 13
9.513098316448962
 23
3.737369347287841
 33
0.0
 14
9.638098316448962
 24
3.737369347287841
 34
0.0
100
AcDbRotatedDimension
  0
LINE
  5
21E
330
1E
100
AcDbEntity
  8
ADP1DETAIL
100
AcDbLine
 10
9.638098316448962
 20
3.737369347287841
 30
0.0
 11
9.513098316448962
 21
3.737369347287841
 31
0.0
  0
LINE
  5
21F
330
1E
100
AcDbEntity
  8
ADP2DETAIL
  6
HIDDEN2
100
AcDbLine
 10
9.638098316448962
 20
4.145324086222299
 30
0.0
 11
10.76309831644896
 21
4.145324086222299
 31
0.0
  0
LINE
  5
220
330
1E
100
AcDbEntity
  8
ADP1DETAIL
100
AcDbLine
 10
9.638098316448962
 20
4.043988769114591
 30
0.0
 11
10.70059831644896
 21
4.043988769114591
 31
0.0
  0
LINE
  5
221
330
1E
100
AcDbEntity
  8
ADP1DETAIL
100
AcDbLine
 10
10.70059831644896
 20
4.043988769114591
 30
0.0
 11
10.76309831644896
 21
4.106488769114591
 31
0.0
  0
LINE
  5
222
330
1E
100
AcDbEntity
  8
ADP1DETAIL
100
AcDbLine
 10
9.513098316448962
 20
7.237369347287842
 30
0.0
 11
9.638098316448962
 21
7.237369347287842
 31
0.0
  0
LINE
  5
223
330
1E
100
AcDbEntity
  8
ADP2DETAIL
  6
HIDDEN2
100
AcDbLine
 10
9.638098316448962
 20
6.975717582091967
 30
0.0
 11
10.76309831644896
 21
6.975717582091967
 31
0.0
  0
LINE
  5
224
330
1E
100
AcDbEntity
  8
ADP1DETAIL
100
AcDbLine
 10
9.638098316448962
 20
7.115922121697274
 30
0.0
 11
10.70059831644896
 21
7.115922121697274
 31
0.0
  0
LINE
  5
225
330
1E
100
AcDbEntity
  8
ADP1DETAIL
100
AcDbLine
 10
10.70059831644896
 20
7.115922121697274
 30
0.0
 11
10.76309831644896
 21
7.053422121697274
 31
0.0
  0
TEXT
  5
229
330
1E
100
AcDbEntity
  8
ADPDIM
100
AcDbText
 10
0.1415731039965031
 20
2.699642801164292
 30
0.0
 40
0.15625
  1
J U L I U S  B L U M  &  C O . ,  I N C .      ( 8 0 0 )  5 2 6 - 6 2 9 3        W W W . J U L I U S B L U M . C O M        P A R T  N o .  1 1 8 1
 41
1.25
  7
ARIAL_WIDE
 72
     1
 11
8.298734384692274
 21
2.855892801164292
 31
0.0
100
AcDbText
 73
     3
  0
ENDSEC
  0
SECTION
  2
OBJECTS
  0
DICTIONARY
  5
C
330
0
100
AcDbDictionary
  3
ACAD_GROUP
350
D
  3
ACAD_LAYOUT
350
19
  3
ACAD_MLINESTYLE
350
16
  3
ACAD_PLOTSETTINGS
350
18
  3
ACAD_PLOTSTYLENAME
350
E
  3
ACDBHEADERROUNDTRIPXREC
350
430
  3
ACDBVARIABLEDICTIONARY
350
29A
  0
DICTIONARY
  5
265
330
1E
100
AcDbDictionary
280
     1
  3
ACAD_LAYOUTSELFREF
360
452
  0
DICTIONARY
  5
267
330
1A
100
AcDbDictionary
280
     1
  3
ACAD_LAYOUTSELFREF
360
451
  0
DICTIONARY
  5
D
102
{ACAD_REACTORS
330
C
102
}
330
C
100
AcDbDictionary
  0
DICTIONARY
  5
19
102
{ACAD_REACTORS
330
C
102
}
330
C
100
AcDbDictionary
  0
DICTIONARY
  5
16
102
{ACAD_REACTORS
330
C
102
}
330
C
100
AcDbDictionary
  3
STANDARD
350
17
  0
DICTIONARY
  5
18
102
{ACAD_REACTORS
330
C
102
}
330
C
100
AcDbDictionary
  0
ACDBDICTIONARYWDFLT
  5
E
102
{ACAD_REACTORS
330
C
102
}
330
C
100
AcDbDictionary
281
     1
  3
Normal
350
F
100
AcDbDictionaryWithDefault
340
F
  0
DICTIONARY
  5
430
102
{ACAD_REACTORS
330
C
102
}
330
C
100
AcDbDictionary
  3
CEPSNTYPE
350
43A
  3
DIMSTYLEDATA
350
43E
  3
FINGERPRINTGUID
350
43B
  3
HYPERLINKBASE
350
433
  3
INSUNITS
350
439
  3
LAYOUTDICT
350
435
  3
LWETCUNION
350
438
  3
PLOTSETDICT
350
436
  3
PLOTSTYLNAMDICT
350
437
  3
PSVPSCALE
350
43D
  3
PUCSBASE
350
441
  3
PUCSORGBACK
350
447
  3
PUCSORGBOTTOM
350
443
  3
PUCSORGFRONT
350
446
  3
PUCSORGLEFT
350
444
  3
PUCSORGRIGHT
350
445
  3
PUCSORGTOP
350
442
  3
PUCSORTHOREF
350
43F
  3
PUCSORTHOVIEW
350
440
  3
STYLESHEET
350
434
  3
TSTACKALIGN
350
431
  3
TSTACKSIZE
350
432
  3
UCSBASE
350
44A
  3
UCSORGBACK
350
450
  3
UCSORGBOTTOM
350
44C
  3
UCSORGFRONT
350
44F
  3
UCSORGLEFT
350
44D
  3
UCSORGRIGHT
350
44E
  3
UCSORGTOP
350
44B
  3
UCSORTHOREF
350
448
  3
UCSORTHOVIEW
350
449
  3
VERSIONGUID
350
43C
  0
DICTIONARY
  5
29A
102
{ACAD_REACTORS
330
C
102
}
330
C
100
AcDbDictionary
  3
DIMASSOC
350
29C
  3
HIDETEXT
350
29B
  0
XRECORD
  5
452
102
{ACAD_REACTORS
330
265
102
}
330
265
100
AcDbXrecord
340
1E
  0
XRECORD
  5
451
102
{ACAD_REACTORS
330
267
102
}
330
267
100
AcDbXrecord
340
1A
  0
MLINESTYLE
  5
17
102
{ACAD_REACTORS
330
16
102
}
330
16
100
AcDbMlineStyle
  2
STANDARD
 70
     0
  3

 62
   256
 51
90.0
 52
90.0
 71
     2
 49
0.5
 62
   256
  6
BYLAYER
 49
-0.5
 62
   256
  6
BYLAYER
  0
ACDBPLACEHOLDER
  5
F
102
{ACAD_REACTORS
330
E
102
}
330
E
100
AcDbPlaceHolder
280
     0
  0
XRECORD
  5
43A
102
{ACAD_REACTORS
330
430
102
}
330
430
100
AcDbXrecord
 90
        0
  0
XRECORD
  5
43E
102
{ACAD_REACTORS
330
430
102
}
330
430
100
AcDbXrecord
1000
DSTYLE
1002
{
1070
   277
 70
     5
1070
   279
 70
     2
1002
}
  0
XRECORD
  5
43B
102
{ACAD_REACTORS
330
430
102
}
330
430
100
AcDbXrecord
  1
{F2F5CD7C-EA65-4530-9E30-9D9CDBDF6EF8}
  0
XRECORD
  5
433
102
{ACAD_REACTORS
330
430
102
}
330
430
100
AcDbXrecord
  1

  0
XRECORD
  5
439
102
{ACAD_REACTORS
330
430
102
}
330
430
100
AcDbXrecord
 90
        0
  0
XRECORD
  5
435
102
{ACAD_REACTORS
330
430
102
}
330
430
100
AcDbXrecord
340
19
  0
XRECORD
  5
438
102
{ACAD_REACTORS
330
430
102
}
330
430
100
AcDbXrecord
 90
    14877
  0
XRECORD
  5
436
102
{ACAD_REACTORS
330
430
102
}
330
430
100
AcDbXrecord
340
18
  0
XRECORD
  5
437
102
{ACAD_REACTORS
330
430
102
}
330
430
100
AcDbXrecord
340
E
  0
XRECORD
  5
43D
102
{ACAD_REACTORS
330
430
102
}
330
430
100
AcDbXrecord
 40
0.0
  0
XRECORD
  5
441
102
{ACAD_REACTORS
330
430
102
}
330
430
100
AcDbXrecord
340
0
  0
XRECORD
  5
447
102
{ACAD_REACTORS
330
430
102
}
330
430
100
AcDbXrecord
 10
0.0
 20
0.0
 30
0.0
  0
XRECORD
  5
443
102
{ACAD_REACTORS
330
430
102
}
330
430
100
AcDbXrecord
 10
0.0
 20
0.0
 30
0.0
  0
XRECORD
  5
446
102
{ACAD_REACTORS
330
430
102
}
330
430
100
AcDbXrecord
 10
0.0
 20
0.0
 30
0.0
  0
XRECORD
  5
444
102
{ACAD_REACTORS
330
430
102
}
330
430
100
AcDbXrecord
 10
0.0
 20
0.0
 30
0.0
  0
XRECORD
  5
445
102
{ACAD_REACTORS
330
430
102
}
330
430
100
AcDbXrecord
 10
0.0
 20
0.0
 30
0.0
  0
XRECORD
  5
442
102
{ACAD_REACTORS
330
430
102
}
330
430
100
AcDbXrecord
 10
0.0
 20
0.0
 30
0.0
  0
XRECORD
  5
43F
102
{ACAD_REACTORS
330
430
102
}
330
430
100
AcDbXrecord
340
0
  0
XRECORD
  5
440
102
{ACAD_REACTORS
330
430
102
}
330
430
100
AcDbXrecord
 70
     0
  0
XRECORD
  5
434
102
{ACAD_REACTORS
330
430
102
}
330
430
100
AcDbXrecord
  1

  0
XRECORD
  5
431
102
{ACAD_REACTORS
330
430
102
}
330
430
100
AcDbXrecord
 90
        1
  0
XRECORD
  5
432
102
{ACAD_REACTORS
330
430
102
}
330
430
100
AcDbXrecord
 90
       70
  0
XRECORD
  5
44A
102
{ACAD_REACTORS
330
430
102
}
330
430
100
AcDbXrecord
340
0
  0
XRECORD
  5
450
102
{ACAD_REACTORS
330
430
102
}
330
430
100
AcDbXrecord
 10
0.0
 20
0.0
 30
0.0
  0
XRECORD
  5
44C
102
{ACAD_REACTORS
330
430
102
}
330
430
100
AcDbXrecord
 10
0.0
 20
0.0
 30
0.0
  0
XRECORD
  5
44F
102
{ACAD_REACTORS
330
430
102
}
330
430
100
AcDbXrecord
 10
0.0
 20
0.0
 30
0.0
  0
XRECORD
  5
44D
102
{ACAD_REACTORS
330
430
102
}
330
430
100
AcDbXrecord
 10
0.0
 20
0.0
 30
0.0
  0
XRECORD
  5
44E
102
{ACAD_REACTORS
330
430
102
}
330
430
100
AcDbXrecord
 10
0.0
 20
0.0
 30
0.0
  0
XRECORD
  5
44B
102
{ACAD_REACTORS
330
430
102
}
330
430
100
AcDbXrecord
 10
0.0
 20
0.0
 30
0.0
  0
XRECORD
  5
448
102
{ACAD_REACTORS
330
430
102
}
330
430
100
AcDbXrecord
340
0
  0
XRECORD
  5
449
102
{ACAD_REACTORS
330
430
102
}
330
430
100
AcDbXrecord
 70
     0
  0
XRECORD
  5
43C
102
{ACAD_REACTORS
330
430
102
}
330
430
100
AcDbXrecord
  1
{C363126F-5FBC-4888-87F1-6233014B71A6}
  0
DICTIONARYVAR
  5
29C
102
{ACAD_REACTORS
330
29A
102
}
330
29A
100
DictionaryVariables
280
     0
  1
2
  0
DICTIONARYVAR
  5
29B
102
{ACAD_REACTORS
330
29A
102
}
330
29A
100
DictionaryVariables
280
     0
  1
1
  0
ENDSEC
  0
EOF
