  0
SECTION
  2
HEADER
  9
$ACADVER
  1
AC1014
  9
$ACADMAINTVER
 70
     9
  9
$DWGCODEPAGE
  3
ANSI_1252
  9
$INSBASE
 10
10.82187017651893
 20
3.099833205666046
 30
0.0
  9
$EXTMIN
 10
5.258188649111042
 20
2.15756269027606
 30
0.0
  9
$EXTMAX
 10
18.30964669822427
 20
6.212838014601444
 30
0.0
  9
$LIMMIN
 10
0.0
 20
0.0
  9
$LIMMAX
 10
36.0
 20
36.0
  9
$ORTHOMODE
 70
     1
  9
$REGENMODE
 70
     1
  9
$FILLMODE
 70
     1
  9
$QTEXTMODE
 70
     0
  9
$MIRRTEXT
 70
     1
  9
$DRAGMODE
 70
     0
  9
$LTSCALE
 40
1.0
  9
$OSMODE
 70
    37
  9
$ATTMODE
 70
     1
  9
$TEXTSIZE
 40
0.2
  9
$TRACEWID
 40
0.05
  9
$TEXTSTYLE
  7
STANDARD
  9
$CLAYER
  8
ADPDIM
  9
$CELTYPE
  6
BYLAYER
  9
$CECOLOR
 62
   256
  9
$CELTSCALE
 40
1.0
  9
$DELOBJ
 70
     1
  9
$DISPSILH
 70
     0
  9
$DIMSCALE
 40
1.0
  9
$DIMASZ
 40
0.125
  9
$DIMEXO
 40
0.0625
  9
$DIMDLI
 40
0.38
  9
$DIMRND
 40
0.0
  9
$DIMDLE
 40
0.0
  9
$DIMEXE
 40
0.18
  9
$DIMTP
 40
0.0
  9
$DIMTM
 40
0.0
  9
$DIMTXT
 40
0.125
  9
$DIMCEN
 40
0.1875
  9
$DIMTSZ
 40
0.125
  9
$DIMTOL
 70
     0
  9
$DIMLIM
 70
     0
  9
$DIMTIH
 70
     0
  9
$DIMTOH
 70
     0
  9
$DIMSE1
 70
     0
  9
$DIMSE2
 70
     0
  9
$DIMTAD
 70
     0
  9
$DIMZIN
 70
     3
  9
$DIMBLK
  1

  9
$DIMASO
 70
     1
  9
$DIMSHO
 70
     1
  9
$DIMPOST
  1

  9
$DIMAPOST
  1

  9
$DIMALT
 70
     0
  9
$DIMALTD
 70
     1
  9
$DIMALTF
 40
25.4
  9
$DIMLFAC
 40
1.0
  9
$DIMTOFL
 70
     0
  9
$DIMTVP
 40
0.0
  9
$DIMTIX
 70
     0
  9
$DIMSOXD
 70
     0
  9
$DIMSAH
 70
     0
  9
$DIMBLK1
  1

  9
$DIMBLK2
  1

  9
$DIMSTYLE
  2
STANDARD
  9
$DIMCLRD
 70
     0
  9
$DIMCLRE
 70
     0
  9
$DIMCLRT
 70
     0
  9
$DIMTFAC
 40
1.0
  9
$DIMGAP
 40
0.125
  9
$DIMJUST
 70
     0
  9
$DIMSD1
 70
     0
  9
$DIMSD2
 70
     0
  9
$DIMTOLJ
 70
     1
  9
$DIMTZIN
 70
     3
  9
$DIMALTZ
 70
     3
  9
$DIMALTTZ
 70
     3
  9
$DIMFIT
 70
     5
  9
$DIMUPT
 70
     0
  9
$DIMUNIT
 70
     5
  9
$DIMDEC
 70
     4
  9
$DIMTDEC
 70
     4
  9
$DIMALTU
 70
     5
  9
$DIMALTTD
 70
     1
  9
$DIMTXSTY
  7
STANDARD
  9
$DIMAUNIT
 70
     0
  9
$LUNITS
 70
     5
  9
$LUPREC
 70
     4
  9
$SKETCHINC
 40
0.1
  9
$FILLETRAD
 40
0.05
  9
$AUNITS
 70
     0
  9
$AUPREC
 70
     0
  9
$MENU
  1
acad
  9
$ELEVATION
 40
0.0
  9
$PELEVATION
 40
0.0
  9
$THICKNESS
 40
0.0
  9
$LIMCHECK
 70
     0
  9
$BLIPMODE
 70
     0
  9
$CHAMFERA
 40
0.0
  9
$CHAMFERB
 40
0.0
  9
$CHAMFERC
 40
0.0
  9
$CHAMFERD
 40
0.0
  9
$SKPOLY
 70
     0
  9
$TDCREATE
 40
2450415.462716620
  9
$TDUPDATE
 40
2452297.079815717
  9
$TDINDWG
 40
0.0292469444
  9
$TDUSRTIMER
 40
0.0292469444
  9
$USRTIMER
 70
     1
  9
$ANGBASE
 50
0.0
  9
$ANGDIR
 70
     0
  9
$PDMODE
 70
     0
  9
$PDSIZE
 40
0.0
  9
$PLINEWID
 40
0.0
  9
$COORDS
 70
     2
  9
$SPLFRAME
 70
     0
  9
$SPLINETYPE
 70
     6
  9
$SPLINESEGS
 70
     8
  9
$ATTDIA
 70
     0
  9
$ATTREQ
 70
     1
  9
$HANDLING
 70
 22529
  9
$HANDSEED
  5
404
  9
$SURFTAB1
 70
     6
  9
$SURFTAB2
 70
     6
  9
$SURFTYPE
 70
     6
  9
$SURFU
 70
     6
  9
$SURFV
 70
     6
  9
$UCSNAME
  2

  9
$UCSORG
 10
0.0
 20
0.0
 30
0.0
  9
$UCSXDIR
 10
1.0
 20
0.0
 30
0.0
  9
$UCSYDIR
 10
0.0
 20
1.0
 30
0.0
  9
$PUCSNAME
  2

  9
$PUCSORG
 10
0.0
 20
0.0
 30
0.0
  9
$PUCSXDIR
 10
1.0
 20
0.0
 30
0.0
  9
$PUCSYDIR
 10
0.0
 20
1.0
 30
0.0
  9
$USERI1
 70
     0
  9
$USERI2
 70
     0
  9
$USERI3
 70
     0
  9
$USERI4
 70
     0
  9
$USERI5
 70
     0
  9
$USERR1
 40
0.0
  9
$USERR2
 40
0.0
  9
$USERR3
 40
0.0
  9
$USERR4
 40
0.0
  9
$USERR5
 40
0.0
  9
$WORLDVIEW
 70
     1
  9
$SHADEDGE
 70
     3
  9
$SHADEDIF
 70
    70
  9
$TILEMODE
 70
     1
  9
$MAXACTVP
 70
    15
  9
$PINSBASE
 10
0.0
 20
0.0
 30
0.0
  9
$PLIMCHECK
 70
     0
  9
$PEXTMIN
 10
1.000000000000000E+20
 20
1.000000000000000E+20
 30
1.000000000000000E+20
  9
$PEXTMAX
 10
-1.000000000000000E+20
 20
-1.000000000000000E+20
 30
-1.000000000000000E+20
  9
$PLIMMIN
 10
0.0
 20
0.0
  9
$PLIMMAX
 10
12.0
 20
9.0
  9
$UNITMODE
 70
     0
  9
$VISRETAIN
 70
     0
  9
$PLINEGEN
 70
     0
  9
$PSLTSCALE
 70
     1
  9
$TREEDEPTH
 70
  3020
  9
$PICKSTYLE
 70
     1
  9
$CMLSTYLE
  2
STANDARD
  9
$CMLJUST
 70
     0
  9
$CMLSCALE
 40
1.0
  9
$PROXYGRAPHICS
 70
     1
  9
$MEASUREMENT
 70
     0
  0
ENDSEC
  0
SECTION
  2
CLASSES
  0
CLASS
  1
ACDBDICTIONARYWDFLT
  2
AcDbDictionaryWithDefault
  3
AutoCAD 2000
 90
        0
280
     0
281
     0
  0
CLASS
  1
ACDBPLACEHOLDER
  2
AcDbPlaceHolder
  3
AutoCAD 2000
 90
        0
280
     0
281
     0
  0
CLASS
  1
LAYOUT
  2
AcDbLayout
  3
AutoCAD 2000
 90
        0
280
     0
281
     0
  0
CLASS
  1
DICTIONARYVAR
  2
AcDbDictionaryVar
  3
AutoCAD 2000
 90
        0
280
     0
281
     0
  0
CLASS
  1
LONG_TRANSACTION
  2
AcDbLongTransaction
  3
AutoCAD 2000
 90
        0
280
     0
281
     0
  0
CLASS
  1
LWPOLYLINE
  2
AcDbPolyline
  3
AutoCAD 2000
 90
        0
280
     0
281
     1
  0
CLASS
  1
HATCH
  2
AcDbHatch
  3
AutoCAD 2000
 90
        0
280
     0
281
     1
  0
CLASS
  1
XRECORD
  2
AcDbXrecord
  3
AutoCAD 2000
 90
        0
280
     0
281
     0
  0
CLASS
  1
LONG_TRANSACTION
  2
AcDbLongTransaction
  3
AutoCAD 2000
 90
        0
280
     0
281
     0
  0
CLASS
  1
LWPOLYLINE
  2
AcDbPolyline
  3
AutoCAD 2000
 90
        0
280
     0
281
     1
  0
CLASS
  1
HATCH
  2
AcDbHatch
  3
AutoCAD 2000
 90
        0
280
     0
281
     1
  0
CLASS
  1
XRECORD
  2
AcDbXrecord
  3
AutoCAD 2000
 90
        0
280
     0
281
     0
  0
CLASS
  1
LONG_TRANSACTION
  2
AcDbLongTransaction
  3
AutoCAD 2000
 90
        0
280
     0
281
     0
  0
CLASS
  1
LWPOLYLINE
  2
AcDbPolyline
  3
AutoCAD 2000
 90
        0
280
     0
281
     1
  0
CLASS
  1
HATCH
  2
AcDbHatch
  3
AutoCAD 2000
 90
        0
280
     0
281
     1
  0
CLASS
  1
XRECORD
  2
AcDbXrecord
  3
AutoCAD 2000
 90
        0
280
     0
281
     0
  0
CLASS
  1
LONG_TRANSACTION
  2
AcDbLongTransaction
  3
AutoCAD 2000
 90
        0
280
     0
281
     0
  0
CLASS
  1
LWPOLYLINE
  2
AcDbPolyline
  3
AutoCAD 2000
 90
        0
280
     0
281
     1
  0
CLASS
  1
HATCH
  2
AcDbHatch
  3
AutoCAD 2000
 90
        0
280
     0
281
     1
  0
CLASS
  1
XRECORD
  2
AcDbXrecord
  3
AutoCAD 2000
 90
        0
280
     0
281
     0
  0
CLASS
  1
LONG_TRANSACTION
  2
AcDbLongTransaction
  3
AutoCAD 2000
 90
        0
280
     0
281
     0
  0
CLASS
  1
LWPOLYLINE
  2
AcDbPolyline
  3
AutoCAD 2000
 90
        0
280
     0
281
     1
  0
CLASS
  1
HATCH
  2
AcDbHatch
  3
AutoCAD 2000
 90
        0
280
     0
281
     1
  0
CLASS
  1
XRECORD
  2
AcDbXrecord
  3
AutoCAD 2000
 90
        0
280
     0
281
     0
  0
CLASS
  1
LONG_TRANSACTION
  2
AcDbLongTransaction
  3
AutoCAD 2000
 90
        0
280
     0
281
     0
  0
CLASS
  1
LWPOLYLINE
  2
AcDbPolyline
  3
AutoCAD 2000
 90
        0
280
     0
281
     1
  0
CLASS
  1
HATCH
  2
AcDbHatch
  3
AutoCAD 2000
 90
        0
280
     0
281
     1
  0
CLASS
  1
XRECORD
  2
AcDbXrecord
  3
AutoCAD 2000
 90
        0
280
     0
281
     0
  0
ENDSEC
  0
SECTION
  2
TABLES
  0
TABLE
  2
VPORT
  5
8
330
0
100
AcDbSymbolTable
 70
     2
  0
VPORT
  5
3E0
330
8
100
AcDbSymbolTableRecord
100
AcDbViewportTableRecord
  2
*ACTIVE
 70
     0
 10
0.0
 20
0.0
 11
1.0
 21
1.0
 12
11.79364766371125
 22
4.1846924505484
 13
0.0
 23
0.0
 14
0.5740882589684922
 24
0.5740882589684922
 15
0.5
 25
0.5
 16
0.0
 26
0.0
 36
1.0
 17
0.0
 27
0.0
 37
0.0
 40
8.365595802020571
 41
1.570528967254408
 42
50.0
 43
0.0
 44
0.0
 50
0.0
 51
0.0
 71
     0
 72
   100
 73
     1
 74
     0
 75
     0
 76
     0
 77
     0
 78
     0
  0
ENDTAB
  0
TABLE
  2
LTYPE
  5
5
330
0
100
AcDbSymbolTable
 70
     2
  0
LTYPE
  5
13
330
5
100
AcDbSymbolTableRecord
100
AcDbLinetypeTableRecord
  2
BYBLOCK
 70
     0
  3

 72
    65
 73
     0
 40
0.0
  0
LTYPE
  5
14
330
5
100
AcDbSymbolTableRecord
100
AcDbLinetypeTableRecord
  2
BYLAYER
 70
     0
  3

 72
    65
 73
     0
 40
0.0
  0
LTYPE
  5
15
330
5
100
AcDbSymbolTableRecord
100
AcDbLinetypeTableRecord
  2
CONTINUOUS
 70
     0
  3
Solid line
 72
    65
 73
     0
 40
0.0
  0
LTYPE
  5
26
330
5
100
AcDbSymbolTableRecord
100
AcDbLinetypeTableRecord
  2
HIDDEN2
 70
     0
  3
_ _ _ _ _ _ _ _ _ _ _ _ _ _ _ _ _ _ _ _ _ _ _ _
 72
    65
 73
     2
 40
0.1875
 49
0.125
 74
     0
 49
-0.0625
 74
     0
  0
ENDTAB
  0
TABLE
  2
LAYER
  5
2
330
0
100
AcDbSymbolTable
 70
     5
  0
LAYER
  5
10
330
2
100
AcDbSymbolTableRecord
100
AcDbLayerTableRecord
  2
0
 70
     0
 62
     7
  6
CONTINUOUS
  0
LAYER
  5
28
330
2
100
AcDbSymbolTableRecord
100
AcDbLayerTableRecord
  2
ADP2DETAIL
 70
     0
 62
     5
  6
CONTINUOUS
  0
LAYER
  5
29
330
2
100
AcDbSymbolTableRecord
100
AcDbLayerTableRecord
  2
ADPDIM
 70
     0
 62
     3
  6
CONTINUOUS
  0
LAYER
  5
2A
330
2
100
AcDbSymbolTableRecord
100
AcDbLayerTableRecord
  2
ADP1DETAIL
 70
     0
 62
     7
  6
CONTINUOUS
  0
LAYER
  5
2B
330
2
100
AcDbSymbolTableRecord
100
AcDbLayerTableRecord
  2
DEFPOINTS
 70
     0
 62
     7
  6
CONTINUOUS
  0
ENDTAB
  0
TABLE
  2
STYLE
  5
3
330
0
100
AcDbSymbolTable
 70
     2
  0
STYLE
  5
11
330
3
100
AcDbSymbolTableRecord
100
AcDbTextStyleTableRecord
  2
STANDARD
 70
     0
 40
0.0
 41
1.0
 50
0.0
 71
     0
 42
0.2
  3
txt
  4

  0
STYLE
  5
213
330
3
100
AcDbSymbolTableRecord
100
AcDbTextStyleTableRecord
  2
ARIAL_WIDE
 70
     0
 40
0.0
 41
1.25
 50
0.0
 71
     0
 42
0.2
  3
ARIAL.TTF
  4

1001
ACAD
1000
Arial
1071
       34
  0
ENDTAB
  0
TABLE
  2
VIEW
  5
6
330
0
100
AcDbSymbolTable
 70
     0
  0
ENDTAB
  0
TABLE
  2
UCS
  5
7
330
0
100
AcDbSymbolTable
 70
     0
  0
ENDTAB
  0
TABLE
  2
APPID
  5
9
330
0
100
AcDbSymbolTable
 70
     1
  0
APPID
  5
12
330
9
100
AcDbSymbolTableRecord
100
AcDbRegAppTableRecord
  2
ACAD
 70
     0
  0
ENDTAB
  0
TABLE
  2
DIMSTYLE
  5
A
330
0
100
AcDbSymbolTable
 70
     1
  0
DIMSTYLE
105
211
330
A
100
AcDbSymbolTableRecord
100
AcDbDimStyleTableRecord
  2
STANDARD
 70
     0
  3

  4

  5

  6

  7

 40
1.0
 41
0.18
 42
0.0625
 43
0.38
 44
0.18
 45
0.0
 46
0.0
 47
0.0
 48
0.0
140
0.18
141
0.09
142
0.0
143
25.4
144
1.0
145
0.0
146
1.0
147
0.09
 71
     0
 72
     0
 73
     1
 74
     1
 75
     0
 76
     0
 77
     0
 78
     0
170
     0
171
     2
172
     0
173
     0
174
     0
175
     0
176
     0
177
     0
178
     0
270
     2
271
     4
272
     4
273
     2
274
     2
340
11
275
     0
280
     0
281
     0
282
     0
283
     1
284
     0
285
     0
286
     0
287
     3
288
     0
  0
ENDTAB
  0
TABLE
  2
BLOCK_RECORD
  5
1
330
0
100
AcDbSymbolTable
 70
     2
  0
BLOCK_RECORD
  5
1E
102
{ACAD_XDICTIONARY
360
250
102
}
330
1
100
AcDbSymbolTableRecord
100
AcDbBlockTableRecord
  2
*MODEL_SPACE
  0
BLOCK_RECORD
  5
1A
102
{ACAD_XDICTIONARY
360
252
102
}
330
1
100
AcDbSymbolTableRecord
100
AcDbBlockTableRecord
  2
*PAPER_SPACE
  0
BLOCK_RECORD
  5
24
330
1
100
AcDbSymbolTableRecord
100
AcDbBlockTableRecord
  2
*D0
  0
BLOCK_RECORD
  5
25
330
1
100
AcDbSymbolTableRecord
100
AcDbBlockTableRecord
  2
*D1
  0
ENDTAB
  0
ENDSEC
  0
SECTION
  2
BLOCKS
  0
BLOCK
  5
2E
330
1E
100
AcDbEntity
  8
0
100
AcDbBlockBegin
  2
*MODEL_SPACE
 70
     0
 10
0.0
 20
0.0
 30
0.0
  3
*MODEL_SPACE
  1

  0
ENDBLK
  5
2F
330
1E
100
AcDbEntity
  8
0
100
AcDbBlockEnd
  0
BLOCK
  5
2C
330
1A
100
AcDbEntity
 67
     1
  8
0
100
AcDbBlockBegin
  2
*PAPER_SPACE
 70
     0
 10
0.0
 20
0.0
 30
0.0
  3
*PAPER_SPACE
  1

  0
ENDBLK
  5
2D
330
1A
100
AcDbEntity
 67
     1
  8
0
100
AcDbBlockEnd
  0
BLOCK
  5
49
330
24
100
AcDbEntity
  8
0
100
AcDbBlockBegin
  2
*D0
 70
     1
 10
0.0
 20
0.0
 30
0.0
  3
*D0
  1

  0
LINE
  5
4A
330
24
100
AcDbEntity
  8
0
  6
BYBLOCK
 62
     0
100
AcDbLine
 10
7.683609206157548
 20
4.482103000776125
 30
0.0
 11
7.683609206157548
 21
6.178259240963901
 31
0.0
  0
LINE
  5
4B
330
24
100
AcDbEntity
  8
0
  6
BYBLOCK
 62
     0
100
AcDbLine
 10
10.42823611680189
 20
4.442811614806073
 30
0.0
 11
10.42823611680189
 21
6.178259240963901
 31
0.0
  0
LINE
  5
4C
330
24
100
AcDbEntity
  8
0
  6
BYBLOCK
 62
     0
100
AcDbLine
 10
7.683609206157548
 20
5.998259240963901
 30
0.0
 11
8.639255994813053
 21
5.998259240963901
 31
0.0
  0
LINE
  5
4D
330
24
100
AcDbEntity
  8
0
  6
BYBLOCK
 62
     0
100
AcDbLine
 10
10.42823611680189
 20
5.998259240963901
 30
0.0
 11
9.472589328146385
 21
5.998259240963901
 31
0.0
  0
LINE
  5
4E
330
24
100
AcDbEntity
  8
0
  6
BYBLOCK
 62
     0
100
AcDbLine
 10
7.558609206157548
 20
5.873259240963901
 30
0.0
 11
7.808609206157548
 21
6.123259240963901
 31
0.0
  0
LINE
  5
4F
330
24
100
AcDbEntity
  8
0
  6
BYBLOCK
 62
     0
100
AcDbLine
 10
10.30323611680189
 20
5.873259240963901
 30
0.0
 11
10.55323611680189
 21
6.123259240963901
 31
0.0
  0
TEXT
  5
50
330
24
100
AcDbEntity
  8
0
  6
BYBLOCK
 62
     0
100
AcDbText
 10
8.764255994813053
 20
5.935759240963901
 30
0.0
 40
0.125
  1
2 3/4
 72
     1
 11
9.055922661479719
 21
5.998259240963901
 31
0.0
100
AcDbText
 73
     2
  0
POINT
  5
51
330
24
100
AcDbEntity
  8
DEFPOINTS
  6
BYBLOCK
 62
     0
100
AcDbPoint
 10
7.683609206157548
 20
4.419603000776125
 30
0.0
  0
POINT
  5
52
330
24
100
AcDbEntity
  8
DEFPOINTS
  6
BYBLOCK
 62
     0
100
AcDbPoint
 10
10.42823611680189
 20
4.380311614806073
 30
0.0
  0
POINT
  5
53
330
24
100
AcDbEntity
  8
DEFPOINTS
  6
BYBLOCK
 62
     0
100
AcDbPoint
 10
10.42823611680189
 20
5.998259240963901
 30
0.0
  0
ENDBLK
  5
54
330
24
100
AcDbEntity
  8
0
100
AcDbBlockEnd
  0
BLOCK
  5
55
330
25
100
AcDbEntity
  8
0
100
AcDbBlockBegin
  2
*D1
 70
     1
 10
0.0
 20
0.0
 30
0.0
  3
*D1
  1

  0
LINE
  5
56
330
25
100
AcDbEntity
  8
0
  6
BYBLOCK
 62
     0
100
AcDbLine
 10
10.75937017651892
 20
5.757972476582438
 30
0.0
 11
10.75937017651892
 21
6.212838014601444
 31
0.0
  0
LINE
  5
57
330
25
100
AcDbEntity
  8
0
  6
BYBLOCK
 62
     0
100
AcDbLine
 10
15.75937017651892
 20
5.757972476582438
 30
0.0
 11
15.75937017651892
 21
6.212838014601444
 31
0.0
  0
LINE
  5
58
330
25
100
AcDbEntity
  8
0
  6
BYBLOCK
 62
     0
100
AcDbLine
 10
10.75937017651892
 20
6.032838014601444
 30
0.0
 11
13.09270350985226
 21
6.032838014601444
 31
0.0
  0
LINE
  5
59
330
25
100
AcDbEntity
  8
0
  6
BYBLOCK
 62
     0
100
AcDbLine
 10
15.75937017651892
 20
6.032838014601444
 30
0.0
 11
13.42603684318559
 21
6.032838014601444
 31
0.0
  0
LINE
  5
5A
330
25
100
AcDbEntity
  8
0
  6
BYBLOCK
 62
     0
100
AcDbLine
 10
10.63437017651893
 20
5.907838014601444
 30
0.0
 11
10.88437017651892
 21
6.157838014601444
 31
0.0
  0
LINE
  5
5B
330
25
100
AcDbEntity
  8
0
  6
BYBLOCK
 62
     0
100
AcDbLine
 10
15.63437017651892
 20
5.907838014601444
 30
0.0
 11
15.88437017651892
 21
6.157838014601444
 31
0.0
  0
TEXT
  5
5C
330
25
100
AcDbEntity
  8
0
  6
BYBLOCK
 62
     0
100
AcDbText
 10
13.21770350985226
 20
5.970338014601444
 30
0.0
 40
0.125
  1
5
 72
     1
 11
13.25937017651892
 21
6.032838014601444
 31
0.0
100
AcDbText
 73
     2
  0
POINT
  5
5D
330
25
100
AcDbEntity
  8
DEFPOINTS
  6
BYBLOCK
 62
     0
100
AcDbPoint
 10
10.75937017651892
 20
5.695472476582438
 30
0.0
  0
POINT
  5
5E
330
25
100
AcDbEntity
  8
DEFPOINTS
  6
BYBLOCK
 62
     0
100
AcDbPoint
 10
15.75937017651892
 20
5.695472476582438
 30
0.0
  0
POINT
  5
5F
330
25
100
AcDbEntity
  8
DEFPOINTS
  6
BYBLOCK
 62
     0
100
AcDbPoint
 10
15.75937017651892
 20
6.032838014601444
 30
0.0
  0
ENDBLK
  5
60
330
25
100
AcDbEntity
  8
0
100
AcDbBlockEnd
  0
ENDSEC
  0
SECTION
  2
ENTITIES
  0
LINE
  5
61
330
1E
100
AcDbEntity
  8
ADP1DETAIL
100
AcDbLine
 10
15.69687017651892
 20
5.757972476582438
 30
0.0
 11
10.82187017651893
 21
5.757972476582438
 31
0.0
  0
DIMENSION
  5
62
330
1E
100
AcDbEntity
  8
ADPDIM
100
AcDbDimension
  2
*D1
 10
15.75937017651892
 20
6.032838014601444
 30
0.0
 11
13.25937017651892
 21
6.032838014601444
 31
0.0
100
AcDbAlignedDimension
 13
10.75937017651892
 23
5.695472476582438
 33
0.0
 14
15.75937017651892
 24
5.695472476582438
 34
0.0
100
AcDbRotatedDimension
  0
LINE
  5
63
330
1E
100
AcDbEntity
  8
ADP2DETAIL
  6
HIDDEN2
100
AcDbLine
 10
10.75937017651892
 20
3.187847412928677
 30
0.0
 11
15.75937017651892
 21
3.187847412928677
 31
0.0
  0
LINE
  5
64
330
1E
100
AcDbEntity
  8
ADP1DETAIL
100
AcDbLine
 10
10.82187017651893
 20
3.099833205666046
 30
0.0
 11
15.69687017651892
 21
3.099833205666046
 31
0.0
  0
DIMENSION
  5
65
330
1E
100
AcDbEntity
  8
ADPDIM
100
AcDbDimension
  2
*D0
 10
10.42823611680189
 20
5.998259240963901
 30
0.0
 11
9.055922661479719
 21
5.998259240963901
 31
0.0
100
AcDbAlignedDimension
 13
7.683609206157548
 23
4.419603000776125
 33
0.0
 14
10.42823611680189
 24
4.380311614806073
 34
0.0
100
AcDbRotatedDimension
  0
ARC
  5
66
330
1E
100
AcDbEntity
  8
ADP1DETAIL
100
AcDbCircle
 10
9.055636906307876
 20
4.356132113446033
 30
0.0
 40
1.252875575662773
100
AcDbArc
 50
291.316816588144
 51
248.6831834118559
  0
ARC
  5
67
330
1E
100
AcDbEntity
  8
ADP1DETAIL
100
AcDbCircle
 10
9.528957882968569
 20
3.142990359336409
 30
0.0
 40
0.0477285933585819
100
AcDbArc
 50
198.8734063496249
 51
290.9385662574633
  0
LINE
  5
68
330
1E
100
AcDbEntity
  8
ADP1DETAIL
100
AcDbLine
 10
9.537324781871847
 20
5.6450405596586
 30
0.0
 11
9.562116037929127
 21
5.655734463659419
 31
0.0
  0
LINE
  5
69
330
1E
100
AcDbEntity
  8
ADP1DETAIL
100
AcDbLine
 10
7.790393102188489
 20
3.898833209255598
 30
0.0
 11
7.765923363260175
 21
3.910243635910923
 31
0.0
  0
LINE
  5
6A
330
1E
100
AcDbEntity
  8
ADP1DETAIL
100
AcDbLine
 10
8.200485230394487
 20
3.330674952746213
 30
0.0
 11
8.173588601530932
 21
3.328321802633587
 31
0.0
  0
LINE
  5
6B
330
1E
100
AcDbEntity
  8
ADP1DETAIL
100
AcDbLine
 10
8.200485230394489
 20
3.330674952746213
 30
0.0
 11
8.173588601530934
 21
3.328321802633587
 31
0.0
  0
LINE
  5
6C
330
1E
100
AcDbEntity
  8
ADP1DETAIL
100
AcDbLine
 10
7.873487880887878
 20
3.720539367223933
 30
0.0
 11
7.847622767956355
 21
3.728282873711044
 31
0.0
  0
LINE
  5
6D
330
1E
100
AcDbEntity
  8
ADP1DETAIL
100
AcDbLine
 10
7.804922859842648
 20
3.862237505123896
 30
0.0
 11
7.78013160378537
 21
3.872931409124718
 31
0.0
  0
LINE
  5
6E
330
1E
100
AcDbEntity
  8
ADP1DETAIL
100
AcDbLine
 10
7.78013160378537
 20
3.872931409124718
 30
0.0
 11
7.790825507786189
 21
3.897722665181999
 31
0.0
  0
LINE
  5
6F
330
1E
100
AcDbEntity
  8
ADP1DETAIL
100
AcDbLine
 10
7.820510846445905
 20
3.826079876716597
 30
0.0
 11
7.795419049137332
 21
3.836048209952496
 31
0.0
  0
LINE
  5
70
330
1E
100
AcDbEntity
  8
ADP1DETAIL
100
AcDbLine
 10
7.795419049137332
 20
3.836048209952496
 30
0.0
 11
7.80538738237323
 21
3.861140007261068
 31
0.0
  0
LINE
  5
71
330
1E
100
AcDbEntity
  8
ADP1DETAIL
100
AcDbLine
 10
7.837143873005353
 20
3.790390916997151
 30
0.0
 11
7.811772764611065
 21
3.799625245263013
 31
0.0
  0
LINE
  5
72
330
1E
100
AcDbEntity
  8
ADP1DETAIL
100
AcDbLine
 10
7.811772764611065
 20
3.799625245263013
 30
0.0
 11
7.821007092876928
 21
3.824996353657303
 31
0.0
  0
LINE
  5
73
330
1E
100
AcDbEntity
  8
ADP1DETAIL
100
AcDbLine
 10
7.854807866319957
 20
3.755200822388509
 30
0.0
 11
7.829178913330595
 21
3.763693332520708
 31
0.0
  0
LINE
  5
74
330
1E
100
AcDbEntity
  8
ADP1DETAIL
100
AcDbLine
 10
7.829178913330595
 20
3.763693332520708
 30
0.0
 11
7.837671423462795
 21
3.78932228551007
 31
0.0
  0
LINE
  5
75
330
1E
100
AcDbEntity
  8
ADP1DETAIL
100
AcDbLine
 10
7.847622767956355
 20
3.728282873711044
 30
0.0
 11
7.855366274443463
 21
3.754147986642567
 31
0.0
  0
LINE
  5
76
330
1E
100
AcDbEntity
  8
ADP1DETAIL
100
AcDbLine
 10
8.173588601530932
 20
3.328321802633587
 30
0.0
 11
8.171235451418306
 21
3.355218431497143
 31
0.0
  0
LINE
  5
77
330
1E
100
AcDbEntity
  8
ADP1DETAIL
100
AcDbLine
 10
7.867088723145973
 20
3.693423829617396
 30
0.0
 11
7.874076674208428
 21
3.719503218023284
 31
0.0
  0
LINE
  5
78
330
1E
100
AcDbEntity
  8
ADP1DETAIL
100
AcDbLine
 10
7.89316811155186
 20
3.686435878554942
 30
0.0
 11
7.867088723145973
 21
3.693423829617396
 31
0.0
  0
LINE
  5
79
330
1E
100
AcDbEntity
  8
ADP1DETAIL
100
AcDbLine
 10
7.913831906871973
 20
3.652919211337689
 30
0.0
 11
7.887560308757965
 21
3.659145694471245
 31
0.0
  0
LINE
  5
7A
330
1E
100
AcDbEntity
  8
ADP1DETAIL
100
AcDbLine
 10
7.887560308757965
 20
3.659145694471245
 30
0.0
 11
7.89378679189152
 21
3.685417292585252
 31
0.0
  0
LINE
  5
7B
330
1E
100
AcDbEntity
  8
ADP1DETAIL
100
AcDbLine
 10
7.935461783214395
 20
3.620017724018798
 30
0.0
 11
7.909020203787112
 21
3.625477470997097
 31
0.0
  0
LINE
  5
7C
330
1E
100
AcDbEntity
  8
ADP1DETAIL
100
AcDbLine
 10
7.909020203787112
 20
3.625477470997097
 30
0.0
 11
7.91447995076541
 21
3.651919050424381
 31
0.0
  0
LINE
  5
7D
330
1E
100
AcDbEntity
  8
ADP1DETAIL
100
AcDbLine
 10
7.95803943954431
 20
3.58775925454128
 30
0.0
 11
7.931450251019756
 21
3.592447645873302
 31
0.0
  0
LINE
  5
7E
330
1E
100
AcDbEntity
  8
ADP1DETAIL
100
AcDbLine
 10
7.931450251019756
 20
3.592447645873302
 30
0.0
 11
7.936138642351778
 21
3.619036834397856
 31
0.0
  0
LINE
  5
7F
330
1E
100
AcDbEntity
  8
ADP1DETAIL
100
AcDbLine
 10
7.981545772910405
 20
3.556171096790857
 30
0.0
 11
7.954831472396622
 21
3.560084165629467
 31
0.0
  0
LINE
  5
80
330
1E
100
AcDbEntity
  8
ADP1DETAIL
100
AcDbLine
 10
7.954831472396622
 20
3.560084165629467
 30
0.0
 11
7.958744541235232
 21
3.586798466143251
 31
0.0
  0
LINE
  5
81
330
1E
100
AcDbEntity
  8
ADP1DETAIL
100
AcDbLine
 10
8.005960894607888
 20
3.525279977502608
 30
0.0
 11
7.979144085070146
 21
3.528414413000908
 31
0.0
  0
LINE
  5
82
330
1E
100
AcDbEntity
  8
ADP1DETAIL
100
AcDbLine
 10
8.031264147006298
 20
3.495112033647487
 30
0.0
 11
8.004367518142744
 21
3.497465183760112
 31
0.0
  0
LINE
  5
83
330
1E
100
AcDbEntity
  8
ADP1DETAIL
100
AcDbLine
 10
8.004367518142744
 20
3.497465183760112
 30
0.0
 11
8.00672066825537
 21
3.524361812623668
 31
0.0
  0
LINE
  5
84
330
1E
100
AcDbEntity
  8
ADP1DETAIL
100
AcDbLine
 10
8.057434121027949
 20
3.465692790317826
 30
0.0
 11
8.030480430071836
 21
3.467262664044858
 31
0.0
  0
LINE
  5
85
330
1E
100
AcDbEntity
  8
ADP1DETAIL
100
AcDbLine
 10
8.030480430071836
 20
3.467262664044858
 30
0.0
 11
8.032050303798865
 21
3.494216355000968
 31
0.0
  0
LINE
  5
86
330
1E
100
AcDbEntity
  8
ADP1DETAIL
100
AcDbLine
 10
8.084448674262119
 20
3.437047139130573
 30
0.0
 11
8.057460726726937
 21
3.437832408202104
 31
0.0
  0
LINE
  5
87
330
1E
100
AcDbEntity
  8
ADP1DETAIL
100
AcDbLine
 10
8.057460726726937
 20
3.437832408202104
 30
0.0
 11
8.058245995798468
 21
3.464820355737286
 31
0.0
  0
LINE
  5
88
330
1E
100
AcDbEntity
  8
ADP1DETAIL
100
AcDbLine
 10
8.112284949699757
 20
3.409199317166486
 30
0.0
 11
8.085285580083478
 21
3.409199317166486
 31
0.0
  0
LINE
  5
89
330
1E
100
AcDbEntity
  8
ADP1DETAIL
100
AcDbLine
 10
8.085285580083478
 20
3.409199317166486
 30
0.0
 11
8.085285580083478
 21
3.436198686782765
 31
0.0
  0
LINE
  5
8A
330
1E
100
AcDbEntity
  8
ADP1DETAIL
100
AcDbLine
 10
8.140919395072794
 20
3.38217288646315
 30
0.0
 11
8.113931447537611
 21
3.381387617391619
 31
0.0
  0
LINE
  5
8B
330
1E
100
AcDbEntity
  8
ADP1DETAIL
100
AcDbLine
 10
8.113931447537611
 20
3.381387617391619
 30
0.0
 11
8.113146178466081
 21
3.408375564926802
 31
0.0
  0
LINE
  5
8C
330
1E
100
AcDbEntity
  8
ADP1DETAIL
100
AcDbLine
 10
8.170327782781708
 20
3.355990714079143
 30
0.0
 11
8.143374091825595
 21
3.354420840352115
 31
0.0
  0
LINE
  5
8D
330
1E
100
AcDbEntity
  8
ADP1DETAIL
100
AcDbLine
 10
8.143374091825595
 20
3.354420840352115
 30
0.0
 11
8.141804218098565
 21
3.381374531308226
 31
0.0
  0
LINE
  5
8E
330
1E
100
AcDbEntity
  8
ADP1DETAIL
100
AcDbLine
 10
8.173588601530934
 20
3.328321802633587
 30
0.0
 11
8.171235451418308
 21
3.355218431497142
 31
0.0
  0
LINE
  5
8F
330
1E
100
AcDbEntity
  8
ADP1DETAIL
100
AcDbLine
 10
7.979144085070146
 20
3.528414413000908
 30
0.0
 11
7.982278520568446
 21
3.555231222538647
 31
0.0
  0
LINE
  5
90
330
1E
100
AcDbEntity
  8
ADP1DETAIL
100
AcDbLine
 10
7.89316811155186
 20
3.686435878554941
 30
0.0
 11
7.867088723145972
 21
3.693423829617395
 31
0.0
  0
LINE
  5
91
330
1E
100
AcDbEntity
  8
ADP1DETAIL
100
AcDbLine
 10
7.867088723145972
 20
3.693423829617395
 30
0.0
 11
7.874076674208428
 21
3.719503218023282
 31
0.0
  0
LINE
  5
92
330
1E
100
AcDbEntity
  8
ADP1DETAIL
100
AcDbLine
 10
8.335322742571827
 20
3.211588862424601
 30
0.0
 11
8.329096259438273
 21
3.237860460538609
 31
0.0
  0
LINE
  5
93
330
1E
100
AcDbEntity
  8
ADP1DETAIL
100
AcDbLine
 10
8.537359355473277
 20
3.129497193798263
 30
0.0
 11
8.512267558164705
 21
3.119528860562366
 31
0.0
  0
LINE
  5
94
330
1E
100
AcDbEntity
  8
ADP1DETAIL
100
AcDbLine
 10
8.361594340685837
 20
3.217815345558155
 30
0.0
 11
8.335322742571827
 21
3.211588862424601
 31
0.0
  0
LINE
  5
95
330
1E
100
AcDbEntity
  8
ADP1DETAIL
100
AcDbLine
 10
8.395689664727676
 20
3.198120973345124
 30
0.0
 11
8.36961027632179
 21
3.191133022282669
 31
0.0
  0
LINE
  5
96
330
1E
100
AcDbEntity
  8
ADP1DETAIL
100
AcDbLine
 10
8.36961027632179
 20
3.191133022282669
 30
0.0
 11
8.362622325259335
 21
3.217212410688556
 31
0.0
  0
LINE
  5
97
330
1E
100
AcDbEntity
  8
ADP1DETAIL
100
AcDbLine
 10
8.430343370022125
 20
3.17942658574485
 30
0.0
 11
8.4044782570906
 21
3.171683079257742
 31
0.0
  0
LINE
  5
98
330
1E
100
AcDbEntity
  8
ADP1DETAIL
100
AcDbLine
 10
8.4044782570906
 20
3.171683079257742
 30
0.0
 11
8.396734750603489
 21
3.197548192189265
 31
0.0
  0
LINE
  5
99
330
1E
100
AcDbEntity
  8
ADP1DETAIL
100
AcDbLine
 10
8.465526136074824
 20
3.161748000075611
 30
0.0
 11
8.439897183085461
 21
3.153255489943412
 31
0.0
  0
LINE
  5
9A
330
1E
100
AcDbEntity
  8
ADP1DETAIL
100
AcDbLine
 10
8.439897183085461
 20
3.153255489943412
 30
0.0
 11
8.431404672953263
 21
3.178884442932774
 31
0.0
  0
LINE
  5
9B
330
1E
100
AcDbEntity
  8
ADP1DETAIL
100
AcDbLine
 10
8.5012081947532
 20
3.145100174185832
 30
0.0
 11
8.475837086358913
 21
3.13586584591997
 31
0.0
  0
LINE
  5
9C
330
1E
100
AcDbEntity
  8
ADP1DETAIL
100
AcDbLine
 10
8.475837086358913
 20
3.13586584591997
 30
0.0
 11
8.466602758093049
 21
3.161236954314259
 31
0.0
  0
LINE
  5
9D
330
1E
100
AcDbEntity
  8
ADP1DETAIL
100
AcDbLine
 10
8.512267558164705
 20
3.119528860562366
 30
0.0
 11
8.502299224928806
 21
3.14462065787094
 31
0.0
  0
ARC
  5
9E
330
1E
100
AcDbEntity
  8
ADP1DETAIL
100
AcDbCircle
 10
9.055636906307876
 20
4.379996410125324
 30
0.0
 40
1.372197059059228
100
AcDbArc
 50
248.3297027761501
 51
249.0614337425362
  0
ARC
  5
9F
330
1E
100
AcDbEntity
  8
ADP1DETAIL
100
AcDbCircle
 10
8.582835204053097
 20
3.144509336002196
 30
0.0
 40
0.0477285933585819
100
AcDbArc
 50
341.1265936503764
 51
68.68318341185581
  0
LINE
  5
A0
330
1E
100
AcDbEntity
  8
ADP1DETAIL
100
AcDbLine
 10
8.627997698328735
 20
3.12907017362881
 30
0.0
 11
8.627478423922825
 21
3.127551196963023
 31
0.0
  0
ARC
  5
A1
330
1E
100
AcDbEntity
  8
ADP1DETAIL
100
AcDbCircle
 10
8.582315929647185
 20
3.142990359336408
 30
0.0
 40
0.0477285933585819
100
AcDbArc
 50
249.061433742536
 51
341.1265936503764
  0
LINE
  5
A2
330
1E
100
AcDbEntity
  8
ADP1DETAIL
100
AcDbLine
 10
8.549157774686628
 20
3.104258356591227
 30
0.0
 11
8.538463870685808
 21
3.129049612648506
 31
0.0
  0
LINE
  5
A3
330
1E
100
AcDbEntity
  8
ADP1DETAIL
100
AcDbLine
 10
8.231366221699671
 20
3.306247022125861
 30
0.0
 11
8.204549412161931
 21
3.303112586627564
 31
0.0
  0
LINE
  5
A4
330
1E
100
AcDbEntity
  8
ADP1DETAIL
100
AcDbLine
 10
8.204549412161931
 20
3.303112586627564
 30
0.0
 11
8.201414976663633
 21
3.329929396165303
 31
0.0
  0
LINE
  5
A5
330
1E
100
AcDbEntity
  8
ADP1DETAIL
100
AcDbLine
 10
8.262944628295592
 20
3.282727590686169
 30
0.0
 11
8.236230327781807
 21
3.278814521847559
 31
0.0
  0
LINE
  5
A6
330
1E
100
AcDbEntity
  8
ADP1DETAIL
100
AcDbLine
 10
8.236230327781807
 20
3.278814521847559
 30
0.0
 11
8.232317258943199
 21
3.305528822361342
 31
0.0
  0
LINE
  5
A7
330
1E
100
AcDbEntity
  8
ADP1DETAIL
100
AcDbLine
 10
8.295193731697619
 20
3.260136558214213
 30
0.0
 11
8.268604543173065
 21
3.25544816688219
 31
0.0
  0
LINE
  5
A8
330
1E
100
AcDbEntity
  8
ADP1DETAIL
100
AcDbLine
 10
8.268604543173065
 20
3.25544816688219
 30
0.0
 11
8.263916151841042
 21
3.282037355406743
 31
0.0
  0
LINE
  5
A9
330
1E
100
AcDbEntity
  8
ADP1DETAIL
100
AcDbLine
 10
8.328086245944664
 20
3.238493038978853
 30
0.0
 11
8.301644666517381
 21
3.233033292000553
 31
0.0
  0
LINE
  5
AA
330
1E
100
AcDbEntity
  8
ADP1DETAIL
100
AcDbLine
 10
8.301644666517381
 20
3.233033292000553
 30
0.0
 11
8.296184919539081
 21
3.259474871427838
 31
0.0
  0
LINE
  5
AB
330
1E
100
AcDbEntity
  8
ADP1DETAIL
100
AcDbLine
 10
9.483795388692929
 20
3.127551196963023
 30
0.0
 11
9.483276114287017
 21
3.12907017362881
 31
0.0
  0
ARC
  5
AC
330
1E
100
AcDbEntity
  8
ADP1DETAIL
100
AcDbCircle
 10
9.528438608562657
 20
3.144509336002196
 30
0.0
 40
0.0477285933585819
100
AcDbArc
 50
111.3168165881443
 51
198.8734063496229
  0
LINE
  5
AD
330
1E
100
AcDbEntity
  8
ADP1DETAIL
100
AcDbLine
 10
8.173105679942665
 20
5.431265798290459
 30
0.0
 11
8.200002308806221
 21
5.428912648177833
 31
0.0
  0
LINE
  5
AE
330
1E
100
AcDbEntity
  8
ADP1DETAIL
100
AcDbLine
 10
8.173105679942665
 20
5.431265798290459
 30
0.0
 11
8.200002308806221
 21
5.428912648177833
 31
0.0
  0
LINE
  5
AF
330
1E
100
AcDbEntity
  8
ADP1DETAIL
100
AcDbLine
 10
8.006315448928766
 20
5.235148086038714
 30
0.0
 11
8.003962298816139
 21
5.26204471490227
 31
0.0
  0
LINE
  5
B0
330
1E
100
AcDbEntity
  8
ADP1DETAIL
100
AcDbLine
 10
7.713607316698245
 20
4.556961068591089
 30
0.0
 11
7.697484411161327
 21
4.578617889150073
 31
0.0
  0
LINE
  5
B1
330
1E
100
AcDbEntity
  8
ADP1DETAIL
100
AcDbLine
 10
7.703945296753341
 20
4.141336642542583
 30
0.0
 11
7.71943149896157
 21
4.163453231358271
 31
0.0
  0
LINE
  5
B2
330
1E
100
AcDbEntity
  8
ADP1DETAIL
100
AcDbLine
 10
7.72606188556903
 20
4.125850440334354
 30
0.0
 11
7.703945296753341
 21
4.141336642542583
 31
0.0
  0
LINE
  5
B3
330
1E
100
AcDbEntity
  8
ADP1DETAIL
100
AcDbLine
 10
7.734016126223327
 20
4.087287641239927
 30
0.0
 11
7.711458481993094
 21
4.102124037246325
 31
0.0
  0
LINE
  5
B4
330
1E
100
AcDbEntity
  8
ADP1DETAIL
100
AcDbLine
 10
7.711458481993094
 20
4.102124037246325
 30
0.0
 11
7.726294877999491
 21
4.124681681476557
 31
0.0
  0
LINE
  5
B5
330
1E
100
AcDbEntity
  8
ADP1DETAIL
100
AcDbLine
 10
7.743088590002377
 20
4.048972502986732
 30
0.0
 11
7.720108976376675
 21
4.063146539719076
 31
0.0
  0
LINE
  5
B6
330
1E
100
AcDbEntity
  8
ADP1DETAIL
100
AcDbLine
 10
7.720108976376675
 20
4.063146539719076
 30
0.0
 11
7.734283013109017
 21
4.086126153344779
 31
0.0
  0
LINE
  5
B7
330
1E
100
AcDbEntity
  8
ADP1DETAIL
100
AcDbLine
 10
7.75327160069607
 20
4.010937444006946
 30
0.0
 11
7.729889460722207
 21
4.024437128815085
 31
0.0
  0
LINE
  5
B8
330
1E
100
AcDbEntity
  8
ADP1DETAIL
100
AcDbLine
 10
7.729889460722207
 20
4.024437128815085
 30
0.0
 11
7.743389145530347
 21
4.047819268788948
 31
0.0
  0
LINE
  5
B9
330
1E
100
AcDbEntity
  8
ADP1DETAIL
100
AcDbLine
 10
7.76455654246073
 20
3.973214645757721
 30
0.0
 11
7.740791659763496
 21
3.986028556560559
 31
0.0
  0
LINE
  5
BA
330
1E
100
AcDbEntity
  8
ADP1DETAIL
100
AcDbLine
 10
7.740791659763496
 20
3.986028556560559
 30
0.0
 11
7.753605570566335
 21
4.009793439257794
 31
0.0
  0
LINE
  5
BB
330
1E
100
AcDbEntity
  8
ADP1DETAIL
100
AcDbLine
 10
7.776933867108988
 20
3.93583602549245
 30
0.0
 11
7.752806349151724
 21
3.947953320442166
 31
0.0
  0
LINE
  5
BC
330
1E
100
AcDbEntity
  8
ADP1DETAIL
100
AcDbLine
 10
7.765923363260175
 20
3.910243635910923
 30
0.0
 11
7.777333789915502
 21
3.934713374839237
 31
0.0
  0
LINE
  5
BD
330
1E
100
AcDbEntity
  8
ADP1DETAIL
100
AcDbLine
 10
7.752806349151724
 20
3.947953320442166
 30
0.0
 11
7.76492364410144
 21
3.972080838399428
 31
0.0
  0
LINE
  5
BE
330
1E
100
AcDbEntity
  8
ADP1DETAIL
100
AcDbLine
 10
7.709028094886867
 20
4.517853650548142
 30
0.0
 11
7.692282127608981
 21
4.539032379018106
 31
0.0
  0
LINE
  5
BF
330
1E
100
AcDbEntity
  8
ADP1DETAIL
100
AcDbLine
 10
7.692282127608981
 20
4.539032379018106
 30
0.0
 11
7.713460856078944
 21
4.55577834629599
 31
0.0
  0
LINE
  5
C0
330
1E
100
AcDbEntity
  8
ADP1DETAIL
100
AcDbLine
 10
7.705588238569447
 20
4.478629591516736
 30
0.0
 11
7.688233378310756
 21
4.499312308579002
 31
0.0
  0
LINE
  5
C1
330
1E
100
AcDbEntity
  8
ADP1DETAIL
100
AcDbLine
 10
7.688233378310756
 20
4.499312308579002
 30
0.0
 11
7.708916095373021
 21
4.516667168837693
 31
0.0
  0
LINE
  5
C2
330
1E
100
AcDbEntity
  8
ADP1DETAIL
100
AcDbLine
 10
7.703290658207851
 20
4.439322078966775
 30
0.0
 11
7.685341588912766
 21
4.459491284977834
 31
0.0
  0
LINE
  5
C3
330
1E
100
AcDbEntity
  8
ADP1DETAIL
100
AcDbLine
 10
7.685341588912766
 20
4.459491284977834
 30
0.0
 11
7.70551079492383
 21
4.477440354272919
 31
0.0
  0
LINE
  5
C4
330
1E
100
AcDbEntity
  8
ADP1DETAIL
100
AcDbLine
 10
7.702137297784446
 20
4.399964370978154
 30
0.0
 11
7.683609206157548
 21
4.419603000776125
 31
0.0
  0
LINE
  5
C5
330
1E
100
AcDbEntity
  8
ADP1DETAIL
100
AcDbLine
 10
7.702129133157296
 20
4.360589768101143
 30
0.0
 11
7.683037695813863
 21
4.379681205444573
 31
0.0
  0
LINE
  5
C6
330
1E
100
AcDbEntity
  8
ADP1DETAIL
100
AcDbLine
 10
7.683037695813863
 20
4.379681205444573
 30
0.0
 11
7.702129133157296
 21
4.398772642788006
 31
0.0
  0
LINE
  5
C7
330
1E
100
AcDbEntity
  8
ADP1DETAIL
100
AcDbLine
 10
7.703266171234488
 20
4.321231585180755
 30
0.0
 11
7.683627541436521
 21
4.339759676807654
 31
0.0
  0
LINE
  5
C8
330
1E
100
AcDbEntity
  8
ADP1DETAIL
100
AcDbLine
 10
7.683627541436521
 20
4.339759676807654
 30
0.0
 11
7.702155633063418
 21
4.359398306605624
 31
0.0
  0
LINE
  5
C9
330
1E
100
AcDbEntity
  8
ADP1DETAIL
100
AcDbLine
 10
7.705547449968298
 20
4.281923123169095
 30
0.0
 11
7.685378243957236
 21
4.299872192464178
 31
0.0
  0
LINE
  5
CA
330
1E
100
AcDbEntity
  8
ADP1DETAIL
100
AcDbLine
 10
7.685378243957236
 20
4.299872192464178
 30
0.0
 11
7.70332731325232
 21
4.32004139847524
 31
0.0
  0
LINE
  5
CB
330
1E
100
AcDbEntity
  8
ADP1DETAIL
100
AcDbLine
 10
7.708971039169157
 20
4.242697640949402
 30
0.0
 11
7.688288322106893
 21
4.260052501208092
 31
0.0
  0
LINE
  5
CC
330
1E
100
AcDbEntity
  8
ADP1DETAIL
100
AcDbLine
 10
7.688288322106893
 20
4.260052501208092
 30
0.0
 11
7.705643182365584
 21
4.280735218270359
 31
0.0
  0
LINE
  5
CD
330
1E
100
AcDbEntity
  8
ADP1DETAIL
100
AcDbLine
 10
7.71353404213881
 20
4.203588327195739
 30
0.0
 11
7.692355313668848
 21
4.220334294473623
 31
0.0
  0
LINE
  5
CE
330
1E
100
AcDbEntity
  8
ADP1DETAIL
100
AcDbLine
 10
7.692355313668848
 20
4.220334294473623
 30
0.0
 11
7.709101280946735
 21
4.241513022943587
 31
0.0
  0
LINE
  5
CF
330
1E
100
AcDbEntity
  8
ADP1DETAIL
100
AcDbLine
 10
7.719232598121195
 20
4.164628272292039
 30
0.0
 11
7.697575777562213
 21
4.180751177828959
 31
0.0
  0
LINE
  5
D0
330
1E
100
AcDbEntity
  8
ADP1DETAIL
100
AcDbLine
 10
7.697575777562213
 20
4.180751177828959
 30
0.0
 11
7.713698683099131
 21
4.202407998387942
 31
0.0
  0
LINE
  5
D1
330
1E
100
AcDbEntity
  8
ADP1DETAIL
100
AcDbLine
 10
7.726061885569029
 20
4.125850440334355
 30
0.0
 11
7.703945296753341
 21
4.141336642542582
 31
0.0
  0
LINE
  5
D2
330
1E
100
AcDbEntity
  8
ADP1DETAIL
100
AcDbLine
 10
7.703945296753341
 20
4.141336642542582
 30
0.0
 11
7.71943149896157
 21
4.16345323135827
 31
0.0
  0
LINE
  5
D3
330
1E
100
AcDbEntity
  8
ADP1DETAIL
100
AcDbLine
 10
7.683609206157548
 20
4.419603000776125
 30
0.0
 11
7.703247835955518
 21
4.438131092403022
 31
0.0
  0
LINE
  5
D4
330
1E
100
AcDbEntity
  8
ADP1DETAIL
100
AcDbLine
 10
7.847323575440294
 20
5.031155059342602
 30
0.0
 11
7.873188688371818
 21
5.038898565829711
 31
0.0
  0
LINE
  5
D5
330
1E
100
AcDbEntity
  8
ADP1DETAIL
100
AcDbLine
 10
7.703835827316533
 20
4.618035345681288
 30
0.0
 11
7.725952416132221
 21
4.63352154788952
 31
0.0
  0
LINE
  5
D6
330
1E
100
AcDbEntity
  8
ADP1DETAIL
100
AcDbLine
 10
7.719322029524762
 20
4.5959187568656
 30
0.0
 11
7.703835827316533
 21
4.618035345681288
 31
0.0
  0
LINE
  5
D7
330
1E
100
AcDbEntity
  8
ADP1DETAIL
100
AcDbLine
 10
7.697484411161327
 20
4.578617889150073
 30
0.0
 11
7.719141231720309
 21
4.594740794686991
 31
0.0
  0
LINE
  5
D8
330
1E
100
AcDbEntity
  8
ADP1DETAIL
100
AcDbLine
 10
7.855067081927403
 20
5.005289946411077
 30
0.0
 11
7.847323575440294
 21
5.031155059342602
 31
0.0
  0
LINE
  5
D9
330
1E
100
AcDbEntity
  8
ADP1DETAIL
100
AcDbLine
 10
7.837388496258163
 20
4.970107180358377
 30
0.0
 11
7.828895986125965
 21
4.995736133347739
 31
0.0
  0
LINE
  5
DA
330
1E
100
AcDbEntity
  8
ADP1DETAIL
100
AcDbLine
 10
7.828895986125965
 20
4.995736133347739
 30
0.0
 11
7.854524939115325
 21
5.004228643479939
 31
0.0
  0
LINE
  5
DB
330
1E
100
AcDbEntity
  8
ADP1DETAIL
100
AcDbLine
 10
7.820740670368385
 20
4.934425121679998
 30
0.0
 11
7.811506342102521
 21
4.959796230074287
 31
0.0
  0
LINE
  5
DC
330
1E
100
AcDbEntity
  8
ADP1DETAIL
100
AcDbLine
 10
7.811506342102521
 20
4.959796230074287
 30
0.0
 11
7.83687745049681
 21
4.969030558340149
 31
0.0
  0
LINE
  5
DD
330
1E
100
AcDbEntity
  8
ADP1DETAIL
100
AcDbLine
 10
7.805137689980817
 20
4.898273960959924
 30
0.0
 11
7.795169356744919
 21
4.923365758268496
 31
0.0
  0
LINE
  5
DE
330
1E
100
AcDbEntity
  8
ADP1DETAIL
100
AcDbLine
 10
7.795169356744919
 20
4.923365758268496
 30
0.0
 11
7.820261154053492
 21
4.933334091504394
 31
0.0
  0
LINE
  5
DF
330
1E
100
AcDbEntity
  8
ADP1DETAIL
100
AcDbLine
 10
7.790592756774599
 20
4.861684285689291
 30
0.0
 11
7.779898852773779
 21
4.886475541746573
 31
0.0
  0
LINE
  5
E0
330
1E
100
AcDbEntity
  8
ADP1DETAIL
100
AcDbLine
 10
7.777118177215326
 20
4.824687054386336
 30
0.0
 11
7.76570775056
 21
4.849156793314649
 31
0.0
  0
LINE
  5
E1
330
1E
100
AcDbEntity
  8
ADP1DETAIL
100
AcDbLine
 10
7.76570775056
 20
4.849156793314649
 30
0.0
 11
7.790177489488314
 21
4.860567219969976
 31
0.0
  0
LINE
  5
E2
330
1E
100
AcDbEntity
  8
ADP1DETAIL
100
AcDbLine
 10
7.764725352142549
 20
4.787313570402378
 30
0.0
 11
7.752608057192836
 21
4.81144108835964
 31
0.0
  0
LINE
  5
E3
330
1E
100
AcDbEntity
  8
ADP1DETAIL
100
AcDbLine
 10
7.752608057192836
 20
4.81144108835964
 30
0.0
 11
7.776735575150098
 21
4.823558383309356
 31
0.0
  0
LINE
  5
E4
330
1E
100
AcDbEntity
  8
ADP1DETAIL
100
AcDbLine
 10
7.753424767123525
 20
4.749595455436073
 30
0.0
 11
7.740610856320687
 21
4.773360338133308
 31
0.0
  0
LINE
  5
E5
330
1E
100
AcDbEntity
  8
ADP1DETAIL
100
AcDbLine
 10
7.740610856320687
 20
4.773360338133308
 30
0.0
 11
7.764375739017921
 21
4.786174248936145
 31
0.0
  0
LINE
  5
E6
330
1E
100
AcDbEntity
  8
ADP1DETAIL
100
AcDbLine
 10
7.743225983581378
 20
4.711564622778294
 30
0.0
 11
7.72972629877324
 21
4.734946762752156
 31
0.0
  0
LINE
  5
E7
330
1E
100
AcDbEntity
  8
ADP1DETAIL
100
AcDbLine
 10
7.72972629877324
 20
4.734946762752156
 30
0.0
 11
7.753108438747102
 21
4.748446447560297
 31
0.0
  0
LINE
  5
E8
330
1E
100
AcDbEntity
  8
ADP1DETAIL
100
AcDbLine
 10
7.734137630705189
 20
4.673253250310298
 30
0.0
 11
7.719963593972845
 21
4.696232863936002
 31
0.0
  0
LINE
  5
E9
330
1E
100
AcDbEntity
  8
ADP1DETAIL
100
AcDbLine
 10
7.719963593972845
 20
4.696232863936002
 30
0.0
 11
7.74294320759855
 21
4.710406900668344
 31
0.0
  0
LINE
  5
EA
330
1E
100
AcDbEntity
  8
ADP1DETAIL
100
AcDbLine
 10
7.726167398148832
 20
4.634693753278035
 30
0.0
 11
7.711331002142435
 21
4.657251397508266
 31
0.0
  0
LINE
  5
EB
330
1E
100
AcDbEntity
  8
ADP1DETAIL
100
AcDbLine
 10
7.711331002142435
 20
4.657251397508266
 30
0.0
 11
7.733888646372667
 21
4.672087793514664
 31
0.0
  0
LINE
  5
EC
330
1E
100
AcDbEntity
  8
ADP1DETAIL
100
AcDbLine
 10
7.719322029524761
 20
4.595918756865602
 30
0.0
 11
7.703835827316531
 21
4.618035345681288
 31
0.0
  0
LINE
  5
ED
330
1E
100
AcDbEntity
  8
ADP1DETAIL
100
AcDbLine
 10
7.703835827316531
 20
4.618035345681288
 30
0.0
 11
7.725952416132219
 21
4.633521547889518
 31
0.0
  0
LINE
  5
EE
330
1E
100
AcDbEntity
  8
ADP1DETAIL
100
AcDbLine
 10
7.779898852773779
 20
4.886475541746573
 30
0.0
 11
7.80469010883106
 21
4.897169445747392
 31
0.0
  0
LINE
  5
EF
330
1E
100
AcDbEntity
  8
ADP1DETAIL
100
AcDbLine
 10
7.866773518465222
 20
5.06602304011141
 30
0.0
 11
7.892852906871109
 21
5.073010991173865
 31
0.0
  0
LINE
  5
F0
330
1E
100
AcDbEntity
  8
ADP1DETAIL
100
AcDbLine
 10
7.873761469527677
 20
5.039943651705523
 30
0.0
 11
7.866773518465222
 21
5.06602304011141
 31
0.0
  0
LINE
  5
F1
330
1E
100
AcDbEntity
  8
ADP1DETAIL
100
AcDbLine
 10
7.981887518308412
 20
5.204267094733529
 30
0.0
 11
7.978753082810117
 21
5.231083904271269
 31
0.0
  0
LINE
  5
F2
330
1E
100
AcDbEntity
  8
ADP1DETAIL
100
AcDbLine
 10
7.978753082810117
 20
5.231083904271269
 30
0.0
 11
8.005569892347855
 21
5.234218339769568
 31
0.0
  0
LINE
  5
F3
330
1E
100
AcDbEntity
  8
ADP1DETAIL
100
AcDbLine
 10
7.958368086868722
 20
5.172688688137609
 30
0.0
 11
7.954455018030111
 21
5.199402988651391
 31
0.0
  0
LINE
  5
F4
330
1E
100
AcDbEntity
  8
ADP1DETAIL
100
AcDbLine
 10
7.954455018030111
 20
5.199402988651391
 30
0.0
 11
7.981169318543894
 21
5.203316057490001
 31
0.0
  0
LINE
  5
F5
330
1E
100
AcDbEntity
  8
ADP1DETAIL
100
AcDbLine
 10
7.935777054396766
 20
5.140439584735581
 30
0.0
 11
7.931088663064743
 21
5.167028773260135
 31
0.0
  0
LINE
  5
F6
330
1E
100
AcDbEntity
  8
ADP1DETAIL
100
AcDbLine
 10
7.931088663064743
 20
5.167028773260135
 30
0.0
 11
7.957677851589297
 21
5.171717164592159
 31
0.0
  0
LINE
  5
F7
330
1E
100
AcDbEntity
  8
ADP1DETAIL
100
AcDbLine
 10
7.914133535161406
 20
5.107547070488534
 30
0.0
 11
7.908673788183106
 21
5.133988649915819
 31
0.0
  0
LINE
  5
F8
330
1E
100
AcDbEntity
  8
ADP1DETAIL
100
AcDbLine
 10
7.908673788183106
 20
5.133988649915819
 30
0.0
 11
7.935115367610391
 21
5.139448396894117
 31
0.0
  0
LINE
  5
F9
330
1E
100
AcDbEntity
  8
ADP1DETAIL
100
AcDbLine
 10
7.893455841740708
 20
5.074038975747365
 30
0.0
 11
7.887229358607154
 21
5.100310573861372
 31
0.0
  0
LINE
  5
FA
330
1E
100
AcDbEntity
  8
ADP1DETAIL
100
AcDbLine
 10
7.887229358607154
 20
5.100310573861372
 30
0.0
 11
7.913500956721161
 21
5.106537056994928
 31
0.0
  0
LINE
  5
FB
330
1E
100
AcDbEntity
  8
ADP1DETAIL
100
AcDbLine
 10
7.873761469527677
 20
5.039943651705522
 30
0.0
 11
7.866773518465221
 21
5.066023040111409
 31
0.0
  0
LINE
  5
FC
330
1E
100
AcDbEntity
  8
ADP1DETAIL
100
AcDbLine
 10
7.866773518465221
 20
5.066023040111409
 30
0.0
 11
7.892852906871109
 21
5.073010991173864
 31
0.0
  0
LINE
  5
FD
330
1E
100
AcDbEntity
  8
ADP1DETAIL
100
AcDbLine
 10
8.170752529830041
 20
5.404369169426903
 30
0.0
 11
8.173105679942665
 21
5.431265798290459
 31
0.0
  0
LINE
  5
FE
330
1E
100
AcDbEntity
  8
ADP1DETAIL
100
AcDbLine
 10
8.14133328650038
 20
5.378199195405254
 30
0.0
 11
8.14290316022741
 21
5.405152886361365
 31
0.0
  0
LINE
  5
FF
330
1E
100
AcDbEntity
  8
ADP1DETAIL
100
AcDbLine
 10
8.14290316022741
 20
5.405152886361365
 30
0.0
 11
8.169856851183521
 21
5.403583012634335
 31
0.0
  0
LINE
  5
100
330
1E
100
AcDbEntity
  8
ADP1DETAIL
100
AcDbLine
 10
8.112687635313125
 20
5.351184642171084
 30
0.0
 11
8.113472904384657
 21
5.378172589706265
 31
0.0
  0
LINE
  5
101
330
1E
100
AcDbEntity
  8
ADP1DETAIL
100
AcDbLine
 10
8.113472904384657
 20
5.378172589706265
 30
0.0
 11
8.140460851919838
 21
5.377387320634735
 31
0.0
  0
LINE
  5
102
330
1E
100
AcDbEntity
  8
ADP1DETAIL
100
AcDbLine
 10
8.084839813349038
 20
5.323348366733444
 30
0.0
 11
8.084839813349038
 21
5.350347736349721
 31
0.0
  0
LINE
  5
103
330
1E
100
AcDbEntity
  8
ADP1DETAIL
100
AcDbLine
 10
8.084839813349038
 20
5.350347736349721
 30
0.0
 11
8.111839182965317
 21
5.350347736349721
 31
0.0
  0
LINE
  5
104
330
1E
100
AcDbEntity
  8
ADP1DETAIL
100
AcDbLine
 10
8.057813382645704
 20
5.294713921360408
 30
0.0
 11
8.057028113574173
 21
5.321701868895589
 31
0.0
  0
LINE
  5
105
330
1E
100
AcDbEntity
  8
ADP1DETAIL
100
AcDbLine
 10
8.057028113574173
 20
5.321701868895589
 30
0.0
 11
8.084016061109354
 21
5.32248713796712
 31
0.0
  0
LINE
  5
106
330
1E
100
AcDbEntity
  8
ADP1DETAIL
100
AcDbLine
 10
8.031631210261695
 20
5.265305533651494
 30
0.0
 11
8.030061336534666
 21
5.292259224607607
 31
0.0
  0
LINE
  5
107
330
1E
100
AcDbEntity
  8
ADP1DETAIL
100
AcDbLine
 10
8.003962298816139
 20
5.26204471490227
 30
0.0
 11
8.030858927679696
 21
5.264397865014893
 31
0.0
  0
LINE
  5
108
330
1E
100
AcDbEntity
  8
ADP1DETAIL
100
AcDbLine
 10
8.030061336534666
 20
5.292259224607607
 30
0.0
 11
8.057015027490779
 21
5.293829098334636
 31
0.0
  0
LINE
  5
109
330
1E
100
AcDbEntity
  8
ADP1DETAIL
100
AcDbLine
 10
8.170752529830041
 20
5.404369169426905
 30
0.0
 11
8.173105679942665
 21
5.431265798290459
 31
0.0
  0
LINE
  5
10A
330
1E
100
AcDbEntity
  8
ADP1DETAIL
100
AcDbLine
 10
8.856391674011511
 20
5.738057538870989
 30
0.0
 11
8.878048494570494
 21
5.721934633334068
 31
0.0
  0
LINE
  5
10B
330
1E
100
AcDbEntity
  8
ADP1DETAIL
100
AcDbLine
 10
8.511688706135048
 20
5.64021426729587
 30
0.0
 11
8.536780503443621
 21
5.630245934059971
 31
0.0
  0
LINE
  5
10C
330
1E
100
AcDbEntity
  8
ADP1DETAIL
100
AcDbLine
 10
8.50172037289915
 20
5.615122469987296
 30
0.0
 11
8.511688706135048
 21
5.64021426729587
 31
0.0
  0
LINE
  5
10D
330
1E
100
AcDbEntity
  8
ADP1DETAIL
100
AcDbLine
 10
8.466031413179704
 20
5.598489443427848
 30
0.0
 11
8.475265741445566
 21
5.623860551822135
 31
0.0
  0
LINE
  5
10E
330
1E
100
AcDbEntity
  8
ADP1DETAIL
100
AcDbLine
 10
8.475265741445566
 20
5.623860551822135
 30
0.0
 11
8.500636849839855
 21
5.614626223556274
 31
0.0
  0
LINE
  5
10F
330
1E
100
AcDbEntity
  8
ADP1DETAIL
100
AcDbLine
 10
8.430841318571063
 20
5.580825450113245
 30
0.0
 11
8.43933382870326
 21
5.606454403102606
 31
0.0
  0
LINE
  5
110
330
1E
100
AcDbEntity
  8
ADP1DETAIL
100
AcDbLine
 10
8.43933382870326
 20
5.606454403102606
 30
0.0
 11
8.464962781692623
 21
5.597961892970404
 31
0.0
  0
LINE
  5
111
330
1E
100
AcDbEntity
  8
ADP1DETAIL
100
AcDbLine
 10
8.396179863406485
 20
5.562145435545322
 30
0.0
 11
8.403923369893597
 21
5.588010548476846
 31
0.0
  0
LINE
  5
112
330
1E
100
AcDbEntity
  8
ADP1DETAIL
100
AcDbLine
 10
8.362076374737494
 20
5.542465204881343
 30
0.0
 11
8.36906432579995
 21
5.56854459328723
 31
0.0
  0
LINE
  5
113
330
1E
100
AcDbEntity
  8
ADP1DETAIL
100
AcDbLine
 10
8.36906432579995
 20
5.56854459328723
 30
0.0
 11
8.395143714205836
 21
5.561556642224774
 31
0.0
  0
LINE
  5
114
330
1E
100
AcDbEntity
  8
ADP1DETAIL
100
AcDbLine
 10
8.328559707520241
 20
5.52180140956123
 30
0.0
 11
8.334786190653797
 21
5.548073007675236
 31
0.0
  0
LINE
  5
115
330
1E
100
AcDbEntity
  8
ADP1DETAIL
100
AcDbLine
 10
8.334786190653797
 20
5.548073007675236
 30
0.0
 11
8.361057788767805
 21
5.541846524541682
 31
0.0
  0
LINE
  5
116
330
1E
100
AcDbEntity
  8
ADP1DETAIL
100
AcDbLine
 10
8.295658220201351
 20
5.500171533218805
 30
0.0
 11
8.301117967179651
 21
5.52661311264609
 31
0.0
  0
LINE
  5
117
330
1E
100
AcDbEntity
  8
ADP1DETAIL
100
AcDbLine
 10
8.301117967179651
 20
5.52661311264609
 30
0.0
 11
8.327559546606934
 21
5.521153365667791
 31
0.0
  0
LINE
  5
118
330
1E
100
AcDbEntity
  8
ADP1DETAIL
100
AcDbLine
 10
8.263399750723833
 20
5.477593876888894
 30
0.0
 11
8.268088142055857
 21
5.504183065413446
 31
0.0
  0
LINE
  5
119
330
1E
100
AcDbEntity
  8
ADP1DETAIL
100
AcDbLine
 10
8.268088142055857
 20
5.504183065413446
 30
0.0
 11
8.294677330580409
 21
5.499494674081424
 31
0.0
  0
LINE
  5
11A
330
1E
100
AcDbEntity
  8
ADP1DETAIL
100
AcDbLine
 10
8.231811592973411
 20
5.454087543522797
 30
0.0
 11
8.235724661812021
 21
5.480801844036582
 31
0.0
  0
LINE
  5
11B
330
1E
100
AcDbEntity
  8
ADP1DETAIL
100
AcDbLine
 10
8.235724661812021
 20
5.480801844036582
 30
0.0
 11
8.262438962325804
 21
5.476888775197969
 31
0.0
  0
LINE
  5
11C
330
1E
100
AcDbEntity
  8
ADP1DETAIL
100
AcDbLine
 10
8.200920473685163
 20
5.429672421825316
 30
0.0
 11
8.204054909183462
 21
5.456489231363055
 31
0.0
  0
LINE
  5
11D
330
1E
100
AcDbEntity
  8
ADP1DETAIL
100
AcDbLine
 10
8.204054909183462
 20
5.456489231363055
 30
0.0
 11
8.2308717187212
 21
5.453354795864759
 31
0.0
  0
LINE
  5
11E
330
1E
100
AcDbEntity
  8
ADP1DETAIL
100
AcDbLine
 10
8.403923369893597
 20
5.588010548476846
 30
0.0
 11
8.42978848282512
 21
5.580267041989737
 31
0.0
  0
LINE
  5
11F
330
1E
100
AcDbEntity
  8
ADP1DETAIL
100
AcDbLine
 10
8.585884132093475
 20
5.669709953173026
 30
0.0
 11
8.610353871021789
 21
5.6582995265177
 31
0.0
  0
LINE
  5
120
330
1E
100
AcDbEntity
  8
ADP1DETAIL
100
AcDbLine
 10
8.574473705438151
 20
5.645240214244712
 30
0.0
 11
8.585884132093475
 21
5.669709953173026
 31
0.0
  0
LINE
  5
121
330
1E
100
AcDbEntity
  8
ADP1DETAIL
100
AcDbLine
 10
8.537878001306451
 20
5.630710456590553
 30
0.0
 11
8.548571905307271
 21
5.655501712647833
 31
0.0
  0
LINE
  5
122
330
1E
100
AcDbEntity
  8
ADP1DETAIL
100
AcDbLine
 10
8.548571905307271
 20
5.655501712647833
 30
0.0
 11
8.573363161364552
 21
5.644807808647012
 31
0.0
  0
LINE
  5
123
330
1E
100
AcDbEntity
  8
ADP1DETAIL
100
AcDbLine
 10
8.585884132093475
 20
5.669709953173026
 30
0.0
 11
8.610353871021789
 21
5.6582995265177
 31
0.0
  0
LINE
  5
124
330
1E
100
AcDbEntity
  8
ADP1DETAIL
100
AcDbLine
 10
8.574473705438151
 20
5.645240214244712
 30
0.0
 11
8.585884132093475
 21
5.669709953173026
 31
0.0
  0
LINE
  5
125
330
1E
100
AcDbEntity
  8
ADP1DETAIL
100
AcDbLine
 10
8.623593816624719
 20
5.682826967281476
 30
0.0
 11
8.64772133458198
 21
5.670709672331763
 31
0.0
  0
LINE
  5
126
330
1E
100
AcDbEntity
  8
ADP1DETAIL
100
AcDbLine
 10
8.611476521675003
 20
5.658699449324214
 30
0.0
 11
8.623593816624719
 21
5.682826967281476
 31
0.0
  0
LINE
  5
127
330
1E
100
AcDbEntity
  8
ADP1DETAIL
100
AcDbLine
 10
8.661669052743112
 20
5.694841656669707
 30
0.0
 11
8.685433935440347
 21
5.682027745866866
 31
0.0
  0
LINE
  5
128
330
1E
100
AcDbEntity
  8
ADP1DETAIL
100
AcDbLine
 10
8.648855141940273
 20
5.671076773972472
 30
0.0
 11
8.661669052743112
 21
5.694841656669707
 31
0.0
  0
LINE
  5
129
330
1E
100
AcDbEntity
  8
ADP1DETAIL
100
AcDbLine
 10
8.700077624997639
 20
5.705743855710994
 30
0.0
 11
8.723459764971503
 21
5.692244170902855
 31
0.0
  0
LINE
  5
12A
330
1E
100
AcDbEntity
  8
ADP1DETAIL
100
AcDbLine
 10
8.686577940189501
 20
5.682361715737132
 30
0.0
 11
8.700077624997639
 21
5.705743855710994
 31
0.0
  0
LINE
  5
12B
330
1E
100
AcDbEntity
  8
ADP1DETAIL
100
AcDbLine
 10
8.738787035901628
 20
5.715524340056527
 30
0.0
 11
8.761766649527331
 21
5.701350303324184
 31
0.0
  0
LINE
  5
12C
330
1E
100
AcDbEntity
  8
ADP1DETAIL
100
AcDbLine
 10
8.724612999169286
 20
5.692544726430823
 30
0.0
 11
8.738787035901628
 21
5.715524340056527
 31
0.0
  0
LINE
  5
12D
330
1E
100
AcDbEntity
  8
ADP1DETAIL
100
AcDbLine
 10
8.777764533428877
 20
5.724174834440107
 30
0.0
 11
8.800322177659111
 21
5.709338438433711
 31
0.0
  0
LINE
  5
12E
330
1E
100
AcDbEntity
  8
ADP1DETAIL
100
AcDbLine
 10
8.762928137422479
 20
5.701617190209876
 30
0.0
 11
8.777764533428877
 21
5.724174834440107
 31
0.0
  0
LINE
  5
12F
330
1E
100
AcDbEntity
  8
ADP1DETAIL
100
AcDbLine
 10
8.816977138725135
 20
5.731688019679861
 30
0.0
 11
8.839093727540824
 21
5.716201817471631
 31
0.0
  0
LINE
  5
130
330
1E
100
AcDbEntity
  8
ADP1DETAIL
100
AcDbLine
 10
8.801490936516907
 20
5.709571430864173
 30
0.0
 11
8.816977138725135
 21
5.731688019679861
 31
0.0
  0
LINE
  5
131
330
1E
100
AcDbEntity
  8
ADP1DETAIL
100
AcDbLine
 10
8.84026876847459
 20
5.716400718312005
 30
0.0
 11
8.856391674011511
 21
5.738057538870989
 31
0.0
  0
LINE
  5
132
330
1E
100
AcDbEntity
  8
ADP1DETAIL
100
AcDbLine
 10
9.193494146730698
 20
5.726605221546334
 30
0.0
 11
9.214672875200662
 21
5.743351188824219
 31
0.0
  0
LINE
  5
133
330
1E
100
AcDbEntity
  8
ADP1DETAIL
100
AcDbLine
 10
9.154270087699295
 20
5.730045077863755
 30
0.0
 11
9.174952804761559
 21
5.747399938122445
 31
0.0
  0
LINE
  5
134
330
1E
100
AcDbEntity
  8
ADP1DETAIL
100
AcDbLine
 10
9.174952804761559
 20
5.747399938122445
 30
0.0
 11
9.192307665020251
 21
5.726717221060178
 31
0.0
  0
LINE
  5
135
330
1E
100
AcDbEntity
  8
ADP1DETAIL
100
AcDbLine
 10
9.114962575149331
 20
5.73234265822535
 30
0.0
 11
9.135131781160392
 21
5.750291727520435
 31
0.0
  0
LINE
  5
136
330
1E
100
AcDbEntity
  8
ADP1DETAIL
100
AcDbLine
 10
9.135131781160392
 20
5.750291727520435
 30
0.0
 11
9.153080850455477
 21
5.730122521509372
 31
0.0
  0
LINE
  5
137
330
1E
100
AcDbEntity
  8
ADP1DETAIL
100
AcDbLine
 10
9.075604867160711
 20
5.733496018648755
 30
0.0
 11
9.09524349695868
 21
5.752024110275652
 31
0.0
  0
LINE
  5
138
330
1E
100
AcDbEntity
  8
ADP1DETAIL
100
AcDbLine
 10
9.09524349695868
 20
5.752024110275652
 30
0.0
 11
9.11377158858558
 21
5.732385480477685
 31
0.0
  0
LINE
  5
139
330
1E
100
AcDbEntity
  8
ADP1DETAIL
100
AcDbLine
 10
9.036230264283698
 20
5.733504183275906
 30
0.0
 11
9.05532170162713
 21
5.752595620619339
 31
0.0
  0
LINE
  5
13A
330
1E
100
AcDbEntity
  8
ADP1DETAIL
100
AcDbLine
 10
9.05532170162713
 20
5.752595620619339
 30
0.0
 11
9.074413138970564
 21
5.733504183275906
 31
0.0
  0
LINE
  5
13B
330
1E
100
AcDbEntity
  8
ADP1DETAIL
100
AcDbLine
 10
8.895974790656175
 20
5.743278002764352
 30
0.0
 11
8.91715351912614
 21
5.726532035486466
 31
0.0
  0
LINE
  5
13C
330
1E
100
AcDbEntity
  8
ADP1DETAIL
100
AcDbLine
 10
8.879228823378291
 20
5.722099274294389
 30
0.0
 11
8.895974790656175
 21
5.743278002764352
 31
0.0
  0
LINE
  5
13D
330
1E
100
AcDbEntity
  8
ADP1DETAIL
100
AcDbLine
 10
8.935692997390646
 20
5.747344994326309
 30
0.0
 11
8.95637571445291
 21
5.729990134067618
 31
0.0
  0
LINE
  5
13E
330
1E
100
AcDbEntity
  8
ADP1DETAIL
100
AcDbLine
 10
8.918338137131954
 20
5.726662277264043
 30
0.0
 11
8.935692997390646
 21
5.747344994326309
 31
0.0
  0
LINE
  5
13F
330
1E
100
AcDbEntity
  8
ADP1DETAIL
100
AcDbLine
 10
8.975512688646732
 20
5.750255072475965
 30
0.0
 11
8.995681894657794
 21
5.732306003180882
 31
0.0
  0
LINE
  5
140
330
1E
100
AcDbEntity
  8
ADP1DETAIL
100
AcDbLine
 10
8.957563619351647
 20
5.730085866464904
 30
0.0
 11
8.975512688646732
 21
5.750255072475965
 31
0.0
  0
LINE
  5
141
330
1E
100
AcDbEntity
  8
ADP1DETAIL
100
AcDbLine
 10
9.015400172990208
 20
5.75200577499668
 30
0.0
 11
9.035038802788175
 21
5.733477683369782
 31
0.0
  0
LINE
  5
142
330
1E
100
AcDbEntity
  8
ADP1DETAIL
100
AcDbLine
 10
8.996872081363308
 20
5.732367145198711
 30
0.0
 11
9.015400172990208
 21
5.75200577499668
 31
0.0
  0
LINE
  5
143
330
1E
100
AcDbEntity
  8
ADP1DETAIL
100
AcDbLine
 10
9.036230264283695
 20
5.733504183275906
 30
0.0
 11
9.055321701627127
 21
5.752595620619338
 31
0.0
  0
LINE
  5
144
330
1E
100
AcDbEntity
  8
ADP1DETAIL
100
AcDbLine
 10
9.055321701627127
 20
5.752595620619338
 30
0.0
 11
9.074413138970561
 21
5.733504183275906
 31
0.0
  0
LINE
  5
145
330
1E
100
AcDbEntity
  8
ADP1DETAIL
100
AcDbLine
 10
9.524797289497206
 20
5.669925565873199
 30
0.0
 11
9.536207716152532
 21
5.645455826944885
 31
0.0
  0
LINE
  5
146
330
1E
100
AcDbEntity
  8
ADP1DETAIL
100
AcDbLine
 10
9.500327550568893
 20
5.658515139217873
 30
0.0
 11
9.524797289497206
 21
5.669925565873199
 31
0.0
  0
LINE
  5
147
330
1E
100
AcDbEntity
  8
ADP1DETAIL
100
AcDbLine
 10
9.462954066584934
 20
5.670907964290649
 30
0.0
 11
9.487081584542197
 21
5.683025259240363
 31
0.0
  0
LINE
  5
148
330
1E
100
AcDbEntity
  8
ADP1DETAIL
100
AcDbLine
 10
9.487081584542197
 20
5.683025259240363
 30
0.0
 11
9.499198879491911
 21
5.658897741283102
 31
0.0
  0
LINE
  5
149
330
1E
100
AcDbEntity
  8
ADP1DETAIL
100
AcDbLine
 10
9.425235951618629
 20
5.682208549309675
 30
0.0
 11
9.449000834315864
 21
5.695022460112513
 31
0.0
  0
LINE
  5
14A
330
1E
100
AcDbEntity
  8
ADP1DETAIL
100
AcDbLine
 10
9.449000834315864
 20
5.695022460112513
 30
0.0
 11
9.461814745118703
 21
5.671257577415278
 31
0.0
  0
LINE
  5
14B
330
1E
100
AcDbEntity
  8
ADP1DETAIL
100
AcDbLine
 10
9.387205118960848
 20
5.692407332851821
 30
0.0
 11
9.410587258934711
 21
5.705907017659961
 31
0.0
  0
LINE
  5
14C
330
1E
100
AcDbEntity
  8
ADP1DETAIL
100
AcDbLine
 10
9.410587258934711
 20
5.705907017659961
 30
0.0
 11
9.424086943742851
 21
5.682524877686097
 31
0.0
  0
LINE
  5
14D
330
1E
100
AcDbEntity
  8
ADP1DETAIL
100
AcDbLine
 10
9.348893746492855
 20
5.70149568572801
 30
0.0
 11
9.371873360118556
 21
5.715669722460354
 31
0.0
  0
LINE
  5
14E
330
1E
100
AcDbEntity
  8
ADP1DETAIL
100
AcDbLine
 10
9.371873360118556
 20
5.715669722460354
 30
0.0
 11
9.3860473968509
 21
5.692690108834649
 31
0.0
  0
LINE
  5
14F
330
1E
100
AcDbEntity
  8
ADP1DETAIL
100
AcDbLine
 10
9.310334249460588
 20
5.709465918284369
 30
0.0
 11
9.332891893690824
 21
5.724302314290765
 31
0.0
  0
LINE
  5
150
330
1E
100
AcDbEntity
  8
ADP1DETAIL
100
AcDbLine
 10
9.271559253048158
 20
5.716311286908439
 30
0.0
 11
9.293675841863846
 21
5.731797489116669
 31
0.0
  0
LINE
  5
151
330
1E
100
AcDbEntity
  8
ADP1DETAIL
100
AcDbLine
 10
9.293675841863846
 20
5.731797489116669
 30
0.0
 11
9.309162044072076
 21
5.70968090030098
 31
0.0
  0
LINE
  5
152
330
1E
100
AcDbEntity
  8
ADP1DETAIL
100
AcDbLine
 10
9.232601564773645
 20
5.722025999734956
 30
0.0
 11
9.254258385332629
 21
5.738148905271874
 31
0.0
  0
LINE
  5
153
330
1E
100
AcDbEntity
  8
ADP1DETAIL
100
AcDbLine
 10
9.254258385332629
 20
5.738148905271874
 30
0.0
 11
9.270381290869547
 21
5.716492084712892
 31
0.0
  0
LINE
  5
154
330
1E
100
AcDbEntity
  8
ADP1DETAIL
100
AcDbLine
 10
9.214672875200662
 20
5.743351188824219
 30
0.0
 11
9.231418842478545
 21
5.722172460354256
 31
0.0
  0
LINE
  5
155
330
1E
100
AcDbEntity
  8
ADP1DETAIL
100
AcDbLine
 10
9.332891893690824
 20
5.724302314290765
 30
0.0
 11
9.34772828969722
 21
5.701744670060532
 31
0.0
  0
LINE
  5
156
330
1E
100
AcDbEntity
  8
ADP1DETAIL
100
AcDbLine
 10
9.500327550568892
 20
5.658515139217873
 30
0.0
 11
9.524797289497202
 21
5.669925565873199
 31
0.0
  0
LINE
  5
157
330
1E
100
AcDbEntity
  8
ADP1DETAIL
100
AcDbLine
 10
9.524797289497202
 20
5.669925565873199
 30
0.0
 11
9.53620771615253
 21
5.645455826944885
 31
0.0
  0
LINE
  5
158
330
1E
100
AcDbEntity
  8
ADP1DETAIL
100
AcDbLine
 10
10.82187017651893
 20
5.757972476582438
 30
0.0
 11
10.82187017651893
 21
3.099833205666046
 31
0.0
  0
LINE
  5
159
330
1E
100
AcDbEntity
  8
ADP1DETAIL
100
AcDbLine
 10
10.75937017651892
 20
5.695472476582438
 30
0.0
 11
10.75937017651892
 21
3.162333205666046
 31
0.0
  0
LINE
  5
15A
330
1E
100
AcDbEntity
  8
ADP1DETAIL
100
AcDbLine
 10
10.2240444540086
 20
3.659682246389275
 30
0.0
 11
10.19777285589459
 21
3.65345576325572
 31
0.0
  0
LINE
  5
15B
330
1E
100
AcDbEntity
  8
ADP1DETAIL
100
AcDbLine
 10
9.782714105095514
 20
3.238191410689419
 30
0.0
 11
9.776487621961956
 21
3.211919812575412
 31
0.0
  0
ARC
  5
15C
330
1E
100
AcDbEntity
  8
ADP1DETAIL
100
AcDbCircle
 10
9.055636906307876
 20
4.379996410125324
 30
0.0
 40
1.372197059059228
100
AcDbArc
 50
290.9385662574637
 51
291.6966275447712
  0
LINE
  5
15D
330
1E
100
AcDbEntity
  8
ADP1DETAIL
100
AcDbLine
 10
9.573395811309303
 20
3.129282363660097
 30
0.0
 11
9.562701907308483
 21
3.104491107602815
 31
0.0
  0
LINE
  5
15E
330
1E
100
AcDbEntity
  8
ADP1DETAIL
100
AcDbLine
 10
9.609553439716604
 20
3.144870350263351
 30
0.0
 11
9.599585106480706
 21
3.119778552954778
 31
0.0
  0
LINE
  5
15F
330
1E
100
AcDbEntity
  8
ADP1DETAIL
100
AcDbLine
 10
9.599585106480706
 20
3.119778552954778
 30
0.0
 11
9.574493309172133
 21
3.129746886190676
 31
0.0
  0
LINE
  5
160
330
1E
100
AcDbEntity
  8
ADP1DETAIL
100
AcDbLine
 10
9.64524239943605
 20
3.1615033768228
 30
0.0
 11
9.636008071170188
 21
3.136132268428513
 31
0.0
  0
LINE
  5
161
330
1E
100
AcDbEntity
  8
ADP1DETAIL
100
AcDbLine
 10
9.636008071170188
 20
3.136132268428513
 30
0.0
 11
9.610636962775899
 21
3.145366596694374
 31
0.0
  0
LINE
  5
162
330
1E
100
AcDbEntity
  8
ADP1DETAIL
100
AcDbLine
 10
9.680432494044692
 20
3.179167370137403
 30
0.0
 11
9.671939983912494
 21
3.153538417148043
 31
0.0
  0
LINE
  5
163
330
1E
100
AcDbEntity
  8
ADP1DETAIL
100
AcDbLine
 10
9.671939983912494
 20
3.153538417148043
 30
0.0
 11
9.646311030923129
 21
3.162030927280243
 31
0.0
  0
LINE
  5
164
330
1E
100
AcDbEntity
  8
ADP1DETAIL
100
AcDbLine
 10
9.715093949209268
 20
3.197847384705326
 30
0.0
 11
9.707350442722157
 21
3.171982271773801
 31
0.0
  0
LINE
  5
165
330
1E
100
AcDbEntity
  8
ADP1DETAIL
100
AcDbLine
 10
9.749197437878262
 20
3.217527615369307
 30
0.0
 11
9.742209486815804
 21
3.191448226963419
 31
0.0
  0
LINE
  5
166
330
1E
100
AcDbEntity
  8
ADP1DETAIL
100
AcDbLine
 10
9.742209486815804
 20
3.191448226963419
 30
0.0
 11
9.716130098409919
 21
3.198436178025874
 31
0.0
  0
LINE
  5
167
330
1E
100
AcDbEntity
  8
ADP1DETAIL
100
AcDbLine
 10
9.776487621961956
 20
3.211919812575412
 30
0.0
 11
9.750216023847949
 21
3.218146295708966
 31
0.0
  0
LINE
  5
168
330
1E
100
AcDbEntity
  8
ADP1DETAIL
100
AcDbLine
 10
9.707350442722157
 20
3.171982271773801
 30
0.0
 11
9.681485329790636
 21
3.179725778260911
 31
0.0
  0
LINE
  5
169
330
1E
100
AcDbEntity
  8
ADP1DETAIL
100
AcDbLine
 10
9.875549150803733
 20
3.279190976214068
 30
0.0
 11
9.84883485028995
 21
3.283104045052679
 31
0.0
  0
LINE
  5
16A
330
1E
100
AcDbEntity
  8
ADP1DETAIL
100
AcDbLine
 10
9.815615592414404
 20
3.259821287031842
 30
0.0
 11
9.810155845436103
 21
3.233379707604557
 31
0.0
  0
LINE
  5
16B
330
1E
100
AcDbEntity
  8
ADP1DETAIL
100
AcDbLine
 10
9.810155845436103
 20
3.233379707604557
 30
0.0
 11
9.78371426600882
 21
3.238839454582857
 31
0.0
  0
LINE
  5
16C
330
1E
100
AcDbEntity
  8
ADP1DETAIL
100
AcDbLine
 10
9.847874061891921
 20
3.282398943361754
 30
0.0
 11
9.843185670559897
 21
3.255809754837202
 31
0.0
  0
LINE
  5
16D
330
1E
100
AcDbEntity
  8
ADP1DETAIL
100
AcDbLine
 10
9.843185670559897
 20
3.255809754837202
 30
0.0
 11
9.816596482035345
 21
3.260498146169223
 31
0.0
  0
LINE
  5
16E
330
1E
100
AcDbEntity
  8
ADP1DETAIL
100
AcDbLine
 10
9.938168132673089
 20
3.328727021960189
 30
0.0
 11
9.911271503809533
 21
3.331080172072815
 31
0.0
  0
LINE
  5
16F
330
1E
100
AcDbEntity
  8
ADP1DETAIL
100
AcDbLine
 10
9.940521282785713
 20
3.355623650823745
 30
0.0
 11
9.938168132673089
 21
3.328727021960189
 31
0.0
  0
LINE
  5
170
330
1E
100
AcDbEntity
  8
ADP1DETAIL
100
AcDbLine
 10
9.969940526115374
 20
3.381793624845394
 30
0.0
 11
9.968370652388344
 21
3.354839933889282
 31
0.0
  0
LINE
  5
171
330
1E
100
AcDbEntity
  8
ADP1DETAIL
100
AcDbLine
 10
9.968370652388344
 20
3.354839933889282
 30
0.0
 11
9.941416961432233
 21
3.356409807616312
 31
0.0
  0
LINE
  5
172
330
1E
100
AcDbEntity
  8
ADP1DETAIL
100
AcDbLine
 10
9.998586177302628
 20
3.408808178079564
 30
0.0
 11
9.997800908231097
 21
3.381820230544382
 31
0.0
  0
LINE
  5
173
330
1E
100
AcDbEntity
  8
ADP1DETAIL
100
AcDbLine
 10
9.997800908231097
 20
3.381820230544382
 30
0.0
 11
9.970812960695916
 21
3.382605499615912
 31
0.0
  0
LINE
  5
174
330
1E
100
AcDbEntity
  8
ADP1DETAIL
100
AcDbLine
 10
10.02643399926671
 20
3.436644453517204
 30
0.0
 11
10.02643399926671
 21
3.409645083900926
 31
0.0
  0
LINE
  5
175
330
1E
100
AcDbEntity
  8
ADP1DETAIL
100
AcDbLine
 10
10.02643399926671
 20
3.409645083900926
 30
0.0
 11
9.999434629650437
 21
3.409645083900926
 31
0.0
  0
LINE
  5
176
330
1E
100
AcDbEntity
  8
ADP1DETAIL
100
AcDbLine
 10
10.05346042997005
 20
3.46527889889024
 30
0.0
 11
10.05424569904158
 21
3.438290951355059
 31
0.0
  0
LINE
  5
177
330
1E
100
AcDbEntity
  8
ADP1DETAIL
100
AcDbLine
 10
10.05424569904158
 20
3.438290951355059
 30
0.0
 11
10.0272577515064
 21
3.437505682283528
 31
0.0
  0
LINE
  5
178
330
1E
100
AcDbEntity
  8
ADP1DETAIL
100
AcDbLine
 10
10.07964260235405
 20
3.494687286599154
 30
0.0
 11
10.08121247608108
 21
3.46773359564304
 31
0.0
  0
LINE
  5
179
330
1E
100
AcDbEntity
  8
ADP1DETAIL
100
AcDbLine
 10
10.10495836368698
 20
3.524844734211934
 30
0.0
 11
10.10731151379961
 21
3.497948105348378
 31
0.0
  0
LINE
  5
17A
330
1E
100
AcDbEntity
  8
ADP1DETAIL
100
AcDbLine
 10
10.10731151379961
 20
3.497948105348378
 30
0.0
 11
10.08041488493605
 21
3.495594955235755
 31
0.0
  0
LINE
  5
17B
330
1E
100
AcDbEntity
  8
ADP1DETAIL
100
AcDbLine
 10
10.12938629430734
 20
3.555725725517119
 30
0.0
 11
10.13252072980563
 21
3.528908915979379
 31
0.0
  0
LINE
  5
17C
330
1E
100
AcDbEntity
  8
ADP1DETAIL
100
AcDbLine
 10
10.13252072980563
 20
3.528908915979379
 30
0.0
 11
10.10570392026789
 21
3.52577448048108
 31
0.0
  0
LINE
  5
17D
330
1E
100
AcDbEntity
  8
ADP1DETAIL
100
AcDbLine
 10
10.15290572574703
 20
3.587304132113039
 30
0.0
 11
10.15681879458564
 21
3.560589831599256
 31
0.0
  0
LINE
  5
17E
330
1E
100
AcDbEntity
  8
ADP1DETAIL
100
AcDbLine
 10
10.15681879458564
 20
3.560589831599256
 30
0.0
 11
10.13010449407186
 21
3.556676762760647
 31
0.0
  0
LINE
  5
17F
330
1E
100
AcDbEntity
  8
ADP1DETAIL
100
AcDbLine
 10
10.17549675821898
 20
3.619553235515066
 30
0.0
 11
10.18018514955101
 21
3.592964046990513
 31
0.0
  0
LINE
  5
180
330
1E
100
AcDbEntity
  8
ADP1DETAIL
100
AcDbLine
 10
10.18018514955101
 20
3.592964046990513
 30
0.0
 11
10.15359596102645
 21
3.588275655658489
 31
0.0
  0
LINE
  5
181
330
1E
100
AcDbEntity
  8
ADP1DETAIL
100
AcDbLine
 10
10.19714027745434
 20
3.652445749762113
 30
0.0
 11
10.20260002443264
 21
3.626004170334828
 31
0.0
  0
LINE
  5
182
330
1E
100
AcDbEntity
  8
ADP1DETAIL
100
AcDbLine
 10
10.20260002443264
 20
3.626004170334828
 30
0.0
 11
10.17615844500536
 21
3.62054442335653
 31
0.0
  0
LINE
  5
183
330
1E
100
AcDbEntity
  8
ADP1DETAIL
100
AcDbLine
 10
10.08121247608108
 20
3.46773359564304
 30
0.0
 11
10.05425878512497
 21
3.466163721916012
 31
0.0
  0
LINE
  5
184
330
1E
100
AcDbEntity
  8
ADP1DETAIL
100
AcDbLine
 10
9.879462219642345
 20
3.30590527672785
 30
0.0
 11
9.875549150803733
 21
3.279190976214068
 31
0.0
  0
LINE
  5
185
330
1E
100
AcDbEntity
  8
ADP1DETAIL
100
AcDbLine
 10
9.910353338930592
 20
3.330320398425332
 30
0.0
 11
9.907218903432292
 21
3.303503588887593
 31
0.0
  0
LINE
  5
186
330
1E
100
AcDbEntity
  8
ADP1DETAIL
100
AcDbLine
 10
9.907218903432292
 20
3.303503588887593
 30
0.0
 11
9.880402093894554
 21
3.306638024385891
 31
0.0
  0
LINE
  5
187
330
1E
100
AcDbEntity
  8
ADP1DETAIL
100
AcDbLine
 10
9.940521282785713
 20
3.355623650823745
 30
0.0
 11
9.938168132673089
 21
3.328727021960189
 31
0.0
  0
LINE
  5
188
330
1E
100
AcDbEntity
  8
ADP1DETAIL
100
AcDbLine
 10
9.938168132673089
 20
3.328727021960189
 30
0.0
 11
9.911271503809533
 21
3.331080172072815
 31
0.0
  0
LINE
  5
189
330
1E
100
AcDbEntity
  8
ADP1DETAIL
100
AcDbLine
 10
10.75937017651892
 20
3.162333205666046
 30
0.0
 11
10.82187017651893
 21
3.099833205666046
 31
0.0
  0
LINE
  5
18A
330
1E
100
AcDbEntity
  8
ADP1DETAIL
100
AcDbLine
 10
10.24450029415053
 20
3.693969780139236
 30
0.0
 11
10.21842090574464
 21
3.686981829076782
 31
0.0
  0
LINE
  5
18B
330
1E
100
AcDbEntity
  8
ADP1DETAIL
100
AcDbLine
 10
10.23751234308807
 20
3.720049168545124
 30
0.0
 11
10.24450029415053
 21
3.693969780139236
 31
0.0
  0
LINE
  5
18C
330
1E
100
AcDbEntity
  8
ADP1DETAIL
100
AcDbLine
 10
10.25620673068835
 20
3.75470287383957
 30
0.0
 11
10.26395023717545
 21
3.728837760908046
 31
0.0
  0
LINE
  5
18D
330
1E
100
AcDbEntity
  8
ADP1DETAIL
100
AcDbLine
 10
10.26395023717545
 20
3.728837760908046
 30
0.0
 11
10.23808512424393
 21
3.721094254420936
 31
0.0
  0
LINE
  5
18E
330
1E
100
AcDbEntity
  8
ADP1DETAIL
100
AcDbLine
 10
10.27388531635758
 20
3.789885639892269
 30
0.0
 11
10.28237782648979
 21
3.764256686902907
 31
0.0
  0
LINE
  5
18F
330
1E
100
AcDbEntity
  8
ADP1DETAIL
100
AcDbLine
 10
10.28237782648979
 20
3.764256686902907
 30
0.0
 11
10.25674887350042
 21
3.755764176770708
 31
0.0
  0
LINE
  5
190
330
1E
100
AcDbEntity
  8
ADP1DETAIL
100
AcDbLine
 10
10.29053314224736
 20
3.825567698570649
 30
0.0
 11
10.29976747051323
 21
3.800196590176359
 31
0.0
  0
LINE
  5
191
330
1E
100
AcDbEntity
  8
ADP1DETAIL
100
AcDbLine
 10
10.29976747051323
 20
3.800196590176359
 30
0.0
 11
10.27439636211894
 21
3.790962261910498
 31
0.0
  0
LINE
  5
192
330
1E
100
AcDbEntity
  8
ADP1DETAIL
100
AcDbLine
 10
10.30613612263493
 20
3.861718859290722
 30
0.0
 11
10.31610445587083
 21
3.836627061982151
 31
0.0
  0
LINE
  5
193
330
1E
100
AcDbEntity
  8
ADP1DETAIL
100
AcDbLine
 10
10.31610445587083
 20
3.836627061982151
 30
0.0
 11
10.29101265856226
 21
3.826658728746253
 31
0.0
  0
LINE
  5
194
330
1E
100
AcDbEntity
  8
ADP1DETAIL
100
AcDbLine
 10
10.32068105584115
 20
3.898308534561357
 30
0.0
 11
10.33137495984197
 21
3.873517278504073
 31
0.0
  0
LINE
  5
195
330
1E
100
AcDbEntity
  8
ADP1DETAIL
100
AcDbLine
 10
10.33137495984197
 20
3.873517278504073
 30
0.0
 11
10.30658370378469
 21
3.862823374503255
 31
0.0
  0
LINE
  5
196
330
1E
100
AcDbEntity
  8
ADP1DETAIL
100
AcDbLine
 10
10.21781797087504
 20
3.685953844503283
 30
0.0
 11
10.2240444540086
 21
3.659682246389275
 31
0.0
  0
LINE
  5
197
330
1E
100
AcDbEntity
  8
ADP1DETAIL
100
AcDbLine
 10
10.23751234308807
 20
3.720049168545125
 30
0.0
 11
10.24450029415053
 21
3.693969780139238
 31
0.0
  0
LINE
  5
198
330
1E
100
AcDbEntity
  8
ADP1DETAIL
100
AcDbLine
 10
10.24450029415053
 20
3.693969780139238
 30
0.0
 11
10.21842090574464
 21
3.686981829076783
 31
0.0
  0
LINE
  5
199
330
1E
100
AcDbEntity
  8
ADP1DETAIL
100
AcDbLine
 10
10.10690629447301
 20
5.262527636490535
 30
0.0
 11
10.10455314436038
 21
5.235631007626979
 31
0.0
  0
LINE
  5
19A
330
1E
100
AcDbEntity
  8
ADP1DETAIL
100
AcDbLine
 10
10.19744190574378
 20
5.107073608912958
 30
0.0
 11
10.22371350385779
 21
5.100847125779402
 31
0.0
  0
LINE
  5
19B
330
1E
100
AcDbEntity
  8
ADP1DETAIL
100
AcDbLine
 10
10.17581202940136
 20
5.139975096231849
 30
0.0
 11
10.20225360882864
 21
5.13451534925355
 31
0.0
  0
LINE
  5
19C
330
1E
100
AcDbEntity
  8
ADP1DETAIL
100
AcDbLine
 10
10.20225360882864
 20
5.13451534925355
 30
0.0
 11
10.19679386185034
 21
5.108073769826265
 31
0.0
  0
LINE
  5
19D
330
1E
100
AcDbEntity
  8
ADP1DETAIL
100
AcDbLine
 10
10.15323437307144
 20
5.172233565709367
 30
0.0
 11
10.179823561596
 21
5.167545174377345
 31
0.0
  0
LINE
  5
19E
330
1E
100
AcDbEntity
  8
ADP1DETAIL
100
AcDbLine
 10
10.179823561596
 20
5.167545174377345
 30
0.0
 11
10.17513517026397
 21
5.140955985852791
 31
0.0
  0
LINE
  5
19F
330
1E
100
AcDbEntity
  8
ADP1DETAIL
100
AcDbLine
 10
10.12972803970535
 20
5.203821723459789
 30
0.0
 11
10.15644234021913
 21
5.19990865462118
 31
0.0
  0
LINE
  5
1A0
330
1E
100
AcDbEntity
  8
ADP1DETAIL
100
AcDbLine
 10
10.15644234021913
 20
5.19990865462118
 30
0.0
 11
10.15252927138052
 21
5.173194354107396
 31
0.0
  0
LINE
  5
1A1
330
1E
100
AcDbEntity
  8
ADP1DETAIL
100
AcDbLine
 10
10.10531291800786
 20
5.234712842748038
 30
0.0
 11
10.13212972754561
 21
5.231578407249739
 31
0.0
  0
LINE
  5
1A2
330
1E
100
AcDbEntity
  8
ADP1DETAIL
100
AcDbLine
 10
10.13212972754561
 20
5.231578407249739
 30
0.0
 11
10.12899529204731
 21
5.204761597712
 31
0.0
  0
LINE
  5
1A3
330
1E
100
AcDbEntity
  8
ADP1DETAIL
100
AcDbLine
 10
10.41369803505354
 20
4.579241642421687
 30
0.0
 11
10.39757512951662
 21
4.557584821862706
 31
0.0
  0
LINE
  5
1A4
330
1E
100
AcDbEntity
  8
ADP1DETAIL
100
AcDbLine
 10
10.40743798529922
 20
4.141957474569358
 30
0.0
 11
10.38532139648353
 21
4.126471272361127
 31
0.0
  0
LINE
  5
1A5
330
1E
100
AcDbEntity
  8
ADP1DETAIL
100
AcDbLine
 10
10.39195178309099
 20
4.164074063385046
 30
0.0
 11
10.40743798529922
 21
4.141957474569358
 31
0.0
  0
LINE
  5
1A6
330
1E
100
AcDbEntity
  8
ADP1DETAIL
100
AcDbLine
 10
10.39766649591751
 20
4.203031751659557
 30
0.0
 11
10.41378940145442
 21
4.181374931100574
 31
0.0
  0
LINE
  5
1A7
330
1E
100
AcDbEntity
  8
ADP1DETAIL
100
AcDbLine
 10
10.41378940145442
 20
4.181374931100574
 30
0.0
 11
10.39213258089544
 21
4.165252025563656
 31
0.0
  0
LINE
  5
1A8
330
1E
100
AcDbEntity
  8
ADP1DETAIL
100
AcDbLine
 10
10.40224571772888
 20
4.242139169702505
 30
0.0
 11
10.41899168500677
 21
4.220960441232541
 31
0.0
  0
LINE
  5
1A9
330
1E
100
AcDbEntity
  8
ADP1DETAIL
100
AcDbLine
 10
10.41899168500677
 20
4.220960441232541
 30
0.0
 11
10.39781295653681
 21
4.204214473954657
 31
0.0
  0
LINE
  5
1AA
330
1E
100
AcDbEntity
  8
ADP1DETAIL
100
AcDbLine
 10
10.4056855740463
 20
4.281363228733911
 30
0.0
 11
10.42304043430499
 21
4.260680511671646
 31
0.0
  0
LINE
  5
1AB
330
1E
100
AcDbEntity
  8
ADP1DETAIL
100
AcDbLine
 10
10.42304043430499
 20
4.260680511671646
 30
0.0
 11
10.40235771724273
 21
4.243325651412955
 31
0.0
  0
LINE
  5
1AC
330
1E
100
AcDbEntity
  8
ADP1DETAIL
100
AcDbLine
 10
10.4079831544079
 20
4.320670741283873
 30
0.0
 11
10.42593222370298
 21
4.300501535272812
 31
0.0
  0
LINE
  5
1AD
330
1E
100
AcDbEntity
  8
ADP1DETAIL
100
AcDbLine
 10
10.42593222370298
 20
4.300501535272812
 30
0.0
 11
10.40576301769192
 21
4.282552465977727
 31
0.0
  0
LINE
  5
1AE
330
1E
100
AcDbEntity
  8
ADP1DETAIL
100
AcDbLine
 10
10.4091365148313
 20
4.360028449272493
 30
0.0
 11
10.4276646064582
 21
4.340389819474522
 31
0.0
  0
LINE
  5
1AF
330
1E
100
AcDbEntity
  8
ADP1DETAIL
100
AcDbLine
 10
10.40914467945845
 20
4.399403052149503
 30
0.0
 11
10.42823611680189
 21
4.380311614806073
 31
0.0
  0
LINE
  5
1B0
330
1E
100
AcDbEntity
  8
ADP1DETAIL
100
AcDbLine
 10
10.42823611680189
 20
4.380311614806073
 30
0.0
 11
10.40914467945845
 21
4.361220177462641
 31
0.0
  0
LINE
  5
1B1
330
1E
100
AcDbEntity
  8
ADP1DETAIL
100
AcDbLine
 10
10.40800764138126
 20
4.438761235069891
 30
0.0
 11
10.42764627117923
 21
4.420233143442993
 31
0.0
  0
LINE
  5
1B2
330
1E
100
AcDbEntity
  8
ADP1DETAIL
100
AcDbLine
 10
10.42764627117923
 20
4.420233143442993
 30
0.0
 11
10.40911817955233
 21
4.400594513645023
 31
0.0
  0
LINE
  5
1B3
330
1E
100
AcDbEntity
  8
ADP1DETAIL
100
AcDbLine
 10
10.40572636264745
 20
4.478069697081553
 30
0.0
 11
10.42589556865851
 21
4.460120627786469
 31
0.0
  0
LINE
  5
1B4
330
1E
100
AcDbEntity
  8
ADP1DETAIL
100
AcDbLine
 10
10.42589556865851
 20
4.460120627786469
 30
0.0
 11
10.40794649936343
 21
4.439951421775407
 31
0.0
  0
LINE
  5
1B5
330
1E
100
AcDbEntity
  8
ADP1DETAIL
100
AcDbLine
 10
10.40230277344659
 20
4.517295179301245
 30
0.0
 11
10.42298549050886
 21
4.499940319042554
 31
0.0
  0
LINE
  5
1B6
330
1E
100
AcDbEntity
  8
ADP1DETAIL
100
AcDbLine
 10
10.42298549050886
 20
4.499940319042554
 30
0.0
 11
10.40563063025017
 21
4.479257601980287
 31
0.0
  0
LINE
  5
1B7
330
1E
100
AcDbEntity
  8
ADP1DETAIL
100
AcDbLine
 10
10.39773977047694
 20
4.556404493054908
 30
0.0
 11
10.4189184989469
 21
4.539658525777023
 31
0.0
  0
LINE
  5
1B8
330
1E
100
AcDbEntity
  8
ADP1DETAIL
100
AcDbLine
 10
10.4189184989469
 20
4.539658525777023
 30
0.0
 11
10.40217253166901
 21
4.51847979730706
 31
0.0
  0
LINE
  5
1B9
330
1E
100
AcDbEntity
  8
ADP1DETAIL
100
AcDbLine
 10
10.4276646064582
 20
4.340389819474522
 30
0.0
 11
10.40802597666023
 21
4.321861727847625
 31
0.0
  0
LINE
  5
1BA
330
1E
100
AcDbEntity
  8
ADP1DETAIL
100
AcDbLine
 10
10.33415563540042
 20
3.935305765864312
 30
0.0
 11
10.34556606205575
 21
3.910836026935998
 31
0.0
  0
LINE
  5
1BB
330
1E
100
AcDbEntity
  8
ADP1DETAIL
100
AcDbLine
 10
10.34556606205575
 20
3.910836026935998
 30
0.0
 11
10.32109632312743
 21
3.899425600280671
 31
0.0
  0
LINE
  5
1BC
330
1E
100
AcDbEntity
  8
ADP1DETAIL
100
AcDbLine
 10
10.3465484604732
 20
3.972679249848269
 30
0.0
 11
10.35866575542292
 21
3.948551731891007
 31
0.0
  0
LINE
  5
1BD
330
1E
100
AcDbEntity
  8
ADP1DETAIL
100
AcDbLine
 10
10.35866575542292
 20
3.948551731891007
 30
0.0
 11
10.33453823746565
 21
3.936434436941291
 31
0.0
  0
LINE
  5
1BE
330
1E
100
AcDbEntity
  8
ADP1DETAIL
100
AcDbLine
 10
10.35784904549222
 20
4.010397364814574
 30
0.0
 11
10.37066295629506
 21
3.986632482117339
 31
0.0
  0
LINE
  5
1BF
330
1E
100
AcDbEntity
  8
ADP1DETAIL
100
AcDbLine
 10
10.37066295629506
 20
3.986632482117339
 30
0.0
 11
10.34689807359783
 21
3.973818571314502
 31
0.0
  0
LINE
  5
1C0
330
1E
100
AcDbEntity
  8
ADP1DETAIL
100
AcDbLine
 10
10.36804782903437
 20
4.048428197472353
 30
0.0
 11
10.38154751384251
 21
4.02504605749849
 31
0.0
  0
LINE
  5
1C1
330
1E
100
AcDbEntity
  8
ADP1DETAIL
100
AcDbLine
 10
10.38154751384251
 20
4.02504605749849
 30
0.0
 11
10.35816537386865
 21
4.01154637269035
 31
0.0
  0
LINE
  5
1C2
330
1E
100
AcDbEntity
  8
ADP1DETAIL
100
AcDbLine
 10
10.37713618191056
 20
4.086739569940348
 30
0.0
 11
10.3913102186429
 21
4.063759956314644
 31
0.0
  0
LINE
  5
1C3
330
1E
100
AcDbEntity
  8
ADP1DETAIL
100
AcDbLine
 10
10.3913102186429
 20
4.063759956314644
 30
0.0
 11
10.3683306050172
 21
4.049585919582303
 31
0.0
  0
LINE
  5
1C4
330
1E
100
AcDbEntity
  8
ADP1DETAIL
100
AcDbLine
 10
10.38510641446692
 20
4.125299066972612
 30
0.0
 11
10.39994281047331
 21
4.10274142274238
 31
0.0
  0
LINE
  5
1C5
330
1E
100
AcDbEntity
  8
ADP1DETAIL
100
AcDbLine
 10
10.39994281047331
 20
4.10274142274238
 30
0.0
 11
10.37738516624308
 21
4.087905026735982
 31
0.0
  0
LINE
  5
1C6
330
1E
100
AcDbEntity
  8
ADP1DETAIL
100
AcDbLine
 10
10.39195178309099
 20
4.164074063385045
 30
0.0
 11
10.40743798529922
 21
4.141957474569358
 31
0.0
  0
LINE
  5
1C7
330
1E
100
AcDbEntity
  8
ADP1DETAIL
100
AcDbLine
 10
10.40743798529922
 20
4.141957474569358
 30
0.0
 11
10.38532139648353
 21
4.126471272361129
 31
0.0
  0
LINE
  5
1C8
330
1E
100
AcDbEntity
  8
ADP1DETAIL
100
AcDbLine
 10
10.24418508946978
 20
5.066568990633251
 30
0.0
 11
10.23719713840732
 21
5.040489602227363
 31
0.0
  0
LINE
  5
1C9
330
1E
100
AcDbEntity
  8
ADP1DETAIL
100
AcDbLine
 10
10.21810570106389
 20
5.073556941695706
 30
0.0
 11
10.24418508946978
 21
5.066568990633251
 31
0.0
  0
LINE
  5
1CA
330
1E
100
AcDbEntity
  8
ADP1DETAIL
100
AcDbLine
 10
10.22371350385779
 20
5.100847125779402
 30
0.0
 11
10.21748702072423
 21
5.074575527665395
 31
0.0
  0
LINE
  5
1CB
330
1E
100
AcDbEntity
  8
ADP1DETAIL
100
AcDbLine
 10
10.40732851586241
 20
4.618656177708063
 30
0.0
 11
10.39184231365418
 21
4.596539588892374
 31
0.0
  0
LINE
  5
1CC
330
1E
100
AcDbEntity
  8
ADP1DETAIL
100
AcDbLine
 10
10.38521192704672
 20
4.634142379916292
 30
0.0
 11
10.40732851586241
 21
4.618656177708063
 31
0.0
  0
LINE
  5
1CD
330
1E
100
AcDbEntity
  8
ADP1DETAIL
100
AcDbLine
 10
10.37725768639242
 20
4.672705179010718
 30
0.0
 11
10.39981533062266
 21
4.657868783004321
 31
0.0
  0
LINE
  5
1CE
330
1E
100
AcDbEntity
  8
ADP1DETAIL
100
AcDbLine
 10
10.39981533062266
 20
4.657868783004321
 30
0.0
 11
10.38497893461626
 21
4.635311138774088
 31
0.0
  0
LINE
  5
1CF
330
1E
100
AcDbEntity
  8
ADP1DETAIL
100
AcDbLine
 10
10.36818522261337
 20
4.711020317263914
 30
0.0
 11
10.39116483623908
 21
4.696846280531571
 31
0.0
  0
LINE
  5
1D0
330
1E
100
AcDbEntity
  8
ADP1DETAIL
100
AcDbLine
 10
10.39116483623908
 20
4.696846280531571
 30
0.0
 11
10.37699079950674
 21
4.673866666905867
 31
0.0
  0
LINE
  5
1D1
330
1E
100
AcDbEntity
  8
ADP1DETAIL
100
AcDbLine
 10
10.35800221191968
 20
4.749055376243699
 30
0.0
 11
10.38138435189354
 21
4.73555569143556
 31
0.0
  0
LINE
  5
1D2
330
1E
100
AcDbEntity
  8
ADP1DETAIL
100
AcDbLine
 10
10.38138435189354
 20
4.73555569143556
 30
0.0
 11
10.3678846670854
 21
4.712173551461698
 31
0.0
  0
LINE
  5
1D3
330
1E
100
AcDbEntity
  8
ADP1DETAIL
100
AcDbLine
 10
10.34671727015502
 20
4.786778174492924
 30
0.0
 11
10.37048215285226
 21
4.773964263690087
 31
0.0
  0
LINE
  5
1D4
330
1E
100
AcDbEntity
  8
ADP1DETAIL
100
AcDbLine
 10
10.37048215285226
 20
4.773964263690087
 30
0.0
 11
10.35766824204942
 21
4.750199380992852
 31
0.0
  0
LINE
  5
1D5
330
1E
100
AcDbEntity
  8
ADP1DETAIL
100
AcDbLine
 10
10.33433994550676
 20
4.824156794758196
 30
0.0
 11
10.35846746346403
 21
4.81203949980848
 31
0.0
  0
LINE
  5
1D6
330
1E
100
AcDbEntity
  8
ADP1DETAIL
100
AcDbLine
 10
10.32088071042726
 20
4.861159610995048
 30
0.0
 11
10.34535044935558
 21
4.849749184339722
 31
0.0
  0
LINE
  5
1D7
330
1E
100
AcDbEntity
  8
ADP1DETAIL
100
AcDbLine
 10
10.34535044935558
 20
4.849749184339722
 30
0.0
 11
10.33394002270025
 21
4.825279445411409
 31
0.0
  0
LINE
  5
1D8
330
1E
100
AcDbEntity
  8
ADP1DETAIL
100
AcDbLine
 10
10.3063509527731
 20
4.897755315126749
 30
0.0
 11
10.33114220883038
 21
4.887061411125928
 31
0.0
  0
LINE
  5
1D9
330
1E
100
AcDbEntity
  8
ADP1DETAIL
100
AcDbLine
 10
10.33114220883038
 20
4.887061411125928
 30
0.0
 11
10.32044830482956
 21
4.862270155068648
 31
0.0
  0
LINE
  5
1DA
330
1E
100
AcDbEntity
  8
ADP1DETAIL
100
AcDbLine
 10
10.29076296616985
 20
4.933912943534048
 30
0.0
 11
10.31585476347842
 21
4.923944610298151
 31
0.0
  0
LINE
  5
1DB
330
1E
100
AcDbEntity
  8
ADP1DETAIL
100
AcDbLine
 10
10.31585476347842
 20
4.923944610298151
 30
0.0
 11
10.30588643024252
 21
4.898852812989577
 31
0.0
  0
LINE
  5
1DC
330
1E
100
AcDbEntity
  8
ADP1DETAIL
100
AcDbLine
 10
10.2741299396104
 20
4.969601903253495
 30
0.0
 11
10.29950104800469
 21
4.960367574987632
 31
0.0
  0
LINE
  5
1DD
330
1E
100
AcDbEntity
  8
ADP1DETAIL
100
AcDbLine
 10
10.29950104800469
 20
4.960367574987632
 30
0.0
 11
10.29026671973882
 21
4.934996466593344
 31
0.0
  0
LINE
  5
1DE
330
1E
100
AcDbEntity
  8
ADP1DETAIL
100
AcDbLine
 10
10.2564659462958
 20
5.004791997862137
 30
0.0
 11
10.28209489928516
 21
4.996299487729938
 31
0.0
  0
LINE
  5
1DF
330
1E
100
AcDbEntity
  8
ADP1DETAIL
100
AcDbLine
 10
10.28209489928516
 20
4.996299487729938
 30
0.0
 11
10.27360238915296
 21
4.970670534740576
 31
0.0
  0
LINE
  5
1E0
330
1E
100
AcDbEntity
  8
ADP1DETAIL
100
AcDbLine
 10
10.23778593172787
 20
5.039453453026712
 30
0.0
 11
10.2636510446594
 21
5.031709946539603
 31
0.0
  0
LINE
  5
1E1
330
1E
100
AcDbEntity
  8
ADP1DETAIL
100
AcDbLine
 10
10.2636510446594
 20
5.031709946539603
 30
0.0
 11
10.25590753817229
 21
5.00584483360808
 31
0.0
  0
LINE
  5
1E2
330
1E
100
AcDbEntity
  8
ADP1DETAIL
100
AcDbLine
 10
10.21810570106389
 20
5.073556941695706
 30
0.0
 11
10.24418508946978
 21
5.066568990633251
 31
0.0
  0
LINE
  5
1E3
330
1E
100
AcDbEntity
  8
ADP1DETAIL
100
AcDbLine
 10
10.24418508946978
 20
5.066568990633251
 30
0.0
 11
10.23719713840732
 21
5.040489602227363
 31
0.0
  0
LINE
  5
1E4
330
1E
100
AcDbEntity
  8
ADP1DETAIL
100
AcDbLine
 10
10.35846746346403
 20
4.81203949980848
 30
0.0
 11
10.34635016851431
 21
4.787911981851218
 31
0.0
  0
LINE
  5
1E5
330
1E
100
AcDbEntity
  8
ADP1DETAIL
100
AcDbLine
 10
10.39204121449456
 20
4.595364547958609
 30
0.0
 11
10.41369803505354
 21
4.579241642421687
 31
0.0
  0
LINE
  5
1E6
330
1E
100
AcDbEntity
  8
ADP1DETAIL
100
AcDbLine
 10
10.38521192704672
 20
4.634142379916292
 30
0.0
 11
10.40732851586241
 21
4.618656177708064
 31
0.0
  0
LINE
  5
1E7
330
1E
100
AcDbEntity
  8
ADP1DETAIL
100
AcDbLine
 10
10.40732851586241
 20
4.618656177708064
 30
0.0
 11
10.39184231365418
 21
4.596539588892376
 31
0.0
  0
LINE
  5
1E8
330
1E
100
AcDbEntity
  8
ADP1DETAIL
100
AcDbLine
 10
9.875043484833947
 20
5.481178298403087
 30
0.0
 11
9.878956553672557
 21
5.454463997889304
 31
0.0
  0
LINE
  5
1E9
330
1E
100
AcDbEntity
  8
ADP1DETAIL
100
AcDbLine
 10
9.848329184320164
 20
5.477265229564476
 30
0.0
 11
9.875043484833947
 21
5.481178298403087
 31
0.0
  0
LINE
  5
1EA
330
1E
100
AcDbEntity
  8
ADP1DETAIL
100
AcDbLine
 10
9.816080080918135
 20
5.499856262036433
 30
0.0
 11
9.842669269442687
 21
5.504544653368456
 31
0.0
  0
LINE
  5
1EB
330
1E
100
AcDbEntity
  8
ADP1DETAIL
100
AcDbLine
 10
9.842669269442687
 20
5.504544653368456
 30
0.0
 11
9.847357660774711
 21
5.477955464843903
 31
0.0
  0
LINE
  5
1EC
330
1E
100
AcDbEntity
  8
ADP1DETAIL
100
AcDbLine
 10
9.78318756667109
 20
5.521499781271793
 30
0.0
 11
9.809629146098373
 21
5.526959528250093
 31
0.0
  0
LINE
  5
1ED
330
1E
100
AcDbEntity
  8
ADP1DETAIL
100
AcDbLine
 10
9.809629146098373
 20
5.526959528250093
 30
0.0
 11
9.815088893076673
 21
5.500517948822809
 31
0.0
  0
LINE
  5
1EE
330
1E
100
AcDbEntity
  8
ADP1DETAIL
100
AcDbLine
 10
9.749679471929917
 20
5.542177474692492
 30
0.0
 11
9.775951070043927
 21
5.548403957826044
 31
0.0
  0
LINE
  5
1EF
330
1E
100
AcDbEntity
  8
ADP1DETAIL
100
AcDbLine
 10
9.715584147888076
 20
5.561871846905521
 30
0.0
 11
9.741663536293964
 21
5.568859797967977
 31
0.0
  0
LINE
  5
1F0
330
1E
100
AcDbEntity
  8
ADP1DETAIL
100
AcDbLine
 10
9.741663536293964
 20
5.568859797967977
 30
0.0
 11
9.748651487356418
 21
5.542780409562089
 31
0.0
  0
LINE
  5
1F1
330
1E
100
AcDbEntity
  8
ADP1DETAIL
100
AcDbLine
 10
9.680930442593631
 20
5.580566234505796
 30
0.0
 11
9.706795555525154
 21
5.588309740992905
 31
0.0
  0
LINE
  5
1F2
330
1E
100
AcDbEntity
  8
ADP1DETAIL
100
AcDbLine
 10
9.706795555525154
 20
5.588309740992905
 30
0.0
 11
9.714539062012267
 21
5.562444628061381
 31
0.0
  0
LINE
  5
1F3
330
1E
100
AcDbEntity
  8
ADP1DETAIL
100
AcDbLine
 10
9.645747676540931
 20
5.598244820175035
 30
0.0
 11
9.671376629530293
 21
5.606737330307234
 31
0.0
  0
LINE
  5
1F4
330
1E
100
AcDbEntity
  8
ADP1DETAIL
100
AcDbLine
 10
9.671376629530293
 20
5.606737330307234
 30
0.0
 11
9.679869139662493
 21
5.581108377317873
 31
0.0
  0
LINE
  5
1F5
330
1E
100
AcDbEntity
  8
ADP1DETAIL
100
AcDbLine
 10
9.610065617862556
 20
5.614892646064815
 30
0.0
 11
9.635436726256841
 21
5.624126974330676
 31
0.0
  0
LINE
  5
1F6
330
1E
100
AcDbEntity
  8
ADP1DETAIL
100
AcDbLine
 10
9.635436726256841
 20
5.624126974330676
 30
0.0
 11
9.644671054522705
 21
5.598755865936388
 31
0.0
  0
LINE
  5
1F7
330
1E
100
AcDbEntity
  8
ADP1DETAIL
100
AcDbLine
 10
9.573914457142478
 20
5.630495626452383
 30
0.0
 11
9.599006254451051
 21
5.640463959688281
 31
0.0
  0
LINE
  5
1F8
330
1E
100
AcDbEntity
  8
ADP1DETAIL
100
AcDbLine
 10
9.599006254451051
 20
5.640463959688281
 30
0.0
 11
9.608974587686947
 21
5.615372162379706
 31
0.0
  0
LINE
  5
1F9
330
1E
100
AcDbEntity
  8
ADP1DETAIL
100
AcDbLine
 10
9.562116037929127
 20
5.655734463659419
 30
0.0
 11
9.572809941929946
 21
5.63094320760214
 31
0.0
  0
LINE
  5
1FA
330
1E
100
AcDbEntity
  8
ADP1DETAIL
100
AcDbLine
 10
9.775951070043927
 20
5.548403957826044
 30
0.0
 11
9.782177553177483
 21
5.522132359712037
 31
0.0
  0
LINE
  5
1FB
330
1E
100
AcDbEntity
  8
ADP1DETAIL
100
AcDbLine
 10
9.937685211084824
 20
5.431671017617059
 30
0.0
 11
9.94003836119745
 21
5.404774388753503
 31
0.0
  0
LINE
  5
1FC
330
1E
100
AcDbEntity
  8
ADP1DETAIL
100
AcDbLine
 10
9.910788582221268
 20
5.429317867504433
 30
0.0
 11
9.937685211084824
 21
5.431671017617059
 31
0.0
  0
LINE
  5
1FD
330
1E
100
AcDbEntity
  8
ADP1DETAIL
100
AcDbLine
 10
9.879907590916085
 20
5.453745798124785
 30
0.0
 11
9.906724400453825
 21
5.456880233623081
 31
0.0
  0
LINE
  5
1FE
330
1E
100
AcDbEntity
  8
ADP1DETAIL
100
AcDbLine
 10
9.906724400453825
 20
5.456880233623081
 30
0.0
 11
9.909858835952121
 21
5.430063424085343
 31
0.0
  0
LINE
  5
1FF
330
1E
100
AcDbEntity
  8
ADP1DETAIL
100
AcDbLine
 10
10.08000966560945
 20
5.26488078660316
 30
0.0
 11
10.10690629447301
 21
5.262527636490535
 31
0.0
  0
LINE
  5
200
330
1E
100
AcDbEntity
  8
ADP1DETAIL
100
AcDbLine
 10
10.0538396915878
 20
5.294300029932822
 30
0.0
 11
10.08079338254391
 21
5.29273015620579
 31
0.0
  0
LINE
  5
201
330
1E
100
AcDbEntity
  8
ADP1DETAIL
100
AcDbLine
 10
10.08079338254391
 20
5.29273015620579
 30
0.0
 11
10.07922350881689
 21
5.265776465249679
 31
0.0
  0
LINE
  5
202
330
1E
100
AcDbEntity
  8
ADP1DETAIL
100
AcDbLine
 10
10.02682513835363
 20
5.322945681120074
 30
0.0
 11
10.05381308588882
 21
5.322160412048543
 31
0.0
  0
LINE
  5
203
330
1E
100
AcDbEntity
  8
ADP1DETAIL
100
AcDbLine
 10
10.05381308588882
 20
5.322160412048543
 30
0.0
 11
10.05302781681728
 21
5.295172464513361
 31
0.0
  0
LINE
  5
204
330
1E
100
AcDbEntity
  8
ADP1DETAIL
100
AcDbLine
 10
9.998988862916
 20
5.350793503084162
 30
0.0
 11
10.02598823253227
 21
5.350793503084161
 31
0.0
  0
LINE
  5
205
330
1E
100
AcDbEntity
  8
ADP1DETAIL
100
AcDbLine
 10
10.02598823253227
 20
5.350793503084161
 30
0.0
 11
10.02598823253227
 21
5.323794133467882
 31
0.0
  0
LINE
  5
206
330
1E
100
AcDbEntity
  8
ADP1DETAIL
100
AcDbLine
 10
9.970354417542962
 20
5.377819933787496
 30
0.0
 11
9.997342365078145
 21
5.378605202859029
 31
0.0
  0
LINE
  5
207
330
1E
100
AcDbEntity
  8
ADP1DETAIL
100
AcDbLine
 10
9.997342365078145
 20
5.378605202859029
 30
0.0
 11
9.998127634149675
 21
5.351617255323846
 31
0.0
  0
LINE
  5
208
330
1E
100
AcDbEntity
  8
ADP1DETAIL
100
AcDbLine
 10
9.94094602983405
 20
5.404002106171504
 30
0.0
 11
9.967899720790162
 21
5.405571979898533
 31
0.0
  0
LINE
  5
209
330
1E
100
AcDbEntity
  8
ADP1DETAIL
100
AcDbLine
 10
9.967899720790162
 20
5.405571979898533
 30
0.0
 11
9.969469594517191
 21
5.378618288942422
 31
0.0
  0
LINE
  5
20A
330
1E
100
AcDbEntity
  8
ADP1DETAIL
100
AcDbLine
 10
9.910788582221268
 20
5.429317867504434
 30
0.0
 11
9.937685211084824
 21
5.431671017617061
 31
0.0
  0
LINE
  5
20B
330
1E
100
AcDbEntity
  8
ADP1DETAIL
100
AcDbLine
 10
9.937685211084824
 20
5.431671017617061
 30
0.0
 11
9.940038361197448
 21
5.404774388753505
 31
0.0
  0
LINE
  5
20C
330
1E
100
AcDbEntity
  8
ADP1DETAIL
100
AcDbLine
 10
10.75937017651892
 20
5.695472476582438
 30
0.0
 11
10.82187017651893
 21
5.757972476582438
 31
0.0
  0
LINE
  5
20D
330
1E
100
AcDbEntity
  8
ADP1DETAIL
100
AcDbLine
 10
15.69687017651892
 20
3.099833205666046
 30
0.0
 11
15.69687017651892
 21
5.757972476582438
 31
0.0
  0
LINE
  5
20E
330
1E
100
AcDbEntity
  8
ADP1DETAIL
100
AcDbLine
 10
15.75937017651892
 20
3.162333205666046
 30
0.0
 11
15.75937017651892
 21
5.695472476582438
 31
0.0
  0
LINE
  5
20F
330
1E
100
AcDbEntity
  8
ADP1DETAIL
100
AcDbLine
 10
15.69687017651892
 20
3.099833205666046
 30
0.0
 11
15.75937017651892
 21
3.162333205666046
 31
0.0
  0
LINE
  5
210
330
1E
100
AcDbEntity
  8
ADP1DETAIL
100
AcDbLine
 10
15.69687017651892
 20
5.757972476582438
 30
0.0
 11
15.75937017651892
 21
5.695472476582438
 31
0.0
  0
TEXT
  5
214
330
1E
100
AcDbEntity
  8
ADPDIM
100
AcDbText
 10
5.258188649111042
 20
2.194568147301981
 30
0.0
 40
0.125
  1
J U L I U S  B L U M  &  C O . ,  I N C .      ( 8 0 0 )  5 2 6 - 6 2 9 3        W W W . J U L I U S B L U M . C O M        P A R T  N o .  1 1 7 0
 41
1.25
  7
ARIAL_WIDE
 72
     1
 11
11.78391767366765
 21
2.319568147301981
 31
0.0
100
AcDbText
 73
     3
  0
ENDSEC
  0
SECTION
  2
OBJECTS
  0
DICTIONARY
  5
C
330
0
100
AcDbDictionary
  3
ACAD_GROUP
350
D
  3
ACAD_LAYOUT
350
19
  3
ACAD_MLINESTYLE
350
16
  3
ACAD_PLOTSETTINGS
350
18
  3
ACAD_PLOTSTYLENAME
350
E
  3
ACDBHEADERROUNDTRIPXREC
350
3E1
  3
ACDBVARIABLEDICTIONARY
350
285
  0
DICTIONARY
  5
250
330
1E
100
AcDbDictionary
280
     1
  3
ACAD_LAYOUTSELFREF
360
403
  0
DICTIONARY
  5
252
330
1A
100
AcDbDictionary
280
     1
  3
ACAD_LAYOUTSELFREF
360
402
  0
DICTIONARY
  5
D
102
{ACAD_REACTORS
330
C
102
}
330
C
100
AcDbDictionary
  0
DICTIONARY
  5
19
102
{ACAD_REACTORS
330
C
102
}
330
C
100
AcDbDictionary
  0
DICTIONARY
  5
16
102
{ACAD_REACTORS
330
C
102
}
330
C
100
AcDbDictionary
  3
STANDARD
350
17
  0
DICTIONARY
  5
18
102
{ACAD_REACTORS
330
C
102
}
330
C
100
AcDbDictionary
  0
ACDBDICTIONARYWDFLT
  5
E
102
{ACAD_REACTORS
330
C
102
}
330
C
100
AcDbDictionary
281
     1
  3
Normal
350
F
100
AcDbDictionaryWithDefault
340
F
  0
DICTIONARY
  5
3E1
102
{ACAD_REACTORS
330
C
102
}
330
C
100
AcDbDictionary
  3
CEPSNTYPE
350
3EB
  3
DIMSTYLEDATA
350
3EF
  3
FINGERPRINTGUID
350
3EC
  3
HYPERLINKBASE
350
3E4
  3
INSUNITS
350
3EA
  3
LAYOUTDICT
350
3E6
  3
LWETCUNION
350
3E9
  3
PLOTSETDICT
350
3E7
  3
PLOTSTYLNAMDICT
350
3E8
  3
PSVPSCALE
350
3EE
  3
PUCSBASE
350
3F2
  3
PUCSORGBACK
350
3F8
  3
PUCSORGBOTTOM
350
3F4
  3
PUCSORGFRONT
350
3F7
  3
PUCSORGLEFT
350
3F5
  3
PUCSORGRIGHT
350
3F6
  3
PUCSORGTOP
350
3F3
  3
PUCSORTHOREF
350
3F0
  3
PUCSORTHOVIEW
350
3F1
  3
STYLESHEET
350
3E5
  3
TSTACKALIGN
350
3E2
  3
TSTACKSIZE
350
3E3
  3
UCSBASE
350
3FB
  3
UCSORGBACK
350
401
  3
UCSORGBOTTOM
350
3FD
  3
UCSORGFRONT
350
400
  3
UCSORGLEFT
350
3FE
  3
UCSORGRIGHT
350
3FF
  3
UCSORGTOP
350
3FC
  3
UCSORTHOREF
350
3F9
  3
UCSORTHOVIEW
350
3FA
  3
VERSIONGUID
350
3ED
  0
DICTIONARY
  5
285
102
{ACAD_REACTORS
330
C
102
}
330
C
100
AcDbDictionary
  3
DIMASSOC
350
287
  3
HIDETEXT
350
286
  0
XRECORD
  5
403
102
{ACAD_REACTORS
330
250
102
}
330
250
100
AcDbXrecord
340
1E
  0
XRECORD
  5
402
102
{ACAD_REACTORS
330
252
102
}
330
252
100
AcDbXrecord
340
1A
  0
MLINESTYLE
  5
17
102
{ACAD_REACTORS
330
16
102
}
330
16
100
AcDbMlineStyle
  2
STANDARD
 70
     0
  3

 62
   256
 51
90.0
 52
90.0
 71
     2
 49
0.5
 62
   256
  6
BYLAYER
 49
-0.5
 62
   256
  6
BYLAYER
  0
ACDBPLACEHOLDER
  5
F
102
{ACAD_REACTORS
330
E
102
}
330
E
100
AcDbPlaceHolder
280
     0
  0
XRECORD
  5
3EB
102
{ACAD_REACTORS
330
3E1
102
}
330
3E1
100
AcDbXrecord
 90
        0
  0
XRECORD
  5
3EF
102
{ACAD_REACTORS
330
3E1
102
}
330
3E1
100
AcDbXrecord
1000
DSTYLE
1002
{
1070
   277
 70
     5
1070
   279
 70
     2
1002
}
  0
XRECORD
  5
3EC
102
{ACAD_REACTORS
330
3E1
102
}
330
3E1
100
AcDbXrecord
  1
{B4483431-34CE-4667-AE51-0AC8EB612B35}
  0
XRECORD
  5
3E4
102
{ACAD_REACTORS
330
3E1
102
}
330
3E1
100
AcDbXrecord
  1

  0
XRECORD
  5
3EA
102
{ACAD_REACTORS
330
3E1
102
}
330
3E1
100
AcDbXrecord
 90
        0
  0
XRECORD
  5
3E6
102
{ACAD_REACTORS
330
3E1
102
}
330
3E1
100
AcDbXrecord
340
19
  0
XRECORD
  5
3E9
102
{ACAD_REACTORS
330
3E1
102
}
330
3E1
100
AcDbXrecord
 90
    14877
  0
XRECORD
  5
3E7
102
{ACAD_REACTORS
330
3E1
102
}
330
3E1
100
AcDbXrecord
340
18
  0
XRECORD
  5
3E8
102
{ACAD_REACTORS
330
3E1
102
}
330
3E1
100
AcDbXrecord
340
E
  0
XRECORD
  5
3EE
102
{ACAD_REACTORS
330
3E1
102
}
330
3E1
100
AcDbXrecord
 40
0.0
  0
XRECORD
  5
3F2
102
{ACAD_REACTORS
330
3E1
102
}
330
3E1
100
AcDbXrecord
340
0
  0
XRECORD
  5
3F8
102
{ACAD_REACTORS
330
3E1
102
}
330
3E1
100
AcDbXrecord
 10
0.0
 20
0.0
 30
0.0
  0
XRECORD
  5
3F4
102
{ACAD_REACTORS
330
3E1
102
}
330
3E1
100
AcDbXrecord
 10
0.0
 20
0.0
 30
0.0
  0
XRECORD
  5
3F7
102
{ACAD_REACTORS
330
3E1
102
}
330
3E1
100
AcDbXrecord
 10
0.0
 20
0.0
 30
0.0
  0
XRECORD
  5
3F5
102
{ACAD_REACTORS
330
3E1
102
}
330
3E1
100
AcDbXrecord
 10
0.0
 20
0.0
 30
0.0
  0
XRECORD
  5
3F6
102
{ACAD_REACTORS
330
3E1
102
}
330
3E1
100
AcDbXrecord
 10
0.0
 20
0.0
 30
0.0
  0
XRECORD
  5
3F3
102
{ACAD_REACTORS
330
3E1
102
}
330
3E1
100
AcDbXrecord
 10
0.0
 20
0.0
 30
0.0
  0
XRECORD
  5
3F0
102
{ACAD_REACTORS
330
3E1
102
}
330
3E1
100
AcDbXrecord
340
0
  0
XRECORD
  5
3F1
102
{ACAD_REACTORS
330
3E1
102
}
330
3E1
100
AcDbXrecord
 70
     0
  0
XRECORD
  5
3E5
102
{ACAD_REACTORS
330
3E1
102
}
330
3E1
100
AcDbXrecord
  1

  0
XRECORD
  5
3E2
102
{ACAD_REACTORS
330
3E1
102
}
330
3E1
100
AcDbXrecord
 90
        1
  0
XRECORD
  5
3E3
102
{ACAD_REACTORS
330
3E1
102
}
330
3E1
100
AcDbXrecord
 90
       70
  0
XRECORD
  5
3FB
102
{ACAD_REACTORS
330
3E1
102
}
330
3E1
100
AcDbXrecord
340
0
  0
XRECORD
  5
401
102
{ACAD_REACTORS
330
3E1
102
}
330
3E1
100
AcDbXrecord
 10
0.0
 20
0.0
 30
0.0
  0
XRECORD
  5
3FD
102
{ACAD_REACTORS
330
3E1
102
}
330
3E1
100
AcDbXrecord
 10
0.0
 20
0.0
 30
0.0
  0
XRECORD
  5
400
102
{ACAD_REACTORS
330
3E1
102
}
330
3E1
100
AcDbXrecord
 10
0.0
 20
0.0
 30
0.0
  0
XRECORD
  5
3FE
102
{ACAD_REACTORS
330
3E1
102
}
330
3E1
100
AcDbXrecord
 10
0.0
 20
0.0
 30
0.0
  0
XRECORD
  5
3FF
102
{ACAD_REACTORS
330
3E1
102
}
330
3E1
100
AcDbXrecord
 10
0.0
 20
0.0
 30
0.0
  0
XRECORD
  5
3FC
102
{ACAD_REACTORS
330
3E1
102
}
330
3E1
100
AcDbXrecord
 10
0.0
 20
0.0
 30
0.0
  0
XRECORD
  5
3F9
102
{ACAD_REACTORS
330
3E1
102
}
330
3E1
100
AcDbXrecord
340
0
  0
XRECORD
  5
3FA
102
{ACAD_REACTORS
330
3E1
102
}
330
3E1
100
AcDbXrecord
 70
     0
  0
XRECORD
  5
3ED
102
{ACAD_REACTORS
330
3E1
102
}
330
3E1
100
AcDbXrecord
  1
{F00B544B-8760-40F7-ACEF-0C2BE3E53E5E}
  0
DICTIONARYVAR
  5
287
102
{ACAD_REACTORS
330
285
102
}
330
285
100
DictionaryVariables
280
     0
  1
2
  0
DICTIONARYVAR
  5
286
102
{ACAD_REACTORS
330
285
102
}
330
285
100
DictionaryVariables
280
     0
  1
1
  0
ENDSEC
  0
EOF
