  0
SECTION
  2
HEADER
  9
$ACADVER
  1
AC1014
  9
$ACADMAINTVER
 70
     9
  9
$DWGCODEPAGE
  3
ANSI_1252
  9
$INSBASE
 10
0.3700496341087582
 20
-34.724777599382
 30
0.0
  9
$EXTMIN
 10
-9.03811164658701
 20
-36.03709565652009
 30
0.0
  9
$EXTMAX
 10
7.276210914804531
 20
-30.49015421147296
 30
0.0
  9
$LIMMIN
 10
0.0
 20
0.0
  9
$LIMMAX
 10
36.0
 20
36.0
  9
$ORTHOMODE
 70
     1
  9
$REGENMODE
 70
     1
  9
$FILLMODE
 70
     1
  9
$QTEXTMODE
 70
     0
  9
$MIRRTEXT
 70
     1
  9
$DRAGMODE
 70
     0
  9
$LTSCALE
 40
1.0
  9
$OSMODE
 70
    37
  9
$ATTMODE
 70
     1
  9
$TEXTSIZE
 40
0.2
  9
$TRACEWID
 40
0.05
  9
$TEXTSTYLE
  7
STANDARD
  9
$CLAYER
  8
0
  9
$CELTYPE
  6
BYLAYER
  9
$CECOLOR
 62
   256
  9
$CELTSCALE
 40
1.0
  9
$DELOBJ
 70
     1
  9
$DISPSILH
 70
     0
  9
$DIMSCALE
 40
1.0
  9
$DIMASZ
 40
0.125
  9
$DIMEXO
 40
0.0625
  9
$DIMDLI
 40
0.38
  9
$DIMRND
 40
0.0
  9
$DIMDLE
 40
0.0
  9
$DIMEXE
 40
0.18
  9
$DIMTP
 40
0.0
  9
$DIMTM
 40
0.0
  9
$DIMTXT
 40
0.125
  9
$DIMCEN
 40
0.1875
  9
$DIMTSZ
 40
0.125
  9
$DIMTOL
 70
     0
  9
$DIMLIM
 70
     0
  9
$DIMTIH
 70
     0
  9
$DIMTOH
 70
     0
  9
$DIMSE1
 70
     0
  9
$DIMSE2
 70
     0
  9
$DIMTAD
 70
     0
  9
$DIMZIN
 70
     3
  9
$DIMBLK
  1

  9
$DIMASO
 70
     1
  9
$DIMSHO
 70
     1
  9
$DIMPOST
  1

  9
$DIMAPOST
  1

  9
$DIMALT
 70
     0
  9
$DIMALTD
 70
     1
  9
$DIMALTF
 40
25.4
  9
$DIMLFAC
 40
1.0
  9
$DIMTOFL
 70
     0
  9
$DIMTVP
 40
0.0
  9
$DIMTIX
 70
     0
  9
$DIMSOXD
 70
     0
  9
$DIMSAH
 70
     0
  9
$DIMBLK1
  1

  9
$DIMBLK2
  1

  9
$DIMSTYLE
  2
STANDARD
  9
$DIMCLRD
 70
     0
  9
$DIMCLRE
 70
     0
  9
$DIMCLRT
 70
     0
  9
$DIMTFAC
 40
1.0
  9
$DIMGAP
 40
0.125
  9
$DIMJUST
 70
     0
  9
$DIMSD1
 70
     0
  9
$DIMSD2
 70
     0
  9
$DIMTOLJ
 70
     1
  9
$DIMTZIN
 70
     3
  9
$DIMALTZ
 70
     3
  9
$DIMALTTZ
 70
     3
  9
$DIMFIT
 70
     5
  9
$DIMUPT
 70
     0
  9
$DIMUNIT
 70
     5
  9
$DIMDEC
 70
     4
  9
$DIMTDEC
 70
     4
  9
$DIMALTU
 70
     5
  9
$DIMALTTD
 70
     1
  9
$DIMTXSTY
  7
STANDARD
  9
$DIMAUNIT
 70
     0
  9
$LUNITS
 70
     5
  9
$LUPREC
 70
     4
  9
$SKETCHINC
 40
0.1
  9
$FILLETRAD
 40
0.187
  9
$AUNITS
 70
     0
  9
$AUPREC
 70
     0
  9
$MENU
  1
acad
  9
$ELEVATION
 40
0.0
  9
$PELEVATION
 40
0.0
  9
$THICKNESS
 40
0.0
  9
$LIMCHECK
 70
     0
  9
$BLIPMODE
 70
     0
  9
$CHAMFERA
 40
0.0
  9
$CHAMFERB
 40
0.0
  9
$CHAMFERC
 40
0.0
  9
$CHAMFERD
 40
0.0
  9
$SKPOLY
 70
     0
  9
$TDCREATE
 40
2450406.485719328
  9
$TDUPDATE
 40
2452297.079542824
  9
$TDINDWG
 40
0.0350535185
  9
$TDUSRTIMER
 40
0.0350535185
  9
$USRTIMER
 70
     1
  9
$ANGBASE
 50
0.0
  9
$ANGDIR
 70
     0
  9
$PDMODE
 70
     0
  9
$PDSIZE
 40
0.0
  9
$PLINEWID
 40
0.0
  9
$COORDS
 70
     2
  9
$SPLFRAME
 70
     0
  9
$SPLINETYPE
 70
     6
  9
$SPLINESEGS
 70
     8
  9
$ATTDIA
 70
     0
  9
$ATTREQ
 70
     1
  9
$HANDLING
 70
 22529
  9
$HANDSEED
  5
2FF
  9
$SURFTAB1
 70
     6
  9
$SURFTAB2
 70
     6
  9
$SURFTYPE
 70
     6
  9
$SURFU
 70
     6
  9
$SURFV
 70
     6
  9
$UCSNAME
  2

  9
$UCSORG
 10
0.0
 20
0.0
 30
0.0
  9
$UCSXDIR
 10
1.0
 20
0.0
 30
0.0
  9
$UCSYDIR
 10
0.0
 20
1.0
 30
0.0
  9
$PUCSNAME
  2

  9
$PUCSORG
 10
0.0
 20
0.0
 30
0.0
  9
$PUCSXDIR
 10
1.0
 20
0.0
 30
0.0
  9
$PUCSYDIR
 10
0.0
 20
1.0
 30
0.0
  9
$USERI1
 70
     0
  9
$USERI2
 70
     0
  9
$USERI3
 70
     0
  9
$USERI4
 70
     0
  9
$USERI5
 70
     0
  9
$USERR1
 40
0.0
  9
$USERR2
 40
0.0
  9
$USERR3
 40
0.0
  9
$USERR4
 40
0.0
  9
$USERR5
 40
0.0
  9
$WORLDVIEW
 70
     1
  9
$SHADEDGE
 70
     3
  9
$SHADEDIF
 70
    70
  9
$TILEMODE
 70
     1
  9
$MAXACTVP
 70
    15
  9
$PINSBASE
 10
0.0008545024320483
 20
1.750284242913068
 30
0.0
  9
$PLIMCHECK
 70
     0
  9
$PEXTMIN
 10
1.000000000000000E+20
 20
1.000000000000000E+20
 30
1.000000000000000E+20
  9
$PEXTMAX
 10
-1.000000000000000E+20
 20
-1.000000000000000E+20
 30
-1.000000000000000E+20
  9
$PLIMMIN
 10
0.0
 20
0.0
  9
$PLIMMAX
 10
12.0
 20
9.0
  9
$UNITMODE
 70
     0
  9
$VISRETAIN
 70
     0
  9
$PLINEGEN
 70
     0
  9
$PSLTSCALE
 70
     1
  9
$TREEDEPTH
 70
  3020
  9
$PICKSTYLE
 70
     1
  9
$CMLSTYLE
  2
STANDARD
  9
$CMLJUST
 70
     0
  9
$CMLSCALE
 40
1.0
  9
$PROXYGRAPHICS
 70
     1
  9
$MEASUREMENT
 70
     0
  0
ENDSEC
  0
SECTION
  2
CLASSES
  0
CLASS
  1
ACDBDICTIONARYWDFLT
  2
AcDbDictionaryWithDefault
  3
AutoCAD 2000
 90
        0
280
     0
281
     0
  0
CLASS
  1
ACDBPLACEHOLDER
  2
AcDbPlaceHolder
  3
AutoCAD 2000
 90
        0
280
     0
281
     0
  0
CLASS
  1
LAYOUT
  2
AcDbLayout
  3
AutoCAD 2000
 90
        0
280
     0
281
     0
  0
CLASS
  1
DICTIONARYVAR
  2
AcDbDictionaryVar
  3
AutoCAD 2000
 90
        0
280
     0
281
     0
  0
CLASS
  1
LONG_TRANSACTION
  2
AcDbLongTransaction
  3
AutoCAD 2000
 90
        0
280
     0
281
     0
  0
CLASS
  1
LWPOLYLINE
  2
AcDbPolyline
  3
AutoCAD 2000
 90
        0
280
     0
281
     1
  0
CLASS
  1
HATCH
  2
AcDbHatch
  3
AutoCAD 2000
 90
        0
280
     0
281
     1
  0
CLASS
  1
XRECORD
  2
AcDbXrecord
  3
AutoCAD 2000
 90
        0
280
     0
281
     0
  0
CLASS
  1
LONG_TRANSACTION
  2
AcDbLongTransaction
  3
AutoCAD 2000
 90
        0
280
     0
281
     0
  0
CLASS
  1
LWPOLYLINE
  2
AcDbPolyline
  3
AutoCAD 2000
 90
        0
280
     0
281
     1
  0
CLASS
  1
HATCH
  2
AcDbHatch
  3
AutoCAD 2000
 90
        0
280
     0
281
     1
  0
CLASS
  1
XRECORD
  2
AcDbXrecord
  3
AutoCAD 2000
 90
        0
280
     0
281
     0
  0
CLASS
  1
LONG_TRANSACTION
  2
AcDbLongTransaction
  3
AutoCAD 2000
 90
        0
280
     0
281
     0
  0
CLASS
  1
LWPOLYLINE
  2
AcDbPolyline
  3
AutoCAD 2000
 90
        0
280
     0
281
     1
  0
CLASS
  1
HATCH
  2
AcDbHatch
  3
AutoCAD 2000
 90
        0
280
     0
281
     1
  0
CLASS
  1
XRECORD
  2
AcDbXrecord
  3
AutoCAD 2000
 90
        0
280
     0
281
     0
  0
CLASS
  1
LONG_TRANSACTION
  2
AcDbLongTransaction
  3
AutoCAD 2000
 90
        0
280
     0
281
     0
  0
CLASS
  1
LWPOLYLINE
  2
AcDbPolyline
  3
AutoCAD 2000
 90
        0
280
     0
281
     1
  0
CLASS
  1
HATCH
  2
AcDbHatch
  3
AutoCAD 2000
 90
        0
280
     0
281
     1
  0
CLASS
  1
XRECORD
  2
AcDbXrecord
  3
AutoCAD 2000
 90
        0
280
     0
281
     0
  0
CLASS
  1
LONG_TRANSACTION
  2
AcDbLongTransaction
  3
AutoCAD 2000
 90
        0
280
     0
281
     0
  0
CLASS
  1
LWPOLYLINE
  2
AcDbPolyline
  3
AutoCAD 2000
 90
        0
280
     0
281
     1
  0
CLASS
  1
HATCH
  2
AcDbHatch
  3
AutoCAD 2000
 90
        0
280
     0
281
     1
  0
CLASS
  1
XRECORD
  2
AcDbXrecord
  3
AutoCAD 2000
 90
        0
280
     0
281
     0
  0
CLASS
  1
LONG_TRANSACTION
  2
AcDbLongTransaction
  3
AutoCAD 2000
 90
        0
280
     0
281
     0
  0
CLASS
  1
LWPOLYLINE
  2
AcDbPolyline
  3
AutoCAD 2000
 90
        0
280
     0
281
     1
  0
CLASS
  1
HATCH
  2
AcDbHatch
  3
AutoCAD 2000
 90
        0
280
     0
281
     1
  0
CLASS
  1
XRECORD
  2
AcDbXrecord
  3
AutoCAD 2000
 90
        0
280
     0
281
     0
  0
CLASS
  1
LONG_TRANSACTION
  2
AcDbLongTransaction
  3
AutoCAD 2000
 90
        0
280
     0
281
     0
  0
CLASS
  1
LWPOLYLINE
  2
AcDbPolyline
  3
AutoCAD 2000
 90
        0
280
     0
281
     1
  0
CLASS
  1
HATCH
  2
AcDbHatch
  3
AutoCAD 2000
 90
        0
280
     0
281
     1
  0
CLASS
  1
XRECORD
  2
AcDbXrecord
  3
AutoCAD 2000
 90
        0
280
     0
281
     0
  0
ENDSEC
  0
SECTION
  2
TABLES
  0
TABLE
  2
VPORT
  5
8
330
0
100
AcDbSymbolTable
 70
     2
  0
VPORT
  5
2DB
330
8
100
AcDbSymbolTableRecord
100
AcDbViewportTableRecord
  2
*ACTIVE
 70
     0
 10
0.0
 20
0.0
 11
1.0
 21
1.0
 12
-0.8673058241403808
 22
-33.2652150736499
 13
0.0
 23
0.0
 14
0.5740882589684922
 24
0.5740882589684922
 15
0.5
 25
0.5
 16
0.0
 26
0.0
 36
1.0
 17
0.0
 27
0.0
 37
0.0
 40
10.45640597336263
 41
1.570528967254408
 42
50.0
 43
0.0
 44
0.0
 50
0.0
 51
0.0
 71
     0
 72
   100
 73
     1
 74
     0
 75
     0
 76
     0
 77
     0
 78
     0
  0
ENDTAB
  0
TABLE
  2
LTYPE
  5
5
330
0
100
AcDbSymbolTable
 70
     1
  0
LTYPE
  5
13
330
5
100
AcDbSymbolTableRecord
100
AcDbLinetypeTableRecord
  2
BYBLOCK
 70
     0
  3

 72
    65
 73
     0
 40
0.0
  0
LTYPE
  5
14
330
5
100
AcDbSymbolTableRecord
100
AcDbLinetypeTableRecord
  2
BYLAYER
 70
     0
  3

 72
    65
 73
     0
 40
0.0
  0
LTYPE
  5
15
330
5
100
AcDbSymbolTableRecord
100
AcDbLinetypeTableRecord
  2
CONTINUOUS
 70
     0
  3
Solid line
 72
    65
 73
     0
 40
0.0
  0
ENDTAB
  0
TABLE
  2
LAYER
  5
2
330
0
100
AcDbSymbolTable
 70
     4
  0
LAYER
  5
10
330
2
100
AcDbSymbolTableRecord
100
AcDbLayerTableRecord
  2
0
 70
     0
 62
     7
  6
CONTINUOUS
  0
LAYER
  5
70
330
2
100
AcDbSymbolTableRecord
100
AcDbLayerTableRecord
  2
ADP1DETAIL
 70
     0
 62
     7
  6
CONTINUOUS
  0
LAYER
  5
72
330
2
100
AcDbSymbolTableRecord
100
AcDbLayerTableRecord
  2
DEFPOINTS
 70
     0
 62
     7
  6
CONTINUOUS
  0
LAYER
  5
73
330
2
100
AcDbSymbolTableRecord
100
AcDbLayerTableRecord
  2
ADPDIM
 70
     0
 62
     3
  6
CONTINUOUS
  0
ENDTAB
  0
TABLE
  2
STYLE
  5
3
330
0
100
AcDbSymbolTable
 70
     2
  0
STYLE
  5
11
330
3
100
AcDbSymbolTableRecord
100
AcDbTextStyleTableRecord
  2
STANDARD
 70
     0
 40
0.0
 41
1.0
 50
0.0
 71
     0
 42
0.2
  3
txt
  4

  0
STYLE
  5
D4
330
3
100
AcDbSymbolTableRecord
100
AcDbTextStyleTableRecord
  2
ARIAL_WIDE
 70
     0
 40
0.0
 41
1.25
 50
0.0
 71
     0
 42
0.2
  3
ARIAL.TTF
  4

1001
ACAD
1000
Arial
1071
       34
  0
ENDTAB
  0
TABLE
  2
VIEW
  5
6
330
0
100
AcDbSymbolTable
 70
     0
  0
ENDTAB
  0
TABLE
  2
UCS
  5
7
330
0
100
AcDbSymbolTable
 70
     0
  0
ENDTAB
  0
TABLE
  2
APPID
  5
9
330
0
100
AcDbSymbolTable
 70
     1
  0
APPID
  5
12
330
9
100
AcDbSymbolTableRecord
100
AcDbRegAppTableRecord
  2
ACAD
 70
     0
  0
ENDTAB
  0
TABLE
  2
DIMSTYLE
  5
A
330
0
100
AcDbSymbolTable
 70
     1
  0
DIMSTYLE
105
D2
330
A
100
AcDbSymbolTableRecord
100
AcDbDimStyleTableRecord
  2
STANDARD
 70
     0
  3

  4

  5

  6

  7

 40
1.0
 41
0.18
 42
0.0625
 43
0.38
 44
0.18
 45
0.0
 46
0.0
 47
0.0
 48
0.0
140
0.18
141
0.09
142
0.0
143
25.4
144
1.0
145
0.0
146
1.0
147
0.09
 71
     0
 72
     0
 73
     1
 74
     1
 75
     0
 76
     0
 77
     0
 78
     0
170
     0
171
     2
172
     0
173
     0
174
     0
175
     0
176
     0
177
     0
178
     0
270
     2
271
     4
272
     4
273
     2
274
     2
340
11
275
     0
280
     0
281
     0
282
     0
283
     1
284
     0
285
     0
286
     0
287
     3
288
     0
  0
ENDTAB
  0
TABLE
  2
BLOCK_RECORD
  5
1
330
0
100
AcDbSymbolTable
 70
     5
  0
BLOCK_RECORD
  5
1E
102
{ACAD_XDICTIONARY
360
111
102
}
330
1
100
AcDbSymbolTableRecord
100
AcDbBlockTableRecord
  2
*MODEL_SPACE
  0
BLOCK_RECORD
  5
1A
102
{ACAD_XDICTIONARY
360
113
102
}
330
1
100
AcDbSymbolTableRecord
100
AcDbBlockTableRecord
  2
*PAPER_SPACE
  0
BLOCK_RECORD
  5
52
330
1
100
AcDbSymbolTableRecord
100
AcDbBlockTableRecord
  2
1141
  0
BLOCK_RECORD
  5
69
330
1
100
AcDbSymbolTableRecord
100
AcDbBlockTableRecord
  2
*D1
  0
BLOCK_RECORD
  5
6A
330
1
100
AcDbSymbolTableRecord
100
AcDbBlockTableRecord
  2
*D2
  0
BLOCK_RECORD
  5
6B
330
1
100
AcDbSymbolTableRecord
100
AcDbBlockTableRecord
  2
*D3
  0
BLOCK_RECORD
  5
6C
330
1
100
AcDbSymbolTableRecord
100
AcDbBlockTableRecord
  2
*D4
  0
ENDTAB
  0
ENDSEC
  0
SECTION
  2
BLOCKS
  0
BLOCK
  5
76
330
1E
100
AcDbEntity
  8
0
100
AcDbBlockBegin
  2
*MODEL_SPACE
 70
     0
 10
0.0
 20
0.0
 30
0.0
  3
*MODEL_SPACE
  1

  0
ENDBLK
  5
77
330
1E
100
AcDbEntity
  8
0
100
AcDbBlockEnd
  0
BLOCK
  5
74
330
1A
100
AcDbEntity
 67
     1
  8
0
100
AcDbBlockBegin
  2
*PAPER_SPACE
 70
     0
 10
0.0
 20
0.0
 30
0.0
  3
*PAPER_SPACE
  1

  0
ENDBLK
  5
75
330
1A
100
AcDbEntity
 67
     1
  8
0
100
AcDbBlockEnd
  0
BLOCK
  5
79
330
52
100
AcDbEntity
  8
0
100
AcDbBlockBegin
  2
1141
 70
     0
 10
0.0
 20
0.0
 30
0.0
  3
1141
  1

  0
LINE
  5
7A
330
52
100
AcDbEntity
  8
0
100
AcDbLine
 10
1.794932161106423
 20
4.071597185136495
 30
0.0
 11
1.842124881752184
 21
3.786157342521002
 31
0.0
  0
LINE
  5
7B
330
52
100
AcDbEntity
  8
0
100
AcDbLine
 10
0.6450866722762214
 20
4.071597185136495
 30
0.0
 11
0.5978939516304607
 21
3.786157342521002
 31
0.0
  0
LINE
  5
7C
330
52
100
AcDbEntity
  8
0
100
AcDbLine
 10
0.219449833728131
 20
1.024215771575052
 30
0.0
 11
0.4644449529938442
 21
4.086654762396468
 31
0.0
  0
LINE
  5
7D
330
52
100
AcDbEntity
  8
0
100
AcDbLine
 10
2.22056899965451
 20
1.024215771575052
 30
0.0
 11
1.975573880388797
 21
4.086654762396468
 31
0.0
  0
LINE
  5
7E
330
52
100
AcDbEntity
  8
0
100
AcDbLine
 10
2.47100941669132
 20
0.0340871707058829
 30
0.0
 11
2.47100941669132
 21
0.7624973551793329
 31
0.0
  0
LINE
  5
7F
330
52
100
AcDbEntity
  8
0
100
AcDbLine
 10
-0.0309905833086788
 20
0.0340871707058829
 30
0.0
 11
-0.0309905833086788
 21
0.7624973551793329
 31
0.0
  0
LINE
  5
80
330
52
100
AcDbEntity
  8
0
100
AcDbLine
 10
1.219009416691321
 20
0.0497105586149315
 30
0.0
 11
-0.0156186976533768
 21
0.0190917813791833
 31
0.0
  0
ARC
  5
81
330
52
100
AcDbEntity
  8
0
100
AcDbCircle
 10
-0.0159905833086782
 20
0.0340871707058829
 30
0.0
 40
0.0149999999999999
100
AcDbArc
 50
179.9999999999996
 51
271.4206441286894
  0
LINE
  5
82
330
52
100
AcDbEntity
  8
0
100
AcDbLine
 10
1.22100941669132
 20
0.0497105586149315
 30
0.0
 11
2.455637531036018
 21
0.0190917813791833
 31
0.0
  0
ARC
  5
83
330
52
100
AcDbEntity
  8
0
100
AcDbCircle
 10
2.456009416691319
 20
0.0340871707058829
 30
0.0
 40
0.0149999999999998
100
AcDbArc
 50
268.5793558713139
 51
0.0000000000001955
  0
LINE
  5
84
330
52
100
AcDbEntity
  8
0
100
AcDbLine
 10
0.6126930478365438
 20
3.76871055861493
 30
0.0
 11
0.7050094166913219
 21
3.76871055861493
 31
0.0
  0
LINE
  5
85
330
52
100
AcDbEntity
  8
0
100
AcDbLine
 10
-0.0265971850264748
 20
0.7731039568971331
 30
0.0
 11
0.2151042062678883
 21
1.014805348191496
 31
0.0
  0
ARC
  5
86
330
52
100
AcDbEntity
  8
0
100
AcDbCircle
 10
-0.0159905833086782
 20
0.7624973551793329
 30
0.0
 40
0.0150000000000006
100
AcDbArc
 50
134.999999999999
 51
179.9999999999982
  0
ARC
  5
87
330
52
100
AcDbEntity
  8
0
100
AcDbCircle
 10
0.2044976045500881
 20
1.025411949909296
 30
0.0
 40
0.015
100
AcDbArc
 50
315.0000000000009
 51
355.4260787400995
  0
ARC
  5
88
330
52
100
AcDbEntity
  8
0
100
AcDbCircle
 10
0.6126930478365438
 20
3.783710558614931
 30
0.0
 40
0.015
100
AcDbArc
 50
170.612023484911
 51
270.0
  0
LINE
  5
89
330
52
100
AcDbEntity
  8
0
100
AcDbLine
 10
0.7200094166913225
 20
3.75371055861493
 30
0.0
 11
0.7200094166913225
 21
0.7837105586149297
 31
0.0
  0
LINE
  5
8A
330
52
100
AcDbEntity
  8
0
100
AcDbLine
 10
1.720009416691322
 20
3.75371055861493
 30
0.0
 11
1.720009416691322
 21
0.7837105586149297
 31
0.0
  0
LINE
  5
8B
330
52
100
AcDbEntity
  8
0
100
AcDbLine
 10
1.705009416691321
 20
0.7687105586149327
 30
0.0
 11
1.220009416691322
 21
0.7687105586149327
 31
0.0
  0
LINE
  5
8C
330
52
100
AcDbEntity
  8
0
100
AcDbLine
 10
0.7350094166913195
 20
0.7687105586149327
 30
0.0
 11
1.220009416691322
 21
0.7687105586149327
 31
0.0
  0
ARC
  5
8D
330
52
100
AcDbEntity
  8
0
100
AcDbCircle
 10
0.7350094166913195
 20
0.7837105586149297
 30
0.0
 40
0.0149999999999997
100
AcDbArc
 50
179.9999999999995
 51
270.0
  0
ARC
  5
8E
330
52
100
AcDbEntity
  8
0
100
AcDbCircle
 10
1.705009416691321
 20
0.7837105586149297
 30
0.0
 40
0.0150000000000006
100
AcDbArc
 50
270.0
 51
359.9999999999991
  0
LINE
  5
8F
330
52
100
AcDbEntity
  8
0
100
AcDbLine
 10
2.466616018409119
 20
0.7731039568971331
 30
0.0
 11
2.224914627114756
 21
1.014805348191496
 31
0.0
  0
ARC
  5
90
330
52
100
AcDbEntity
  8
0
100
AcDbCircle
 10
2.235521228832553
 20
1.025411949909296
 30
0.0
 40
0.0150000000000009
100
AcDbArc
 50
184.5739212599047
 51
225.0000000000023
  0
ARC
  5
91
330
52
100
AcDbEntity
  8
0
100
AcDbCircle
 10
2.456009416691323
 20
0.7624973551793365
 30
0.0
 40
0.0149999999999988
100
AcDbArc
 50
359.9999999999932
 51
44.9999999999952
  0
ARC
  5
92
330
52
100
AcDbEntity
  8
0
100
AcDbCircle
 10
0.7050094166913219
 20
3.75371055861493
 30
0.0
 40
0.0150000000000006
100
AcDbArc
 50
0.0000000000016963
 51
90.0
  0
ARC
  5
93
330
52
100
AcDbEntity
  8
0
100
AcDbCircle
 10
1.735009416691319
 20
3.753710558614931
 30
0.0
 40
0.0149999999999997
100
AcDbArc
 50
90.0
 51
180.0000000000017
  0
ARC
  5
94
330
52
100
AcDbEntity
  8
0
100
AcDbCircle
 10
1.827325785546097
 20
3.783710558614931
 30
0.0
 40
0.0150000000000008
100
AcDbArc
 50
270.0
 51
9.38797651508672
  0
LINE
  5
95
330
52
100
AcDbEntity
  8
0
100
AcDbLine
 10
1.827325785546097
 20
3.76871055861493
 30
0.0
 11
1.735009416691319
 21
3.76871055861493
 31
0.0
  0
LINE
  5
96
330
52
100
AcDbEntity
  8
0
100
AcDbLine
 10
0.5262475002630822
 20
4.14371055861493
 30
0.0
 11
0.5839170746243987
 21
4.14371055861493
 31
0.0
  0
ARC
  5
97
330
52
100
AcDbEntity
  8
0
100
AcDbCircle
 10
0.5262475002630822
 20
4.081710558614931
 30
0.0
 40
0.0620000000000001
100
AcDbArc
 50
90.0
 51
175.426078740099
  0
ARC
  5
98
330
52
100
AcDbEntity
  8
0
100
AcDbCircle
 10
0.5839170746243987
 20
4.081710558614931
 30
0.0
 40
0.0620000000000003
100
AcDbArc
 50
350.6120234849112
 51
90.0
  0
LINE
  5
99
330
52
100
AcDbEntity
  8
0
100
AcDbLine
 10
1.913771333119559
 20
4.14371055861493
 30
0.0
 11
1.856101758758242
 21
4.14371055861493
 31
0.0
  0
ARC
  5
9A
330
52
100
AcDbEntity
  8
0
100
AcDbCircle
 10
1.913771333119555
 20
4.081710558614931
 30
0.0
 40
0.062
100
AcDbArc
 50
4.573921259900108
 51
89.99999999999834
  0
ARC
  5
9B
330
52
100
AcDbEntity
  8
0
100
AcDbCircle
 10
1.856101758758242
 20
4.081710558614931
 30
0.0
 40
0.0619999999999994
100
AcDbArc
 50
90.00000000000163
 51
189.3879765150896
  0
ENDBLK
  5
9C
330
52
100
AcDbEntity
  8
0
100
AcDbBlockEnd
  0
BLOCK
  5
9D
330
69
100
AcDbEntity
  8
0
100
AcDbBlockBegin
  2
*D1
 70
     1
 10
0.0
 20
0.0
 30
0.0
  3
*D1
  1

  0
LINE
  5
9E
330
69
100
AcDbEntity
  8
0
  6
BYBLOCK
 62
     0
100
AcDbLine
 10
-2.127424660978987
 20
-34.79801487754804
 30
0.0
 11
-2.127424660978987
 21
-35.20993487470925
 31
0.0
  0
LINE
  5
9F
330
69
100
AcDbEntity
  8
0
  6
BYBLOCK
 62
     0
100
AcDbLine
 10
0.3655239291965078
 20
-34.79801487754804
 30
0.0
 11
0.3655239291965078
 21
-35.20993487470925
 31
0.0
  0
LINE
  5
A0
330
69
100
AcDbEntity
  8
0
  6
BYBLOCK
 62
     0
100
AcDbLine
 10
-2.127424660978987
 20
-35.02993487470925
 30
0.0
 11
-1.235117032557906
 21
-35.02993487470925
 31
0.0
  0
LINE
  5
A1
330
69
100
AcDbEntity
  8
0
  6
BYBLOCK
 62
     0
100
AcDbLine
 10
0.3655239291965078
 20
-35.02993487470925
 30
0.0
 11
-0.5267836992245733
 21
-35.02993487470925
 31
0.0
  0
LINE
  5
A2
330
69
100
AcDbEntity
  8
0
  6
BYBLOCK
 62
     0
100
AcDbLine
 10
-2.252424660978987
 20
-35.15493487470925
 30
0.0
 11
-2.002424660978987
 21
-34.90493487470925
 31
0.0
  0
LINE
  5
A3
330
69
100
AcDbEntity
  8
0
  6
BYBLOCK
 62
     0
100
AcDbLine
 10
0.2405239291965078
 20
-35.15493487470925
 30
0.0
 11
0.4905239291965078
 21
-34.90493487470925
 31
0.0
  0
TEXT
  5
A4
330
69
100
AcDbEntity
  8
0
  6
BYBLOCK
 62
     0
100
AcDbText
 10
-1.110117032557906
 20
-35.09243487470925
 30
0.0
 40
0.125
  1
2.500
 72
     1
 11
-0.8809503658912397
 21
-35.02993487470925
 31
0.0
100
AcDbText
 73
     2
  0
POINT
  5
A6
330
69
100
AcDbEntity
  8
DEFPOINTS
  6
BYBLOCK
 62
     0
100
AcDbPoint
 10
-2.127424660978987
 20
-34.73551487754804
 30
0.0
  0
POINT
  5
A7
330
69
100
AcDbEntity
  8
DEFPOINTS
  6
BYBLOCK
 62
     0
100
AcDbPoint
 10
0.3655239291965078
 20
-34.73551487754804
 30
0.0
  0
POINT
  5
A8
330
69
100
AcDbEntity
  8
DEFPOINTS
  6
BYBLOCK
 62
     0
100
AcDbPoint
 10
0.3655239291965078
 20
-35.02993487470925
 30
0.0
  0
ENDBLK
  5
A9
330
69
100
AcDbEntity
  8
0
100
AcDbBlockEnd
  0
BLOCK
  5
AA
330
6A
100
AcDbEntity
  8
0
100
AcDbBlockBegin
  2
*D2
 70
     1
 10
0.0
 20
0.0
 30
0.0
  3
*D2
  1

  0
LINE
  5
AB
330
6A
100
AcDbEntity
  8
0
  6
BYBLOCK
 62
     0
100
AcDbLine
 10
-2.179450365891239
 20
-33.99636741490856
 30
0.0
 11
-2.548257589239951
 21
-33.99636741490856
 31
0.0
  0
LINE
  5
AC
330
6A
100
AcDbEntity
  8
0
  6
BYBLOCK
 62
     0
100
AcDbLine
 10
-2.179078480235937
 20
-34.7397729887087
 30
0.0
 11
-2.548257589239951
 21
-34.7397729887087
 31
0.0
  0
LINE
  5
AD
330
6A
100
AcDbEntity
  8
0
  6
BYBLOCK
 62
     0
100
AcDbLine
 10
-2.368257589239951
 20
-33.99636741490856
 30
0.0
 11
-2.368257589239951
 21
-33.74636741490856
 31
0.0
  0
LINE
  5
AE
330
6A
100
AcDbEntity
  8
0
  6
BYBLOCK
 62
     0
100
AcDbLine
 10
-2.368257589239951
 20
-34.7397729887087
 30
0.0
 11
-2.368257589239951
 21
-34.98977298870871
 31
0.0
  0
LINE
  5
AF
330
6A
100
AcDbEntity
  8
0
  6
BYBLOCK
 62
     0
100
AcDbLine
 10
-2.243257589239951
 20
-34.12136741490856
 30
0.0
 11
-2.493257589239951
 21
-33.87136741490856
 31
0.0
  0
LINE
  5
B0
330
6A
100
AcDbEntity
  8
0
  6
BYBLOCK
 62
     0
100
AcDbLine
 10
-2.243257589239951
 20
-34.8647729887087
 30
0.0
 11
-2.493257589239951
 21
-34.61477298870871
 31
0.0
  0
TEXT
  5
B1
330
6A
100
AcDbEntity
  8
0
  6
BYBLOCK
 62
     0
100
AcDbText
 10
-2.305757589239951
 20
-35.57310632204203
 30
0.0
 40
0.125
  1
0.750
 50
90.0
 72
     1
 11
-2.368257589239951
 21
-35.34393965537537
 31
0.0
100
AcDbText
 73
     2
  0
POINT
  5
B2
330
6A
100
AcDbEntity
  8
DEFPOINTS
  6
BYBLOCK
 62
     0
100
AcDbPoint
 10
-2.116950365891239
 20
-33.99636741490856
 30
0.0
  0
POINT
  5
B3
330
6A
100
AcDbEntity
  8
DEFPOINTS
  6
BYBLOCK
 62
     0
100
AcDbPoint
 10
-2.116578480235937
 20
-34.7397729887087
 30
0.0
  0
POINT
  5
B4
330
6A
100
AcDbEntity
  8
DEFPOINTS
  6
BYBLOCK
 62
     0
100
AcDbPoint
 10
-2.368257589239951
 20
-34.7397729887087
 30
0.0
  0
ENDBLK
  5
B5
330
6A
100
AcDbEntity
  8
0
100
AcDbBlockEnd
  0
BLOCK
  5
B6
330
6B
100
AcDbEntity
  8
0
100
AcDbBlockBegin
  2
*D3
 70
     1
 10
0.0
 20
0.0
 30
0.0
  3
*D3
  1

  0
LINE
  5
B7
330
6B
100
AcDbEntity
  8
0
  6
BYBLOCK
 62
     0
100
AcDbLine
 10
-0.1535232366436601
 20
-30.61515421147296
 30
0.0
 11
0.8655050342651712
 21
-30.61515421147296
 31
0.0
  0
LINE
  5
B8
330
6B
100
AcDbEntity
  8
0
  6
BYBLOCK
 62
     0
100
AcDbLine
 10
0.4171777484534572
 20
-34.7397729887087
 30
0.0
 11
0.865505034265171
 21
-34.7397729887087
 31
0.0
  0
LINE
  5
B9
330
6B
100
AcDbEntity
  8
0
  6
BYBLOCK
 62
     0
100
AcDbLine
 10
0.6855050342651714
 20
-30.61515421147296
 30
0.0
 11
0.6855050342651713
 21
-32.32329693342416
 31
0.0
  0
LINE
  5
BA
330
6B
100
AcDbEntity
  8
0
  6
BYBLOCK
 62
     0
100
AcDbLine
 10
0.6855050342651712
 20
-34.7397729887087
 30
0.0
 11
0.6855050342651713
 21
-33.03163026675749
 31
0.0
  0
LINE
  5
BB
330
6B
100
AcDbEntity
  8
0
  6
BYBLOCK
 62
     0
100
AcDbLine
 10
0.8105050342651713
 20
-30.74015421147296
 30
0.0
 11
0.5605050342651714
 21
-30.49015421147296
 31
0.0
  0
LINE
  5
BC
330
6B
100
AcDbEntity
  8
0
  6
BYBLOCK
 62
     0
100
AcDbLine
 10
0.8105050342651711
 20
-34.8647729887087
 30
0.0
 11
0.5605050342651712
 21
-34.61477298870871
 31
0.0
  0
TEXT
  5
BD
330
6B
100
AcDbEntity
  8
0
  6
BYBLOCK
 62
     0
100
AcDbText
 10
0.7480050342651713
 20
-32.90663026675749
 30
0.0
 40
0.125
  1
4.125
 50
90.0
 72
     1
 11
0.6855050342651713
 21
-32.67746360009083
 31
0.0
100
AcDbText
 73
     2
  0
POINT
  5
BE
330
6B
100
AcDbEntity
  8
DEFPOINTS
  6
BYBLOCK
 62
     0
100
AcDbPoint
 10
-0.2160232366436601
 20
-30.61515421147296
 30
0.0
  0
POINT
  5
BF
330
6B
100
AcDbEntity
  8
DEFPOINTS
  6
BYBLOCK
 62
     0
100
AcDbPoint
 10
0.3546777484534571
 20
-34.7397729887087
 30
0.0
  0
POINT
  5
C0
330
6B
100
AcDbEntity
  8
DEFPOINTS
  6
BYBLOCK
 62
     0
100
AcDbPoint
 10
0.6855050342651712
 20
-34.7397729887087
 30
0.0
  0
ENDBLK
  5
C1
330
6B
100
AcDbEntity
  8
0
100
AcDbBlockEnd
  0
BLOCK
  5
C2
330
6C
100
AcDbEntity
  8
0
100
AcDbBlockBegin
  2
*D4
 70
     1
 10
0.0
 20
0.0
 30
0.0
  3
*D4
  1

  0
LINE
  5
C3
330
6C
100
AcDbEntity
  8
0
  6
BYBLOCK
 62
     0
100
AcDbLine
 10
-0.3809503658912385
 20
-34.03765421147296
 30
0.0
 11
-0.3809503658912385
 21
-34.3484288617488
 31
0.0
  0
LINE
  5
C4
330
6C
100
AcDbEntity
  8
0
  6
BYBLOCK
 62
     0
100
AcDbLine
 10
-1.380950365891238
 20
-34.03765421147296
 30
0.0
 11
-1.380950365891238
 21
-34.3484288617488
 31
0.0
  0
LINE
  5
C5
330
6C
100
AcDbEntity
  8
0
  6
BYBLOCK
 62
     0
100
AcDbLine
 10
-0.3809503658912385
 20
-34.1684288617488
 30
0.0
 11
-1.380950365891238
 21
-34.1684288617488
 31
0.0
  0
LINE
  5
C6
330
6C
100
AcDbEntity
  8
0
  6
BYBLOCK
 62
     0
100
AcDbLine
 10
-0.5059503658912386
 20
-34.29342886174881
 30
0.0
 11
-0.2559503658912385
 21
-34.0434288617488
 31
0.0
  0
LINE
  5
C7
330
6C
100
AcDbEntity
  8
0
  6
BYBLOCK
 62
     0
100
AcDbLine
 10
-1.505950365891238
 20
-34.29342886174881
 30
0.0
 11
-1.255950365891238
 21
-34.0434288617488
 31
0.0
  0
TEXT
  5
C8
330
6C
100
AcDbEntity
  8
0
  6
BYBLOCK
 62
     0
100
AcDbText
 10
-1.070276103843313
 20
-34.3838013108501
 30
0.0
 40
0.125
  1
1.00
 72
     1
 11
-0.9244427705099802
 21
-34.3213013108501
 31
0.0
100
AcDbText
 73
     2
  0
POINT
  5
C9
330
6C
100
AcDbEntity
  8
DEFPOINTS
  6
BYBLOCK
 62
     0
100
AcDbPoint
 10
-0.3809503658912385
 20
-33.97515421147296
 30
0.0
  0
POINT
  5
CA
330
6C
100
AcDbEntity
  8
DEFPOINTS
  6
BYBLOCK
 62
     0
100
AcDbPoint
 10
-1.380950365891238
 20
-33.97515421147296
 30
0.0
  0
POINT
  5
CB
330
6C
100
AcDbEntity
  8
DEFPOINTS
  6
BYBLOCK
 62
     0
100
AcDbPoint
 10
-1.380950365891238
 20
-34.1684288617488
 30
0.0
  0
ENDBLK
  5
CC
330
6C
100
AcDbEntity
  8
0
100
AcDbBlockEnd
  0
ENDSEC
  0
SECTION
  2
ENTITIES
  0
DIMENSION
  5
CD
330
1E
100
AcDbEntity
  8
ADPDIM
100
AcDbDimension
  2
*D1
 10
0.3655239291965078
 20
-35.02993487470925
 30
0.0
 11
-0.8809503658912397
 21
-35.02993487470925
 31
0.0
  1
2.500
100
AcDbAlignedDimension
 13
-2.127424660978987
 23
-34.73551487754804
 33
0.0
 14
0.3655239291965078
 24
-34.73551487754804
 34
0.0
100
AcDbRotatedDimension
  0
DIMENSION
  5
CE
330
1E
100
AcDbEntity
  8
ADPDIM
100
AcDbDimension
  2
*D4
 10
-1.380950365891238
 20
-34.1684288617488
 30
0.0
 11
-0.9244427705099802
 21
-34.3213013108501
 31
0.0
 70
   128
  1
1.00
100
AcDbAlignedDimension
 13
-0.3809503658912385
 23
-33.97515421147296
 33
0.0
 14
-1.380950365891238
 24
-33.97515421147296
 34
0.0
100
AcDbRotatedDimension
  0
INSERT
  5
CF
330
1E
100
AcDbEntity
  8
ADP1DETAIL
100
AcDbBlockReference
  2
1141
 10
-2.10095978258256
 20
-34.75886477008788
 30
0.0
  0
DIMENSION
  5
D0
330
1E
100
AcDbEntity
  8
ADPDIM
100
AcDbDimension
  2
*D2
 10
-2.368257589239951
 20
-34.7397729887087
 30
0.0
 11
-2.368257589239951
 21
-35.34393965537537
 31
0.0
  1
0.750
100
AcDbAlignedDimension
 13
-2.116950365891239
 23
-33.99636741490856
 33
0.0
 14
-2.116578480235937
 24
-34.7397729887087
 34
0.0
 50
90.0
100
AcDbRotatedDimension
  0
DIMENSION
  5
D1
330
1E
100
AcDbEntity
  8
ADPDIM
100
AcDbDimension
  2
*D3
 10
0.6855050342651712
 20
-34.7397729887087
 30
0.0
 11
0.6855050342651713
 21
-32.67746360009083
 31
0.0
  1
4.125
100
AcDbAlignedDimension
 13
-0.2160232366436601
 23
-30.61515421147296
 33
0.0
 14
0.3546777484534571
 24
-34.7397729887087
 34
0.0
 50
90.0
100
AcDbRotatedDimension
  0
TEXT
  5
D5
330
1E
100
AcDbEntity
  8
ADPDIM
100
AcDbText
 10
-9.03811164658701
 20
-35.99083883523769
 30
0.0
 40
0.15625
  1
J U L I U S  B L U M  &  C O . ,  I N C .      ( 8 0 0 )  5 2 6 - 6 2 9 3        W W W . J U L I U S B L U M . C O M        P A R T  N o .  1 1 4 1
 41
1.25
  7
ARIAL_WIDE
 72
     1
 11
-0.8809503658912397
 21
-35.83458883523769
 31
0.0
100
AcDbText
 73
     3
  0
ENDSEC
  0
SECTION
  2
OBJECTS
  0
DICTIONARY
  5
C
330
0
100
AcDbDictionary
  3
ACAD_GROUP
350
D
  3
ACAD_LAYOUT
350
19
  3
ACAD_MLINESTYLE
350
16
  3
ACAD_PLOTSETTINGS
350
18
  3
ACAD_PLOTSTYLENAME
350
E
  3
ACDBHEADERROUNDTRIPXREC
350
2DC
  3
ACDBVARIABLEDICTIONARY
350
146
  0
DICTIONARY
  5
111
330
1E
100
AcDbDictionary
280
     1
  3
ACAD_LAYOUTSELFREF
360
2FE
  0
DICTIONARY
  5
113
330
1A
100
AcDbDictionary
280
     1
  3
ACAD_LAYOUTSELFREF
360
2FD
  0
DICTIONARY
  5
D
102
{ACAD_REACTORS
330
C
102
}
330
C
100
AcDbDictionary
  0
DICTIONARY
  5
19
102
{ACAD_REACTORS
330
C
102
}
330
C
100
AcDbDictionary
  0
DICTIONARY
  5
16
102
{ACAD_REACTORS
330
C
102
}
330
C
100
AcDbDictionary
  3
STANDARD
350
17
  0
DICTIONARY
  5
18
102
{ACAD_REACTORS
330
C
102
}
330
C
100
AcDbDictionary
  0
ACDBDICTIONARYWDFLT
  5
E
102
{ACAD_REACTORS
330
C
102
}
330
C
100
AcDbDictionary
281
     1
  3
Normal
350
F
100
AcDbDictionaryWithDefault
340
F
  0
DICTIONARY
  5
2DC
102
{ACAD_REACTORS
330
C
102
}
330
C
100
AcDbDictionary
  3
CEPSNTYPE
350
2E6
  3
DIMSTYLEDATA
350
2EA
  3
FINGERPRINTGUID
350
2E7
  3
HYPERLINKBASE
350
2DF
  3
INSUNITS
350
2E5
  3
LAYOUTDICT
350
2E1
  3
LWETCUNION
350
2E4
  3
PLOTSETDICT
350
2E2
  3
PLOTSTYLNAMDICT
350
2E3
  3
PSVPSCALE
350
2E9
  3
PUCSBASE
350
2ED
  3
PUCSORGBACK
350
2F3
  3
PUCSORGBOTTOM
350
2EF
  3
PUCSORGFRONT
350
2F2
  3
PUCSORGLEFT
350
2F0
  3
PUCSORGRIGHT
350
2F1
  3
PUCSORGTOP
350
2EE
  3
PUCSORTHOREF
350
2EB
  3
PUCSORTHOVIEW
350
2EC
  3
STYLESHEET
350
2E0
  3
TSTACKALIGN
350
2DD
  3
TSTACKSIZE
350
2DE
  3
UCSBASE
350
2F6
  3
UCSORGBACK
350
2FC
  3
UCSORGBOTTOM
350
2F8
  3
UCSORGFRONT
350
2FB
  3
UCSORGLEFT
350
2F9
  3
UCSORGRIGHT
350
2FA
  3
UCSORGTOP
350
2F7
  3
UCSORTHOREF
350
2F4
  3
UCSORTHOVIEW
350
2F5
  3
VERSIONGUID
350
2E8
  0
DICTIONARY
  5
146
102
{ACAD_REACTORS
330
C
102
}
330
C
100
AcDbDictionary
  3
DIMASSOC
350
148
  3
HIDETEXT
350
147
  0
XRECORD
  5
2FE
102
{ACAD_REACTORS
330
111
102
}
330
111
100
AcDbXrecord
340
1E
  0
XRECORD
  5
2FD
102
{ACAD_REACTORS
330
113
102
}
330
113
100
AcDbXrecord
340
1A
  0
MLINESTYLE
  5
17
102
{ACAD_REACTORS
330
16
102
}
330
16
100
AcDbMlineStyle
  2
STANDARD
 70
     0
  3

 62
   256
 51
90.0
 52
90.0
 71
     2
 49
0.5
 62
   256
  6
BYLAYER
 49
-0.5
 62
   256
  6
BYLAYER
  0
ACDBPLACEHOLDER
  5
F
102
{ACAD_REACTORS
330
E
102
}
330
E
100
AcDbPlaceHolder
280
     0
  0
XRECORD
  5
2E6
102
{ACAD_REACTORS
330
2DC
102
}
330
2DC
100
AcDbXrecord
 90
        0
  0
XRECORD
  5
2EA
102
{ACAD_REACTORS
330
2DC
102
}
330
2DC
100
AcDbXrecord
1000
DSTYLE
1002
{
1070
   277
 70
     5
1070
   279
 70
     2
1002
}
  0
XRECORD
  5
2E7
102
{ACAD_REACTORS
330
2DC
102
}
330
2DC
100
AcDbXrecord
  1
{3BB72C36-F097-41C7-A48E-9022DD76CAAA}
  0
XRECORD
  5
2DF
102
{ACAD_REACTORS
330
2DC
102
}
330
2DC
100
AcDbXrecord
  1

  0
XRECORD
  5
2E5
102
{ACAD_REACTORS
330
2DC
102
}
330
2DC
100
AcDbXrecord
 90
        0
  0
XRECORD
  5
2E1
102
{ACAD_REACTORS
330
2DC
102
}
330
2DC
100
AcDbXrecord
340
19
  0
XRECORD
  5
2E4
102
{ACAD_REACTORS
330
2DC
102
}
330
2DC
100
AcDbXrecord
 90
    14877
  0
XRECORD
  5
2E2
102
{ACAD_REACTORS
330
2DC
102
}
330
2DC
100
AcDbXrecord
340
18
  0
XRECORD
  5
2E3
102
{ACAD_REACTORS
330
2DC
102
}
330
2DC
100
AcDbXrecord
340
E
  0
XRECORD
  5
2E9
102
{ACAD_REACTORS
330
2DC
102
}
330
2DC
100
AcDbXrecord
 40
0.0
  0
XRECORD
  5
2ED
102
{ACAD_REACTORS
330
2DC
102
}
330
2DC
100
AcDbXrecord
340
0
  0
XRECORD
  5
2F3
102
{ACAD_REACTORS
330
2DC
102
}
330
2DC
100
AcDbXrecord
 10
0.0
 20
0.0
 30
0.0
  0
XRECORD
  5
2EF
102
{ACAD_REACTORS
330
2DC
102
}
330
2DC
100
AcDbXrecord
 10
0.0
 20
0.0
 30
0.0
  0
XRECORD
  5
2F2
102
{ACAD_REACTORS
330
2DC
102
}
330
2DC
100
AcDbXrecord
 10
0.0
 20
0.0
 30
0.0
  0
XRECORD
  5
2F0
102
{ACAD_REACTORS
330
2DC
102
}
330
2DC
100
AcDbXrecord
 10
0.0
 20
0.0
 30
0.0
  0
XRECORD
  5
2F1
102
{ACAD_REACTORS
330
2DC
102
}
330
2DC
100
AcDbXrecord
 10
0.0
 20
0.0
 30
0.0
  0
XRECORD
  5
2EE
102
{ACAD_REACTORS
330
2DC
102
}
330
2DC
100
AcDbXrecord
 10
0.0
 20
0.0
 30
0.0
  0
XRECORD
  5
2EB
102
{ACAD_REACTORS
330
2DC
102
}
330
2DC
100
AcDbXrecord
340
0
  0
XRECORD
  5
2EC
102
{ACAD_REACTORS
330
2DC
102
}
330
2DC
100
AcDbXrecord
 70
     0
  0
XRECORD
  5
2E0
102
{ACAD_REACTORS
330
2DC
102
}
330
2DC
100
AcDbXrecord
  1

  0
XRECORD
  5
2DD
102
{ACAD_REACTORS
330
2DC
102
}
330
2DC
100
AcDbXrecord
 90
        1
  0
XRECORD
  5
2DE
102
{ACAD_REACTORS
330
2DC
102
}
330
2DC
100
AcDbXrecord
 90
       70
  0
XRECORD
  5
2F6
102
{ACAD_REACTORS
330
2DC
102
}
330
2DC
100
AcDbXrecord
340
0
  0
XRECORD
  5
2FC
102
{ACAD_REACTORS
330
2DC
102
}
330
2DC
100
AcDbXrecord
 10
0.0
 20
0.0
 30
0.0
  0
XRECORD
  5
2F8
102
{ACAD_REACTORS
330
2DC
102
}
330
2DC
100
AcDbXrecord
 10
0.0
 20
0.0
 30
0.0
  0
XRECORD
  5
2FB
102
{ACAD_REACTORS
330
2DC
102
}
330
2DC
100
AcDbXrecord
 10
0.0
 20
0.0
 30
0.0
  0
XRECORD
  5
2F9
102
{ACAD_REACTORS
330
2DC
102
}
330
2DC
100
AcDbXrecord
 10
0.0
 20
0.0
 30
0.0
  0
XRECORD
  5
2FA
102
{ACAD_REACTORS
330
2DC
102
}
330
2DC
100
AcDbXrecord
 10
0.0
 20
0.0
 30
0.0
  0
XRECORD
  5
2F7
102
{ACAD_REACTORS
330
2DC
102
}
330
2DC
100
AcDbXrecord
 10
0.0
 20
0.0
 30
0.0
  0
XRECORD
  5
2F4
102
{ACAD_REACTORS
330
2DC
102
}
330
2DC
100
AcDbXrecord
340
0
  0
XRECORD
  5
2F5
102
{ACAD_REACTORS
330
2DC
102
}
330
2DC
100
AcDbXrecord
 70
     0
  0
XRECORD
  5
2E8
102
{ACAD_REACTORS
330
2DC
102
}
330
2DC
100
AcDbXrecord
  1
{B3B8D4E4-885C-4D50-8891-709C0CA3C318}
  0
DICTIONARYVAR
  5
148
102
{ACAD_REACTORS
330
146
102
}
330
146
100
DictionaryVariables
280
     0
  1
2
  0
DICTIONARYVAR
  5
147
102
{ACAD_REACTORS
330
146
102
}
330
146
100
DictionaryVariables
280
     0
  1
1
  0
ENDSEC
  0
EOF
