  0
SECTION
  2
HEADER
  9
$ACADVER
  1
AC1015
  9
$ACADMAINTVER
 70
    20
  9
$DWGCODEPAGE
  3
ANSI_936
  9
$INSBASE
 10
8.260029202763998
 20
4.751429217911166
 30
0.0
  9
$EXTMIN
 10
4.343994229501106
 20
1.943481531394041
 30
-0.0015258207003583
  9
$EXTMAX
 10
17.26391607763236
 20
6.755493213836444
 30
0.0000000349246037
  9
$LIMMIN
 10
0.0
 20
0.0
  9
$LIMMAX
 10
36.0
 20
36.0
  9
$ORTHOMODE
 70
     0
  9
$REGENMODE
 70
     1
  9
$FILLMODE
 70
     1
  9
$QTEXTMODE
 70
     0
  9
$MIRRTEXT
 70
     1
  9
$LTSCALE
 40
1.0
  9
$ATTMODE
 70
     1
  9
$TEXTSIZE
 40
0.2
  9
$TRACEWID
 40
0.05
  9
$TEXTSTYLE
  7
STANDARD
  9
$CLAYER
  8
ADPDIM
  9
$CELTYPE
  6
BYLAYER
  9
$CECOLOR
 62
   256
  9
$CELTSCALE
 40
1.0
  9
$DISPSILH
 70
     0
  9
$DIMSCALE
 40
1.0
  9
$DIMASZ
 40
0.125
  9
$DIMEXO
 40
0.0625
  9
$DIMDLI
 40
0.38
  9
$DIMRND
 40
0.0
  9
$DIMDLE
 40
0.0
  9
$DIMEXE
 40
0.18
  9
$DIMTP
 40
0.0
  9
$DIMTM
 40
0.0
  9
$DIMTXT
 40
0.125
  9
$DIMCEN
 40
0.1875
  9
$DIMTSZ
 40
0.125
  9
$DIMTOL
 70
     0
  9
$DIMLIM
 70
     0
  9
$DIMTIH
 70
     0
  9
$DIMTOH
 70
     0
  9
$DIMSE1
 70
     0
  9
$DIMSE2
 70
     0
  9
$DIMTAD
 70
     0
  9
$DIMZIN
 70
     3
  9
$DIMBLK
  1

  9
$DIMASO
 70
     1
  9
$DIMSHO
 70
     1
  9
$DIMPOST
  1

  9
$DIMAPOST
  1

  9
$DIMALT
 70
     0
  9
$DIMALTD
 70
     1
  9
$DIMALTF
 40
25.4
  9
$DIMLFAC
 40
1.0
  9
$DIMTOFL
 70
     0
  9
$DIMTVP
 40
0.0
  9
$DIMTIX
 70
     0
  9
$DIMSOXD
 70
     0
  9
$DIMSAH
 70
     0
  9
$DIMBLK1
  1

  9
$DIMBLK2
  1

  9
$DIMSTYLE
  2
STANDARD
  9
$DIMCLRD
 70
     0
  9
$DIMCLRE
 70
     0
  9
$DIMCLRT
 70
     0
  9
$DIMTFAC
 40
1.0
  9
$DIMGAP
 40
0.125
  9
$DIMJUST
 70
     0
  9
$DIMSD1
 70
     0
  9
$DIMSD2
 70
     0
  9
$DIMTOLJ
 70
     1
  9
$DIMTZIN
 70
     3
  9
$DIMALTZ
 70
     3
  9
$DIMALTTZ
 70
     3
  9
$DIMUPT
 70
     0
  9
$DIMDEC
 70
     4
  9
$DIMTDEC
 70
     4
  9
$DIMALTU
 70
     5
  9
$DIMALTTD
 70
     1
  9
$DIMTXSTY
  7
STANDARD
  9
$DIMAUNIT
 70
     0
  9
$DIMADEC
 70
     0
  9
$DIMALTRND
 40
0.0
  9
$DIMAZIN
 70
     0
  9
$DIMDSEP
 70
    46
  9
$DIMATFIT
 70
     3
  9
$DIMFRAC
 70
     0
  9
$DIMLDRBLK
  1

  9
$DIMLUNIT
 70
     5
  9
$DIMLWD
 70
    -2
  9
$DIMLWE
 70
    -2
  9
$DIMTMOVE
 70
     2
  9
$LUNITS
 70
     5
  9
$LUPREC
 70
     4
  9
$SKETCHINC
 40
0.1
  9
$FILLETRAD
 40
0.0
  9
$AUNITS
 70
     0
  9
$AUPREC
 70
     0
  9
$MENU
  1
acad
  9
$ELEVATION
 40
0.0
  9
$PELEVATION
 40
0.0
  9
$THICKNESS
 40
0.0
  9
$LIMCHECK
 70
     0
  9
$CHAMFERA
 40
0.062
  9
$CHAMFERB
 40
0.062
  9
$CHAMFERC
 40
0.0
  9
$CHAMFERD
 40
0.0
  9
$SKPOLY
 70
     0
  9
$TDCREATE
 40
2450242.475062882
  9
$TDUCREATE
 40
2450242.683396215
  9
$TDUPDATE
 40
2455208.506067176
  9
$TDUUPDATE
 40
2455208.714400509
  9
$TDINDWG
 40
0.1068417593
  9
$TDUSRTIMER
 40
0.1068417593
  9
$USRTIMER
 70
     1
  9
$ANGBASE
 50
0.0
  9
$ANGDIR
 70
     0
  9
$PDMODE
 70
     0
  9
$PDSIZE
 40
0.0
  9
$PLINEWID
 40
0.0
  9
$SPLFRAME
 70
     0
  9
$SPLINETYPE
 70
     6
  9
$SPLINESEGS
 70
     8
  9
$HANDSEED
  5
765
  9
$SURFTAB1
 70
     6
  9
$SURFTAB2
 70
     6
  9
$SURFTYPE
 70
     6
  9
$SURFU
 70
     6
  9
$SURFV
 70
     6
  9
$UCSBASE
  2

  9
$UCSNAME
  2

  9
$UCSORG
 10
0.0
 20
0.0
 30
0.0
  9
$UCSXDIR
 10
1.0
 20
0.0
 30
0.0
  9
$UCSYDIR
 10
0.0
 20
1.0
 30
0.0
  9
$UCSORTHOREF
  2

  9
$UCSORTHOVIEW
 70
     0
  9
$UCSORGTOP
 10
0.0
 20
0.0
 30
0.0
  9
$UCSORGBOTTOM
 10
0.0
 20
0.0
 30
0.0
  9
$UCSORGLEFT
 10
0.0
 20
0.0
 30
0.0
  9
$UCSORGRIGHT
 10
0.0
 20
0.0
 30
0.0
  9
$UCSORGFRONT
 10
0.0
 20
0.0
 30
0.0
  9
$UCSORGBACK
 10
0.0
 20
0.0
 30
0.0
  9
$PUCSBASE
  2

  9
$PUCSNAME
  2

  9
$PUCSORG
 10
0.0
 20
0.0
 30
0.0
  9
$PUCSXDIR
 10
1.0
 20
0.0
 30
0.0
  9
$PUCSYDIR
 10
0.0
 20
1.0
 30
0.0
  9
$PUCSORTHOREF
  2

  9
$PUCSORTHOVIEW
 70
     0
  9
$PUCSORGTOP
 10
0.0
 20
0.0
 30
0.0
  9
$PUCSORGBOTTOM
 10
0.0
 20
0.0
 30
0.0
  9
$PUCSORGLEFT
 10
0.0
 20
0.0
 30
0.0
  9
$PUCSORGRIGHT
 10
0.0
 20
0.0
 30
0.0
  9
$PUCSORGFRONT
 10
0.0
 20
0.0
 30
0.0
  9
$PUCSORGBACK
 10
0.0
 20
0.0
 30
0.0
  9
$USERI1
 70
     0
  9
$USERI2
 70
     0
  9
$USERI3
 70
     0
  9
$USERI4
 70
     0
  9
$USERI5
 70
     0
  9
$USERR1
 40
0.0
  9
$USERR2
 40
0.0
  9
$USERR3
 40
0.0
  9
$USERR4
 40
0.0
  9
$USERR5
 40
0.0
  9
$WORLDVIEW
 70
     1
  9
$SHADEDGE
 70
     3
  9
$SHADEDIF
 70
    70
  9
$TILEMODE
 70
     1
  9
$MAXACTVP
 70
    15
  9
$PINSBASE
 10
0.0004882961511612
 20
1.000276130627782
 30
0.0
  9
$PLIMCHECK
 70
     0
  9
$PEXTMIN
 10
1.000000000000000E+20
 20
1.000000000000000E+20
 30
1.000000000000000E+20
  9
$PEXTMAX
 10
-1.000000000000000E+20
 20
-1.000000000000000E+20
 30
-1.000000000000000E+20
  9
$PLIMMIN
 10
0.0
 20
0.0
  9
$PLIMMAX
 10
12.0
 20
9.0
  9
$UNITMODE
 70
     0
  9
$VISRETAIN
 70
     0
  9
$PLINEGEN
 70
     0
  9
$PSLTSCALE
 70
     1
  9
$TREEDEPTH
 70
  3020
  9
$CMLSTYLE
  2
STANDARD
  9
$CMLJUST
 70
     0
  9
$CMLSCALE
 40
1.0
  9
$PROXYGRAPHICS
 70
     1
  9
$MEASUREMENT
 70
     0
  9
$CELWEIGHT
370
    -1
  9
$ENDCAPS
280
     0
  9
$JOINSTYLE
280
     0
  9
$LWDISPLAY
290
     0
  9
$INSUNITS
 70
     0
  9
$HYPERLINKBASE
  1

  9
$STYLESHEET
  1

  9
$XEDIT
290
     1
  9
$CEPSNTYPE
380
     0
  9
$PSTYLEMODE
290
     1
  9
$FINGERPRINTGUID
  2
{4F9CE08E-89ED-49A9-8A58-1576B7A292E2}
  9
$VERSIONGUID
  2
{3B198D74-2730-4134-AB1D-09F2B6C5B4C2}
  9
$EXTNAMES
290
     1
  9
$PSVPSCALE
 40
0.0
  9
$OLESTARTUP
290
     0
  0
ENDSEC
  0
SECTION
  2
CLASSES
  0
CLASS
  1
DICTIONARYVAR
  2
AcDbDictionaryVar
  3
ObjectDBX Classes
 90
        0
280
     0
281
     0
  0
CLASS
  1
ACDBDICTIONARYWDFLT
  2
AcDbDictionaryWithDefault
  3
ObjectDBX Classes
 90
        0
280
     0
281
     0
  0
CLASS
  1
ACDBPLACEHOLDER
  2
AcDbPlaceHolder
  3
ObjectDBX Classes
 90
        0
280
     0
281
     0
  0
CLASS
  1
LAYOUT
  2
AcDbLayout
  3
ObjectDBX Classes
 90
        0
280
     0
281
     0
  0
CLASS
  1
MATERIAL
  2
AcDbMaterial
  3
ObjectDBX Classes
 90
     1024
280
     0
281
     0
  0
CLASS
  1
VISUALSTYLE
  2
AcDbVisualStyle
  3
ObjectDBX Classes
 90
     4095
280
     0
281
     0
  0
CLASS
  1
TABLESTYLE
  2
AcDbTableStyle
  3
ObjectDBX Classes
 90
     4095
280
     0
281
     0
  0
CLASS
  1
ACAD_EVALUATION_GRAPH
  2
AcDbEvalGraph
  3
ObjectDBX Classes
 90
     1153
280
     0
281
     0
  0
CLASS
  1
ACAECUSTOBJ
  2
AcAeEditorObj
  3
AcAeEditorObj
 90
     1024
280
     0
281
     0
  0
CLASS
  1
ACDB_DYNAMICBLOCKPURGEPREVENTER_VERSION
  2
AcDbDynamicBlockPurgePreventer
  3
ObjectDBX Classes
 90
     1153
280
     0
281
     0
  0
CLASS
  1
SORTENTSTABLE
  2
AcDbSortentsTable
  3
ObjectDBX Classes
 90
        0
280
     0
281
     0
  0
ENDSEC
  0
SECTION
  2
TABLES
  0
TABLE
  2
VPORT
  5
8
102
{ACAD_XDICTIONARY
360
21C
102
}
330
0
100
AcDbSymbolTable
 70
     1
  0
VPORT
  5
190
330
8
100
AcDbSymbolTableRecord
100
AcDbViewportTableRecord
  2
*Active
 70
     0
 10
0.0
 20
0.0
 11
1.0
 21
1.0
 12
11.98966698023406
 22
4.734730734180244
 13
0.0
 23
0.0
 14
0.5740882589684922
 24
0.5740882589684922
 15
0.5
 25
0.5
 16
0.0
 26
0.0
 36
1.0
 17
0.0
 27
0.0
 37
0.0
 40
4.183419930893485
 41
2.149384885764499
 42
50.0
 43
0.0
 44
0.0
 50
0.0
 51
0.0
 71
     0
 72
   100
 73
     1
 74
     0
 75
     0
 76
     0
 77
     0
 78
     0
281
     0
 65
     1
110
0.0
120
0.0
130
0.0
111
1.0
121
0.0
131
0.0
112
0.0
122
1.0
132
0.0
 79
     0
146
0.0
  0
ENDTAB
  0
TABLE
  2
LTYPE
  5
5
330
0
100
AcDbSymbolTable
 70
     3
  0
LTYPE
  5
11
330
5
100
AcDbSymbolTableRecord
100
AcDbLinetypeTableRecord
  2
BYBLOCK
 70
     0
  3

 72
    65
 73
     0
 40
0.0
  0
LTYPE
  5
12
330
5
100
AcDbSymbolTableRecord
100
AcDbLinetypeTableRecord
  2
BYLAYER
 70
     0
  3

 72
    65
 73
     0
 40
0.0
  0
LTYPE
  5
13
330
5
100
AcDbSymbolTableRecord
100
AcDbLinetypeTableRecord
  2
CONTINUOUS
 70
     0
  3
Solid line
 72
    65
 73
     0
 40
0.0
  0
LTYPE
  5
22
330
5
100
AcDbSymbolTableRecord
100
AcDbLinetypeTableRecord
  2
HIDDEN2
 70
     0
  3
_ _ _ _ _ _ _ _ _ _ _ _ _ _ _ _ _ _ _ _ _ _ _ _
 72
    65
 73
     2
 40
0.1875
 49
0.125
 74
     0
 49
-0.0625
 74
     0
  0
ENDTAB
  0
TABLE
  2
LAYER
  5
2
330
0
100
AcDbSymbolTable
 70
     7
  0
LAYER
  5
E
330
2
100
AcDbSymbolTableRecord
100
AcDbLayerTableRecord
  2
0
 70
     0
 62
     7
  6
CONTINUOUS
370
    -3
390
D1
  0
LAYER
  5
24
330
2
100
AcDbSymbolTableRecord
100
AcDbLayerTableRecord
  2
ADP2DETAIL
 70
     0
 62
     5
  6
CONTINUOUS
370
    -3
390
D1
  0
LAYER
  5
25
330
2
100
AcDbSymbolTableRecord
100
AcDbLayerTableRecord
  2
ADPDIM
 70
     0
 62
     3
  6
CONTINUOUS
370
    -3
390
D1
  0
LAYER
  5
26
330
2
100
AcDbSymbolTableRecord
100
AcDbLayerTableRecord
  2
ADP1DETAIL
 70
     0
 62
     7
  6
CONTINUOUS
370
    -3
390
D1
  0
LAYER
  5
27
330
2
100
AcDbSymbolTableRecord
100
AcDbLayerTableRecord
  2
DEFPOINTS
 70
     0
 62
     7
  6
CONTINUOUS
290
     0
370
    -3
390
D1
  0
LAYER
  5
46D
330
2
100
AcDbSymbolTableRecord
100
AcDbLayerTableRecord
  2
Layer 1
 70
     0
 62
     7
  6
CONTINUOUS
370
    -3
390
D1
  0
ENDTAB
  0
TABLE
  2
STYLE
  5
3
330
0
100
AcDbSymbolTable
 70
     2
  0
STYLE
  5
F
330
3
100
AcDbSymbolTableRecord
100
AcDbTextStyleTableRecord
  2
STANDARD
 70
     0
 40
0.0
 41
1.0
 50
0.0
 71
     0
 42
0.2
  3
txt
  4

  0
STYLE
  5
C6
330
3
100
AcDbSymbolTableRecord
100
AcDbTextStyleTableRecord
  2
ARIAL_WIDE
 70
     0
 40
0.0
 41
1.25
 50
0.0
 71
     0
 42
0.2
  3
arial.ttf
  4

1001
ACAD
1000
Arial
1071
       34
  0
ENDTAB
  0
TABLE
  2
VIEW
  5
6
330
0
100
AcDbSymbolTable
 70
     0
  0
ENDTAB
  0
TABLE
  2
UCS
  5
7
330
0
100
AcDbSymbolTable
 70
     0
  0
ENDTAB
  0
TABLE
  2
APPID
  5
9
330
0
100
AcDbSymbolTable
 70
     6
  0
APPID
  5
10
330
9
100
AcDbSymbolTableRecord
100
AcDbRegAppTableRecord
  2
ACAD
 70
     0
  0
APPID
  5
203
330
9
100
AcDbSymbolTableRecord
100
AcDbRegAppTableRecord
  2
ACAD_EXEMPT_FROM_CAD_STANDARDS
 70
     0
  0
APPID
  5
4CB
330
9
100
AcDbSymbolTableRecord
100
AcDbRegAppTableRecord
  2
ACAUTHENVIRON
 70
     0
  0
APPID
  5
4CF
330
9
100
AcDbSymbolTableRecord
100
AcDbRegAppTableRecord
  2
AcDbDynamicBlockTrueName
 70
     0
  0
APPID
  5
4D0
330
9
100
AcDbSymbolTableRecord
100
AcDbRegAppTableRecord
  2
AcDbDynamicBlockGUID
 70
     0
  0
APPID
  5
4D2
330
9
100
AcDbSymbolTableRecord
100
AcDbRegAppTableRecord
  2
AcDbBlockRepETag
 70
     0
  0
ENDTAB
  0
TABLE
  2
DIMSTYLE
  5
A
330
0
100
AcDbSymbolTable
 70
     2
100
AcDbDimStyleTable
 71
     1
340
C4
  0
DIMSTYLE
105
C4
102
{ACAD_REACTORS
330
4DC
330
4FF
330
550
330
56C
330
597
102
}
330
A
100
AcDbSymbolTableRecord
100
AcDbDimStyleTableRecord
  2
STANDARD
 70
     0
340
F
  0
ENDTAB
  0
TABLE
  2
BLOCK_RECORD
  5
1
330
0
100
AcDbSymbolTable
 70
    12
  0
BLOCK_RECORD
  5
17
102
{ACAD_XDICTIONARY
360
FF
102
}
330
1
100
AcDbSymbolTableRecord
100
AcDbBlockTableRecord
  2
*MODEL_SPACE
340
D4
  0
BLOCK_RECORD
  5
14
102
{ACAD_XDICTIONARY
360
FD
102
}
330
1
100
AcDbSymbolTableRecord
100
AcDbBlockTableRecord
  2
*PAPER_SPACE
340
D5
  0
BLOCK_RECORD
  5
463
102
{ACAD_XDICTIONARY
360
4CC
102
}
330
1
100
AcDbSymbolTableRecord
100
AcDbBlockTableRecord
  2
block 2
340
0
1001
AcDbDynamicBlockGUID
1000
{9D02ABFB-7351-438D-BD35-FB41A5878A84}
1001
AcDbBlockRepETag
1070
     1
1071
        2
  0
BLOCK_RECORD
  5
468
102
{ACAD_XDICTIONARY
360
4D8
102
}
330
1
100
AcDbSymbolTableRecord
100
AcDbBlockTableRecord
  2
block 3
340
0
1001
AcDbDynamicBlockGUID
1000
{B7892E0C-E587-4AA0-8A3D-26E400EF64AC}
1001
AcDbBlockRepETag
1070
     1
1071
        2
  0
BLOCK_RECORD
  5
4DD
330
1
100
AcDbSymbolTableRecord
100
AcDbBlockTableRecord
  2
*D2
340
0
  0
BLOCK_RECORD
  5
500
330
1
100
AcDbSymbolTableRecord
100
AcDbBlockTableRecord
  2
*D3
340
0
  0
BLOCK_RECORD
  5
551
330
1
100
AcDbSymbolTableRecord
100
AcDbBlockTableRecord
  2
*D4
340
0
  0
BLOCK_RECORD
  5
56D
330
1
100
AcDbSymbolTableRecord
100
AcDbBlockTableRecord
  2
*D5
340
0
  0
BLOCK_RECORD
  5
598
330
1
100
AcDbSymbolTableRecord
100
AcDbBlockTableRecord
  2
*D6
340
0
  0
BLOCK_RECORD
  5
68E
102
{ACAD_XDICTIONARY
360
69F
102
}
330
1
100
AcDbSymbolTableRecord
100
AcDbBlockTableRecord
  2
A$C4AE13D6C
340
0
1001
AcDbDynamicBlockGUID
1000
{70B64A11-F043-4D67-AE95-591EBED10123}
1001
AcDbBlockRepETag
1070
     1
1071
        4
  0
BLOCK_RECORD
  5
6AC
102
{ACAD_XDICTIONARY
360
6B1
102
}
330
1
100
AcDbSymbolTableRecord
100
AcDbBlockTableRecord
  2
A$C5F901649
340
0
102
{BLKREFS
331
6B5
102
}
  0
BLOCK_RECORD
  5
6B6
102
{ACAD_XDICTIONARY
360
6B9
102
}
330
1
100
AcDbSymbolTableRecord
100
AcDbBlockTableRecord
  2
A$C41BB26E9
340
0
102
{BLKREFS
331
6BD
102
}
  0
ENDTAB
  0
ENDSEC
  0
SECTION
  2
BLOCKS
  0
BLOCK
  5
2A
330
17
100
AcDbEntity
  8
0
100
AcDbBlockBegin
  2
*MODEL_SPACE
 70
     0
 10
0.0
 20
0.0
 30
0.0
  3
*MODEL_SPACE
  1

  0
ENDBLK
  5
2B
330
17
100
AcDbEntity
  8
0
100
AcDbBlockEnd
  0
BLOCK
  5
28
330
14
100
AcDbEntity
 67
     1
  8
0
100
AcDbBlockBegin
  2
*PAPER_SPACE
 70
     0
 10
0.0
 20
0.0
 30
0.0
  3
*PAPER_SPACE
  1

  0
ENDBLK
  5
29
330
14
100
AcDbEntity
 67
     1
  8
0
100
AcDbBlockEnd
  0
BLOCK
  5
464
330
463
100
AcDbEntity
  8
0
100
AcDbBlockBegin
  2
block 2
 70
     0
 10
0.0
 20
0.0
 30
0.0
  3
block 2
  1

  0
SPLINE
  5
4C9
330
463
100
AcDbEntity
  8
ADP1DETAIL
370
    35
100
AcDbSpline
210
0.0
220
0.0
230
1.0
 70
    11
 71
     3
 72
    17
 73
    13
 74
     0
 42
0.0000000001
 43
0.0000000001
 40
0.0
 40
0.0
 40
0.0
 40
0.0
 40
1.0
 40
1.0
 40
1.0
 40
2.0
 40
2.0
 40
2.0
 40
3.0
 40
3.0
 40
3.0
 40
4.0
 40
4.0
 40
4.0
 40
4.0
 10
5.620378597820497
 20
6.505572052650154
 30
0.0
 10
5.620378597820497
 20
6.574609641579386
 30
0.0
 10
5.676341091321876
 20
6.630572135080764
 30
0.0
 10
5.745378680251107
 20
6.630572135080764
 30
0.0
 10
5.814416269180339
 20
6.630572135080764
 30
0.0
 10
5.870378762681718
 20
6.574609641579386
 30
0.0
 10
5.870378762681718
 20
6.505572052650154
 30
0.0
 10
5.870378762681718
 20
6.436534463720922
 30
0.0
 10
5.814416269180339
 20
6.380571970219544
 30
0.0
 10
5.745378680251107
 20
6.380571970219544
 30
0.0
 10
5.676341091321876
 20
6.380571970219544
 30
0.0
 10
5.620378597820497
 20
6.436534463720922
 30
0.0
 10
5.620378597820497
 20
6.505572052650154
 30
0.0
1001
AcDbBlockRepETag
1070
     1
1071
        0
1005
4C9
  0
SPLINE
  5
4CA
330
463
100
AcDbEntity
  8
ADP1DETAIL
370
    35
100
AcDbSpline
210
0.0
220
0.0
230
1.0
 70
    11
 71
     3
 72
    17
 73
    13
 74
     0
 42
0.0000000001
 43
0.0000000001
 40
0.0
 40
0.0
 40
0.0
 40
0.0
 40
1.0
 40
1.0
 40
1.0
 40
2.0
 40
2.0
 40
2.0
 40
3.0
 40
3.0
 40
3.0
 40
4.0
 40
4.0
 40
4.0
 40
4.0
 10
5.495378515389887
 20
6.505572052650154
 30
0.0
 10
5.495378515389887
 20
6.643640448820118
 30
0.0
 10
5.607303502392643
 20
6.755572217511374
 30
0.0
 10
5.745378680251107
 20
6.755572217511374
 30
0.0
 10
5.883453858109572
 20
6.755572217511374
 30
0.0
 10
5.995378845112328
 20
6.643640448820118
 30
0.0
 10
5.995378845112328
 20
6.505572052650154
 30
0.0
 10
5.995378845112328
 20
6.367496874791689
 30
0.0
 10
5.883453858109572
 20
6.255571887788934
 30
0.0
 10
5.745378680251107
 20
6.255571887788934
 30
0.0
 10
5.607303502392643
 20
6.255571887788934
 30
0.0
 10
5.495378515389887
 20
6.367496874791689
 30
0.0
 10
5.495378515389887
 20
6.505572052650154
 30
0.0
1001
AcDbBlockRepETag
1070
     1
1071
        1
1005
4CA
  0
ENDBLK
  5
467
330
463
100
AcDbEntity
  8
0
100
AcDbBlockEnd
  0
BLOCK
  5
469
330
468
100
AcDbEntity
  8
0
100
AcDbBlockBegin
  2
block 3
 70
     0
 10
0.0
 20
0.0
 30
0.0
  3
block 3
  1

  0
SPLINE
  5
4D6
330
468
100
AcDbEntity
  8
ADP1DETAIL
370
    35
100
AcDbSpline
210
0.0
220
0.0
230
1.0
 70
    11
 71
     3
 72
    17
 73
    13
 74
     0
 42
0.0000000001
 43
0.0000000001
 40
0.0
 40
0.0
 40
0.0
 40
0.0
 40
1.0
 40
1.0
 40
1.0
 40
2.0
 40
2.0
 40
2.0
 40
3.0
 40
3.0
 40
3.0
 40
4.0
 40
4.0
 40
4.0
 40
4.0
 10
5.620378597820497
 20
5.754628903365005
 30
0.0
 10
5.620378597820497
 20
5.823666492294237
 30
0.0
 10
5.676341091321876
 20
5.879628985795615
 30
0.0
 10
5.745378680251107
 20
5.879628985795615
 30
0.0
 10
5.814416269180339
 20
5.879628985795615
 30
0.0
 10
5.870378762681718
 20
5.823666492294237
 30
0.0
 10
5.870378762681718
 20
5.754628903365005
 30
0.0
 10
5.870378762681718
 20
5.685591314435773
 30
0.0
 10
5.814416269180339
 20
5.629628820934395
 30
0.0
 10
5.745378680251107
 20
5.629628820934395
 30
0.0
 10
5.676341091321876
 20
5.629628820934395
 30
0.0
 10
5.620378597820497
 20
5.685591314435773
 30
0.0
 10
5.620378597820497
 20
5.754628903365005
 30
0.0
1001
AcDbBlockRepETag
1070
     1
1071
        0
1005
4D6
  0
SPLINE
  5
4D7
330
468
100
AcDbEntity
  8
ADP1DETAIL
370
    35
100
AcDbSpline
210
0.0
220
0.0
230
1.0
 70
    11
 71
     3
 72
    17
 73
    13
 74
     0
 42
0.0000000001
 43
0.0000000001
 40
0.0
 40
0.0
 40
0.0
 40
0.0
 40
1.0
 40
1.0
 40
1.0
 40
2.0
 40
2.0
 40
2.0
 40
3.0
 40
3.0
 40
3.0
 40
4.0
 40
4.0
 40
4.0
 40
4.0
 10
5.495378515389887
 20
5.754628903365005
 30
0.0
 10
5.495378515389887
 20
5.892697299534969
 30
0.0
 10
5.607303502392643
 20
6.004629068226225
 30
0.0
 10
5.745378680251107
 20
6.004629068226225
 30
0.0
 10
5.883453858109572
 20
6.004629068226225
 30
0.0
 10
5.995378845112328
 20
5.892697299534969
 30
0.0
 10
5.995378845112328
 20
5.754628903365005
 30
0.0
 10
5.995378845112328
 20
5.61655372550654
 30
0.0
 10
5.883453858109572
 20
5.504628738503785
 30
0.0
 10
5.745378680251107
 20
5.504628738503785
 30
0.0
 10
5.607303502392643
 20
5.504628738503785
 30
0.0
 10
5.495378515389887
 20
5.61655372550654
 30
0.0
 10
5.495378515389887
 20
5.754628903365005
 30
0.0
1001
AcDbBlockRepETag
1070
     1
1071
        1
1005
4D7
  0
ENDBLK
  5
46C
330
468
100
AcDbEntity
  8
0
100
AcDbBlockEnd
  0
BLOCK
  5
4E8
330
4DD
100
AcDbEntity
  8
0
100
AcDbBlockBegin
  2
*D2
 70
     1
 10
0.0
 20
0.0
 30
0.0
  3
*D2
  1

  0
LINE
  5
4F5
330
4DD
100
AcDbEntity
  8
ADPDIM
 62
     0
370
    -2
100
AcDbLine
 10
9.661795861680531
 20
6.127413758694784
 30
0.0
 11
9.661795861680531
 21
6.747112893475184
 31
0.0
  0
LINE
  5
4F6
330
4DD
100
AcDbEntity
  8
ADPDIM
 62
     0
370
    -2
100
AcDbLine
 10
11.66179718057029
 20
6.127413758694784
 30
0.0
 11
11.66179718057029
 21
6.747112893475184
 31
0.0
  0
LINE
  5
4F7
330
4DD
100
AcDbEntity
  8
ADPDIM
 62
     0
370
    -2
100
AcDbLine
 10
9.661795861680531
 20
6.567112893475184
 30
0.0
 11
10.49512985445874
 21
6.567112893475184
 31
0.0
  0
LINE
  5
4F8
330
4DD
100
AcDbEntity
  8
ADPDIM
 62
     0
370
    -2
100
AcDbLine
 10
11.66179718057029
 20
6.567112893475184
 30
0.0
 11
10.82846318779207
 21
6.567112893475184
 31
0.0
  0
LINE
  5
4F9
330
4DD
100
AcDbEntity
  8
ADPDIM
 62
     0
370
    -2
100
AcDbLine
 10
11.53679718057029
 20
6.442112893475184
 30
0.0
 11
11.78679718057029
 21
6.692112893475184
 31
0.0
  0
LINE
  5
4FA
330
4DD
100
AcDbEntity
  8
ADPDIM
 62
     0
370
    -2
100
AcDbLine
 10
9.536795861680531
 20
6.442112893475184
 30
0.0
 11
9.786795861680531
 21
6.692112893475184
 31
0.0
  0
MTEXT
  5
4FB
330
4DD
100
AcDbEntity
  8
ADPDIM
 62
     0
100
AcDbMText
 10
10.66179652112541
 20
6.567112893475184
 30
0.0
 40
0.125
 41
0.0
 71
     5
 72
     1
  1
\A1;2
 73
     1
 44
1.0
1001
ACAD
1000
MTEXTBEGIN
1070
    73
1070
     1
1070
    44
1040
1.0
1070
    74
1070
     0
1000
MTEXTEND
  0
POINT
  5
4FC
330
4DD
100
AcDbEntity
  8
DEFPOINTS
 62
     0
100
AcDbPoint
 10
9.661795861680531
 20
6.064913758694784
 30
0.0
  0
POINT
  5
4FD
330
4DD
100
AcDbEntity
  8
DEFPOINTS
 62
     0
100
AcDbPoint
 10
11.66179718057029
 20
6.064913758694784
 30
0.0
  0
POINT
  5
4FE
330
4DD
100
AcDbEntity
  8
DEFPOINTS
 62
     0
100
AcDbPoint
 10
11.66179718057029
 20
6.567112893475184
 30
0.0
  0
ENDBLK
  5
4E9
330
4DD
100
AcDbEntity
  8
0
100
AcDbBlockEnd
  0
BLOCK
  5
50B
330
500
100
AcDbEntity
  8
0
100
AcDbBlockBegin
  2
*D3
 70
     1
 10
0.0
 20
0.0
 30
0.0
  3
*D3
  1

  0
LINE
  5
50D
330
500
100
AcDbEntity
  8
ADPDIM
 62
     0
370
    -2
100
AcDbLine
 10
9.599295861680531
 20
6.064913758694784
 30
0.0
 11
8.935234046562747
 21
6.064913758694784
 31
0.0
  0
LINE
  5
50E
330
500
100
AcDbEntity
  8
ADPDIM
 62
     0
370
    -2
100
AcDbLine
 10
9.599295861680531
 20
4.314905822977745
 30
0.0
 11
8.935234046562747
 21
4.314905822977745
 31
0.0
  0
LINE
  5
50F
330
500
100
AcDbEntity
  8
ADPDIM
 62
     0
370
    -2
100
AcDbLine
 10
9.115234046562747
 20
6.064913758694784
 30
0.0
 11
9.115234046562747
 21
5.585743124169598
 31
0.0
  0
LINE
  5
510
330
500
100
AcDbEntity
  8
ADPDIM
 62
     0
370
    -2
100
AcDbLine
 10
9.115234046562747
 20
4.314905822977745
 30
0.0
 11
9.115234046562747
 21
4.794076457502932
 31
0.0
  0
LINE
  5
511
330
500
100
AcDbEntity
  8
ADPDIM
 62
     0
370
    -2
100
AcDbLine
 10
9.240234046562747
 20
4.189905822977745
 30
0.0
 11
8.990234046562747
 21
4.439905822977745
 31
0.0
  0
LINE
  5
512
330
500
100
AcDbEntity
  8
ADPDIM
 62
     0
370
    -2
100
AcDbLine
 10
9.240234046562747
 20
5.939913758694784
 30
0.0
 11
8.990234046562747
 21
6.189913758694784
 31
0.0
  0
MTEXT
  5
513
330
500
100
AcDbEntity
  8
ADPDIM
 62
     0
100
AcDbMText
 10
9.115234046562745
 20
5.189909790836266
 30
0.0
 40
0.125
 41
0.0
 71
     5
 72
     1
  1
\A1;1 3/4
 11
0.0000000000000001
 21
1.0
 31
0.0
 73
     1
 44
1.0
1001
ACAD
1000
MTEXTBEGIN
1070
    73
1070
     1
1070
    44
1040
1.0
1070
    74
1070
     0
1000
MTEXTEND
  0
POINT
  5
514
330
500
100
AcDbEntity
  8
DEFPOINTS
 62
     0
100
AcDbPoint
 10
9.661795861680531
 20
6.064913758694784
 30
0.0
  0
POINT
  5
515
330
500
100
AcDbEntity
  8
DEFPOINTS
 62
     0
100
AcDbPoint
 10
9.661795861680531
 20
4.314905822977745
 30
0.0
  0
POINT
  5
516
330
500
100
AcDbEntity
  8
DEFPOINTS
 62
     0
100
AcDbPoint
 10
9.115234046562747
 20
4.314905822977745
 30
0.0
  0
ENDBLK
  5
50C
330
500
100
AcDbEntity
  8
0
100
AcDbBlockEnd
  0
BLOCK
  5
55C
330
551
100
AcDbEntity
  8
0
100
AcDbBlockBegin
  2
*D4
 70
     1
 10
0.0
 20
0.0
 30
0.0
  3
*D4
  1

  0
LINE
  5
552
330
551
100
AcDbEntity
  8
ADPDIM
 62
     0
370
    -2
100
AcDbLine
 10
9.599295861680531
 20
4.059344673546587
 30
0.0
 11
8.936201934188177
 21
4.059344673546587
 31
0.0
  0
LINE
  5
553
330
551
100
AcDbEntity
  8
ADPDIM
 62
     0
370
    -2
100
AcDbLine
 10
9.599295861680531
 20
3.059344014101708
 30
0.0
 11
8.936201934188176
 21
3.059344014101708
 31
0.0
  0
LINE
  5
554
330
551
100
AcDbEntity
  8
ADPDIM
 62
     0
370
    -2
100
AcDbLine
 10
9.116201934188177
 20
4.059344673546587
 30
0.0
 11
9.116201934188175
 21
3.705177677157481
 31
0.0
  0
LINE
  5
555
330
551
100
AcDbEntity
  8
ADPDIM
 62
     0
370
    -2
100
AcDbLine
 10
9.116201934188175
 20
3.059344014101708
 30
0.0
 11
9.116201934188175
 21
3.413511010490814
 31
0.0
  0
LINE
  5
556
330
551
100
AcDbEntity
  8
ADPDIM
 62
     0
370
    -2
100
AcDbLine
 10
9.241201934188175
 20
2.934344014101708
 30
0.0
 11
8.991201934188175
 21
3.184344014101708
 31
0.0
  0
LINE
  5
557
330
551
100
AcDbEntity
  8
ADPDIM
 62
     0
370
    -2
100
AcDbLine
 10
9.241201934188175
 20
3.934344673546587
 30
0.0
 11
8.991201934188177
 21
4.184344673546587
 31
0.0
  0
MTEXT
  5
558
330
551
100
AcDbEntity
  8
ADPDIM
 62
     0
100
AcDbMText
 10
9.116201934188175
 20
3.559344343824149
 30
0.0
 40
0.125
 41
0.0
 71
     5
 72
     1
  1
\A1;1
 11
0.0000000000000001
 21
1.0
 31
0.0
 73
     1
 44
1.0
1001
ACAD
1000
MTEXTBEGIN
1070
    73
1070
     1
1070
    44
1040
1.0
1070
    74
1070
     0
1000
MTEXTEND
  0
POINT
  5
559
330
551
100
AcDbEntity
  8
DEFPOINTS
 62
     0
100
AcDbPoint
 10
9.661795861680531
 20
4.059344673546587
 30
0.0
  0
POINT
  5
55A
330
551
100
AcDbEntity
  8
DEFPOINTS
 62
     0
100
AcDbPoint
 10
9.661795861680531
 20
3.059344014101708
 30
0.0
  0
POINT
  5
55B
330
551
100
AcDbEntity
  8
DEFPOINTS
 62
     0
100
AcDbPoint
 10
9.116201934188175
 20
3.059344014101708
 30
0.0
  0
ENDBLK
  5
55D
330
551
100
AcDbEntity
  8
0
100
AcDbBlockEnd
  0
BLOCK
  5
574
330
56D
100
AcDbEntity
  8
0
100
AcDbBlockBegin
  2
*D5
 70
     1
 10
0.0
 20
0.0
 30
0.0
  3
*D5
  1

  0
LINE
  5
591
330
56D
100
AcDbEntity
  8
ADPDIM
 62
     0
370
    -2
100
AcDbLine
 10
12.53188592559334
 20
5.564382564191428
 30
0.0
 11
12.7818852982952
 21
5.56494260765494
 31
0.0
  0
MTEXT
  5
592
102
{ACAD_XDICTIONARY
360
763
102
}
330
56D
100
AcDbEntity
  8
ADPDIM
 62
     0
100
AcDbMText
 10
13.52016018282689
 20
5.566596475898244
 30
0.0
 40
0.125
 41
0.0
 71
     5
 72
     1
  1
\A1;\U+22051/4
 11
0.9999974908074038
 21
0.0022401738540484
 31
0.0
 73
     1
 44
1.0
1001
ACAD
1000
MTEXTBEGIN
1070
    73
1070
     1
1070
    44
1040
1.0
1070
    74
1070
     0
1000
MTEXTEND
  0
LINE
  5
593
330
56D
100
AcDbEntity
  8
ADPDIM
 62
     0
370
    -2
100
AcDbLine
 10
12.65716563367603
 20
5.439662899572259
 30
0.0
 11
12.90660496291436
 21
5.690222315737622
 31
0.0
  0
LINE
  5
594
330
56D
100
AcDbEntity
  8
ADPDIM
 62
     0
370
    -2
100
AcDbLine
 10
12.40716626097417
 20
5.439102856108747
 30
0.0
 11
12.65660559021251
 21
5.68966227227411
 31
0.0
  0
POINT
  5
595
330
56D
100
AcDbEntity
  8
DEFPOINTS
 62
     0
100
AcDbPoint
 10
12.7818852982952
 20
5.56494260765494
 30
0.0
  0
POINT
  5
596
330
56D
100
AcDbEntity
  8
DEFPOINTS
 62
     0
100
AcDbPoint
 10
12.53188592559334
 20
5.564382564191428
 30
0.0
  0
ENDBLK
  5
575
330
56D
100
AcDbEntity
  8
0
100
AcDbBlockEnd
  0
BLOCK
  5
5A3
330
598
100
AcDbEntity
  8
0
100
AcDbBlockBegin
  2
*D6
 70
     1
 10
0.0
 20
0.0
 30
0.0
  3
*D6
  1

  0
LINE
  5
599
330
598
100
AcDbEntity
  8
ADPDIM
 62
     0
370
    -2
100
AcDbLine
 10
12.16179751029273
 20
6.127413758694784
 30
0.0
 11
12.16179751029273
 21
6.752797971316249
 31
0.0
  0
LINE
  5
59A
330
598
100
AcDbEntity
  8
ADPDIM
 62
     0
370
    -2
100
AcDbLine
 10
13.16179816973761
 20
6.127413758694784
 30
0.0
 11
13.16179816973761
 21
6.752797971316249
 31
0.0
  0
LINE
  5
59B
330
598
100
AcDbEntity
  8
ADPDIM
 62
     0
370
    -2
100
AcDbLine
 10
12.16179751029273
 20
6.57279797131625
 30
0.0
 11
12.51596450668183
 21
6.57279797131625
 31
0.0
  0
LINE
  5
59C
330
598
100
AcDbEntity
  8
ADPDIM
 62
     0
370
    -2
100
AcDbLine
 10
13.16179816973761
 20
6.57279797131625
 30
0.0
 11
12.8076311733485
 21
6.57279797131625
 31
0.0
  0
LINE
  5
59D
330
598
100
AcDbEntity
  8
ADPDIM
 62
     0
370
    -2
100
AcDbLine
 10
13.03679816973761
 20
6.44779797131625
 30
0.0
 11
13.28679816973761
 21
6.69779797131625
 31
0.0
  0
LINE
  5
59E
330
598
100
AcDbEntity
  8
ADPDIM
 62
     0
370
    -2
100
AcDbLine
 10
12.03679751029273
 20
6.44779797131625
 30
0.0
 11
12.28679751029273
 21
6.69779797131625
 31
0.0
  0
MTEXT
  5
59F
330
598
100
AcDbEntity
  8
ADPDIM
 62
     0
100
AcDbMText
 10
12.66179784001517
 20
6.57279797131625
 30
0.0
 40
0.125
 41
0.0
 71
     5
 72
     1
  1
\A1;1
 73
     1
 44
1.0
1001
ACAD
1000
MTEXTBEGIN
1070
    73
1070
     1
1070
    44
1040
1.0
1070
    74
1070
     0
1000
MTEXTEND
  0
POINT
  5
5A0
330
598
100
AcDbEntity
  8
DEFPOINTS
 62
     0
100
AcDbPoint
 10
12.16179751029273
 20
6.064913758694784
 30
0.0
  0
POINT
  5
5A1
330
598
100
AcDbEntity
  8
DEFPOINTS
 62
     0
100
AcDbPoint
 10
13.16179816973761
 20
6.064913758694784
 30
0.0
  0
POINT
  5
5A2
330
598
100
AcDbEntity
  8
DEFPOINTS
 62
     0
100
AcDbPoint
 10
13.16179816973761
 20
6.57279797131625
 30
0.0
  0
ENDBLK
  5
5A4
330
598
100
AcDbEntity
  8
0
100
AcDbBlockEnd
  0
BLOCK
  5
695
330
68E
100
AcDbEntity
  8
0
100
AcDbBlockBegin
  2
A$C4AE13D6C
 70
     0
 10
0.0
 20
0.0
 30
0.0
  3
A$C4AE13D6C
  1

  0
LINE
  5
69B
330
68E
100
AcDbEntity
  8
ADP2DETAIL
  6
HIDDEN2
100
AcDbLine
 10
0.7499944513885595
 20
0.3557545405832414
 30
0.0
 11
0.1237328404895859
 21
0.3550678479314846
 31
0.0
1001
AcDbBlockRepETag
1070
     1
1071
        0
1005
69B
  0
LINE
  5
69C
330
68E
100
AcDbEntity
  8
ADP2DETAIL
  6
HIDDEN2
100
AcDbLine
 10
0.7512615337970061
 20
0.1111653368075736
 30
0.0
 11
0.1262609640695995
 21
0.1104800268810089
 31
0.0
1001
AcDbBlockRepETag
1070
     1
1071
        1
1005
69C
  0
LINE
  5
69D
330
68E
100
AcDbEntity
  8
ADP2DETAIL
100
AcDbLine
 10
0.1262609640695995
 20
0.1104800268810089
 30
0.0
 11
-0.0000000019582131
 21
-0.0000000034062735
 31
0.0
1001
AcDbBlockRepETag
1070
     1
1071
        2
1005
69D
  0
LINE
  5
69E
330
68E
100
AcDbEntity
  8
ADP2DETAIL
100
AcDbLine
 10
0.1237328404895859
 20
0.3550678479314846
 30
0.0
 11
-0.0012670843666598
 21
0.4949370303318128
 31
0.0
1001
AcDbBlockRepETag
1070
     1
1071
        3
1005
69E
  0
ENDBLK
  5
696
330
68E
100
AcDbEntity
  8
0
100
AcDbBlockEnd
  0
BLOCK
  5
6B3
330
6AC
100
AcDbEntity
  8
0
100
AcDbBlockBegin
  2
A$C5F901649
 70
     0
 10
0.0
 20
0.0
 30
0.0
  3
A$C5F901649
  1

  0
LINE
  5
6AD
330
6AC
100
AcDbEntity
  8
ADP2DETAIL
  6
HIDDEN2
100
AcDbLine
 10
0.0
 20
0.3395677602296452
 30
0.0
 11
0.1875
 21
0.3395677602296452
 31
0.0
  0
LINE
  5
6AE
330
6AC
100
AcDbEntity
  8
ADP2DETAIL
  6
HIDDEN2
100
AcDbLine
 10
0.1875
 20
0.3395677602296452
 30
0.0
 11
0.1875
 21
-0.2266432056711629
 31
0.0
  0
LINE
  5
6AF
330
6AC
100
AcDbEntity
  8
ADP2DETAIL
  6
HIDDEN2
100
AcDbLine
 10
0.1875
 20
-0.2266432056711629
 30
0.0
 11
0.0
 21
-0.2266432056711629
 31
0.0
  0
LINE
  5
6B0
330
6AC
100
AcDbEntity
  8
ADP2DETAIL
  6
HIDDEN2
100
AcDbLine
 10
0.0
 20
-0.2266432056711629
 30
0.0
 11
0.0
 21
0.3395677602296452
 31
0.0
  0
ENDBLK
  5
6B4
330
6AC
100
AcDbEntity
  8
0
100
AcDbBlockEnd
  0
BLOCK
  5
6BB
330
6B6
100
AcDbEntity
  8
0
100
AcDbBlockBegin
  2
A$C41BB26E9
 70
     0
 10
0.0
 20
0.0
 30
0.0
  3
A$C41BB26E9
  1

  0
LINE
  5
6B7
330
6B6
100
AcDbEntity
  8
ADP2DETAIL
100
AcDbLine
 10
0.1255125772736214
 20
0.151924884945041
 30
0.0
 11
0.0000000000909033
 21
0.0000000035518308
 31
0.0
  0
LINE
  5
6B8
330
6B6
100
AcDbEntity
  8
ADP2DETAIL
100
AcDbLine
 10
0.1255125772736214
 20
0.339424884945041
 30
0.0
 11
0.0000000000909033
 21
0.4999990890194237
 31
0.0
  0
ENDBLK
  5
6BC
330
6B6
100
AcDbEntity
  8
0
100
AcDbBlockEnd
  0
ENDSEC
  0
SECTION
  2
ENTITIES
  0
TEXT
  5
CD
330
17
100
AcDbEntity
  8
ADPDIM
100
AcDbText
 10
4.344797233939085
 20
1.981771676382058
 30
0.0
 40
0.125
  1
J U L I U S  B L U M  &  C O . ,  I N C .      ( 8 0 0 )  5 2 6 - 6 2 9 3        W W W . J U L I U S B L U M . C O M        P A R T  N O .  1 1 3
 41
1.25
  7
ARIAL_WIDE
 72
     1
 11
10.80369900747251
 21
2.106771676382058
 31
0.0
100
AcDbText
 73
     3
  0
POLYLINE
  5
49C
330
17
100
AcDbEntity
  8
ADP1DETAIL
100
AcDb2dPolyline
 66
     1
 10
0.0
 20
0.0
 30
0.0
  0
VERTEX
  5
49D
330
49C
100
AcDbEntity
  8
ADP1DETAIL
100
AcDbVertex
100
AcDb2dVertex
 10
13.16179816973761
 20
4.314905822977745
 30
0.0
  0
VERTEX
  5
49E
330
49C
100
AcDbEntity
  8
ADP1DETAIL
100
AcDbVertex
100
AcDb2dVertex
 10
12.16179751029273
 20
4.314905822977745
 30
0.0
  0
VERTEX
  5
49F
330
49C
100
AcDbEntity
  8
ADP1DETAIL
100
AcDbVertex
100
AcDb2dVertex
 10
12.16179751029273
 20
6.064913758694784
 30
0.0
  0
VERTEX
  5
4A0
330
49C
100
AcDbEntity
  8
ADP1DETAIL
100
AcDbVertex
100
AcDb2dVertex
 10
13.16179816973761
 20
6.064913758694784
 30
0.0
  0
VERTEX
  5
4A1
330
49C
100
AcDbEntity
  8
ADP1DETAIL
100
AcDbVertex
100
AcDb2dVertex
 10
13.16179816973761
 20
4.314905822977745
 30
0.0
  0
SEQEND
  5
4A2
330
49C
100
AcDbEntity
  8
ADP1DETAIL
  0
LWPOLYLINE
  5
4A3
330
17
100
AcDbEntity
  8
ADP1DETAIL
100
AcDbPolyline
 90
        2
 70
   128
 43
0.0
 10
11.66179718057029
 20
4.314905822977745
 10
9.786797180570289
 20
4.314905822977745
  0
POLYLINE
  5
4AA
330
17
100
AcDbEntity
  8
ADP1DETAIL
100
AcDb2dPolyline
 66
     1
 10
0.0
 20
0.0
 30
0.0
  0
VERTEX
  5
4AB
330
4AA
100
AcDbEntity
  8
ADP1DETAIL
100
AcDbVertex
100
AcDb2dVertex
 10
11.66179718057029
 20
3.059344014101708
 30
0.0
  0
VERTEX
  5
4AC
330
4AA
100
AcDbEntity
  8
ADP1DETAIL
100
AcDbVertex
100
AcDb2dVertex
 10
9.661795861680531
 20
3.059344014101708
 30
0.0
  0
VERTEX
  5
4AD
330
4AA
100
AcDbEntity
  8
ADP1DETAIL
100
AcDbVertex
100
AcDb2dVertex
 10
9.661795861680531
 20
3.309344178962928
 30
0.0
  0
VERTEX
  5
4AE
330
4AA
100
AcDbEntity
  8
ADP1DETAIL
100
AcDbVertex
100
AcDb2dVertex
 10
10.91179668598663
 20
3.309344178962928
 30
0.0
  0
VERTEX
  5
4AF
330
4AA
100
AcDbEntity
  8
ADP1DETAIL
100
AcDbVertex
100
AcDb2dVertex
 10
10.91179668598663
 20
3.809344508685367
 30
0.0
  0
VERTEX
  5
4B0
330
4AA
100
AcDbEntity
  8
ADP1DETAIL
100
AcDbVertex
100
AcDb2dVertex
 10
9.661795861680531
 20
3.809344508685367
 30
0.0
  0
VERTEX
  5
4B1
330
4AA
100
AcDbEntity
  8
ADP1DETAIL
100
AcDbVertex
100
AcDb2dVertex
 10
9.661795861680531
 20
4.059344673546587
 30
0.0
  0
VERTEX
  5
4B2
330
4AA
100
AcDbEntity
  8
ADP1DETAIL
100
AcDbVertex
100
AcDb2dVertex
 10
11.66179718057029
 20
4.059344673546587
 30
0.0
  0
VERTEX
  5
4B3
330
4AA
100
AcDbEntity
  8
ADP1DETAIL
100
AcDbVertex
100
AcDb2dVertex
 10
11.66179718057029
 20
3.059344014101708
 30
0.0
  0
SEQEND
  5
4B4
330
4AA
100
AcDbEntity
  8
ADP1DETAIL
  0
POLYLINE
  5
4B5
330
17
100
AcDbEntity
  8
ADP1DETAIL
100
AcDb2dPolyline
 66
     1
 10
0.0
 20
0.0
 30
0.0
  0
VERTEX
  5
4B6
330
4B5
100
AcDbEntity
  8
ADP1DETAIL
100
AcDbVertex
100
AcDb2dVertex
 10
12.407172563597
 20
6.064913758694784
 30
0.0
  0
VERTEX
  5
4B7
330
4B5
100
AcDbEntity
  8
ADP1DETAIL
100
AcDbVertex
100
AcDb2dVertex
 10
12.407172563597
 20
4.314905822977745
 30
0.0
  0
SEQEND
  5
4B8
330
4B5
100
AcDbEntity
  8
ADP1DETAIL
  0
SPLINE
  5
4BA
330
17
100
AcDbEntity
  8
ADP1DETAIL
100
AcDbSpline
210
0.0
220
0.0
230
1.0
 70
    11
 71
     3
 72
    17
 73
    13
 74
     0
 42
0.0000000001
 43
0.0000000001
 40
0.0
 40
0.0
 40
0.0
 40
0.0
 40
1.0
 40
1.0
 40
1.0
 40
2.0
 40
2.0
 40
2.0
 40
3.0
 40
3.0
 40
3.0
 40
4.0
 40
4.0
 40
4.0
 40
4.0
 10
10.97294192987078
 20
5.19278539593214
 30
0.0
 10
10.97294192987078
 20
5.36537258656672
 30
0.0
 10
11.11284816362422
 20
5.505285602008664
 30
0.0
 10
11.2854489176358
 20
5.505285602008664
 30
0.0
 10
11.45802932658188
 20
5.505285602008664
 30
0.0
 10
11.59794912371233
 20
5.36537258656672
 30
0.0
 10
11.59794912371233
 20
5.19278539593214
 30
0.0
 10
11.59794912371233
 20
5.020191423609059
 30
0.0
 10
11.45802932658188
 20
4.880285189855615
 30
0.0
 10
11.2854489176358
 20
4.880285189855615
 30
0.0
 10
11.11284816362422
 20
4.880285189855615
 30
0.0
 10
10.97294192987078
 20
5.020191423609059
 30
0.0
 10
10.97294192987078
 20
5.19278539593214
 30
0.0
  0
SPLINE
  5
4BB
330
17
100
AcDbEntity
  8
ADP1DETAIL
100
AcDbSpline
210
0.0
220
0.0
230
1.0
 70
    11
 71
     3
 72
    14
 73
    10
 74
     0
 42
0.0000000001
 43
0.0000000001
 40
0.0
 40
0.0
 40
0.0
 40
0.0
 40
1.0
 40
1.0
 40
1.0
 40
2.0
 40
2.0
 40
2.0
 40
3.0
 40
3.0
 40
3.0
 40
3.0
 10
11.97429738664681
 20
5.189913181680515
 30
0.0
 10
11.97429738664681
 20
5.362500372315095
 30
0.0
 10
12.05824112689888
 20
5.50241338775704
 30
0.0
 10
12.16179751029273
 20
5.50241338775704
 30
0.0
 10
12.16179751029273
 20
5.285046707957457
 30
0.0
 10
12.16179751029273
 20
5.133998159998637
 30
0.0
 10
12.16179751029273
 20
4.877412975603991
 30
0.0
 10
12.05824112689888
 20
4.877412975603991
 30
0.0
 10
11.97429738664681
 20
5.017319209357435
 30
0.0
 10
11.97429738664681
 20
5.189913181680515
 30
0.0
  0
SPLINE
  5
4BC
330
17
100
AcDbEntity
  8
ADP1DETAIL
100
AcDbSpline
210
0.0
220
0.0
230
1.0
 70
    11
 71
     3
 72
    14
 73
    10
 74
     0
 42
0.0000000001
 43
0.0000000001
 40
0.0
 40
0.0
 40
0.0
 40
0.0
 40
1.0
 40
1.0
 40
1.0
 40
2.0
 40
2.0
 40
2.0
 40
3.0
 40
3.0
 40
3.0
 40
3.0
 10
11.28910457861151
 20
4.247425219972277
 30
0.0
 10
11.46168498755758
 20
4.247425219972277
 30
0.0
 10
11.60160478468803
 20
4.163481479720211
 30
0.0
 10
11.60160478468803
 20
4.059925096326362
 30
0.0
 10
11.38423810488845
 20
4.059925096326362
 30
0.0
 10
11.23319633861813
 20
4.059925096326362
 30
0.0
 10
10.97659759084648
 20
4.059925096326362
 30
0.0
 10
10.97659759084648
 20
4.163481479720211
 30
0.0
 10
11.11650382459992
 20
4.247425219972277
 30
0.0
 10
11.28910457861151
 20
4.247425219972277
 30
0.0
  0
POLYLINE
  5
4BE
330
17
100
AcDbEntity
  8
ADP1DETAIL
100
AcDb2dPolyline
 66
     1
 10
0.0
 20
0.0
 30
0.0
  0
VERTEX
  5
4BF
330
4BE
100
AcDbEntity
  8
ADP1DETAIL
100
AcDbVertex
100
AcDb2dVertex
 10
11.66179718057029
 20
3.809344508685367
 30
0.0
  0
VERTEX
  5
4C0
330
4BE
100
AcDbEntity
  8
ADP1DETAIL
100
AcDbVertex
100
AcDb2dVertex
 10
11.41179701570907
 20
3.809344508685367
 30
0.0
  0
VERTEX
  5
4C1
330
4BE
100
AcDbEntity
  8
ADP1DETAIL
100
AcDbVertex
100
AcDb2dVertex
 10
11.41179701570907
 20
3.746844467470062
 30
0.0
  0
VERTEX
  5
4C2
330
4BE
100
AcDbEntity
  8
ADP1DETAIL
100
AcDbVertex
100
AcDb2dVertex
 10
11.16179685084785
 20
3.746844467470062
 30
0.0
  0
VERTEX
  5
4C3
330
4BE
100
AcDbEntity
  8
ADP1DETAIL
100
AcDbVertex
100
AcDb2dVertex
 10
11.16179685084785
 20
3.809344508685367
 30
0.0
  0
VERTEX
  5
4C4
330
4BE
100
AcDbEntity
  8
ADP1DETAIL
100
AcDbVertex
100
AcDb2dVertex
 10
10.91179668598663
 20
3.809344508685367
 30
0.0
  0
SEQEND
  5
4C5
330
4BE
100
AcDbEntity
  8
ADP1DETAIL
  0
DIMENSION
  5
4DC
330
17
100
AcDbEntity
  8
ADPDIM
100
AcDbDimension
  2
*D2
 10
11.66179718057029
 20
6.567112893475184
 30
0.0
 11
10.66179652112541
 21
6.567112893475184
 31
0.0
 70
    32
 71
     5
 42
2.000001318889758
  3
STANDARD
100
AcDbAlignedDimension
 13
9.661795861680531
 23
6.064913758694784
 33
0.0
 14
11.66179718057029
 24
6.064913758694784
 34
0.0
100
AcDbRotatedDimension
1001
ACAD
1000
DSTYLE
1002
{
1070
    41
1040
0.125
1070
    73
1070
     0
1070
    74
1070
     0
1070
    78
1070
     3
1070
   140
1040
0.125
1070
   141
1040
0.1875
1070
   142
1040
0.125
1070
   147
1040
0.125
1070
   171
1070
     1
1070
   273
1070
     5
1070
   274
1070
     1
1070
   277
1070
     5
1070
   279
1070
     2
1070
   284
1070
     3
1070
   285
1070
     3
1070
   286
1070
     3
1002
}
  0
DIMENSION
  5
4FF
330
17
100
AcDbEntity
  8
ADPDIM
100
AcDbDimension
  2
*D3
 10
9.115234046562747
 20
4.314905822977745
 30
0.0
 11
9.115234046562745
 21
5.189909790836266
 31
0.0
 70
    32
 71
     5
 42
1.750007935717039
  3
STANDARD
100
AcDbAlignedDimension
 13
9.661795861680531
 23
6.064913758694784
 33
0.0
 14
9.661795861680531
 24
4.314905822977745
 34
0.0
 50
90.0
100
AcDbRotatedDimension
1001
ACAD
1000
DSTYLE
1002
{
1070
   276
1070
     2
1070
    41
1040
0.125
1070
    73
1070
     0
1070
    74
1070
     0
1070
    78
1070
     3
1070
   140
1040
0.125
1070
   141
1040
0.1875
1070
   142
1040
0.125
1070
   147
1040
0.125
1070
   171
1070
     1
1070
   273
1070
     5
1070
   274
1070
     1
1070
   277
1070
     5
1070
   279
1070
     2
1070
   284
1070
     3
1070
   285
1070
     3
1070
   286
1070
     3
1002
}
  0
CIRCLE
  5
53A
330
17
100
AcDbEntity
  8
ADP2DETAIL
  6
HIDDEN2
100
AcDbCircle
 10
12.6587052475665
 20
5.566480774365926
 30
0.0
 40
0.25
  0
CIRCLE
  5
53B
330
17
100
AcDbEntity
  8
ADP2DETAIL
  6
HIDDEN2
100
AcDbCircle
 10
12.65688561194427
 20
5.564662585923185
 30
0.0
 40
0.125
  0
CIRCLE
  5
543
330
17
100
AcDbEntity
  8
ADP2DETAIL
  6
HIDDEN2
100
AcDbCircle
 10
12.65489804712694
 20
4.817177683035779
 30
0.0
 40
0.25
  0
CIRCLE
  5
544
330
17
100
AcDbEntity
  8
ADP2DETAIL
  6
HIDDEN2
100
AcDbCircle
 10
12.65307841150471
 20
4.815359494593039
 30
0.0
 40
0.125
  0
DIMENSION
  5
550
330
17
100
AcDbEntity
  8
ADPDIM
100
AcDbDimension
  2
*D4
 10
9.116201934188175
 20
3.059344014101708
 30
0.0
 11
9.116201934188175
 21
3.559344343824149
 31
0.0
 70
    32
 71
     5
 42
1.000000659444878
  3
STANDARD
100
AcDbAlignedDimension
 13
9.661795861680531
 23
4.059344673546587
 33
0.0
 14
9.661795861680531
 24
3.059344014101708
 34
0.0
 50
90.0
100
AcDbRotatedDimension
1001
ACAD
1000
DSTYLE
1002
{
1070
    41
1040
0.125
1070
    73
1070
     0
1070
    74
1070
     0
1070
    78
1070
     3
1070
   140
1040
0.125
1070
   141
1040
0.1875
1070
   142
1040
0.125
1070
   147
1040
0.125
1070
   171
1070
     1
1070
   273
1070
     5
1070
   274
1070
     1
1070
   277
1070
     5
1070
   279
1070
     2
1070
   284
1070
     3
1070
   285
1070
     3
1070
   286
1070
     3
1002
}
  0
DIMENSION
  5
56C
330
17
100
AcDbEntity
  8
ADPDIM
100
AcDbDimension
  2
*D5
 10
12.53188592559334
 20
5.564382564191428
 30
0.0
 11
13.52016018282689
 21
5.566596475898244
 31
0.0
 70
   163
 71
     5
 42
0.2500000000000089
  3
STANDARD
100
AcDbDiametricDimension
 15
12.7818852982952
 25
5.56494260765494
 35
0.0
 40
0.0
1001
ACAD
1000
DSTYLE
1002
{
1070
   276
1070
     2
1070
    41
1040
0.125
1070
    73
1070
     0
1070
    74
1070
     0
1070
    78
1070
     3
1070
   140
1040
0.125
1070
   141
1040
0.1875
1070
   142
1040
0.125
1070
   147
1040
0.125
1070
   171
1070
     1
1070
   273
1070
     5
1070
   274
1070
     1
1070
   277
1070
     5
1070
   279
1070
     2
1070
   284
1070
     3
1070
   285
1070
     3
1070
   286
1070
     3
1070
   288
1070
     1
1002
}
  0
DIMENSION
  5
597
330
17
100
AcDbEntity
  8
ADPDIM
100
AcDbDimension
  2
*D6
 10
13.16179816973761
 20
6.57279797131625
 30
0.0
 11
12.66179784001517
 21
6.57279797131625
 31
0.0
 70
    32
 71
     5
 42
1.000000659444879
  3
STANDARD
100
AcDbAlignedDimension
 13
12.16179751029273
 23
6.064913758694784
 33
0.0
 14
13.16179816973761
 24
6.064913758694784
 34
0.0
100
AcDbRotatedDimension
1001
ACAD
1000
DSTYLE
1002
{
1070
    41
1040
0.125
1070
    73
1070
     0
1070
    74
1070
     0
1070
    78
1070
     3
1070
   140
1040
0.125
1070
   141
1040
0.1875
1070
   142
1040
0.125
1070
   147
1040
0.125
1070
   171
1070
     1
1070
   273
1070
     5
1070
   274
1070
     1
1070
   277
1070
     5
1070
   279
1070
     2
1070
   284
1070
     3
1070
   285
1070
     3
1070
   286
1070
     3
1002
}
  0
LINE
  5
5A5
330
17
100
AcDbEntity
  8
ADP2DETAIL
  6
HIDDEN2
100
AcDbLine
 10
10.91179668598663
 20
4.314905822977745
 30
0.0
 11
10.91179668598663
 21
6.064913758694784
 31
0.0
  0
LINE
  5
5AC
330
17
100
AcDbEntity
  8
ADP2DETAIL
  6
HIDDEN2
100
AcDbLine
 10
12.91014706148377
 20
4.311030898594307
 30
0.0
 11
12.91014706148377
 21
6.061038834311346
 31
0.0
  0
LINE
  5
5AD
330
17
100
AcDbEntity
  8
ADP2DETAIL
  6
HIDDEN2
100
AcDbLine
 10
11.59696522688432
 20
5.689142978485028
 30
0.0
 11
11.03553556967131
 21
5.688527373738742
 31
0.0
  0
LINE
  5
5B4
330
17
100
AcDbEntity
  8
ADP2DETAIL
  6
HIDDEN2
100
AcDbLine
 10
11.59603640558043
 20
5.439489460277201
 30
0.0
 11
11.03679661084288
 21
5.438876256703913
 31
0.0
  0
LINE
  5
5BC
330
17
100
AcDbEntity
  8
ADP2DETAIL
  6
HIDDEN2
100
AcDbLine
 10
11.59732819580847
 20
4.93614144494397
 30
0.0
 11
11.0355356385356
 21
4.935525442279625
 31
0.0
  0
LINE
  5
5BD
330
17
100
AcDbEntity
  8
ADP2DETAIL
  6
HIDDEN2
100
AcDbLine
 10
11.59639937450458
 20
4.686487926736142
 30
0.0
 11
11.03679667970717
 21
4.685874325244796
 31
0.0
  0
LINE
  5
5DF
330
17
100
AcDbEntity
  8
ADP2DETAIL
  6
HIDDEN2
100
AcDbLine
 10
11.66305822174185
 20
3.670162018936796
 30
0.0
 11
11.03679661084287
 21
3.669475326285039
 31
0.0
  0
LINE
  5
5E0
330
17
100
AcDbEntity
  8
ADP2DETAIL
  6
HIDDEN2
100
AcDbLine
 10
11.66305822174185
 20
3.420509519176775
 30
0.0
 11
11.03805765201444
 21
3.41982420925021
 31
0.0
  0
ARC
  5
670
330
17
100
AcDbEntity
  8
ADP1DETAIL
100
AcDbCircle
 10
9.77332466220181
 20
5.95338410274689
 30
0.0
 40
0.1123402749295668
100
AcDbArc
 50
83.11284644073476
 51
186.8907909085532
  0
LWPOLYLINE
  5
671
330
17
100
AcDbEntity
  8
ADP1DETAIL
100
AcDbPolyline
 90
        3
 70
   128
 43
0.0
 10
9.786795861680531
 20
6.064913758694784
 10
11.66179718057029
 20
6.064913758694784
 10
11.66179718057029
 20
4.314905822977745
  0
LWPOLYLINE
  5
674
330
17
100
AcDbEntity
  8
ADP1DETAIL
100
AcDbPolyline
 90
        2
 70
   128
 43
0.0
 10
9.662619677048812
 20
4.439903108261223
 10
9.661795861680531
 20
5.939905822977745
  0
ARC
  5
675
330
17
100
AcDbEntity
  8
ADP1DETAIL
100
AcDbCircle
 10
9.77331033953417
 20
4.425999520049401
 30
0.0
 40
0.1123402749295705
100
AcDbArc
 50
173.1092090914465
 51
276.8871535592636
  0
LINE
  5
67A
330
17
100
AcDbEntity
  8
ADP2DETAIL
100
AcDbLine
 10
11.03679667970717
 20
4.685874325244796
 30
0.0
 11
10.91179668598663
 21
4.565359951859243
 31
0.0
  0
LINE
  5
67B
330
17
100
AcDbEntity
  8
ADP2DETAIL
100
AcDbLine
 10
11.0355356385356
 20
4.935525442279625
 30
0.0
 11
10.91179668598663
 21
5.065359037326834
 31
0.0
  0
LINE
  5
67C
330
17
100
AcDbEntity
  8
ADP2DETAIL
100
AcDbLine
 10
11.03494369584268
 20
5.440061710862071
 30
0.0
 11
10.90994370212214
 21
5.319547337476518
 31
0.0
  0
LINE
  5
67D
330
17
100
AcDbEntity
  8
ADP2DETAIL
100
AcDbLine
 10
11.03368265467111
 20
5.6897128278969
 30
0.0
 11
10.90994370212214
 21
5.819546422944109
 31
0.0
  0
LINE
  5
67E
330
17
100
AcDbEntity
  8
ADP2DETAIL
100
AcDbLine
 10
11.03805765201444
 20
3.41982420925021
 30
0.0
 11
10.91179668598663
 21
3.309344178962928
 31
0.0
  0
LINE
  5
67F
330
17
100
AcDbEntity
  8
ADP2DETAIL
100
AcDbLine
 10
11.03679661084287
 20
3.669475326285039
 30
0.0
 11
10.91179668598663
 21
3.809344508685367
 31
0.0
  0
LINE
  5
680
330
17
100
AcDbEntity
  8
ADP2DETAIL
  6
HIDDEN2
100
AcDbLine
 10
11.59744315179647
 20
5.817602172150523
 30
0.0
 11
11.65994315179647
 21
5.817602172150523
 31
0.0
  0
LINE
  5
682
330
17
100
AcDbEntity
  8
ADP2DETAIL
  6
HIDDEN2
100
AcDbLine
 10
11.59744315179647
 20
5.319306873294683
 30
0.0
 11
11.66101024953214
 21
5.319547337476518
 31
0.0
  0
LINE
  5
683
330
17
100
AcDbEntity
  8
ADP2DETAIL
  6
HIDDEN2
100
AcDbLine
 10
11.59559016793199
 20
5.319547337476518
 30
0.0
 11
11.59744315179647
 21
5.817602172150523
 31
0.0
  0
LINE
  5
685
330
17
100
AcDbEntity
  8
ADP2DETAIL
  6
HIDDEN2
100
AcDbLine
 10
11.59781485285058
 20
5.066947706831585
 30
0.0
 11
11.66031485285058
 21
5.066947706831585
 31
0.0
  0
LINE
  5
686
330
17
100
AcDbEntity
  8
ADP2DETAIL
  6
HIDDEN2
100
AcDbLine
 10
11.59781485285058
 20
4.568652407975745
 30
0.0
 11
11.66138195058624
 21
4.56889287215758
 31
0.0
  0
LINE
  5
687
330
17
100
AcDbEntity
  8
ADP2DETAIL
  6
HIDDEN2
100
AcDbLine
 10
11.59596186898609
 20
4.56889287215758
 30
0.0
 11
11.59781485285058
 21
5.066947706831585
 31
0.0
  0
LINE
  5
688
330
17
100
AcDbEntity
  8
ADP2DETAIL
  6
HIDDEN2
100
AcDbLine
 10
11.59769820920429
 20
3.807766181048983
 30
0.0
 11
11.66019820920429
 21
3.807766181048983
 31
0.0
  0
LINE
  5
689
330
17
100
AcDbEntity
  8
ADP2DETAIL
  6
HIDDEN2
100
AcDbLine
 10
11.59769820920429
 20
3.309470882193144
 30
0.0
 11
11.66126530693995
 21
3.309711346374979
 31
0.0
  0
LINE
  5
68A
330
17
100
AcDbEntity
  8
ADP2DETAIL
  6
HIDDEN2
100
AcDbLine
 10
11.5958452253398
 20
3.309711346374979
 30
0.0
 11
11.59769820920429
 21
3.807766181048983
 31
0.0
  0
LINE
  5
68B
330
17
100
AcDbEntity
  8
ADP2DETAIL
  6
HIDDEN2
100
AcDbLine
 10
11.04155835531449
 20
3.996894723175862
 30
0.0
 11
11.04155835531449
 21
4.059394723175862
 31
0.0
  0
LINE
  5
68C
330
17
100
AcDbEntity
  8
ADP2DETAIL
  6
HIDDEN2
100
AcDbLine
 10
11.53987553962199
 20
3.99398529220176
 30
0.0
 11
11.5396131899885
 21
4.060461820911526
 31
0.0
  0
LINE
  5
68D
330
17
100
AcDbEntity
  8
ADP2DETAIL
  6
HIDDEN2
100
AcDbLine
 10
11.03987520989955
 20
3.99398529220176
 30
0.0
 11
11.53987553962199
 21
3.99398529220176
 31
0.0
  0
INSERT
  5
6B5
330
17
100
AcDbEntity
  8
ADPDIM
100
AcDbBlockReference
  2
A$C5F901649
 10
11.18962735370802
 20
3.534165691070151
 30
0.0
  0
INSERT
  5
6BD
330
17
100
AcDbEntity
  8
ADPDIM
100
AcDbBlockReference
  2
A$C41BB26E9
 10
11.03770246876298
 20
3.999246028573418
 30
0.0
 50
270.0
  0
LINE
  5
6DD
330
17
100
AcDbEntity
  8
ADP2DETAIL
  6
HIDDEN2
100
AcDbLine
 10
11.41179701570907
 20
4.314905822977745
 30
0.0
 11
11.41179701570907
 21
6.064913758694784
 31
0.0
  0
LINE
  5
6DE
330
17
100
AcDbEntity
  8
ADP2DETAIL
  6
HIDDEN2
100
AcDbLine
 10
11.16179685084785
 20
4.314905822977745
 30
0.0
 11
11.16179685084785
 21
6.064913758694784
 31
0.0
  0
CIRCLE
  5
70D
330
17
100
AcDbEntity
  8
ADP2DETAIL
  6
HIDDEN2
100
AcDbCircle
 10
11.2870001785626
 20
5.189890731426311
 30
0.0
 40
0.25
  0
CIRCLE
  5
70E
330
17
100
AcDbEntity
  8
ADP2DETAIL
  6
HIDDEN2
100
AcDbCircle
 10
11.28518054294036
 20
5.188072542983571
 30
0.0
 40
0.125
  0
ENDSEC
  0
SECTION
  2
OBJECTS
  0
DICTIONARY
  5
C
330
0
100
AcDbDictionary
281
     1
  3
ACAD_COLOR
350
1D0
  3
ACAD_GROUP
350
D
  3
ACAD_LAYOUT
350
D2
  3
ACAD_MATERIAL
350
1BB
  3
ACAD_MLINESTYLE
350
1A
  3
ACAD_PLOTSETTINGS
350
D3
  3
ACAD_PLOTSTYLENAME
350
D0
  3
ACAD_TABLESTYLE
350
1D1
  3
ACAD_VISUALSTYLE
350
1BF
  3
ACDBVARIABLEDICTIONARY
350
2C
  3
DWGPROPS
350
756
  0
DICTIONARY
  5
21C
330
8
100
AcDbDictionary
280
     1
281
     1
  0
DICTIONARY
  5
FF
330
17
100
AcDbDictionary
280
     1
281
     1
  3
ACAD_LAYOUTSELFREF
360
1B5
  3
ACAD_SORTENTS
360
672
  0
DICTIONARY
  5
FD
330
14
100
AcDbDictionary
280
     1
281
     1
  3
ACAD_LAYOUTSELFREF
360
1B4
  0
DICTIONARY
  5
4CC
330
463
100
AcDbDictionary
280
     1
281
     1
  0
DICTIONARY
  5
4D8
330
468
100
AcDbDictionary
280
     1
281
     1
  0
DICTIONARY
  5
69F
330
68E
100
AcDbDictionary
280
     1
281
     1
  3
ACAD_SORTENTS
360
6A0
  0
DICTIONARY
  5
6B1
330
6AC
100
AcDbDictionary
280
     1
281
     1
  3
ACAD_SORTENTS
360
6DB
  0
DICTIONARY
  5
6B9
330
6B6
100
AcDbDictionary
280
     1
281
     1
  3
ACAD_SORTENTS
360
6D0
  0
DICTIONARY
  5
763
330
592
100
AcDbDictionary
280
     1
281
     1
  3
ACAD_MTEXT_RT
360
764
  0
DICTIONARY
  5
1D0
102
{ACAD_REACTORS
330
C
102
}
330
C
100
AcDbDictionary
281
     1
  0
DICTIONARY
  5
D
102
{ACAD_REACTORS
330
C
102
}
330
C
100
AcDbDictionary
281
     1
  0
DICTIONARY
  5
D2
102
{ACAD_REACTORS
330
C
102
}
330
C
100
AcDbDictionary
281
     1
  3
Layout1
350
D5
  3
Model
350
D4
  0
DICTIONARY
  5
1BB
102
{ACAD_REACTORS
330
C
102
}
330
C
100
AcDbDictionary
281
     1
  3
ByBlock
350
1BD
  3
ByLayer
350
1BC
  3
Global
350
1BE
  0
DICTIONARY
  5
1A
102
{ACAD_REACTORS
330
C
102
}
330
C
100
AcDbDictionary
281
     1
  3
STANDARD
350
1B
  0
DICTIONARY
  5
D3
102
{ACAD_REACTORS
330
C
102
}
330
C
100
AcDbDictionary
281
     1
  0
ACDBDICTIONARYWDFLT
  5
D0
102
{ACAD_REACTORS
330
C
102
}
330
C
100
AcDbDictionary
281
     1
  3
Normal
350
D1
100
AcDbDictionaryWithDefault
340
D1
  0
DICTIONARY
  5
1D1
102
{ACAD_REACTORS
330
C
102
}
330
C
100
AcDbDictionary
281
     1
  3
Standard
350
1D2
  0
DICTIONARY
  5
1BF
102
{ACAD_REACTORS
330
C
102
}
330
C
100
AcDbDictionary
281
     1
  3
2dWireframe
350
1C5
  3
3D Hidden
350
1C7
  3
3dWireframe
350
1C6
  3
Basic
350
1C4
  3
Brighten
350
1CB
  3
ColorChange
350
1CF
  3
Conceptual
350
1C8
  3
Dim
350
1CA
  3
Facepattern
350
1CE
  3
Flat
350
1C0
  3
FlatWithEdges
350
1C1
  3
Gouraud
350
1C2
  3
GouraudWithEdges
350
1C3
  3
Linepattern
350
1CD
  3
Realistic
350
1C9
  3
Thicken
350
1CC
  0
DICTIONARY
  5
2C
102
{ACAD_REACTORS
330
C
102
}
330
C
100
AcDbDictionary
281
     1
  3
CTABLESTYLE
350
1F2
  3
DIMADEC
350
2D
  3
DIMASSOC
350
105
  3
INDEXCTL
350
1F4
  3
SORTENTS
350
1F3
  0
XRECORD
  5
756
102
{ACAD_REACTORS
330
C
102
}
330
C
100
AcDbXrecord
280
     1
  1
DWGPROPS COOKIE
  2

  3

  4

  6

  7

  8
John
  9

300
=
301
=
302
=
303
=
304
=
305
=
306
=
307
=
308
=
309
=
 40
0.106841724537037
 41
2450242.475062882
 42
2455208.506067176
  1

 90
        0
  0
XRECORD
  5
1B5
102
{ACAD_REACTORS
330
FF
102
}
330
FF
100
AcDbXrecord
280
     1
340
17
  0
SORTENTSTABLE
  5
672
102
{ACAD_REACTORS
330
FF
102
}
330
FF
100
AcDbSortentsTable
330
17
331
5BC
  5
5E0
331
543
  5
56C
331
5DF
  5
671
331
5A5
  5
5B4
331
4FF
  5
543
331
4BB
  5
4DC
331
4AA
  5
4BB
331
5B4
  5
5DF
331
53B
  5
550
331
4B5
  5
4BC
331
671
  5
4BA
331
5BD
  5
670
331
5AC
  5
5BC
331
550
  5
5A5
331
4DC
  5
53B
331
544
  5
597
331
4BE
  5
53A
331
49C
  5
49C
331
5E0
  5
673
331
4BC
  5
4FF
331
4BA
  5
4BE
331
674
  5
4B5
331
597
  5
5AD
331
670
  5
674
331
56C
  5
5AC
331
53A
  5
544
331
4A3
  5
4A3
331
CD
  5
CD
331
5AD
  5
5BD
  0
XRECORD
  5
1B4
102
{ACAD_REACTORS
330
FD
102
}
330
FD
100
AcDbXrecord
280
     1
340
14
  0
SORTENTSTABLE
  5
6A0
102
{ACAD_REACTORS
330
69F
102
}
330
69F
100
AcDbSortentsTable
330
68E
  0
SORTENTSTABLE
  5
6DB
102
{ACAD_REACTORS
330
6B1
102
}
330
6B1
100
AcDbSortentsTable
330
6AC
  0
SORTENTSTABLE
  5
6D0
102
{ACAD_REACTORS
330
6B9
102
}
330
6B9
100
AcDbSortentsTable
330
6B6
  0
XRECORD
  5
764
102
{ACAD_REACTORS
330
763
102
}
330
763
100
AcDbXrecord
280
     1
 40
5716.0
  1
\A1;\U+22051/4
  0
LAYOUT
  5
D5
102
{ACAD_XDICTIONARY
360
759
102
}
102
{ACAD_REACTORS
330
D2
102
}
330
D2
100
AcDbPlotSettings
  1

  2
Fax
  4

  6

 40
0.0
 41
0.0
 42
0.0
 43
0.0
 44
0.0
 45
0.0
 46
0.0
 47
0.0
 48
0.0
 49
0.0
140
0.0
141
0.0
142
1.0
143
1.0
 70
   688
 72
     0
 73
     0
 74
     5
  7
Default R14 pen assignments.ctb
 75
    16
147
1.0
148
0.0
149
0.0
100
AcDbLayout
  1
Layout1
 70
     1
 71
     1
 10
0.0
 20
0.0
 11
12.0
 21
9.0
 12
0.0004882961511612
 22
1.000276130627782
 32
0.0
 14
1.000000000000000E+20
 24
1.000000000000000E+20
 34
1.000000000000000E+20
 15
-1.000000000000000E+20
 25
-1.000000000000000E+20
 35
-1.000000000000000E+20
146
0.0
 13
0.0
 23
0.0
 33
0.0
 16
1.0
 26
0.0
 36
0.0
 17
0.0
 27
1.0
 37
0.0
 76
     0
330
14
  0
LAYOUT
  5
D4
102
{ACAD_XDICTIONARY
360
757
102
}
102
{ACAD_REACTORS
330
D2
102
}
330
D2
100
AcDbPlotSettings
  1

  2
Fax
  4

  6

 40
0.0
 41
0.0
 42
0.0
 43
0.0
 44
0.0
 45
0.0
 46
0.0
 47
0.0
 48
0.0
 49
0.0
140
0.0
141
0.0
142
1.0
143
1.0
 70
  1712
 72
     0
 73
     0
 74
     0
  7
Default R14 pen assignments.ctb
 75
     0
147
1.0
148
0.0
149
0.0
100
AcDbLayout
  1
Model
 70
     1
 71
     0
 10
0.0
 20
0.0
 11
12.0
 21
9.0
 12
0.0
 22
0.0
 32
0.0
 14
0.0
 24
0.0
 34
0.0
 15
0.0
 25
0.0
 35
0.0
146
0.0
 13
0.0
 23
0.0
 33
0.0
 16
1.0
 26
0.0
 36
0.0
 17
0.0
 27
1.0
 37
0.0
 76
     0
330
17
331
190
  0
MATERIAL
  5
1BD
102
{ACAD_XDICTIONARY
360
75D
102
}
102
{ACAD_REACTORS
330
1BB
102
}
330
1BB
100
AcDbMaterial
  1
ByBlock
  0
MATERIAL
  5
1BC
102
{ACAD_XDICTIONARY
360
75B
102
}
102
{ACAD_REACTORS
330
1BB
102
}
330
1BB
100
AcDbMaterial
  1
ByLayer
  0
MATERIAL
  5
1BE
102
{ACAD_XDICTIONARY
360
75F
102
}
102
{ACAD_REACTORS
330
1BB
102
}
330
1BB
100
AcDbMaterial
  1
Global
  0
MLINESTYLE
  5
1B
102
{ACAD_REACTORS
330
1A
102
}
330
1A
100
AcDbMlineStyle
  2
STANDARD
 70
     0
  3

 62
   256
 51
90.0
 52
90.0
 71
     2
 49
0.5
 62
   256
  6
BYLAYER
 49
-0.5
 62
   256
  6
BYLAYER
  0
ACDBPLACEHOLDER
  5
D1
102
{ACAD_REACTORS
330
D0
102
}
330
D0
  0
TABLESTYLE
  5
1D2
102
{ACAD_XDICTIONARY
360
761
102
}
102
{ACAD_REACTORS
330
1D1
102
}
330
1D1
100
AcDbTableStyle
  3
Standard
 70
     0
 71
     0
 40
0.06
 41
0.06
280
     0
281
     0
  7
STANDARD
140
0.18
170
     2
 62
     0
 63
     7
283
     0
274
    -2
284
     1
 64
     0
275
    -2
285
     1
 65
     0
276
    -2
286
     1
 66
     0
277
    -2
287
     1
 67
     0
278
    -2
288
     1
 68
     0
279
    -2
289
     1
 69
     0
  7
STANDARD
140
0.25
170
     5
 62
     0
 63
     7
283
     0
274
    -2
284
     1
 64
     0
275
    -2
285
     1
 65
     0
276
    -2
286
     1
 66
     0
277
    -2
287
     1
 67
     0
278
    -2
288
     1
 68
     0
279
    -2
289
     1
 69
     0
  7
STANDARD
140
0.18
170
     5
 62
     0
 63
     7
283
     0
274
    -2
284
     1
 64
     0
275
    -2
285
     1
 65
     0
276
    -2
286
     1
 66
     0
277
    -2
287
     1
 67
     0
278
    -2
288
     1
 68
     0
279
    -2
289
     1
 69
     0
  0
VISUALSTYLE
  5
1C5
102
{ACAD_REACTORS
330
1BF
102
}
330
1BF
100
AcDbVisualStyle
  2
2dWireframe
 70
     4
 71
     0
 72
     2
 73
     0
 90
        0
 40
-0.6
 41
-30.0
 62
     5
 63
     7
 74
     1
 91
        4
 64
     7
 65
   257
 75
     1
175
     1
 42
1.0
 92
        0
 66
   257
 43
1.0
 76
     1
 77
     6
 78
     2
 67
     7
 79
     5
170
     0
171
     0
290
     0
174
     0
 93
        1
 44
0.0
173
     0
291
     0
 45
0.0
1001
ACAD
1000
AcDbSavedByObjectVersion
1070
     0
  0
VISUALSTYLE
  5
1C7
102
{ACAD_REACTORS
330
1BF
102
}
330
1BF
100
AcDbVisualStyle
  2
3D Hidden
 70
     6
 71
     1
 72
     2
 73
     2
 90
        0
 40
-0.6
 41
-30.0
 62
     5
 63
     7
 74
     2
 91
        2
 64
     7
 65
   257
 75
     2
175
     1
 42
40.0
 92
        0
 66
   257
 43
1.0
 76
     1
 77
     6
 78
     2
 67
     7
 79
     3
170
     0
171
     0
290
     0
174
     0
 93
        1
 44
0.0
173
     0
291
     0
 45
0.0
1001
ACAD
1000
AcDbSavedByObjectVersion
1070
     0
  0
VISUALSTYLE
  5
1C6
102
{ACAD_REACTORS
330
1BF
102
}
330
1BF
100
AcDbVisualStyle
  2
3dWireframe
 70
     5
 71
     0
 72
     2
 73
     0
 90
        0
 40
-0.6
 41
-30.0
 62
     5
 63
     7
 74
     1
 91
        4
 64
     7
 65
   257
 75
     1
175
     1
 42
1.0
 92
        0
 66
   257
 43
1.0
 76
     1
 77
     6
 78
     2
 67
     7
 79
     5
170
     0
171
     0
290
     0
174
     0
 93
        1
 44
0.0
173
     0
291
     0
 45
0.0
1001
ACAD
1000
AcDbSavedByObjectVersion
1070
     0
  0
VISUALSTYLE
  5
1C4
102
{ACAD_REACTORS
330
1BF
102
}
330
1BF
100
AcDbVisualStyle
  2
Basic
 70
     7
 71
     1
 72
     0
 73
     1
 90
        0
 40
-0.6
 41
-30.0
 62
     5
 63
     7
 74
     0
 91
        4
 64
     7
 65
   257
 75
     1
175
     1
 42
1.0
 92
        8
 66
     7
 43
1.0
 76
     1
 77
     6
 78
     2
 67
     7
 79
     5
170
     0
171
     0
290
     0
174
     0
 93
        1
 44
0.0
173
     0
291
     1
 45
0.0
1001
ACAD
1000
AcDbSavedByObjectVersion
1070
     0
  0
VISUALSTYLE
  5
1CB
102
{ACAD_REACTORS
330
1BF
102
}
330
1BF
100
AcDbVisualStyle
  2
Brighten
 70
    12
 71
     2
 72
     2
 73
     0
 90
        0
 40
-0.6
 41
-30.0
 62
     5
 63
     7
 74
     1
 91
        4
 64
     7
 65
   257
 75
     1
175
     1
 42
1.0
 92
        8
 66
     7
 43
1.0
 76
     1
 77
     6
 78
     2
 67
     7
 79
     5
170
     0
171
     0
290
     0
174
     0
 93
        1
 44
50.0
173
     0
291
     1
 45
0.0
1001
ACAD
1000
AcDbSavedByObjectVersion
1070
     0
  0
VISUALSTYLE
  5
1CF
102
{ACAD_REACTORS
330
1BF
102
}
330
1BF
100
AcDbVisualStyle
  2
ColorChange
 70
    16
 71
     2
 72
     2
 73
     3
 90
        0
 40
-0.6
 41
-30.0
 62
     5
 63
     8
 74
     1
 91
        4
 64
     7
 65
   257
 75
     1
175
     1
 42
1.0
 92
        8
 66
     8
 43
1.0
 76
     1
 77
     6
 78
     2
 67
     7
 79
     5
170
     0
171
     0
290
     0
174
     0
 93
        1
 44
0.0
173
     0
291
     1
 45
0.0
1001
ACAD
1000
AcDbSavedByObjectVersion
1070
     0
  0
VISUALSTYLE
  5
1C8
102
{ACAD_REACTORS
330
1BF
102
}
330
1BF
100
AcDbVisualStyle
  2
Conceptual
 70
     9
 71
     3
 72
     2
 73
     0
 90
        0
 40
-0.6
 41
-30.0
 62
     5
 63
     7
 74
     2
 91
        2
 64
     7
 65
   257
 75
     1
175
     1
 42
40.0
 92
        8
 66
     7
 43
1.0
 76
     1
 77
     6
 78
     2
 67
     7
 79
     3
170
     0
171
     0
290
     0
174
     0
 93
        1
 44
0.0
173
     0
291
     0
 45
0.0
1001
ACAD
1000
AcDbSavedByObjectVersion
1070
     0
  0
VISUALSTYLE
  5
1CA
102
{ACAD_REACTORS
330
1BF
102
}
330
1BF
100
AcDbVisualStyle
  2
Dim
 70
    11
 71
     2
 72
     2
 73
     0
 90
        0
 40
-0.6
 41
-30.0
 62
     5
 63
     7
 74
     1
 91
        4
 64
     7
 65
   257
 75
     1
175
     1
 42
1.0
 92
        8
 66
     7
 43
1.0
 76
     1
 77
     6
 78
     2
 67
     7
 79
     5
170
     0
171
     0
290
     0
174
     0
 93
        1
 44
-50.0
173
     0
291
     1
 45
0.0
1001
ACAD
1000
AcDbSavedByObjectVersion
1070
     0
  0
VISUALSTYLE
  5
1CE
102
{ACAD_REACTORS
330
1BF
102
}
330
1BF
100
AcDbVisualStyle
  2
Facepattern
 70
    15
 71
     2
 72
     2
 73
     0
 90
        0
 40
-0.6
 41
-30.0
 62
     5
 63
     7
 74
     1
 91
        4
 64
     7
 65
   257
 75
     1
175
     1
 42
1.0
 92
        8
 66
     7
 43
1.0
 76
     1
 77
     6
 78
     2
 67
     7
 79
     5
170
     0
171
     0
290
     0
174
     0
 93
        1
 44
0.0
173
     0
291
     1
 45
0.0
1001
ACAD
1000
AcDbSavedByObjectVersion
1070
     0
  0
VISUALSTYLE
  5
1C0
102
{ACAD_REACTORS
330
1BF
102
}
330
1BF
100
AcDbVisualStyle
  2
Flat
 70
     0
 71
     2
 72
     1
 73
     1
 90
        2
 40
-0.6
 41
30.0
 62
     5
 63
     7
 74
     0
 91
        4
 64
     7
 65
   257
 75
     1
175
     1
 42
1.0
 92
        8
 66
     7
 43
1.0
 76
     1
 77
     6
 78
     2
 67
     7
 79
     5
170
     0
171
     0
290
     0
174
     0
 93
       13
 44
0.0
173
     0
291
     1
 45
0.0
1001
ACAD
1000
AcDbSavedByObjectVersion
1070
     0
  0
VISUALSTYLE
  5
1C1
102
{ACAD_REACTORS
330
1BF
102
}
330
1BF
100
AcDbVisualStyle
  2
FlatWithEdges
 70
     1
 71
     2
 72
     1
 73
     1
 90
        2
 40
-0.6
 41
30.0
 62
     5
 63
     7
 74
     1
 91
        4
 64
     7
 65
   257
 75
     1
175
     1
 42
1.0
 92
        0
 66
   257
 43
1.0
 76
     1
 77
     6
 78
     2
 67
     7
 79
     5
170
     0
171
     0
290
     0
174
     0
 93
       13
 44
0.0
173
     0
291
     1
 45
0.0
1001
ACAD
1000
AcDbSavedByObjectVersion
1070
     0
  0
VISUALSTYLE
  5
1C2
102
{ACAD_REACTORS
330
1BF
102
}
330
1BF
100
AcDbVisualStyle
  2
Gouraud
 70
     2
 71
     2
 72
     2
 73
     1
 90
        2
 40
-0.6
 41
30.0
 62
     5
 63
     7
 74
     0
 91
        4
 64
     7
 65
   257
 75
     1
175
     1
 42
1.0
 92
        0
 66
     7
 43
1.0
 76
     1
 77
     6
 78
     2
 67
     7
 79
     5
170
     0
171
     0
290
     0
174
     0
 93
       13
 44
0.0
173
     0
291
     1
 45
0.0
1001
ACAD
1000
AcDbSavedByObjectVersion
1070
     0
  0
VISUALSTYLE
  5
1C3
102
{ACAD_REACTORS
330
1BF
102
}
330
1BF
100
AcDbVisualStyle
  2
GouraudWithEdges
 70
     3
 71
     2
 72
     2
 73
     1
 90
        2
 40
-0.6
 41
30.0
 62
     5
 63
     7
 74
     1
 91
        4
 64
     7
 65
   257
 75
     1
175
     1
 42
1.0
 92
        0
 66
   257
 43
1.0
 76
     1
 77
     6
 78
     2
 67
     7
 79
     5
170
     0
171
     0
290
     0
174
     0
 93
       13
 44
0.0
173
     0
291
     1
 45
0.0
1001
ACAD
1000
AcDbSavedByObjectVersion
1070
     0
  0
VISUALSTYLE
  5
1CD
102
{ACAD_REACTORS
330
1BF
102
}
330
1BF
100
AcDbVisualStyle
  2
Linepattern
 70
    14
 71
     2
 72
     2
 73
     0
 90
        0
 40
-0.6
 41
-30.0
 62
     5
 63
     7
 74
     1
 91
        4
 64
     7
 65
   257
 75
     7
175
     7
 42
1.0
 92
        8
 66
     7
 43
1.0
 76
     1
 77
     6
 78
     2
 67
     7
 79
     5
170
     0
171
     0
290
     0
174
     0
 93
        1
 44
0.0
173
     0
291
     1
 45
0.0
1001
ACAD
1000
AcDbSavedByObjectVersion
1070
     0
  0
VISUALSTYLE
  5
1C9
102
{ACAD_REACTORS
330
1BF
102
}
330
1BF
100
AcDbVisualStyle
  2
Realistic
 70
     8
 71
     2
 72
     2
 73
     0
 90
        0
 40
-0.6
 41
-30.0
 62
     5
 63
     7
 74
     1
 91
        0
 64
     7
 65
   257
 75
     1
175
     1
 42
1.0
 92
        8
 66
     8
 43
1.0
 76
     1
 77
     6
 78
     2
 67
     7
 79
     5
170
     0
171
     0
290
     0
174
     0
 93
       13
 44
0.0
173
     0
291
     0
 45
0.0
1001
ACAD
1000
AcDbSavedByObjectVersion
1070
     0
  0
VISUALSTYLE
  5
1CC
102
{ACAD_REACTORS
330
1BF
102
}
330
1BF
100
AcDbVisualStyle
  2
Thicken
 70
    13
 71
     2
 72
     2
 73
     0
 90
        0
 40
-0.6
 41
-30.0
 62
     5
 63
     7
 74
     1
 91
        4
 64
     7
 65
   257
 75
     1
175
     1
 42
1.0
 92
       12
 66
     7
 43
1.0
 76
     1
 77
     6
 78
     2
 67
     7
 79
     5
170
     0
171
     0
290
     0
174
     0
 93
        1
 44
0.0
173
     0
291
     1
 45
0.0
1001
ACAD
1000
AcDbSavedByObjectVersion
1070
     0
  0
DICTIONARYVAR
  5
1F2
102
{ACAD_REACTORS
330
2C
102
}
330
2C
100
DictionaryVariables
280
     0
  1
STANDARD
  0
DICTIONARYVAR
  5
2D
102
{ACAD_REACTORS
330
2C
102
}
330
2C
100
DictionaryVariables
280
     0
  1
0
  0
DICTIONARYVAR
  5
105
102
{ACAD_REACTORS
330
2C
102
}
330
2C
100
DictionaryVariables
280
     0
  1
1
  0
DICTIONARYVAR
  5
1F4
102
{ACAD_REACTORS
330
2C
102
}
330
2C
100
DictionaryVariables
280
     0
  1
0
  0
DICTIONARYVAR
  5
1F3
102
{ACAD_REACTORS
330
2C
102
}
330
2C
100
DictionaryVariables
280
     0
  1
127
  0
DICTIONARY
  5
759
330
D5
100
AcDbDictionary
280
     1
281
     1
  3
ACAD_XREC_ROUNDTRIP
360
75A
  0
DICTIONARY
  5
757
330
D4
100
AcDbDictionary
280
     1
281
     1
  3
ACAD_XREC_ROUNDTRIP
360
758
  0
DICTIONARY
  5
75D
330
1BD
100
AcDbDictionary
280
     1
281
     1
  3
ACAD_XREC_ROUNDTRIP
360
75E
  0
DICTIONARY
  5
75B
330
1BC
100
AcDbDictionary
280
     1
281
     1
  3
ACAD_XREC_ROUNDTRIP
360
75C
  0
DICTIONARY
  5
75F
330
1BE
100
AcDbDictionary
280
     1
281
     1
  3
ACAD_XREC_ROUNDTRIP
360
760
  0
DICTIONARY
  5
761
330
1D2
100
AcDbDictionary
280
     1
281
     1
  3
ACAD_XREC_ROUNDTRIP
360
762
  0
XRECORD
  5
75A
102
{ACAD_REACTORS
330
759
102
}
330
759
100
AcDbXrecord
280
     1
102
SHADEPLOT
 70
     0
102
SHADEPLOTRESLEVEL
 70
     2
102
SHADEPLOTCUSTOMDPI
 70
   300
  0
XRECORD
  5
758
102
{ACAD_REACTORS
330
757
102
}
330
757
100
AcDbXrecord
280
     1
102
SHADEPLOT
 70
     0
102
SHADEPLOTRESLEVEL
 70
     2
102
SHADEPLOTCUSTOMDPI
 70
   300
  0
XRECORD
  5
75E
102
{ACAD_REACTORS
330
75D
102
}
330
75D
100
AcDbXrecord
280
     1
102
MATERIAL
148
0.0
149
0.0
149
0.0
 93
        0
 94
       63
282
     0
 72
     1
 77
     1
171
     1
175
     1
179
     1
273
     0
  0
XRECORD
  5
75C
102
{ACAD_REACTORS
330
75B
102
}
330
75B
100
AcDbXrecord
280
     1
102
MATERIAL
148
0.0
149
0.0
149
0.0
 93
        0
 94
       63
282
     0
 72
     1
 77
     1
171
     1
175
     1
179
     1
273
     0
  0
XRECORD
  5
760
102
{ACAD_REACTORS
330
75F
102
}
330
75F
100
AcDbXrecord
280
     1
102
MATERIAL
148
0.0
149
0.0
149
0.0
 93
        0
 94
       63
282
     0
 72
     1
 77
     1
171
     1
175
     1
179
     1
273
     0
  0
XRECORD
  5
762
102
{ACAD_REACTORS
330
761
102
}
330
761
100
AcDbXrecord
280
     1
102
ACAD_ROUNDTRIP_PRE2007_TABLESTYLE
 90
      512
 91
        0
  1

 92
      512
 93
        0
  2

 94
      512
 95
        0
  3

  0
ENDSEC
  0
EOF
