  0
SECTION
  2
HEADER
  9
$ACADVER
  1
AC1014
  9
$ACADMAINTVER
 70
     9
  9
$DWGCODEPAGE
  3
ANSI_1252
  9
$INSBASE
 10
5.860684814745052
 20
-8.728566723786032
 30
0.0
  9
$EXTMIN
 10
-1.552805982363844
 20
-10.33616281338102
 30
0.0
  9
$EXTMAX
 10
18.024381091306
 20
-2.410913825904842
 30
0.0
  9
$LIMMIN
 10
0.0
 20
0.0
  9
$LIMMAX
 10
36.0
 20
36.0
  9
$ORTHOMODE
 70
     1
  9
$REGENMODE
 70
     1
  9
$FILLMODE
 70
     1
  9
$QTEXTMODE
 70
     0
  9
$MIRRTEXT
 70
     1
  9
$DRAGMODE
 70
     0
  9
$LTSCALE
 40
1.0
  9
$OSMODE
 70
    37
  9
$ATTMODE
 70
     1
  9
$TEXTSIZE
 40
0.2
  9
$TRACEWID
 40
0.05
  9
$TEXTSTYLE
  7
STANDARD
  9
$CLAYER
  8
ADPDIM
  9
$CELTYPE
  6
BYLAYER
  9
$CECOLOR
 62
   256
  9
$CELTSCALE
 40
1.0
  9
$DELOBJ
 70
     1
  9
$DISPSILH
 70
     0
  9
$DIMSCALE
 40
1.0
  9
$DIMASZ
 40
0.125
  9
$DIMEXO
 40
0.0625
  9
$DIMDLI
 40
0.38
  9
$DIMRND
 40
0.0
  9
$DIMDLE
 40
0.0
  9
$DIMEXE
 40
0.18
  9
$DIMTP
 40
0.0
  9
$DIMTM
 40
0.0
  9
$DIMTXT
 40
0.125
  9
$DIMCEN
 40
0.1875
  9
$DIMTSZ
 40
0.125
  9
$DIMTOL
 70
     0
  9
$DIMLIM
 70
     0
  9
$DIMTIH
 70
     0
  9
$DIMTOH
 70
     0
  9
$DIMSE1
 70
     0
  9
$DIMSE2
 70
     0
  9
$DIMTAD
 70
     0
  9
$DIMZIN
 70
     2
  9
$DIMBLK
  1

  9
$DIMASO
 70
     1
  9
$DIMSHO
 70
     1
  9
$DIMPOST
  1

  9
$DIMAPOST
  1

  9
$DIMALT
 70
     0
  9
$DIMALTD
 70
     1
  9
$DIMALTF
 40
25.4
  9
$DIMLFAC
 40
1.0
  9
$DIMTOFL
 70
     0
  9
$DIMTVP
 40
0.0
  9
$DIMTIX
 70
     0
  9
$DIMSOXD
 70
     0
  9
$DIMSAH
 70
     0
  9
$DIMBLK1
  1

  9
$DIMBLK2
  1

  9
$DIMSTYLE
  2
STANDARD
  9
$DIMCLRD
 70
     0
  9
$DIMCLRE
 70
     0
  9
$DIMCLRT
 70
     0
  9
$DIMTFAC
 40
1.0
  9
$DIMGAP
 40
0.125
  9
$DIMJUST
 70
     0
  9
$DIMSD1
 70
     0
  9
$DIMSD2
 70
     0
  9
$DIMTOLJ
 70
     1
  9
$DIMTZIN
 70
     0
  9
$DIMALTZ
 70
     0
  9
$DIMALTTZ
 70
     0
  9
$DIMFIT
 70
     3
  9
$DIMUPT
 70
     0
  9
$DIMUNIT
 70
     7
  9
$DIMDEC
 70
     3
  9
$DIMTDEC
 70
     4
  9
$DIMALTU
 70
     2
  9
$DIMALTTD
 70
     2
  9
$DIMTXSTY
  7
STANDARD
  9
$DIMAUNIT
 70
     0
  9
$LUNITS
 70
     5
  9
$LUPREC
 70
     4
  9
$SKETCHINC
 40
0.1
  9
$FILLETRAD
 40
0.062
  9
$AUNITS
 70
     0
  9
$AUPREC
 70
     0
  9
$MENU
  1
acad
  9
$ELEVATION
 40
0.0
  9
$PELEVATION
 40
0.0
  9
$THICKNESS
 40
0.0
  9
$LIMCHECK
 70
     0
  9
$BLIPMODE
 70
     0
  9
$CHAMFERA
 40
0.0
  9
$CHAMFERB
 40
0.0
  9
$CHAMFERC
 40
0.0
  9
$CHAMFERD
 40
0.0
  9
$SKPOLY
 70
     0
  9
$TDCREATE
 40
2450387.444808634
  9
$TDUPDATE
 40
2452297.079284930
  9
$TDINDWG
 40
0.0521045486
  9
$TDUSRTIMER
 40
0.0521045486
  9
$USRTIMER
 70
     1
  9
$ANGBASE
 50
0.0
  9
$ANGDIR
 70
     0
  9
$PDMODE
 70
     0
  9
$PDSIZE
 40
0.0
  9
$PLINEWID
 40
0.0
  9
$COORDS
 70
     2
  9
$SPLFRAME
 70
     0
  9
$SPLINETYPE
 70
     6
  9
$SPLINESEGS
 70
     8
  9
$ATTDIA
 70
     0
  9
$ATTREQ
 70
     1
  9
$HANDLING
 70
 22529
  9
$HANDSEED
  5
342
  9
$SURFTAB1
 70
     6
  9
$SURFTAB2
 70
     6
  9
$SURFTYPE
 70
     6
  9
$SURFU
 70
     6
  9
$SURFV
 70
     6
  9
$UCSNAME
  2

  9
$UCSORG
 10
0.0
 20
0.0
 30
0.0
  9
$UCSXDIR
 10
1.0
 20
0.0
 30
0.0
  9
$UCSYDIR
 10
0.0
 20
1.0
 30
0.0
  9
$PUCSNAME
  2

  9
$PUCSORG
 10
0.0
 20
0.0
 30
0.0
  9
$PUCSXDIR
 10
1.0
 20
0.0
 30
0.0
  9
$PUCSYDIR
 10
0.0
 20
1.0
 30
0.0
  9
$USERI1
 70
     0
  9
$USERI2
 70
     0
  9
$USERI3
 70
     0
  9
$USERI4
 70
     0
  9
$USERI5
 70
     0
  9
$USERR1
 40
0.0
  9
$USERR2
 40
0.0
  9
$USERR3
 40
0.0
  9
$USERR4
 40
0.0
  9
$USERR5
 40
0.0
  9
$WORLDVIEW
 70
     1
  9
$SHADEDGE
 70
     3
  9
$SHADEDIF
 70
    70
  9
$TILEMODE
 70
     1
  9
$MAXACTVP
 70
    15
  9
$PINSBASE
 10
0.0
 20
0.0
 30
0.0
  9
$PLIMCHECK
 70
     0
  9
$PEXTMIN
 10
1.000000000000000E+20
 20
1.000000000000000E+20
 30
1.000000000000000E+20
  9
$PEXTMAX
 10
-1.000000000000000E+20
 20
-1.000000000000000E+20
 30
-1.000000000000000E+20
  9
$PLIMMIN
 10
0.0
 20
0.0
  9
$PLIMMAX
 10
12.0
 20
9.0
  9
$UNITMODE
 70
     0
  9
$VISRETAIN
 70
     0
  9
$PLINEGEN
 70
     0
  9
$PSLTSCALE
 70
     1
  9
$TREEDEPTH
 70
  3020
  9
$PICKSTYLE
 70
     1
  9
$CMLSTYLE
  2
STANDARD
  9
$CMLJUST
 70
     0
  9
$CMLSCALE
 40
1.0
  9
$PROXYGRAPHICS
 70
     1
  9
$MEASUREMENT
 70
     0
  0
ENDSEC
  0
SECTION
  2
CLASSES
  0
CLASS
  1
ACDBDICTIONARYWDFLT
  2
AcDbDictionaryWithDefault
  3
AutoCAD 2000
 90
        0
280
     0
281
     0
  0
CLASS
  1
ACDBPLACEHOLDER
  2
AcDbPlaceHolder
  3
AutoCAD 2000
 90
        0
280
     0
281
     0
  0
CLASS
  1
LAYOUT
  2
AcDbLayout
  3
AutoCAD 2000
 90
        0
280
     0
281
     0
  0
CLASS
  1
DICTIONARYVAR
  2
AcDbDictionaryVar
  3
AutoCAD 2000
 90
        0
280
     0
281
     0
  0
CLASS
  1
LONG_TRANSACTION
  2
AcDbLongTransaction
  3
AutoCAD 2000
 90
        0
280
     0
281
     0
  0
CLASS
  1
LWPOLYLINE
  2
AcDbPolyline
  3
AutoCAD 2000
 90
        0
280
     0
281
     1
  0
CLASS
  1
HATCH
  2
AcDbHatch
  3
AutoCAD 2000
 90
        0
280
     0
281
     1
  0
CLASS
  1
XRECORD
  2
AcDbXrecord
  3
AutoCAD 2000
 90
        0
280
     0
281
     0
  0
CLASS
  1
LONG_TRANSACTION
  2
AcDbLongTransaction
  3
AutoCAD 2000
 90
        0
280
     0
281
     0
  0
CLASS
  1
LWPOLYLINE
  2
AcDbPolyline
  3
AutoCAD 2000
 90
        0
280
     0
281
     1
  0
CLASS
  1
HATCH
  2
AcDbHatch
  3
AutoCAD 2000
 90
        0
280
     0
281
     1
  0
CLASS
  1
XRECORD
  2
AcDbXrecord
  3
AutoCAD 2000
 90
        0
280
     0
281
     0
  0
CLASS
  1
LONG_TRANSACTION
  2
AcDbLongTransaction
  3
AutoCAD 2000
 90
        0
280
     0
281
     0
  0
CLASS
  1
LWPOLYLINE
  2
AcDbPolyline
  3
AutoCAD 2000
 90
        0
280
     0
281
     1
  0
CLASS
  1
HATCH
  2
AcDbHatch
  3
AutoCAD 2000
 90
        0
280
     0
281
     1
  0
CLASS
  1
XRECORD
  2
AcDbXrecord
  3
AutoCAD 2000
 90
        0
280
     0
281
     0
  0
CLASS
  1
LONG_TRANSACTION
  2
AcDbLongTransaction
  3
AutoCAD 2000
 90
        0
280
     0
281
     0
  0
CLASS
  1
LWPOLYLINE
  2
AcDbPolyline
  3
AutoCAD 2000
 90
        0
280
     0
281
     1
  0
CLASS
  1
HATCH
  2
AcDbHatch
  3
AutoCAD 2000
 90
        0
280
     0
281
     1
  0
CLASS
  1
XRECORD
  2
AcDbXrecord
  3
AutoCAD 2000
 90
        0
280
     0
281
     0
  0
CLASS
  1
LONG_TRANSACTION
  2
AcDbLongTransaction
  3
AutoCAD 2000
 90
        0
280
     0
281
     0
  0
CLASS
  1
LWPOLYLINE
  2
AcDbPolyline
  3
AutoCAD 2000
 90
        0
280
     0
281
     1
  0
CLASS
  1
HATCH
  2
AcDbHatch
  3
AutoCAD 2000
 90
        0
280
     0
281
     1
  0
CLASS
  1
XRECORD
  2
AcDbXrecord
  3
AutoCAD 2000
 90
        0
280
     0
281
     0
  0
CLASS
  1
LONG_TRANSACTION
  2
AcDbLongTransaction
  3
AutoCAD 2000
 90
        0
280
     0
281
     0
  0
CLASS
  1
LWPOLYLINE
  2
AcDbPolyline
  3
AutoCAD 2000
 90
        0
280
     0
281
     1
  0
CLASS
  1
HATCH
  2
AcDbHatch
  3
AutoCAD 2000
 90
        0
280
     0
281
     1
  0
CLASS
  1
XRECORD
  2
AcDbXrecord
  3
AutoCAD 2000
 90
        0
280
     0
281
     0
  0
ENDSEC
  0
SECTION
  2
TABLES
  0
TABLE
  2
VPORT
  5
8
330
0
100
AcDbSymbolTable
 70
     2
  0
VPORT
  5
30D
330
8
100
AcDbSymbolTableRecord
100
AcDbViewportTableRecord
  2
*ACTIVE
 70
     0
 10
0.0
 20
0.0
 11
1.0
 21
1.0
 12
8.251046680396621
 22
-6.373433227311815
 13
0.0
 23
0.0
 14
0.5740882589684922
 24
0.5740882589684922
 15
0.5
 25
0.5
 16
0.0
 26
0.0
 36
1.0
 17
0.0
 27
0.0
 37
0.0
 40
12.54623712374536
 41
1.570528967254408
 42
50.0
 43
0.0
 44
0.0
 50
0.0
 51
0.0
 71
     0
 72
   100
 73
     1
 74
     0
 75
     0
 76
     0
 77
     0
 78
     0
  0
ENDTAB
  0
TABLE
  2
LTYPE
  5
5
330
0
100
AcDbSymbolTable
 70
     2
  0
LTYPE
  5
12
330
5
100
AcDbSymbolTableRecord
100
AcDbLinetypeTableRecord
  2
BYBLOCK
 70
     0
  3

 72
    65
 73
     0
 40
0.0
  0
LTYPE
  5
13
330
5
100
AcDbSymbolTableRecord
100
AcDbLinetypeTableRecord
  2
BYLAYER
 70
     0
  3

 72
    65
 73
     0
 40
0.0
  0
LTYPE
  5
14
330
5
100
AcDbSymbolTableRecord
100
AcDbLinetypeTableRecord
  2
CONTINUOUS
 70
     0
  3
Solid line
 72
    65
 73
     0
 40
0.0
  0
LTYPE
  5
55
330
5
100
AcDbSymbolTableRecord
100
AcDbLinetypeTableRecord
  2
HIDDEN
 70
     0
  3
__ __ __ __ __ __ __ __ __ __ __ __ __ __ __ __
 72
    65
 73
     2
 40
0.375
 49
0.25
 74
     0
 49
-0.125
 74
     0
  0
ENDTAB
  0
TABLE
  2
LAYER
  5
2
330
0
100
AcDbSymbolTable
 70
     5
  0
LAYER
  5
F
330
2
100
AcDbSymbolTableRecord
100
AcDbLayerTableRecord
  2
0
 70
     0
 62
     7
  6
CONTINUOUS
  0
LAYER
  5
5A
330
2
100
AcDbSymbolTableRecord
100
AcDbLayerTableRecord
  2
ADP1DETAIL
 70
     0
 62
     7
  6
CONTINUOUS
  0
LAYER
  5
5C
330
2
100
AcDbSymbolTableRecord
100
AcDbLayerTableRecord
  2
DEFPOINTS
 70
     0
 62
     7
  6
CONTINUOUS
  0
LAYER
  5
5D
330
2
100
AcDbSymbolTableRecord
100
AcDbLayerTableRecord
  2
ADP2DETAIL
 70
     0
 62
     5
  6
CONTINUOUS
  0
LAYER
  5
5E
330
2
100
AcDbSymbolTableRecord
100
AcDbLayerTableRecord
  2
ADPDIM
 70
     0
 62
     3
  6
CONTINUOUS
  0
ENDTAB
  0
TABLE
  2
STYLE
  5
3
330
0
100
AcDbSymbolTable
 70
     2
  0
STYLE
  5
10
330
3
100
AcDbSymbolTableRecord
100
AcDbTextStyleTableRecord
  2
STANDARD
 70
     0
 40
0.0
 41
1.0
 50
0.0
 71
     0
 42
0.2
  3
txt
  4

  0
STYLE
  5
10A
330
3
100
AcDbSymbolTableRecord
100
AcDbTextStyleTableRecord
  2
ARIAL_WIDE
 70
     0
 40
0.0
 41
1.25
 50
0.0
 71
     0
 42
0.2
  3
ARIAL.TTF
  4

1001
ACAD
1000
Arial
1071
       34
  0
ENDTAB
  0
TABLE
  2
VIEW
  5
6
330
0
100
AcDbSymbolTable
 70
     0
  0
ENDTAB
  0
TABLE
  2
UCS
  5
7
330
0
100
AcDbSymbolTable
 70
     0
  0
ENDTAB
  0
TABLE
  2
APPID
  5
9
330
0
100
AcDbSymbolTable
 70
     2
  0
APPID
  5
11
330
9
100
AcDbSymbolTableRecord
100
AcDbRegAppTableRecord
  2
ACAD
 70
     0
  0
APPID
  5
56
330
9
100
AcDbSymbolTableRecord
100
AcDbRegAppTableRecord
  2
AUTOCAD_POSTSCRIPT_FIGURE
 70
     0
  0
ENDTAB
  0
TABLE
  2
DIMSTYLE
  5
A
330
0
100
AcDbSymbolTable
 70
     1
  0
DIMSTYLE
105
A1
102
{ACAD_REACTORS
330
EB
330
FF
102
}
330
A
100
AcDbSymbolTableRecord
100
AcDbDimStyleTableRecord
  2
STANDARD
 70
     0
  3

  4

  5

  6

  7

 40
1.0
 41
0.18
 42
0.0625
 43
0.38
 44
0.18
 45
0.0
 46
0.0
 47
0.0
 48
0.0
140
0.18
141
0.09
142
0.0
143
25.4
144
1.0
145
0.0
146
1.0
147
0.09
 71
     0
 72
     0
 73
     1
 74
     1
 75
     0
 76
     0
 77
     0
 78
     0
170
     0
171
     2
172
     0
173
     0
174
     0
175
     0
176
     0
177
     0
178
     0
270
     2
271
     4
272
     4
273
     2
274
     2
340
10
275
     0
280
     0
281
     0
282
     0
283
     1
284
     0
285
     0
286
     0
287
     3
288
     0
  0
ENDTAB
  0
TABLE
  2
BLOCK_RECORD
  5
1
330
0
100
AcDbSymbolTable
 70
     3
  0
BLOCK_RECORD
  5
18
102
{ACAD_XDICTIONARY
360
172
102
}
330
1
100
AcDbSymbolTableRecord
100
AcDbBlockTableRecord
  2
*MODEL_SPACE
  0
BLOCK_RECORD
  5
15
102
{ACAD_XDICTIONARY
360
170
102
}
330
1
100
AcDbSymbolTableRecord
100
AcDbBlockTableRecord
  2
*PAPER_SPACE
  0
BLOCK_RECORD
  5
41
330
1
100
AcDbSymbolTableRecord
100
AcDbBlockTableRecord
  2
*D0
  0
BLOCK_RECORD
  5
DE
330
1
100
AcDbSymbolTableRecord
100
AcDbBlockTableRecord
  2
*D1
  0
BLOCK_RECORD
  5
F5
330
1
100
AcDbSymbolTableRecord
100
AcDbBlockTableRecord
  2
*D2
  0
ENDTAB
  0
ENDSEC
  0
SECTION
  2
BLOCKS
  0
BLOCK
  5
61
330
18
100
AcDbEntity
  8
0
100
AcDbBlockBegin
  2
*MODEL_SPACE
 70
     0
 10
0.0
 20
0.0
 30
0.0
  3
*MODEL_SPACE
  1

  0
ENDBLK
  5
62
330
18
100
AcDbEntity
  8
0
100
AcDbBlockEnd
  0
BLOCK
  5
5F
330
15
100
AcDbEntity
 67
     1
  8
0
100
AcDbBlockBegin
  2
*PAPER_SPACE
 70
     0
 10
0.0
 20
0.0
 30
0.0
  3
*PAPER_SPACE
  1

  0
ENDBLK
  5
60
330
15
100
AcDbEntity
 67
     1
  8
0
100
AcDbBlockEnd
  0
BLOCK
  5
76
330
41
100
AcDbEntity
  8
0
100
AcDbBlockBegin
  2
*D0
 70
     1
 10
0.0
 20
0.0
 30
0.0
  3
*D0
  1

  0
LINE
  5
77
330
41
100
AcDbEntity
  8
0
  6
BYBLOCK
 62
     0
100
AcDbLine
 10
9.075171116114916
 20
-7.742265353923019
 30
0.0
 11
10.22885347311913
 21
-7.742265353923019
 31
0.0
  0
LINE
  5
78
330
41
100
AcDbEntity
  8
0
  6
BYBLOCK
 62
     0
100
AcDbLine
 10
9.923390294197107
 20
-8.728566723786032
 30
0.0
 11
10.22885347311913
 21
-8.728566723786032
 31
0.0
  0
LINE
  5
79
330
41
100
AcDbEntity
  8
0
  6
BYBLOCK
 62
     0
100
AcDbLine
 10
10.04885347311913
 20
-7.742265353923019
 30
0.0
 11
10.04885347311913
 21
-8.089582705521191
 31
0.0
  0
LINE
  5
7A
330
41
100
AcDbEntity
  8
0
  6
BYBLOCK
 62
     0
100
AcDbLine
 10
10.04885347311913
 20
-8.728566723786032
 30
0.0
 11
10.04885347311913
 21
-8.381249372187859
 31
0.0
  0
LINE
  5
7B
330
41
100
AcDbEntity
  8
0
  6
BYBLOCK
 62
     0
100
AcDbLine
 10
10.17385347311913
 20
-7.867265353923019
 30
0.0
 11
9.92385347311913
 21
-7.617265353923019
 31
0.0
  0
LINE
  5
7C
330
41
100
AcDbEntity
  8
0
  6
BYBLOCK
 62
     0
100
AcDbLine
 10
10.17385347311913
 20
-8.853566723786032
 30
0.0
 11
9.92385347311913
 21
-8.603566723786032
 31
0.0
  0
TEXT
  5
7D
330
41
100
AcDbEntity
  8
0
  6
BYBLOCK
 62
     0
100
AcDbText
 10
10.11135347311913
 20
-8.256249372187859
 30
0.0
 40
0.125
  1
1
 50
90.0
 72
     1
 11
10.04885347311913
 21
-8.235416038854525
 31
0.0
100
AcDbText
 73
     2
  0
POINT
  5
7E
330
41
100
AcDbEntity
  8
DEFPOINTS
  6
BYBLOCK
 62
     0
100
AcDbPoint
 10
9.012671116114916
 20
-7.742265353923019
 30
0.0
  0
POINT
  5
7F
330
41
100
AcDbEntity
  8
DEFPOINTS
  6
BYBLOCK
 62
     0
100
AcDbPoint
 10
9.860890294197107
 20
-8.728566723786032
 30
0.0
  0
POINT
  5
80
330
41
100
AcDbEntity
  8
DEFPOINTS
  6
BYBLOCK
 62
     0
100
AcDbPoint
 10
10.04885347311913
 20
-8.728566723786032
 30
0.0
  0
ENDBLK
  5
81
330
41
100
AcDbEntity
  8
0
100
AcDbBlockEnd
  0
BLOCK
  5
DF
330
DE
100
AcDbEntity
  8
0
100
AcDbBlockBegin
  2
*D1
 70
     1
 10
0.0
 20
0.0
 30
0.0
  3
*D1
  1

  0
LINE
  5
331
330
DE
100
AcDbEntity
  8
ADPDIM
 62
     0
100
AcDbLine
 10
5.860684814745052
 20
-8.791066723786032
 30
0.0
 11
5.860684814745052
 21
-9.307083570690373
 31
0.0
  0
LINE
  5
332
330
DE
100
AcDbEntity
  8
ADPDIM
 62
     0
100
AcDbLine
 10
10.6108902941971
 20
-8.791066723786032
 30
0.0
 11
10.6108902941971
 21
-9.307083570690373
 31
0.0
  0
LINE
  5
333
330
DE
100
AcDbEntity
  8
ADPDIM
 62
     0
100
AcDbLine
 10
5.860684814745052
 20
-9.127083570690373
 30
0.0
 11
7.819120887804413
 21
-9.127083570690373
 31
0.0
  0
LINE
  5
334
330
DE
100
AcDbEntity
  8
ADPDIM
 62
     0
100
AcDbLine
 10
10.6108902941971
 20
-9.127083570690373
 30
0.0
 11
8.652454221137746
 21
-9.127083570690373
 31
0.0
  0
LINE
  5
335
330
DE
100
AcDbEntity
  8
ADPDIM
 62
     0
100
AcDbLine
 10
10.4858902941971
 20
-9.252083570690373
 30
0.0
 11
10.73589029419711
 21
-9.002083570690373
 31
0.0
  0
LINE
  5
336
330
DE
100
AcDbEntity
  8
ADPDIM
 62
     0
100
AcDbLine
 10
5.735684814745052
 20
-9.252083570690373
 30
0.0
 11
5.985684814745052
 21
-9.002083570690373
 31
0.0
  0
MTEXT
  5
337
330
DE
100
AcDbEntity
  8
ADPDIM
 62
     0
100
AcDbMText
 10
8.23578755447108
 20
-9.127083570690373
 30
0.0
 40
0.125
 41
0.0
 71
     5
 72
     1
  1
\A1;4 3/4
  0
POINT
  5
338
330
DE
100
AcDbEntity
  8
DEFPOINTS
 62
     0
100
AcDbPoint
 10
5.860684814745052
 20
-8.728566723786032
 30
0.0
  0
POINT
  5
339
330
DE
100
AcDbEntity
  8
DEFPOINTS
 62
     0
100
AcDbPoint
 10
10.6108902941971
 20
-8.728566723786032
 30
0.0
  0
POINT
  5
33A
330
DE
100
AcDbEntity
  8
DEFPOINTS
 62
     0
100
AcDbPoint
 10
10.6108902941971
 20
-9.127083570690373
 30
0.0
  0
ENDBLK
  5
EA
330
DE
100
AcDbEntity
  8
0
100
AcDbBlockEnd
  0
BLOCK
  5
F6
330
F5
100
AcDbEntity
  8
0
100
AcDbBlockBegin
  2
*D2
 70
     1
 10
0.0
 20
0.0
 30
0.0
  3
*D2
  1

  0
LINE
  5
33B
330
F5
100
AcDbEntity
  8
ADPDIM
 62
     0
100
AcDbLine
 10
9.987428707205225
 20
-4.799251345632787
 30
0.0
 11
9.487429473743018
 21
-4.798375824526702
 31
0.0
  0
MTEXT
  5
33C
330
F5
100
AcDbEntity
  8
ADPDIM
 62
     0
100
AcDbMText
 10
10.44576133787891
 20
-4.800053906646698
 30
0.0
 40
0.125
 41
0.0
 71
     5
 72
     1
  1
\A1;\U+22052 1/2
 11
0.9999984669244103
 21
-0.0017510422121695
 31
0.0
  0
LINE
  5
33D
330
F5
100
AcDbEntity
  8
ADPDIM
 62
     0
100
AcDbLine
 10
9.362210785100947
 20
-4.923156752615732
 30
0.0
 11
9.61264816238509
 21
-4.673594896437673
 31
0.0
  0
LINE
  5
33E
330
F5
100
AcDbEntity
  8
ADPDIM
 62
     0
100
AcDbLine
 10
8.049931390087511
 20
-4.796187021761491
 30
0.0
 11
8.424931390087511
 21
-4.796187021761491
 31
0.0
  0
LINE
  5
33F
330
F5
100
AcDbEntity
  8
ADPDIM
 62
     0
100
AcDbLine
 10
8.237431390087511
 20
-4.98368702176149
 30
0.0
 11
8.237431390087509
 21
-4.60868702176149
 31
0.0
  0
POINT
  5
340
330
F5
100
AcDbEntity
  8
DEFPOINTS
 62
     0
100
AcDbPoint
 10
9.487429473743018
 20
-4.798375824526702
 30
0.0
  0
POINT
  5
341
330
F5
100
AcDbEntity
  8
DEFPOINTS
 62
     0
100
AcDbPoint
 10
6.987433306432004
 20
-4.793998218996278
 30
0.0
  0
ENDBLK
  5
FE
330
F5
100
AcDbEntity
  8
0
100
AcDbBlockEnd
  0
ENDSEC
  0
SECTION
  2
ENTITIES
  0
DIMENSION
  5
82
330
18
100
AcDbEntity
  8
ADPDIM
100
AcDbDimension
  2
*D0
 10
10.79885347311913
 20
-8.728566723786032
 30
0.0
 11
10.04885347311913
 21
-8.235416038854525
 31
0.0
 12
0.75
 22
0.0
 32
0.0
100
AcDbAlignedDimension
 13
9.762671116114916
 23
-7.742265353923019
 33
0.0
 14
10.6108902941971
 24
-8.728566723786032
 34
0.0
 50
90.0
100
AcDbRotatedDimension
  0
LINE
  5
84
330
18
100
AcDbEntity
  8
ADP1DETAIL
100
AcDbLine
 10
5.976581099453217
 20
-8.478703710087401
 30
0.0
 11
10.49445455791592
 21
-8.478703710087401
 31
0.0
  0
LINE
  5
85
330
18
100
AcDbEntity
  8
ADP1DETAIL
100
AcDbLine
 10
10.6108902941971
 20
-8.728566723786032
 30
0.0
 11
5.860684814745052
 21
-8.728566723786032
 31
0.0
  0
LINE
  5
86
330
18
100
AcDbEntity
  8
ADP1DETAIL
100
AcDbLine
 10
6.712191664060121
 20
-7.742265353923018
 30
0.0
 11
9.762671116114916
 21
-7.742265353923018
 31
0.0
  0
CIRCLE
  5
87
330
18
100
AcDbEntity
  8
ADP1DETAIL
100
AcDbCircle
 10
8.237431390087518
 20
-4.796187021761493
 30
0.0
 40
2.236658535635751
  0
CIRCLE
  5
88
330
18
100
AcDbEntity
  8
ADP1DETAIL
100
AcDbCircle
 10
8.237431390087518
 20
-4.796187021761493
 30
0.0
 40
2.385273195856651
  0
CIRCLE
  5
89
330
18
100
AcDbEntity
  8
ADP1DETAIL
100
AcDbCircle
 10
8.237431390087518
 20
-4.796187021761493
 30
0.0
 40
1.592661339288195
  0
CIRCLE
  5
8A
330
18
100
AcDbEntity
  8
ADP1DETAIL
100
AcDbCircle
 10
8.237431390087518
 20
-4.796187021761493
 30
0.0
 40
1.525239726027397
  0
LINE
  5
8D
330
18
100
AcDbEntity
  8
ADP1DETAIL
100
AcDbLine
 10
5.860684814745052
 20
-8.728566723786032
 30
0.0
 11
5.860684814745052
 21
-8.544457134744936
 31
0.0
  0
LINE
  5
8E
330
18
100
AcDbEntity
  8
ADP1DETAIL
100
AcDbLine
 10
5.860684814745052
 20
-8.728566723786032
 30
0.0
 11
5.860684814745052
 21
-8.728566723786032
 31
0.0
  0
ATTDEF
  5
8F
330
18
100
AcDbEntity
  8
ADP1DETAIL
100
AcDbText
 10
5.862328650361491
 20
-8.728566723786032
 30
0.0
 40
0.0027397260273973
  1

100
AcDbAttributeDefinition
  3

  2
7
 70
     1
1001
AUTOCAD_POSTSCRIPT_FIGURE
1002
{
1000
PSPROG
1000
0 0 0 0 k
1000
Pc
1000
0 0.25 0.125 0 k
1000
Pc
1000
0 0.5 0.25 0 k
1000
Pc
1000
0 0.75 0.375 0 k
1000
Pc
1000
0 1 0.5 0 k
1000
Pc
1000
0 0.125 0.25 0 k
1000
Pc
1000
0 0.25 0.5 0 k
1000
Pc
1000
0 0.375 0.75 0 k
1000
Pc
1000
0 0.5 1 0 k
1000
Pc
1000
0 0 0 0 k
1000
Pc
1000
0.125 0 0.25 0 k
1000
Pc
1000
0.25 0 0.5 0 k
1000
Pc
1000
0.375 0 0.75 0 k
1000
Pc
1000
0.5 0 1 0 k
1000
Pc
1000
0.25 0 0.125 0 k
1000
Pc
1000
0.5 0 0.25 0 k
1000
Pc
1000
0.75 0 0.375 0 k
1000
Pc
1000
1 0 0.5 0 k
1000
Pc
1000
0 0 0 0 k
1000
Pc
1000
0.25 0.125 0.125 0 k
1000
Pc
1000
0.5 0.25 0.25 0 k
1000
Pc
1000
0.75 0.375 0.375 0 k
1000
Pc
1000
1 0.5 0.5 0 k
1000
Pc
1000
0.25 0.25 0.125 0 k
1000
Pc
1000
0.5 0.5 0.25 0 k
1000
Pc
1000
0.75 0.75 0.375 0 k
1000
Pc
1000
1 1 0.5 0 k
1000
Pc
1000
0 0 0 0 k
1000
Pc
1000
0.125 0.25 0.125 0 k
1000
Pc
1000
0.25 0.5 0.25 0 k
1000
Pc
1000
0.375 0.75 0.375 0 k
1000
Pc
1000
0.5 1 0.5 0 k
1000
Pc
1000
0.125 0.25 0.25 0 k
1000
Pc
1000
0.25 0.5 0.5 0 k
1000
Pc
1000
0.375 0.75 0.75 0 k
1000
Pc
1000
0.5 1 1 0 k
1000
Pc
1000
0 0 0 0 k
1000
Pc
1000
0.125 0.125 0.25 0 k
1000
Pc
1000
0.25 0.25 0.5 0 k
1000
Pc
1000
0.375 0.375 0.75 0 k
1000
Pc
1000
0.5 0.5 1 0 k
1000
Pc
1000
0.25 0.125 0.25 0 k
1000
Pc
1000
0.5 0.25 0.5 0 k
1000
Pc
1000
0.75 0.375 0.75 0 k
1000
Pc
1000
1 0.5 1 0 k
1000
Pc
1000
PB
1000
%AI5_EndPalette
1000
%%EndSetup
1000
%AI5_BeginLayer
1000
1 1 1 1 0 0 0 79 128 255 Lb
1000
(Layer 1) Ln
1000
0 A
1000
1 Ap
1000
1 R
1000
0 G
1000
800 Ar
1000
0 J 0 j 0 w 4 M []0 d
1000
%AI3_Note:
1000
0 D
1000
123.018 342 m
1000
123.018 355.5 l
1000
132.384 360 l
1000
167.1184 360.146 L
1000
167.1184 360 L
1000
174.574 360 180.6184 366.0444 180.6184 373.5 C
1000
180.6004 373.5 L
1000
180.6004 409.5179 l
1000
185.0828 414 L
1000
348.9356 414 L
1000
353.4176 409.5179 l
1000
353.4176 373.5 L
1000
353.4 373.5 L
1000
353.4 366.0444 359.4444 360 366.9 360 C
1000
366.9 360.146 L
1000
401.634 360 l
1000
411 355.5 l
1000
411 342 L
1000
123.018 342 L
1000
s
1000
0 Ap
1000
0 O
1000
0 0 0 0.25 (* gray) 0 x
1000
167.1184 360.146 m
1000
363.676 360.146 l
1000
B
1000
[2 2 2 ]0 d
1000
198.6004 414.0832 m
1000
198.6004 342.0832 l
1000
S
1000
335.3244 414.0832 m
1000
335.3244 342.0832 l
1000
S
1000
1 w []0 d
1000
187 4716 m
1000
187 -3924 L
1000
(N) *
1000
-4014 735 m
1000
4626 735 L
1000
(N) *
1000
411 4716 m
1000
411 -3924 L
1000
(N) *
1000
LB
1000
%AI5_EndLayer--
1000
%%PageTrailer
1000
gsave annotatepage grestore showpage
1000
%%Trailer
1000
Adobe_Illustrator_AI5 /terminate get exec
1000
Adobe_ColorImage_AI6 /terminate get exec
1000
Adobe_level2_AI5 /terminate get exec
1000
%%EOF
1070
     0
1002
}
  0
ATTDEF
  5
90
330
18
100
AcDbEntity
  8
ADP1DETAIL
100
AcDbText
 10
5.862328650361491
 20
-8.728566723786032
 30
0.0
 40
0.0027397260273973
  1

100
AcDbAttributeDefinition
  3

  2
6
 70
     1
1001
AUTOCAD_POSTSCRIPT_FIGURE
1002
{
1000
PSPROG
1000
^I^Ipop 1
1000
^I} if
1000
^Isetflat
1000
} def
1000
/Mb
1000
{
1000
^Iq
1000
} def
1000
/Md
1000
{
1000
} def
1000
/MB
1000
{
1000
^IQ
1000
} def
1000
/nc 3 dict def
1000
nc begin
1000
/setgray
1000
{
1000
^Ipop
1000
} bind def
1000
/setcmykcolor
1000
{
1000
^I4 npop
1000
} bind def
1000
/setcustomcolor
1000
{
1000
^I2 npop
1000
} bind def
1000
currentdict readonly pop
1000
end
1000
end
1000
setpacking
1000
%%EndResource
1000
%%EndProlog
1000
%%BeginSetup
1000
Adobe_level2_AI5 /initialize get exec
1000
Adobe_ColorImage_AI6 /initialize get exec
1000
Adobe_Illustrator_AI5 /initialize get exec
1000
%AI5_Begin_NonPrinting
1000
Np
1000
%AI3_BeginPattern: (Yellow Stripe)
1000
(Yellow Stripe) 8.4499 4.6 80.4499 76.6 [
1000
%AI3_Tile
1000
(0 O 0 R 0 0.4 1 0 k 0 0.4 1 0 K) @
1000
(
1000
%AI6_BeginPatternLayer
1000
800 Ar
1000
0 J 0 j 3.6 w 4 M []0 d
1000
%AI3_Note:
1000
0 D
1000
8.1999 8.1999 m
1000
80.6999 8.1999 L
1000
S
1000
8.1999 22.6 m
1000
80.6999 22.6 L
1000
S
1000
8.1999 37.0001 m
1000
80.6999 37.0001 L
1000
S
1000
8.1999 51.3999 m
1000
80.6999 51.3999 L
1000
S
1000
8.1999 65.8 m
1000
80.6999 65.8 L
1000
S
1000
8.1999 15.3999 m
1000
80.6999 15.3999 L
1000
S
1000
8.1999 29.8 m
1000
80.6999 29.8 L
1000
S
1000
8.1999 44.1999 m
1000
80.6999 44.1999 L
1000
S
1000
8.1999 58.6 m
1000
80.6999 58.6 L
1000
S
1000
8.1999 73.0001 m
1000
80.6999 73.0001 L
1000
S
1000
%AI6_EndPatternLayer
1000
) &
1000
] E
1000
%AI3_EndPattern
1000
%AI5_End_NonPrinting--
1000
%AI5_Begin_NonPrinting
1000
Np
1000
3 Bn
1000
%AI5_BeginGradient: (Black & White)
1000
(Black & White) 0 2 Bd
1000
[
1000
<
1000
FFFEFDFCFBFAF9F8F7F6F5F4F3F2F1F0EFEEEDECEBEAE9E8E7E6E5E4E3E2E1E0DFDEDDDCDBDAD9D8
1000
D7D6D5D4D3D2D1D0CFCECDCCCBCAC9C8C7C6C5C4C3C2C1C0BFBEBDBCBBBAB9B8B7B6B5B4B3B2B1B0
1000
AFAEADACABAAA9A8A7A6A5A4A3A2A1A09F9E9D9C9B9A999897969594939291908F8E8D8C8B8A8988
1000
87868584838281807F7E7D7C7B7A797877767574737271706F6E6D6C6B6A69686766656463626160
1000
5F5E5D5C5B5A595857565554535251504F4E4D4C4B4A494847464544434241403F3E3D3C3B3A3938
1000
37363534333231302F2E2D2C2B2A292827262524232221201F1E1D1C1B1A19181716151413121110
1000
0F0E0D0C0B0A09080706050403020100
1000
>
1000
0 %_Br
1000
[
1000
0 0 50 100 %_Bs
1000
1 0 50 0 %_Bs
1000
BD
1000
%AI5_EndGradient
1000
%AI5_BeginGradient: (Red & Yellow)
1000
(Red & Yellow) 0 2 Bd
1000
[
1000
0
1000
<
1000
000102030405060708090A0B0C0D0E0F101112131415161718191A1B1C1D1E1F2021222324252627
1000
28292A2B2C2D2E2F303132333435363738393A3B3C3D3E3F404142434445464748494A4B4C4D4E4F
1000
505152535455565758595A5B5C5D5E5F606162636465666768696A6B6C6D6E6F7071727374757677
1000
78797A7B7C7D7E7F808182838485868788898A8B8C8D8E8F909192939495969798999A9B9C9D9E9F
1000
A0A1A2A3A4A5A6A7A8A9AAABACADAEAFB0B1B2B3B4B5B6B7B8B9BABBBCBDBEBFC0C1C2C3C4C5C6C7
1000
C8C9CACBCCCDCECFD0D1D2D3D4D5D6D7D8D9DADBDCDDDEDFE0E1E2E3E4E5E6E7E8E9EAEBECEDEEEF
1000
F0F1F2F3F4F5F6F7F8F9FAFBFCFDFEFF
1000
>
1000
<
1000
FFFFFEFEFDFDFDFCFCFBFBFBFAFAF9F9F9F8F8F7F7F7F6F6F5F5F5F4F4F3F3F3F2F2F1F1F1F0F0EF
1000
EFEFEEEEEDEDEDECECEBEBEBEAEAE9E9E9E8E8E7E7E7E6E6E5E5E5E4E4E3E3E3E2E2E1E1E1E0E0DF
1000
DFDFDEDEDDDDDDDCDCDBDBDBDADAD9D9D9D8D8D7D7D7D6D6D5D5D5D4D4D3D3D3D2D2D1D1D1D0D0CF
1000
CFCFCECECDCDCDCCCCCBCBCBCACAC9C9C9C8C8C7C7C7C6C6C5C5C5C4C4C3C3C3C2C2C1C1C1C0C0BF
1000
BFBFBEBEBDBDBDBCBCBBBBBBBABAB9B9B9B8B8B7B7B7B6B6B5B5B5B4B4B3B3B3B2B2B1B1B1B0B0AF
1000
AFAFAEAEADADADACACABABABAAAAA9A9A9A8A8A7A7A7A6A6A5A5A5A4A4A3A3A3A2A2A1A1A1A0A09F
1000
9F9F9E9E9D9D9D9C9C9B9B9B9A9A9999
1000
>
1000
0
1000
1 %_Br
1000
[
1000
0 1 0.6 0 1 50 100 %_Bs
1000
0 0 1 0 1 50 0 %_Bs
1000
BD
1000
%AI5_EndGradient
1000
%AI5_BeginGradient: (Yellow & Blue Radial)
1000
(Yellow & Blue Radial) 1 2 Bd
1000
[
1000
<
1000
000102030405060708090A0B0C0D0E0F101112131415161718191A1B1C1D1E1F2021222324252627
1000
28292A2B2C2D2E2F303132333435363738393A3B3C3D3E3F404142434445464748494A4B4C4D4E4F
1000
505152535455565758595A5B5C5D5E5F606162636465666768696A6B6C6D6E6F7071727374757677
1000
78797A7B7C7D7E7F808182838485868788898A8B8C8D8E8F909192939495969798999A9B9C9D9E9F
1000
A0A1A2A3A4A5A6A7A8A9AAABACADAEAFB0B1B2B3B4B5B6B7B8B9BABBBCBDBEBFC0C1C2C3C4C5C6C7
1000
C8C9CACBCCCDCECFD0D1D2D3D4D5D6D7D8D9DADBDCDDDEDFE0E1E2E3E4E5E6E7E8E9EAEBECEDEEEF
1000
F0F1F2F3F4F5F6F7F8F9FAFBFCFDFEFF
1000
>
1000
<
1000
1415161718191A1B1C1D1E1F1F202122232425262728292A2A2B2C2D2E2F30313233343536363738
1000
393A3B3C3D3E3F40414142434445464748494A4B4C4D4D4E4F50515253545556575858595A5B5C5D
1000
5E5F60616263646465666768696A6B6C6D6E6F6F707172737475767778797A7B7B7C7D7E7F808182
1000
83848586868788898A8B8C8D8E8F90919292939495969798999A9B9C9D9D9E9FA0A1A2A3A4A5A6A7
1000
A8A9A9AAABACADAEAFB0B1B2B3B4B4B5B6B7B8B9BABBBCBDBEBFC0C0C1C2C3C4C5C6C7C8C9CACBCB
1000
CCCDCECFD0D1D2D3D4D5D6D7D7D8D9DADBDCDDDEDFE0E1E2E2E3E4E5E6E7E8E9EAEBECEDEEEEEFF0
1000
F1F2F3F4F5F6F7F8F9F9FAFBFCFDFEFF
1000
>
1000
<
1000
ABAAAAA9A8A7A7A6A5A5A4A3A3A2A1A1A09F9F9E9D9D9C9B9B9A9999989797969595949393929191
1000
908F8F8E8D8D8C8B8B8A8989888787868585848383828181807F7F7E7D7D7C7B7B7A797978777776
1000
7575747373727171706F6F6E6D6D6C6B6B6A6969686767666565646362626160605F5E5E5D5C5C5B
1000
5A5A5958585756565554545352525150504F4E4E4D4C4C4B4A4A4948484746464544444342424140
1000
403F3E3E3D3C3C3B3A3A3938383736363534343332323130302F2E2E2D2C2C2B2A2A292828272626
1000
25242423222121201F1F1E1D1D1C1B1B1A1919181717161515141313121111100F0F0E0D0D0C0B0B
1000
0A090908070706050504030302010100
1000
>
1000
0
1000
1 %_Br
1000
[
1000
0 0.08 0.67 0 1 50 14 %_Bs
1000
1 1 0 0 1 50 100 %_Bs
1000
BD
1000
%AI5_EndGradient
1000
%AI5_End_NonPrinting--
1000
%AI5_BeginPalette
1000
0 0 Pb
1000
Pn
1000
Pc
1000
1 g
1000
Pc
1000
0 g
1000
Pc
1000
0 0 0 0 k
1000
Pc
1000
0.75 g
1000
Pc
1000
0.5 g
1000
Pc
1000
0.25 g
1000
Pc
1000
0 g
1000
Pc
1000
Bb
1000
2 (Black & White) -4014 4716 0 0 1 0 0 1 0 0 Bg
1000
0 BB
1000
Pc
1000
0.25 0 0 0 k
1000
Pc
1000
0.5 0 0 0 k
1000
Pc
1000
0.75 0 0 0 k
1000
Pc
1000
1 0 0 0 k
1000
Pc
1000
0.25 0.25 0 0 k
1000
Pc
1000
0.5 0.5 0 0 k
1000
Pc
1000
0.75 0.75 0 0 k
1000
Pc
1000
1 1 0 0 k
1000
Pc
1000
Bb
1000
2 (Red & Yellow) -4014 4716 0 0 1 0 0 1 0 0 Bg
1000
0 BB
1000
Pc
1000
0 0.25 0 0 k
1000
Pc
1000
0 0.5 0 0 k
1000
Pc
1000
0 0.75 0 0 k
1000
Pc
1000
0 1 0 0 k
1000
Pc
1000
0 0.25 0.25 0 k
1000
Pc
1000
0 0.5 0.5 0 k
1000
Pc
1000
0 0.75 0.75 0 k
1000
Pc
1000
0 1 1 0 k
1000
Pc
1000
Bb
1000
0 0 0 0 Bh
1000
2 (Yellow & Blue Radial) -4014 4716 0 0 1 0 0 1 0 0 Bg
1000
0 BB
1000
Pc
1000
0 0 0.25 0 k
1000
Pc
1000
0 0 0.5 0 k
1000
Pc
1000
0 0 0.75 0 k
1000
Pc
1000
0 0 1 0 k
1000
Pc
1000
0.25 0 0.25 0 k
1000
Pc
1000
0.5 0 0.5 0 k
1000
Pc
1000
0.75 0 0.75 0 k
1000
Pc
1000
1 0 1 0 k
1000
Pc
1000
(Yellow Stripe) 0 0 1 1 0 0 0 0 0 [1 0 0 1 0 0] p
1000
Pc
1000
0.25 0.125 0 0 k
1000
Pc
1000
0.5 0.25 0 0 k
1000
Pc
1000
0.75 0.375 0 0 k
1000
Pc
1000
1 0.5 0 0 k
1000
Pc
1000
0.125 0.25 0 0 k
1000
Pc
1000
0.25 0.5 0 0 k
1000
Pc
1000
0.375 0.75 0 0 k
1000
Pc
1000
0.5 1 0 0 k
1000
Pc
1070
     1
1002
}
  0
ATTDEF
  5
91
330
18
100
AcDbEntity
  8
ADP1DETAIL
100
AcDbText
 10
5.862328650361491
 20
-8.728566723786032
 30
0.0
 40
0.0027397260273973
  1

100
AcDbAttributeDefinition
  3

  2
5
 70
     1
1001
AUTOCAD_POSTSCRIPT_FIGURE
1002
{
1000
PSPROG
1000
^I_cf astore pop
1000
^I/_fc
1000
^I{
1000
^I^I_lp /fill ne
1000
^I^I{
1000
^I^I^I_of setoverprint
1000
^I^I^I_cf aload pop setcmykcolor
1000
^I^I^I/_lp /fill ddef
1000
^I^I} if
1000
^I} ddef
1000
^I/_pf
1000
^I{
1000
^I^I_fc
1000
^I^I_eo {eofill} {fill} ifelse
1000
^I} ddef
1000
^I/_psf
1000
^I{
1000
^I^I_fc
1000
^I^Iashow
1000
^I} ddef
1000
^I/_pjsf
1000
^I{
1000
^I^I_fc
1000
^I^Iawidthshow
1000
^I} ddef
1000
^I/_lp /none ddef
1000
} def
1000
/K
1000
{
1000
^I_cs astore pop
1000
^I/_sc
1000
^I{
1000
^I^I_lp /stroke ne
1000
^I^I{
1000
^I^I^I_os setoverprint
1000
^I^I^I_cs aload pop setcmykcolor
1000
^I^I^I/_lp /stroke ddef
1000
^I^I} if
1000
^I} ddef
1000
^I/_ps
1000
^I{
1000
^I^I_sc
1000
^I^Istroke
1000
^I} ddef
1000
^I/_pss
1000
^I{
1000
^I^I_sc
1000
^I^Iss
1000
^I} ddef
1000
^I/_pjss
1000
^I{
1000
^I^I_sc
1000
^I^Ijss
1000
^I} ddef
1000
^I/_lp /none ddef
1000
} def
1000
/x
1000
{
1000
^I/_gf exch ddef
1000
^Ifindcmykcustomcolor
1000
^I/_if exch ddef
1000
^I/_fc
1000
^I{
1000
^I^I_lp /fill ne
1000
^I^I{
1000
^I^I^I_of setoverprint
1000
^I^I^I_if _gf 1 exch sub setcustomcolor
1000
^I^I^I/_lp /fill ddef
1000
^I^I} if
1000
^I} ddef
1000
^I/_pf
1000
^I{
1000
^I^I_fc
1000
^I^I_eo {eofill} {fill} ifelse
1000
^I} ddef
1000
^I/_psf
1000
^I{
1000
^I^I_fc
1000
^I^Iashow
1000
^I} ddef
1000
^I/_pjsf
1000
^I{
1000
^I^I_fc
1000
^I^Iawidthshow
1000
^I} ddef
1000
^I/_lp /none ddef
1000
} def
1000
/X
1000
{
1000
^I/_gs exch ddef
1000
^Ifindcmykcustomcolor
1000
^I/_is exch ddef
1000
^I/_sc
1000
^I{
1000
^I^I_lp /stroke ne
1000
^I^I{
1000
^I^I^I_os setoverprint
1000
^I^I^I_is _gs 1 exch sub setcustomcolor
1000
^I^I^I/_lp /stroke ddef
1000
^I^I} if
1000
^I} ddef
1000
^I/_ps
1000
^I{
1000
^I^I_sc
1000
^I^Istroke
1000
^I} ddef
1000
^I/_pss
1000
^I{
1000
^I^I_sc
1000
^I^Iss
1000
^I} ddef
1000
^I/_pjss
1000
^I{
1000
^I^I_sc
1000
^I^Ijss
1000
^I} ddef
1000
^I/_lp /none ddef
1000
} def
1000
/A
1000
{
1000
^Ipop
1000
} def
1000
/annotatepage
1000
{
1000
userdict /annotatepage 2 copy known {get exec} {pop pop} ifelse
1000
} def
1000
/XT {
1000
^Ipop pop
1000
} def
1000
/discard
1000
{
1000
^Isave /discardSave exch store
1000
^IdiscardDict begin
1000
^I/endString exch store
1000
^Igt38?
1000
^I{
1000
^I^I2 add
1000
^I} if
1000
^Iload
1000
^Istopped
1000
^Ipop
1000
 end
1000
^IdiscardSave restore
1000
} bind def
1000
userdict /discardDict 7 dict dup begin
1000
put
1000
/pre38Initialize
1000
{
1000
^I/endStringLength endString length store
1000
^I/newBuff buffer 0 endStringLength getinterval store
1000
^I/newBuffButFirst newBuff 1 endStringLength 1 sub getinterval store
1000
^I/newBuffLast newBuff endStringLength 1 sub 1 getinterval store
1000
} def
1000
/shiftBuffer
1000
{
1000
^InewBuff 0 newBuffButFirst putinterval
1000
^InewBuffLast 0
1000
^Icurrentfile read not
1000
^I{
1000
^Istop
1000
^I} if
1000
^Iput
1000
} def
1000
0
1000
{
1000
^Ipre38Initialize
1000
^Imark
1000
^Icurrentfile newBuff readstring exch pop
1000
^I{
1000
^I^I{
1000
^I^I^InewBuff endString eq
1000
^I^I^I{
1000
^I^I^I^Icleartomark stop
1000
^I^I^I} if
1000
^I^I^IshiftBuffer
1000
^I^I} loop
1000
^I}
1000
^I{
1000
^Istop
1000
^I} ifelse
1000
} def
1000
1
1000
{
1000
^Ipre38Initialize
1000
^I/beginString exch store
1000
^Imark
1000
^Icurrentfile newBuff readstring exch pop
1000
^I{
1000
^I^I{
1000
^I^I^InewBuff beginString eq
1000
^I^I^I{
1000
^I^I^I^I/layerCount dup load 1 add store
1000
^I^I^I}
1000
^I^I^I{
1000
^I^I^I^InewBuff endString eq
1000
^I^I^I^I{
1000
^I^I^I^I^I/layerCount dup load 1 sub store
1000
^I^I^I^I^IlayerCount 0 eq
1000
^I^I^I^I^I{
1000
^I^I^I^I^I^Icleartomark stop
1000
^I^I^I^I^I} if
1000
^I^I^I^I} if
1000
^I^I^I} ifelse
1000
^I^I^IshiftBuffer
1000
^I^I} loop
1000
^I} if
1000
} def
1000
2
1000
{
1000
^Imark
1000
^I{
1000
^I^Icurrentfile buffer readline not
1000
^I^I{
1000
^I^Istop
1000
^I^I} if
1000
^I^IendString eq
1000
^I^I{
1000
^I^I^Icleartomark stop
1000
^I^I} if
1000
^I} loop
1000
} def
1000
3
1000
{
1000
^I/beginString exch store
1000
^I/layerCnt 1 store
1000
^Imark
1000
^I{
1000
^I^Icurrentfile buffer readline not
1000
^I^I{
1000
^I^Istop
1000
^I^I} if
1000
^I^Idup beginString eq
1000
^I^I{
1000
^I^I^Ipop /layerCnt dup load 1 add store
1000
^I^I}
1000
^I^I{
1000
^I^I^IendString eq
1000
^I^I^I{
1000
^I^I^I^IlayerCnt 1 eq
1000
^I^I^I^I{
1000
^I^I^I^I^Icleartomark stop
1000
^I^I^I^I}
1000
^I^I^I^I{
1000
^I^I^I^I^I/layerCnt dup load 1 sub store
1000
^I^I^I^I} ifelse
1000
^I^I^I} if
1000
^I^I} ifelse
1000
^I} loop
1000
} def
1000
end
1000
userdict /clipRenderOff 15 dict dup begin
1000
put
1000
{
1000
^I/n /N /s /S /f /F /b /B
1000
}
1000
{
1000
^I{
1000
^I^I_doClip 1 eq
1000
^I^I{
1000
^I^I^I/_doClip 0 ddef _eo {eoclip} {clip} ifelse
1000
^I^I} if
1000
^I^Inewpath
1000
^I} def
1000
} forall
1000
/Tr /pop load def
1000
/Bb {} def
1000
/BB /pop load def
1000
/Bg {12 npop} def
1000
/Bm {6 npop} def
1000
/Bc /Bm load def
1000
/Bh {4 npop} def
1000
end
1000
/Lb
1000
{
1000
^I4 npop
1000
^I6 1 roll
1000
^Ipop
1000
^I4 1 roll
1000
^Ipop pop pop
1000
^I0 eq
1000
^I{
1000
^I^I0 eq
1000
^I^I{
1000
^I^I^I(%AI5_BeginLayer) 1 (%AI5_EndLayer--) discard
1000
^I^I}
1000
^I^I{
1000
^I^I^I
1000
^I^I^I/clipForward? true def
1000
^I^I^I
1000
^I^I^I/Tx /pop load def
1000
^I^I^I/Tj /pop load def
1000
^I^I^I
1000
^I^I^Icurrentdict end clipRenderOff begin begin
1000
^I^I} ifelse
1000
^I}
1000
^I{
1000
^I^I0 eq
1000
^I^I{
1000
^I^I^Isave /discardSave exch store
1000
^I^I} if
1000
^I} ifelse
1000
} bind def
1000
/LB
1000
{
1000
^IdiscardSave dup null ne
1000
^I{
1000
^I^Irestore
1000
^I}
1000
^I{
1000
^I^Ipop
1000
^I^IclipForward?
1000
^I^I{
1000
^I^I^Icurrentdict
1000
^I^I end
1000
^I^I end
1000
^I^I begin
1000
^I^I^I^I^I
1000
^I^I^I/clipForward? false ddef
1000
^I^I} if
1000
^I} ifelse
1000
} bind def
1000
/Pb
1000
{
1000
^Ipop pop
1000
^I0 (%AI5_EndPalette) discard
1000
} bind def
1000
/Np
1000
{
1000
^I0 (%AI5_End_NonPrinting--) discard
1000
} bind def
1000
/Ln /pop load def
1000
/Ap
1000
/pop load def
1000
/Ar
1000
{
1000
^I72 exch div
1000
^I0 dtransform dup mul exch dup mul add sqrt
1000
^Idup 1 lt
1000
^I{
1070
     1
1002
}
  0
ATTDEF
  5
92
330
18
100
AcDbEntity
  8
ADP1DETAIL
100
AcDbText
 10
5.862328650361491
 20
-8.728566723786032
 30
0.0
 40
0.0027397260273973
  1

100
AcDbAttributeDefinition
  3

  2
4
 70
     1
1001
AUTOCAD_POSTSCRIPT_FIGURE
1002
{
1000
PSPROG
1000
^I^I2 copy rmoveto
1000
^I} exch cshow
1000
^I5 npop
1000
} def
1000
/pl
1000
{
1000
^Itransform
1000
^I0.25 sub round 0.25 add exch
1000
^I0.25 sub round 0.25 add exch
1000
^Iitransform
1000
} def
1000
/setstrokeadjust where
1000
{
1000
^Ipop true setstrokeadjust
1000
^I/c
1000
^I{
1000
^I^Icurveto
1000
^I} def
1000
^I/C
1000
^I/c load def
1000
^I/v
1000
^I{
1000
^I^Icurrentpoint 6 2 roll curveto
1000
^I} def
1000
^I/V
1000
^I/v load def
1000
^I/y
1000
^I{
1000
^I^I2 copy curveto
1000
^I} def
1000
^I/Y
1000
^I/y load def
1000
^I/l
1000
^I{
1000
^I^Ilineto
1000
^I} def
1000
^I/L
1000
^I/l load def
1000
^I/m
1000
^I{
1000
^I^Imoveto
1000
^I} def
1000
}
1000
{
1000
^I/c
1000
^I{
1000
^I^Ipl curveto
1000
^I} def
1000
^I/C
1000
^I/c load def
1000
^I/v
1000
^I{
1000
^I^Icurrentpoint 6 2 roll pl curveto
1000
^I} def
1000
^I/V
1000
^I/v load def
1000
^I/y
1000
^I{
1000
^I^Ipl 2 copy curveto
1000
^I} def
1000
^I/Y
1000
^I/y load def
1000
^I/l
1000
^I{
1000
^I^Ipl lineto
1000
^I} def
1000
^I/L
1000
^I/l load def
1000
^I/m
1000
^I{
1000
^I^Ipl moveto
1000
^I} def
1000
} ifelse
1000
/d
1000
{
1000
^Isetdash
1000
} def
1000
/cf
1000
{
1000
} def
1000
/i
1000
{
1000
^Idup 0 eq
1000
^I{
1000
^I^Ipop cf
1000
^I} if
1000
^Isetflat
1000
} def
1000
/j
1000
{
1000
^Isetlinejoin
1000
} def
1000
/J
1000
{
1000
^Isetlinecap
1000
} def
1000
/M
1000
{
1000
^Isetmiterlimit
1000
} def
1000
/w
1000
{
1000
^Isetlinewidth
1000
} def
1000
/XR
1000
{
1000
^I0 ne
1000
^I/_eo exch ddef
1000
} def
1000
/H
1000
{
1000
} def
1000
/h
1000
{
1000
^Iclosepath
1000
} def
1000
/N
1000
{
1000
^I_pola 0 eq
1000
^I{
1000
^I^I_doClip 1 eq
1000
^I^I{
1000
^I^I^I_eo {eoclip} {clip} ifelse /_doClip 0 ddef
1000
^I^I} if
1000
^I^Inewpath
1000
^I}
1000
^I{
1000
^I^I/CRender
1000
^I^I{
1000
^I^I^IN
1000
^I^I} ddef
1000
^I} ifelse
1000
} def
1000
/n
1000
{
1000
^IN
1000
} def
1000
/F
1000
{
1000
^I_pola 0 eq
1000
^I{
1000
^I^I_doClip 1 eq
1000
^I^I{
1000
^I^I^Igsave _pf grestore _eo {eoclip} {clip} ifelse newpath /_lp /none ddef _fc
1000
^I^I^I/_doClip 0 ddef
1000
^I^I}
1000
^I^I{
1000
^I^I^I_pf
1000
^I^I} ifelse
1000
^I}
1000
^I{
1000
^I^I/CRender
1000
^I^I{
1000
^I^I^IF
1000
^I^I} ddef
1000
^I} ifelse
1000
} def
1000
/f
1000
{
1000
^Iclosepath
1000
^IF
1000
} def
1000
/S
1000
{
1000
^I_pola 0 eq
1000
^I{
1000
^I^I_doClip 1 eq
1000
^I^I{
1000
^I^I^Igsave _ps grestore _eo {eoclip} {clip} ifelse newpath /_lp /none ddef _sc
1000
^I^I^I/_doClip 0 ddef
1000
^I^I}
1000
^I^I{
1000
^I^I^I_ps
1000
^I^I} ifelse
1000
^I}
1000
^I{
1000
^I^I/CRender
1000
^I^I{
1000
^I^I^IS
1000
^I^I} ddef
1000
^I} ifelse
1000
} def
1000
/s
1000
{
1000
^Iclosepath
1000
^IS
1000
} def
1000
/B
1000
{
1000
^I_pola 0 eq
1000
^I{
1000
^I^I_doClip 1 eq
1000
^I^Igsave F grestore
1000
^I^I{
1000
^I^I^Igsave S grestore _eo {eoclip} {clip} ifelse newpath /_lp /none ddef _sc
1000
^I^I^I/_doClip 0 ddef
1000
^I^I}
1000
^I^I{
1000
^I^I^IS
1000
^I^I} ifelse
1000
^I}
1000
^I{
1000
^I^I/CRender
1000
^I^I{
1000
^I^I^IB
1000
^I^I} ddef
1000
^I} ifelse
1000
} def
1000
/b
1000
{
1000
^Iclosepath
1000
^IB
1000
} def
1000
/W
1000
{
1000
^I/_doClip 1 ddef
1000
} def
1000
/*
1000
{
1000
^Icount 0 ne
1000
^I{
1000
^I^Idup type /stringtype eq
1000
^I^I{
1000
^I^I^Ipop
1000
^I^I} if
1000
^I} if
1000
^Inewpath
1000
} def
1000
/u
1000
{
1000
} def
1000
/U
1000
{
1000
} def
1000
/q
1000
{
1000
^I_pola 0 eq
1000
^I{
1000
^I^Igsave
1000
^I} if
1000
} def
1000
/Q
1000
{
1000
^I_pola 0 eq
1000
^I{
1000
^I^Igrestore
1000
^I} if
1000
} def
1000
/*u
1000
{
1000
^I_pola 1 add /_pola exch ddef
1000
} def
1000
/*U
1000
{
1000
^I_pola 1 sub /_pola exch ddef
1000
^I_pola 0 eq
1000
^I{
1000
^I^ICRender
1000
^I} if
1000
} def
1000
/D
1000
{
1000
^Ipop
1000
} def
1000
/*w
1000
{
1000
} def
1000
/*W
1000
{
1000
} def
1000
/`
1000
{
1000
^I/_i save ddef
1000
^IclipForward?
1000
^I{
1000
^I^Inulldevice
1000
^I} if
1000
^I6 1 roll 4 npop
1000
^Iconcat pop
1000
^Iuserdict begin
1000
^I/showpage
1000
^I{
1000
^I} def
1000
^I0 setgray
1000
^I0 setlinecap
1000
^I1 setlinewidth
1000
^I0 setlinejoin
1000
^I10 setmiterlimit
1000
^I[] 0 setdash
1000
^I/setstrokeadjust where {pop false setstrokeadjust} if
1000
^Inewpath
1000
^I0 setgray
1000
^Ifalse setoverprint
1000
} def
1000
/~
1000
{
1000
 end
1000
^I_i restore
1000
} def
1000
/O
1000
{
1000
^I0 ne
1000
^I/_of exch ddef
1000
^I/_lp /none ddef
1000
} def
1000
/R
1000
{
1000
^I0 ne
1000
^I/_os exch ddef
1000
^I/_lp /none ddef
1000
} def
1000
/g
1000
{
1000
^I/_gf exch ddef
1000
^I/_fc
1000
^I{
1000
^I^I_lp /fill ne
1000
^I^I{
1000
^I^I^I_of setoverprint
1000
^I^I^I_gf setgray
1000
^I^I^I/_lp /fill ddef
1000
^I^I} if
1000
^I} ddef
1000
^I/_pf
1000
^I{
1000
^I^I_fc
1000
^I^I_eo {eofill} {fill} ifelse
1000
^I} ddef
1000
^I/_psf
1000
^I{
1000
^I^I_fc
1000
^I^Iashow
1000
^I} ddef
1000
^I/_pjsf
1000
^I{
1000
^I^I_fc
1000
^I^Iawidthshow
1000
^I} ddef
1000
^I/_lp /none ddef
1000
} def
1000
/G
1000
{
1000
^I/_gs exch ddef
1000
^I/_sc
1000
^I{
1000
^I^I_lp /stroke ne
1000
^I^I{
1000
^I^I^I_os setoverprint
1000
^I^I^I_gs setgray
1000
^I^I^I/_lp /stroke ddef
1000
^I^I} if
1000
^I} ddef
1000
^I/_ps
1000
^I{
1000
^I^I_sc
1000
^I^Istroke
1000
^I} ddef
1000
^I/_pss
1000
^I{
1000
^I^I_sc
1000
^I^Iss
1000
^I} ddef
1000
^I/_pjss
1000
^I{
1000
^I^I_sc
1000
^I^Ijss
1000
^I} ddef
1000
^I/_lp /none ddef
1000
} def
1000
/k
1000
{
1070
     1
1002
}
  0
ATTDEF
  5
93
330
18
100
AcDbEntity
  8
ADP1DETAIL
100
AcDbText
 10
5.862328650361491
 20
-8.728566723786032
 30
0.0
 40
0.0027397260273973
  1

100
AcDbAttributeDefinition
  3

  2
3
 70
     1
1001
AUTOCAD_POSTSCRIPT_FIGURE
1002
{
1000
PSPROG
1000
^I^I^I/XIBitsPerPixel exch def
1000
^I^I^I/XIImageHeight exch def
1000
^I^I^I/XIImageWidth exch def
1000
^I^I^Ipop pop pop pop
1000
^I^I^I/XIImageMatrix exch def
1000
^I^I^I
1000
^I^I^IXIBitsPerPixel 1 eq
1000
^I^I^I{
1000
^I^I^I^IXIImageWidth 8 div ceiling cvi
1000
^I^I^I}
1000
^I^I^I{
1000
^I^I^I^IXIImageWidth XIChannelCount mul
1000
^I^I^I} ifelse
1000
^I^I^I/XIBuffer exch string def
1000
^I^I^I
1000
^I^I^IXIBinary
1000
^I^I^I{
1000
^I^I^I^I/XIDataProc { currentfile XIBuffer readstring pop } def
1000
^I^I^I^Icurrentfile 128 string readline pop pop
1000
^I^I^I}
1000
^I^I^I{
1000
^I^I^I^I/XIDataProc { currentfile XIBuffer readhexstring pop } def
1000
^I^I^I} ifelse
1000
^I^I^I
1000
^I^I^I0 0 moveto
1000
^I^I^IXIImageMatrix concat
1000
^I^I^IXIImageWidth XIImageHeight scale
1000
^I^I^I
1000
^I^I^IXIMask
1000
^I^I^I{
1000
^I^I^I^IXIImageWidth XIImageHeight
1000
^I^I^I^Ifalse
1000
^I^I^I^I[ XIImageWidth 0 0 XIImageHeight neg 0 0 ]
1000
^I^I^I^I/XIDataProc load
1000
^I^I^I^I
1000
^I^I^I^I/_lp /null ddef
1000
^I^I^I^I_fc
1000
^I^I^I^I/_lp /imagemask ddef
1000
^I^I^I^I
1000
^I^I^I^Iimagemask
1000
^I^I^I}
1000
^I^I^I{
1000
^I^I^I^IXIImageWidth XIImageHeight
1000
^I^I^I^IXIBitsPerPixel
1000
^I^I^I^I[ XIImageWidth 0 0 XIImageHeight neg 0 0 ]
1000
^I^I^I^I/XIDataProc load
1000
^I^I^I^I
1000
^I^I^I^IXIChannelCount 1 eq
1000
^I^I^I^I{
1000
^I^I^I^I^I
1000
^I^I^I^I^Igsave
1000
^I^I^I^I^I0 setgray
1000
^I^I^I^I^I
1000
^I^I^I^I^Iimage
1000
^I^I^I^I^I
1000
^I^I^I^I^Igrestore
1000
^I^I^I^I}
1000
^I^I^I^I{
1000
^I^I^I^I^Ifalse
1000
^I^I^I^I^IXIChannelCount
1000
^I^I^I^I^Icolorimage
1000
^I^I^I^I} ifelse
1000
^I^I^I} ifelse
1000
^I^I^Igrestore
1000
^I end
1000
^I} def
1000
^I
1000
end
1000
%%EndProcSet
1000
%%BeginResource: procset Adobe_Illustrator_AI5 1.1 0
1000
%%Title: (Adobe Illustrator (R) Version 5.0 Full Prolog)
1000
%%Version: 1.1 
1000
%%CreationDate: (3/7/1994) ()
1000
%%Copyright: ((C) 1987-1994 Adobe Systems Incorporated All Rights Reserved)
1000
currentpacking true setpacking
1000
userdict /Adobe_Illustrator_AI5_vars 81 dict dup begin
1000
put
1000
/_eo false def
1000
/_lp /none def
1000
/_pf
1000
{
1000
} def
1000
/_ps
1000
{
1000
} def
1000
/_psf
1000
{
1000
} def
1000
/_pss
1000
{
1000
} def
1000
/_pjsf
1000
{
1000
} def
1000
/_pjss
1000
{
1000
} def
1000
/_pola 0 def
1000
/_doClip 0 def
1000
/cf currentflat def
1000
/_tm matrix def
1000
/_renderStart
1000
[
1000
/e0 /r0 /a0 /o0 /e1 /r1 /a1 /i0
1000
] def
1000
/_renderEnd
1000
[
1000
null null null null /i1 /i1 /i1 /i1
1000
] def
1000
/_render -1 def
1000
/_rise 0 def
1000
/_ax 0 def
1000
/_ay 0 def
1000
/_cx 0 def
1000
/_cy 0 def
1000
/_leading
1000
[
1000
0 0
1000
] def
1000
/_ctm matrix def
1000
/_mtx matrix def
1000
/_sp 16#020 def
1000
/_hyphen (-) def
1000
/_fScl 0 def
1000
/_cnt 0 def
1000
/_hs 1 def
1000
/_nativeEncoding 0 def
1000
/_useNativeEncoding 0 def
1000
/_tempEncode 0 def
1000
/_pntr 0 def
1000
/_tDict 2 dict def
1000
/_wv 0 def
1000
/Tx
1000
{
1000
} def
1000
/Tj
1000
{
1000
} def
1000
/CRender
1000
{
1000
} def
1000
/_AI3_savepage
1000
{
1000
} def
1000
/_gf null def
1000
/_cf 4 array def
1000
/_if null def
1000
/_of false def
1000
/_fc
1000
{
1000
} def
1000
/_gs null def
1000
/_cs 4 array def
1000
/_is null def
1000
/_os false def
1000
/_sc
1000
{
1000
} def
1000
/_pd 1 dict def
1000
/_ed 15 dict def
1000
/_pm matrix def
1000
/_fm null def
1000
/_fd null def
1000
/_fdd null def
1000
/_sm null def
1000
/_sd null def
1000
/_sdd null def
1000
/_i null def
1000
/discardSave null def
1000
/buffer 256 string def
1000
/beginString null def
1000
/endString null def
1000
/endStringLength null def
1000
/layerCnt 1 def
1000
/layerCount 1 def
1000
/perCent (%) 0 get def
1000
/perCentSeen? false def
1000
/newBuff null def
1000
/newBuffButFirst null def
1000
/newBuffLast null def
1000
/clipForward? false def
1000
end
1000
userdict /Adobe_Illustrator_AI5 known not {
1000
^Iuserdict /Adobe_Illustrator_AI5 91 dict put
1000
} if
1000
userdict /Adobe_Illustrator_AI5 get begin
1000
/initialize
1000
{
1000
^IAdobe_Illustrator_AI5 dup begin
1000
^IAdobe_Illustrator_AI5_vars begin
1000
^IdiscardDict
1000
^I{
1000
^I^Ibind pop pop
1000
^I} forall
1000
^Idup /nc get begin
1000
^I{
1000
^I^Idup xcheck 1 index type /operatortype ne and
1000
^I^I{
1000
^I^I^Ibind
1000
^I^I} if
1000
^I^Ipop pop
1000
^I} forall
1000
 end
1000
^Inewpath
1000
} def
1000
/terminate
1000
{
1000
 end
1000
 end
1000
} def
1000
/_
1000
null def
1000
/ddef
1000
{
1000
^IAdobe_Illustrator_AI5_vars 3 1 roll put
1000
} def
1000
/xput
1000
{
1000
^Idup load dup length exch maxlength eq
1000
^I{
1000
^I^Idup dup load dup
1000
^I^Ilength 2 mul dict copy def
1000
^I} if
1000
^Iload begin
1000
^Idef
1000
 end
1000
} def
1000
/npop
1000
{
1000
^I{
1000
^I^Ipop
1000
^I} repeat
1000
} def
1000
/sw
1000
{
1000
^Idup length exch stringwidth
1000
^Iexch 5 -1 roll 3 index mul add
1000
^I4 1 roll 3 1 roll mul add
1000
} def
1000
/swj
1000
{
1000
^Idup 4 1 roll
1000
^Idup length exch stringwidth
1000
^Iexch 5 -1 roll 3 index mul add
1000
^I4 1 roll 3 1 roll mul add
1000
^I6 2 roll /_cnt 0 ddef
1000
^I{
1000
^I^I1 index eq
1000
^I^I{
1000
^I^I^I/_cnt _cnt 1 add ddef
1000
^I^I} if
1000
^I} forall
1000
^Ipop
1000
^Iexch _cnt mul exch _cnt mul 2 index add 4 1 roll 2 index add 4 1 roll pop pop
1000
} def
1000
/ss
1000
{
1000
^I4 1 roll
1000
^I{
1000
^I^I2 npop
1000
^I^I(0) exch 2 copy 0 exch put pop
1000
^I^Igsave
1000
^I^Ifalse charpath currentpoint
1000
^I^I4 index setmatrix
1000
^I^Istroke
1000
^I^Igrestore
1000
^I^Imoveto
1000
^I^I2 copy rmoveto
1000
^I} exch cshow
1000
^I3 npop
1000
} def
1000
/jss
1000
{
1000
^I4 1 roll
1000
^I{
1000
^I^I2 npop
1000
^I^I(0) exch 2 copy 0 exch put
1000
^I^Igsave
1000
^I^I_sp eq
1000
^I^I{
1000
^I^I^Iexch 6 index 6 index 6 index 5 -1 roll widthshow
1000
^I^I^Icurrentpoint
1000
^I^I}
1000
^I^I{
1000
^I^I^Ifalse charpath currentpoint
1000
^I^I^I4 index setmatrix stroke
1000
^I^I} ifelse
1000
^I^Igrestore
1000
^I^Imoveto
1000
^I^I2 copy rmoveto
1000
^I} exch cshow
1000
^I6 npop
1000
} def
1000
/sp
1000
{
1000
^I{
1000
^I^I2 npop (0) exch
1000
^I^I2 copy 0 exch put pop
1000
^I^Ifalse charpath
1000
^I^I2 copy rmoveto
1000
^I} exch cshow
1000
^I2 npop
1000
} def
1000
/jsp
1000
{
1000
^I{
1000
^I^I2 npop
1000
^I^I(0) exch 2 copy 0 exch put
1000
^I^I_sp eq
1000
^I^I{
1000
^I^I^Iexch 5 index 5 index 5 index 5 -1 roll widthshow
1000
^I^I}
1000
^I^I{
1000
^I^I^Ifalse charpath
1000
^I^I} ifelse
1070
     1
1002
}
  0
ATTDEF
  5
94
330
18
100
AcDbEntity
  8
ADP1DETAIL
100
AcDbText
 10
5.862328650361491
 20
-8.728566723786032
 30
0.0
 40
0.0027397260273973
  1

100
AcDbAttributeDefinition
  3

  2
2
 70
     1
1001
AUTOCAD_POSTSCRIPT_FIGURE
1002
{
1000
PSPROG
1000
^I^Idup length 1 sub 0 3 3 -1 roll
1000
^I^I{
1000
^I^I^I3 getinterval { } forall
1000
^I
1000
^I^I^I5 index exec
1000
^I
1000
^I^I^I3 index
1000
^I^I} for
1000
^I^I
1000
^I^I 5 { pop } repeat
1000
^I
1000
^I} def
1000
^I
1000
^I
1000
^I/WalkCMYKString
1000
^I{
1000
^I^I0 3 index
1000
^I
1000
^I^Idup length 1 sub 0 4 3 -1 roll
1000
^I^I{
1000
^I^I^I4 getinterval { } forall
1000
^I^I^I
1000
^I^I^I6 index exec
1000
^I^I^I
1000
^I^I^I3 index
1000
^I^I^I
1000
^I^I} for
1000
^I^I
1000
^I^I5 { pop } repeat
1000
^I^I
1000
^I} def
1000
^I
1000
^I
1000
^I/StuffRGBIntoGrayString
1000
^I{
1000
^I^I.11 mul exch
1000
^I^I
1000
^I^I.59 mul add exch
1000
^I^I
1000
^I^I.3 mul add
1000
^I^I
1000
^I^Icvi 3 copy put
1000
^I^I
1000
^I^Ipop 1 add
1000
^I} def
1000
^I
1000
^I
1000
^I/RGBToGrayImageProc
1000
^I{^I
1000
^I^IAdobe_ColorImage_AI6_Vars begin 
1000
^I^I^Isourcearray 0 get exec
1000
^I^I^Idup length 3 idiv string
1000
^I^I^Idup 3 1 roll 
1000
^I^I^I
1000
^I^I^I/StuffRGBIntoGrayString load exch
1000
^I^I^IWalkRGBString
1000
^I end
1000
^I} def
1000
^I
1000
^I
1000
^I/StuffCMYKIntoGrayString
1000
^I{
1000
^I^Iexch .11 mul add
1000
^I^I
1000
^I^Iexch .59 mul add
1000
^I^I
1000
^I^Iexch .3 mul add
1000
^I^I
1000
^I^Idup 255 gt { pop 255 } if
1000
^I^I
1000
^I^I255 exch sub cvi 3 copy put
1000
^I^I
1000
^I^Ipop 1 add
1000
^I} def
1000
^I
1000
^I
1000
^I/CMYKToGrayImageProc
1000
^I{^I
1000
^I^IAdobe_ColorImage_AI6_Vars begin
1000
^I^I^Isourcearray 0 get exec
1000
^I^I^Idup length 4 idiv string
1000
^I^I^Idup 3 1 roll 
1000
^I^I^I
1000
^I^I^I/StuffCMYKIntoGrayString load exch
1000
^I^I^IWalkCMYKString
1000
^I end
1000
^I} def
1000
^I
1000
^I
1000
^I/ColorImageCompositeEmulator
1000
^I{
1000
^I^Ipop true eq
1000
^I^I{
1000
^I^I^IAdobe_ColorImage_AI6_Vars /sourcecount get 5 add { pop } repeat
1000
^I^I}
1000
^I^I{
1000
^I^I^IAdobe_ColorImage_AI6_Vars /channelcount get 1 ne
1000
^I^I^I{
1000
^I^I^I^IAdobe_ColorImage_AI6_Vars begin
1000
^I^I^I^I^Isourcearray 0 3 -1 roll put
1000
^I^I^I^I
1000
^I^I^I^I^Ichannelcount 3 eq 
1000
^I^I^I^I^I{ 
1000
^I^I^I^I^I^I/RGBToGrayImageProc 
1000
^I^I^I^I^I}
1000
^I^I^I^I^I{ 
1000
^I^I^I^I^I^I/CMYKToGrayImageProc
1000
^I^I^I^I^I} ifelse
1000
^I^I^I^I^Iload
1000
^I^I^I end
1000
^I^I^I} if
1000
^I^I^Iimage
1000
^I^I} ifelse
1000
^I} def
1000
^I
1000
^I
1000
^I/SeparateCMYKImageProc
1000
^I{^I
1000
^I^IAdobe_ColorImage_AI6_Vars begin
1000
^I
1000
^I^I^Isourcecount 0 ne
1000
^I^I^I{
1000
^I^I^I^Isourcearray plateindex get exec
1000
^I^I^I}
1000
^I^I^I{^I^I^I
1000
^I^I^I^Isourcearray 0 get exec
1000
^I^I^I^I
1000
^I^I^I^Idup length 4 idiv string
1000
^I^I^I^I
1000
^I^I^I^I0 2 index
1000
^I^I^I^I
1000
^I^I^I^Iplateindex 4 2 index length 1 sub
1000
^I^I^I^I{
1000
^I^I^I^I^Iget 255 exch sub
1000
^I^I^I^I^I
1000
^I^I^I^I^I3 copy put pop 1 add
1000
^I^I^I^I^I
1000
^I^I^I^I^I2 index
1000
^I^I^I^I} for
1000
^I
1000
^I^I^I^Ipop pop exch pop
1000
^I^I^I} ifelse
1000
^I end
1000
^I} def
1000
^I^I
1000
^I
1000
^I/FourEqual
1000
^I{
1000
^I^I4 index ne
1000
^I^I{
1000
^I^I^Ipop pop pop false
1000
^I^I}
1000
^I^I{
1000
^I^I^I4 index ne
1000
^I^I^I{
1000
^I^I^I^Ipop pop false
1000
^I^I^I}
1000
^I^I^I{
1000
^I^I^I^I4 index ne
1000
^I^I^I^I{
1000
^I^I^I^I^Ipop false
1000
^I^I^I^I}
1000
^I^I^I^I{
1000
^I^I^I^I^I4 index eq
1000
^I^I^I^I} ifelse
1000
^I^I^I} ifelse
1000
^I^I} ifelse
1000
^I} def
1000
^I
1000
^I
1000
^I/TestPlateIndex
1000
^I{
1000
^I^IAdobe_ColorImage_AI6_Vars begin
1000
^I^I^I/plateindex -1 def
1000
^I
1000
^I^I^I/setcmykcolor where
1000
^I^I^I{
1000
^I^I^I^Ipop
1000
^I^I^I^Igsave
1000
^I^I^I^I1 0 0 0 setcmykcolor systemdict /currentgray get exec 1 exch sub
1000
^I^I^I^I0 1 0 0 setcmykcolor systemdict /currentgray get exec 1 exch sub
1000
^I^I^I^I0 0 1 0 setcmykcolor systemdict /currentgray get exec 1 exch sub
1000
^I^I^I^I0 0 0 1 setcmykcolor systemdict /currentgray get exec 1 exch sub
1000
^I^I^I^Igrestore
1000
^I
1000
^I^I^I^I1 0 0 0 FourEqual 
1000
^I^I^I^I{ 
1000
^I^I^I^I^I/plateindex 0 def
1000
^I^I^I^I}
1000
^I^I^I^I{
1000
^I^I^I^I^I0 1 0 0 FourEqual
1000
^I^I^I^I^I{ 
1000
^I^I^I^I^I^I/plateindex 1 def
1000
^I^I^I^I^I}
1000
^I^I^I^I^I{
1000
^I^I^I^I^I^I0 0 1 0 FourEqual
1000
^I^I^I^I^I^I{
1000
^I^I^I^I^I^I^I/plateindex 2 def
1000
^I^I^I^I^I^I}
1000
^I^I^I^I^I^I{
1000
^I^I^I^I^I^I^I0 0 0 1 FourEqual
1000
^I^I^I^I^I^I^I{ 
1000
^I^I^I^I^I^I^I^I/plateindex 3 def
1000
^I^I^I^I^I^I^I}
1000
^I^I^I^I^I^I^I{
1000
^I^I^I^I^I^I^I^I0 0 0 0 FourEqual
1000
^I^I^I^I^I^I^I^I{
1000
^I^I^I^I^I^I^I^I^I/plateindex 5 def
1000
^I^I^I^I^I^I^I^I} if
1000
^I^I^I^I^I^I^I} ifelse
1000
^I^I^I^I^I^I} ifelse
1000
^I^I^I^I^I} ifelse
1000
^I^I^I^I} ifelse
1000
^I^I^I^Ipop pop pop pop
1000
^I^I^I} if
1000
^I^I^Iplateindex
1000
^I end
1000
^I} def
1000
^I
1000
^I
1000
^I/colorimage
1000
^I{
1000
^I^IAdobe_ColorImage_AI6_Vars begin
1000
^I^I^I/channelcount 1 index def
1000
^I^I^I/sourcecount 2 index 1 eq { channelcount 1 sub } { 0 } ifelse def
1000
^I
1000
^I^I^I4 sourcecount add index dup 
1000
^I^I^I8 eq exch 1 eq or not
1000
^I end
1000
^I^I
1000
^I^I{
1000
^I^I^I/_colorimage load null ne
1000
^I^I^I{
1000
^I^I^I^I_colorimage
1000
^I^I^I}
1000
^I^I^I{
1000
^I^I^I^IAdobe_ColorImage_AI6_Vars /sourcecount get
1000
^I^I^I^I7 add { pop } repeat
1000
^I^I^I} ifelse
1000
^I^I}
1000
^I^I{
1000
^I^I^Idup 3 eq
1000
^I^I^ITestPlateIndex
1000
^I^I^Idup -1 eq exch 5 eq or or
1000
^I^I^I{
1000
^I^I^I^I/_colorimage load null eq
1000
^I^I^I^I{
1000
^I^I^I^I^IColorImageCompositeEmulator
1000
^I^I^I^I}
1000
^I^I^I^I{
1000
^I^I^I^I^Idup 1 eq
1000
^I^I^I^I^I{
1000
^I^I^I^I^I^Ipop pop image
1000
^I^I^I^I^I}
1000
^I^I^I^I^I{
1000
^I^I^I^I^I^IAdobe_ColorImage_AI6_Vars /plateindex get 5 eq
1000
^I^I^I^I^I^I{
1000
^I^I^I^I^I^I^Igsave
1000
^I^I^I^I^I^I^I
1000
^I^I^I^I^I^I^I0 _currenttransfer exec
1000
^I^I^I^I^I^I^I1 _currenttransfer exec
1000
^I^I^I^I^I^I^Ieq
1000
^I^I^I^I^I^I^I{ 0 _currenttransfer exec 0.5 lt }
1000
^I^I^I^I^I^I^I{ 0 _currenttransfer exec 1 _currenttransfer exec gt } ifelse
1000
^I^I^I^I^I^I^I
1000
^I^I^I^I^I^I^I{ { pop 0 } } { { pop 1 } } ifelse
1000
^I^I^I^I^I^I^Isystemdict /settransfer get exec
1000
^I^I^I^I^I^I} if
1000
^I^I^I^I^I^I
1000
^I^I^I^I^I^I_colorimage
1000
^I^I^I^I^I^I
1000
^I^I^I^I^I^IAdobe_ColorImage_AI6_Vars /plateindex get 5 eq
1000
^I^I^I^I^I^I{
1000
^I^I^I^I^I^I^Igrestore
1000
^I^I^I^I^I^I} if
1000
^I^I^I^I^I} ifelse
1000
^I^I^I^I} ifelse
1000
^I^I^I}
1000
^I^I^I{
1000
^I^I^I^Idup 1 eq
1000
^I^I^I^I{
1000
^I^I^I^I^Ipop pop
1000
^I^I^I^I^Iimage
1000
^I^I^I^I}
1000
^I^I^I^I{
1000
^I^I^I^I^Ipop pop
1000
^I
1000
^I^I^I^I^IAdobe_ColorImage_AI6_Vars begin
1000
^I^I^I^I^I^Isourcecount -1 0
1000
^I^I^I^I^I^I{^I^I^I
1000
^I^I^I^I^I^I^Iexch sourcearray 3 1 roll put
1000
^I^I^I^I^I^I} for
1000
^I
1000
^I^I^I^I^I^I/SeparateCMYKImageProc load
1000
^I^I^I^I end
1000
^I
1000
^I^I^I^I^Isystemdict /image get exec
1000
^I^I^I^I} ifelse
1000
^I^I^I} ifelse
1000
^I^I} ifelse
1000
^I} def
1000
^I
1000
^I/XI
1000
^I{
1000
^I^IAdobe_ColorImage_AI6_Vars begin
1000
^I^I^Igsave
1000
^I^I^I/XIMask exch 0 ne def
1000
^I^I^I/XIBinary exch 0 ne def
1000
^I^I^Ipop
1000
^I^I^Ipop
1000
^I^I^I/XIChannelCount exch def
1070
     1
1002
}
  0
ATTDEF
  5
95
330
18
100
AcDbEntity
  8
ADP1DETAIL
100
AcDbText
 10
5.862328650361491
 20
-8.728566723786032
 30
0.0
 40
0.0027397260273973
  1

100
AcDbAttributeDefinition
  3

  2
1
 70
     1
1001
AUTOCAD_POSTSCRIPT_FIGURE
1002
{
1000
PSPROG
1000
%!PS-Adobe-3.0 EPSF-3.0
1000
%%Creator: Adobe Illustrator(TM) 5.0
1000
%%For: (Tony Leto) (Julius Blum & Co., Inc.)
1000
%%Title: (711.eps)
1000
%%CreationDate: (4/11/96) (11:22 AM)
1000
%%BoundingBox: 123 342 411 415
1000
%%HiResBoundingBox: 123.018 342 411 414.0832
1000
%%DocumentProcessColors: Black
1000
%%DocumentSuppliedResources: procset Adobe_level2_AI5 1.0 0
1000
%%+ procset Adobe_Illustrator_AI6_vars Adobe_Illustrator_AI6
1000
%%+ procset Adobe_Illustrator_AI5 1.0 0
1000
%AI5_FileFormat 2.0
1000
%AI3_ColorUsage: Color
1000
%%DocumentCustomColors: (* gray)
1000
%%CMYKCustomColor: 0 0 0 0.25 (* gray)
1000
%%+ 1 0 0 0.1 (*aluminum)
1000
%AI3_TemplateBox: 306 396 306 396
1000
%AI3_TileBox: 30 31 582 761
1000
%AI3_DocumentPreview: Macintosh_ColorPic
1000
%AI5_ArtSize: 612 792
1000
%AI5_RulerUnits: 0
1000
%AI5_ArtFlags: 1 0 0 1 0 0 1 1 0
1000
%AI5_TargetResolution: 800
1000
%AI5_NumLayers: 1
1000
%AI5_OpenToView: -270 864 -1.5 776 650 18 1 1 69 68
1000
%AI5_OpenViewLayers: 7
1000
%%EndComments
1000
%%BeginProlog
1000
%%BeginResource: procset Adobe_level2_AI5 1.2 0
1000
%%Title: (Adobe Illustrator (R) Version 5.0 Level 2 Emulation)
1000
%%Version: 1.2 
1000
%%CreationDate: (04/10/93) ()
1000
%%Copyright: ((C) 1987-1993 Adobe Systems Incorporated All Rights Reserved)
1000
userdict /Adobe_level2_AI5 23 dict dup begin
1000
^Iput
1000
^I/packedarray where not
1000
^I{
1000
^I^Iuserdict begin
1000
^I^I/packedarray
1000
^I^I{
1000
^I^I^Iarray astore readonly
1000
^I^I} bind def
1000
^I^I/setpacking /pop load def
1000
^I^I/currentpacking false def
1000
^I end
1000
^I^I0
1000
^I} if
1000
^Ipop
1000
^Iuserdict /defaultpacking currentpacking put true setpacking
1000
^I/initialize
1000
^I{
1000
^I^IAdobe_level2_AI5 begin
1000
^I} bind def
1000
^I/terminate
1000
^I{
1000
^I^Icurrentdict Adobe_level2_AI5 eq
1000
^I^I{
1000
^I^I end
1000
^I^I} if
1000
^I} bind def
1000
^Imark
1000
^I/setcustomcolor where not
1000
^I{
1000
^I^I/findcmykcustomcolor
1000
^I^I{
1000
^I^I^I5 packedarray
1000
^I^I} bind def
1000
^I^I/setcustomcolor
1000
^I^I{
1000
^I^I^Iexch aload pop pop
1000
^I^I^I4
1000
^I^I^I{
1000
^I^I^I^I4 index mul 4 1 roll
1000
^I^I^I} repeat
1000
^I^I^I5 -1 roll pop
1000
^I^I^Isetcmykcolor
1000
^I^I}
1000
^I^Idef
1000
^I} if
1000
^I
1000
^I/gt38? mark {version cvr cvx exec} stopped {cleartomark true} {38 gt exch pop} ifelse def
1000
^Iuserdict /deviceDPI 72 0 matrix defaultmatrix dtransform dup mul exch dup mul add sqrt put
1000
^Iuserdict /level2?
1000
^Isystemdict /languagelevel known dup
1000
^I{
1000
^I^Ipop systemdict /languagelevel get 2 ge
1000
^I} if
1000
^Iput
1000
/level2ScreenFreq
1000
{
1000
 begin
1000
^I^I60
1000
^I^IHalftoneType 1 eq
1000
^I^I{
1000
^I^I^Ipop Frequency
1000
^I^I} if
1000
^I^IHalftoneType 2 eq
1000
^I^I{
1000
^I^I^Ipop GrayFrequency
1000
^I^I} if
1000
^I^IHalftoneType 5 eq
1000
^I^I{
1000
^I^I^Ipop Default level2ScreenFreq
1000
^I^I} if
1000
 end
1000
} bind def
1000
userdict /currentScreenFreq  
1000
^Ilevel2? {currenthalftone level2ScreenFreq} {currentscreen pop pop} ifelse put
1000
level2? not
1000
^I{
1000
^I^I/setcmykcolor where not
1000
^I^I{
1000
^I^I^I/setcmykcolor
1000
^I^I^I{
1000
^I^I^I^Iexch .11 mul add exch .59 mul add exch .3 mul add
1000
^I^I^I^I1 exch sub setgray
1000
^I^I^I} def
1000
^I^I} if
1000
^I^I/currentcmykcolor where not
1000
^I^I{
1000
^I^I^I/currentcmykcolor
1000
^I^I^I{
1000
^I^I^I^I0 0 0 1 currentgray sub
1000
^I^I^I} def
1000
^I^I} if
1000
^I^I/setoverprint where not
1000
^I^I{
1000
^I^I^I/setoverprint /pop load def
1000
^I^I} if
1000
^I^I/selectfont where not
1000
^I^I{
1000
^I^I^I/selectfont
1000
^I^I^I{
1000
^I^I^I^Iexch findfont exch
1000
^I^I^I^Idup type /arraytype eq
1000
^I^I^I^I{
1000
^I^I^I^I^Imakefont
1000
^I^I^I^I}
1000
^I^I^I^I{
1000
^I^I^I^I^Iscalefont
1000
^I^I^I^I} ifelse
1000
^I^I^I^Isetfont
1000
^I^I^I} bind def
1000
^I^I} if
1000
^I^I/cshow where not
1000
^I^I{
1000
^I^I^I/cshow
1000
^I^I^I{
1000
^I^I^I^I[
1000
^I^I^I^I0 0 5 -1 roll aload pop
1000
^I^I^I^I] cvx bind forall
1000
^I^I^I} bind def
1000
^I^I} if
1000
^I} if
1000
^Icleartomark
1000
^I/anyColor?
1000
^I{
1000
^I^Iadd add add 0 ne
1000
^I} bind def
1000
^I/testColor
1000
^I{
1000
^I^Igsave
1000
^I^Isetcmykcolor currentcmykcolor
1000
^I^Igrestore
1000
^I} bind def
1000
^I/testCMYKColorThrough
1000
^I{
1000
^I^ItestColor anyColor?
1000
^I} bind def
1000
^Iuserdict /composite?
1000
^Ilevel2?
1000
^I{
1000
^I^Igsave 1 1 1 1 setcmykcolor currentcmykcolor grestore
1000
^I^Iadd add add 4 eq
1000
^I}
1000
^I{
1000
^I^I1 0 0 0 testCMYKColorThrough
1000
^I^I0 1 0 0 testCMYKColorThrough
1000
^I^I0 0 1 0 testCMYKColorThrough
1000
^I^I0 0 0 1 testCMYKColorThrough
1000
^I^Iand and and
1000
^I} ifelse
1000
^Iput
1000
^Icomposite? not
1000
^I{
1000
^I^Iuserdict begin
1000
^I^Igsave
1000
^I^I/cyan? 1 0 0 0 testCMYKColorThrough def
1000
^I^I/magenta? 0 1 0 0 testCMYKColorThrough def
1000
^I^I/yellow? 0 0 1 0 testCMYKColorThrough def
1000
^I^I/black? 0 0 0 1 testCMYKColorThrough def
1000
^I^Igrestore
1000
^I^I/isCMYKSep? cyan? magenta? yellow? black? or or or def
1000
^I^I/customColor? isCMYKSep? not def
1000
^I end
1000
^I} if
1000
 end defaultpacking setpacking
1000
%%EndResource
1000
%%BeginProcSet: Adobe_ColorImage_AI6 1.0 0
1000
userdict /Adobe_ColorImage_AI6 known not
1000
{
1000
^Iuserdict /Adobe_ColorImage_AI6 17 dict put 
1000
} if
1000
userdict /Adobe_ColorImage_AI6 get begin
1000
^I
1000
^I/initialize
1000
^I{ 
1000
^I^IAdobe_ColorImage_AI6 begin
1000
^I^IAdobe_ColorImage_AI6
1000
^I^I{
1000
^I^I^Idup type /arraytype eq
1000
^I^I^I{
1000
^I^I^I^Idup xcheck
1000
^I^I^I^I{
1000
^I^I^I^I^Ibind
1000
^I^I^I^I} if
1000
^I^I^I} if
1000
^I^I^Ipop pop
1000
^I^I} forall
1000
^I} def
1000
^I/terminate { end } def
1000
^I
1000
^Icurrentdict /Adobe_ColorImage_AI6_Vars known not
1000
^I{
1000
^I^I/Adobe_ColorImage_AI6_Vars 14 dict def
1000
^I} if
1000
^I
1000
^IAdobe_ColorImage_AI6_Vars begin
1000
^I^I/channelcount 0 def
1000
^I^I/sourcecount 0 def
1000
^I^I/sourcearray 4 array def
1000
^I^I/plateindex -1 def
1000
^I^I/XIMask 0 def
1000
^I^I/XIBinary 0 def
1000
^I^I/XIChannelCount 0 def
1000
^I^I/XIBitsPerPixel 0 def
1000
^I^I/XIImageHeight 0 def
1000
^I^I/XIImageWidth 0 def
1000
^I^I/XIImageMatrix null def
1000
^I^I/XIBuffer null def
1000
^I^I/XIDataProc null def
1000
 end
1000
^I
1000
^I/WalkRGBString null def
1000
^I/WalkCMYKString null def
1000
^I
1000
^I/StuffRGBIntoGrayString null def
1000
^I/RGBToGrayImageProc null def
1000
^I/StuffCMYKIntoGrayString null def
1000
^I/CMYKToGrayImageProc null def
1000
^I/ColorImageCompositeEmulator null def
1000
^I
1000
^I/SeparateCMYKImageProc null def
1000
^I
1000
^I/FourEqual null def
1000
^I/TestPlateIndex null def
1000
^I
1000
^Icurrentdict /_colorimage known not
1000
^I{
1000
^I^I/colorimage where
1000
^I^I{
1000
^I^I^I/colorimage get /_colorimage exch def
1000
^I^I}
1000
^I^I{
1000
^I^I^I/_colorimage null def
1000
^I^I} ifelse
1000
^I} if
1000
^I
1000
^I/_currenttransfer systemdict /currenttransfer get def
1000
^I
1000
^I/colorimage null def
1000
^I/XI null def
1000
^I
1000
^I
1000
^I/WalkRGBString
1000
^I{
1000
^I^I0 3 index
1000
^I
1070
     1
1002
}
  0
LINE
  5
96
330
18
100
AcDbEntity
  8
ADP1DETAIL
100
AcDbLine
 10
5.860684814745052
 20
-8.544457134744936
 30
0.0
 11
5.976581099453217
 21
-8.478703710087401
 31
0.0
  0
LINE
  5
97
330
18
100
AcDbEntity
  8
ADP2DETAIL
  6
HIDDEN
100
AcDbLine
 10
6.991537652294823
 20
-8.728566723786032
 30
0.0
 11
6.991537652294823
 21
-7.742265353923018
 31
0.0
  0
LINE
  5
98
330
18
100
AcDbEntity
  8
ADP1DETAIL
100
AcDbLine
 10
6.649725910635464
 20
-7.8014434361148
 30
0.0
 11
6.712191664060121
 21
-7.742265353923018
 31
0.0
  0
LINE
  5
99
330
18
100
AcDbEntity
  8
ADP1DETAIL
100
AcDbLine
 10
6.649725910635464
 20
-8.290726069692954
 30
0.0
 11
6.649725910635464
 21
-7.8014434361148
 31
0.0
  0
ARC
  5
9A
330
18
100
AcDbEntity
  8
ADP1DETAIL
100
AcDbCircle
 10
6.461725910635463
 20
-8.290726069692954
 30
0.0
 40
0.188
100
AcDbArc
 50
270.3951370425075
 51
0.0
  0
LINE
  5
9B
330
18
100
AcDbEntity
  8
ADP2DETAIL
  6
HIDDEN
100
AcDbLine
 10
9.48892554718266
 20
-8.728566723786032
 30
0.0
 11
9.488925547182658
 21
-7.742265353923018
 31
0.0
  0
LINE
  5
9C
330
18
100
AcDbEntity
  8
ADP1DETAIL
100
AcDbLine
 10
9.821849198306695
 20
-7.8014434361148
 30
0.0
 11
9.821849198306695
 21
-8.290726069692954
 31
0.0
  0
ARC
  5
9D
330
18
100
AcDbEntity
  8
ADP1DETAIL
100
AcDbCircle
 10
10.00984919830669
 20
-8.290726069692954
 30
0.0
 40
0.188
100
AcDbArc
 50
180.0
 51
269.6048629574924
  0
LINE
  5
9E
330
18
100
AcDbEntity
  8
ADP1DETAIL
100
AcDbLine
 10
9.762671116114916
 20
-7.742265353923018
 30
0.0
 11
9.821849198306695
 21
-7.8014434361148
 31
0.0
  0
LINE
  5
9F
330
18
100
AcDbEntity
  8
ADP1DETAIL
100
AcDbLine
 10
10.6108902941971
 20
-8.544457134744936
 30
0.0
 11
10.6108902941971
 21
-8.728566723786032
 31
0.0
  0
LINE
  5
A0
330
18
100
AcDbEntity
  8
ADP1DETAIL
100
AcDbLine
 10
10.49445455791592
 20
-8.478703710087401
 30
0.0
 11
10.6108902941971
 21
-8.544457134744936
 31
0.0
  0
CIRCLE
  5
A4
330
18
100
AcDbEntity
  8
ADP1DETAIL
100
AcDbCircle
 10
8.237431390087516
 20
-4.796187021761494
 30
0.0
 40
1.25
  0
DIMENSION
  5
EB
330
18
100
AcDbEntity
  8
ADPDIM
100
AcDbDimension
  2
*D1
 10
10.6108902941971
 20
-9.127083570690373
 30
0.0
 11
8.23578755447108
 21
-9.127083570690373
 31
0.0
 70
    32
  3
STANDARD
100
AcDbAlignedDimension
 13
5.860684814745052
 23
-8.728566723786032
 33
0.0
 14
10.6108902941971
 24
-8.728566723786032
 34
0.0
100
AcDbRotatedDimension
1001
ACAD
1000
DSTYLE
1002
{
1070
   270
1070
     7
1070
   270
1070
     7
1070
   270
1070
     7
1070
   270
1070
     7
1070
   270
1070
     7
1070
   270
1070
     7
1070
    41
1040
0.125
1070
    73
1070
     0
1070
    74
1070
     0
1070
    78
1070
     2
1070
   140
1040
0.125
1070
   141
1040
0.1875
1070
   142
1040
0.125
1070
   147
1040
0.125
1070
   171
1070
     1
1070
   271
1070
     3
1070
   276
1070
     2
1070
   277
1070
     5
1002
}
  0
DIMENSION
  5
FF
330
18
100
AcDbEntity
  8
ADPDIM
100
AcDbDimension
  2
*D2
 10
6.987433306432004
 20
-4.793998218996278
 30
0.0
 11
10.44576133787891
 21
-4.800053906646698
 31
0.0
 70
    35
  3
STANDARD
100
AcDbDiametricDimension
 15
9.487429473743018
 25
-4.798375824526702
 35
0.0
 40
0.0
1001
ACAD
1000
DSTYLE
1002
{
1070
   270
1070
     7
1070
   270
1070
     7
1070
   270
1070
     7
1070
   270
1070
     7
1070
   270
1070
     7
1070
   270
1070
     7
1070
    41
1040
0.125
1070
    73
1070
     0
1070
    74
1070
     0
1070
    78
1070
     2
1070
   140
1040
0.125
1070
   141
1040
0.1875
1070
   142
1040
0.125
1070
   147
1040
0.125
1070
   171
1070
     1
1070
   271
1070
     3
1070
   276
1070
     2
1070
   277
1070
     5
1002
}
  0
TEXT
  5
10B
330
18
100
AcDbEntity
  8
ADPDIM
100
AcDbText
 10
-1.552805982363844
 20
-10.28065462784214
 30
0.0
 40
0.1875
  1
J U L I U S  B L U M  &  C O . ,  I N C .      ( 8 0 0 )  5 2 6 - 6 2 9 3        W W W . J U L I U S B L U M . C O M        P A R T  N o .  1 1 2 5
 41
1.25
  7
ARIAL_WIDE
 72
     1
 11
8.23578755447108
 21
-10.09315462784214
 31
0.0
100
AcDbText
 73
     3
  0
ENDSEC
  0
SECTION
  2
OBJECTS
  0
DICTIONARY
  5
C
330
0
100
AcDbDictionary
  3
ACAD_GROUP
350
D
  3
ACAD_LAYOUT
350
104
  3
ACAD_MLINESTYLE
350
E
  3
ACAD_PLOTSETTINGS
350
105
  3
ACAD_PLOTSTYLENAME
350
102
  3
ACDBHEADERROUNDTRIPXREC
350
30E
  3
ACDBVARIABLEDICTIONARY
350
189
  0
DICTIONARY
  5
172
330
18
100
AcDbDictionary
280
     1
  3
ACAD_LAYOUTSELFREF
360
330
  0
DICTIONARY
  5
170
330
15
100
AcDbDictionary
280
     1
  3
ACAD_LAYOUTSELFREF
360
32F
  0
DICTIONARY
  5
D
102
{ACAD_REACTORS
330
C
102
}
330
C
100
AcDbDictionary
  0
DICTIONARY
  5
104
102
{ACAD_REACTORS
330
C
102
}
330
C
100
AcDbDictionary
  0
DICTIONARY
  5
E
102
{ACAD_REACTORS
330
C
102
}
330
C
100
AcDbDictionary
  3
STANDARD
350
1B
  0
DICTIONARY
  5
105
102
{ACAD_REACTORS
330
C
102
}
330
C
100
AcDbDictionary
  0
ACDBDICTIONARYWDFLT
  5
102
102
{ACAD_REACTORS
330
C
102
}
330
C
100
AcDbDictionary
281
     1
  3
Normal
350
103
100
AcDbDictionaryWithDefault
340
103
  0
DICTIONARY
  5
30E
102
{ACAD_REACTORS
330
C
102
}
330
C
100
AcDbDictionary
  3
CEPSNTYPE
350
318
  3
DIMSTYLEDATA
350
31C
  3
FINGERPRINTGUID
350
319
  3
HYPERLINKBASE
350
311
  3
INSUNITS
350
317
  3
LAYOUTDICT
350
313
  3
LWETCUNION
350
316
  3
PLOTSETDICT
350
314
  3
PLOTSTYLNAMDICT
350
315
  3
PSVPSCALE
350
31B
  3
PUCSBASE
350
31F
  3
PUCSORGBACK
350
325
  3
PUCSORGBOTTOM
350
321
  3
PUCSORGFRONT
350
324
  3
PUCSORGLEFT
350
322
  3
PUCSORGRIGHT
350
323
  3
PUCSORGTOP
350
320
  3
PUCSORTHOREF
350
31D
  3
PUCSORTHOVIEW
350
31E
  3
STYLESHEET
350
312
  3
TSTACKALIGN
350
30F
  3
TSTACKSIZE
350
310
  3
UCSBASE
350
328
  3
UCSORGBACK
350
32E
  3
UCSORGBOTTOM
350
32A
  3
UCSORGFRONT
350
32D
  3
UCSORGLEFT
350
32B
  3
UCSORGRIGHT
350
32C
  3
UCSORGTOP
350
329
  3
UCSORTHOREF
350
326
  3
UCSORTHOVIEW
350
327
  3
VERSIONGUID
350
31A
  0
DICTIONARY
  5
189
102
{ACAD_REACTORS
330
C
102
}
330
C
100
AcDbDictionary
  3
DIMASSOC
350
18A
  0
XRECORD
  5
330
102
{ACAD_REACTORS
330
172
102
}
330
172
100
AcDbXrecord
340
18
  0
XRECORD
  5
32F
102
{ACAD_REACTORS
330
170
102
}
330
170
100
AcDbXrecord
340
15
  0
MLINESTYLE
  5
1B
102
{ACAD_REACTORS
330
E
102
}
330
E
100
AcDbMlineStyle
  2
STANDARD
 70
     0
  3

 62
     0
 51
90.0
 52
90.0
 71
     2
 49
0.5
 62
   256
  6
BYLAYER
 49
-0.5
 62
   256
  6
BYLAYER
  0
ACDBPLACEHOLDER
  5
103
102
{ACAD_REACTORS
330
102
102
}
330
102
100
AcDbPlaceHolder
280
     0
  0
XRECORD
  5
318
102
{ACAD_REACTORS
330
30E
102
}
330
30E
100
AcDbXrecord
 90
        0
  0
XRECORD
  5
31C
102
{ACAD_REACTORS
330
30E
102
}
330
30E
100
AcDbXrecord
1000
DSTYLE
1002
{
1070
   276
 70
     2
1070
   277
 70
     5
1002
}
  0
XRECORD
  5
319
102
{ACAD_REACTORS
330
30E
102
}
330
30E
100
AcDbXrecord
  1
{A9C90861-BEE1-4F53-A6C5-7C3E73817AEF}
  0
XRECORD
  5
311
102
{ACAD_REACTORS
330
30E
102
}
330
30E
100
AcDbXrecord
  1

  0
XRECORD
  5
317
102
{ACAD_REACTORS
330
30E
102
}
330
30E
100
AcDbXrecord
 90
        0
  0
XRECORD
  5
313
102
{ACAD_REACTORS
330
30E
102
}
330
30E
100
AcDbXrecord
340
104
  0
XRECORD
  5
316
102
{ACAD_REACTORS
330
30E
102
}
330
30E
100
AcDbXrecord
 90
    14877
  0
XRECORD
  5
314
102
{ACAD_REACTORS
330
30E
102
}
330
30E
100
AcDbXrecord
340
105
  0
XRECORD
  5
315
102
{ACAD_REACTORS
330
30E
102
}
330
30E
100
AcDbXrecord
340
102
  0
XRECORD
  5
31B
102
{ACAD_REACTORS
330
30E
102
}
330
30E
100
AcDbXrecord
 40
0.0
  0
XRECORD
  5
31F
102
{ACAD_REACTORS
330
30E
102
}
330
30E
100
AcDbXrecord
340
0
  0
XRECORD
  5
325
102
{ACAD_REACTORS
330
30E
102
}
330
30E
100
AcDbXrecord
 10
0.0
 20
0.0
 30
0.0
  0
XRECORD
  5
321
102
{ACAD_REACTORS
330
30E
102
}
330
30E
100
AcDbXrecord
 10
0.0
 20
0.0
 30
0.0
  0
XRECORD
  5
324
102
{ACAD_REACTORS
330
30E
102
}
330
30E
100
AcDbXrecord
 10
0.0
 20
0.0
 30
0.0
  0
XRECORD
  5
322
102
{ACAD_REACTORS
330
30E
102
}
330
30E
100
AcDbXrecord
 10
0.0
 20
0.0
 30
0.0
  0
XRECORD
  5
323
102
{ACAD_REACTORS
330
30E
102
}
330
30E
100
AcDbXrecord
 10
0.0
 20
0.0
 30
0.0
  0
XRECORD
  5
320
102
{ACAD_REACTORS
330
30E
102
}
330
30E
100
AcDbXrecord
 10
0.0
 20
0.0
 30
0.0
  0
XRECORD
  5
31D
102
{ACAD_REACTORS
330
30E
102
}
330
30E
100
AcDbXrecord
340
0
  0
XRECORD
  5
31E
102
{ACAD_REACTORS
330
30E
102
}
330
30E
100
AcDbXrecord
 70
     0
  0
XRECORD
  5
312
102
{ACAD_REACTORS
330
30E
102
}
330
30E
100
AcDbXrecord
  1

  0
XRECORD
  5
30F
102
{ACAD_REACTORS
330
30E
102
}
330
30E
100
AcDbXrecord
 90
        1
  0
XRECORD
  5
310
102
{ACAD_REACTORS
330
30E
102
}
330
30E
100
AcDbXrecord
 90
       70
  0
XRECORD
  5
328
102
{ACAD_REACTORS
330
30E
102
}
330
30E
100
AcDbXrecord
340
0
  0
XRECORD
  5
32E
102
{ACAD_REACTORS
330
30E
102
}
330
30E
100
AcDbXrecord
 10
0.0
 20
0.0
 30
0.0
  0
XRECORD
  5
32A
102
{ACAD_REACTORS
330
30E
102
}
330
30E
100
AcDbXrecord
 10
0.0
 20
0.0
 30
0.0
  0
XRECORD
  5
32D
102
{ACAD_REACTORS
330
30E
102
}
330
30E
100
AcDbXrecord
 10
0.0
 20
0.0
 30
0.0
  0
XRECORD
  5
32B
102
{ACAD_REACTORS
330
30E
102
}
330
30E
100
AcDbXrecord
 10
0.0
 20
0.0
 30
0.0
  0
XRECORD
  5
32C
102
{ACAD_REACTORS
330
30E
102
}
330
30E
100
AcDbXrecord
 10
0.0
 20
0.0
 30
0.0
  0
XRECORD
  5
329
102
{ACAD_REACTORS
330
30E
102
}
330
30E
100
AcDbXrecord
 10
0.0
 20
0.0
 30
0.0
  0
XRECORD
  5
326
102
{ACAD_REACTORS
330
30E
102
}
330
30E
100
AcDbXrecord
340
0
  0
XRECORD
  5
327
102
{ACAD_REACTORS
330
30E
102
}
330
30E
100
AcDbXrecord
 70
     0
  0
XRECORD
  5
31A
102
{ACAD_REACTORS
330
30E
102
}
330
30E
100
AcDbXrecord
  1
{E0CC9915-35D0-427B-951C-118B13CC47C5}
  0
DICTIONARYVAR
  5
18A
102
{ACAD_REACTORS
330
189
102
}
330
189
100
DictionaryVariables
280
     0
  1
1
  0
ENDSEC
  0
EOF
