  0
SECTION
  2
HEADER
  9
$ACADVER
  1
AC1014
  9
$ACADMAINTVER
 70
     9
  9
$DWGCODEPAGE
  3
ANSI_1252
  9
$INSBASE
 10
17.20453011530494
 20
-5.903864930536757
 30
0.0
  9
$EXTMIN
 10
4.153072066191715
 20
-12.84176310904026
 30
0.0
  9
$EXTMAX
 10
30.25598816441818
 20
0.3461350694632443
 30
0.0
  9
$LIMMIN
 10
0.0
 20
0.0
  9
$LIMMAX
 10
36.0
 20
36.0
  9
$ORTHOMODE
 70
     1
  9
$REGENMODE
 70
     1
  9
$FILLMODE
 70
     1
  9
$QTEXTMODE
 70
     0
  9
$MIRRTEXT
 70
     1
  9
$DRAGMODE
 70
     0
  9
$LTSCALE
 40
1.0
  9
$OSMODE
 70
    37
  9
$ATTMODE
 70
     1
  9
$TEXTSIZE
 40
0.2
  9
$TRACEWID
 40
0.05
  9
$TEXTSTYLE
  7
STANDARD
  9
$CLAYER
  8
0
  9
$CELTYPE
  6
BYLAYER
  9
$CECOLOR
 62
   256
  9
$CELTSCALE
 40
1.0
  9
$DELOBJ
 70
     1
  9
$DISPSILH
 70
     0
  9
$DIMSCALE
 40
1.0
  9
$DIMASZ
 40
0.125
  9
$DIMEXO
 40
0.0625
  9
$DIMDLI
 40
0.38
  9
$DIMRND
 40
0.0
  9
$DIMDLE
 40
0.0
  9
$DIMEXE
 40
0.18
  9
$DIMTP
 40
0.0
  9
$DIMTM
 40
0.0
  9
$DIMTXT
 40
0.125
  9
$DIMCEN
 40
0.1875
  9
$DIMTSZ
 40
0.125
  9
$DIMTOL
 70
     0
  9
$DIMLIM
 70
     0
  9
$DIMTIH
 70
     0
  9
$DIMTOH
 70
     0
  9
$DIMSE1
 70
     0
  9
$DIMSE2
 70
     0
  9
$DIMTAD
 70
     0
  9
$DIMZIN
 70
     3
  9
$DIMBLK
  1

  9
$DIMASO
 70
     1
  9
$DIMSHO
 70
     1
  9
$DIMPOST
  1

  9
$DIMAPOST
  1

  9
$DIMALT
 70
     0
  9
$DIMALTD
 70
     1
  9
$DIMALTF
 40
25.4
  9
$DIMLFAC
 40
1.0
  9
$DIMTOFL
 70
     0
  9
$DIMTVP
 40
0.0
  9
$DIMTIX
 70
     0
  9
$DIMSOXD
 70
     0
  9
$DIMSAH
 70
     0
  9
$DIMBLK1
  1

  9
$DIMBLK2
  1

  9
$DIMSTYLE
  2
STANDARD
  9
$DIMCLRD
 70
     0
  9
$DIMCLRE
 70
     0
  9
$DIMCLRT
 70
     0
  9
$DIMTFAC
 40
1.0
  9
$DIMGAP
 40
0.125
  9
$DIMJUST
 70
     0
  9
$DIMSD1
 70
     0
  9
$DIMSD2
 70
     0
  9
$DIMTOLJ
 70
     1
  9
$DIMTZIN
 70
     3
  9
$DIMALTZ
 70
     3
  9
$DIMALTTZ
 70
     3
  9
$DIMFIT
 70
     5
  9
$DIMUPT
 70
     0
  9
$DIMUNIT
 70
     5
  9
$DIMDEC
 70
     4
  9
$DIMTDEC
 70
     4
  9
$DIMALTU
 70
     5
  9
$DIMALTTD
 70
     1
  9
$DIMTXSTY
  7
STANDARD
  9
$DIMAUNIT
 70
     0
  9
$LUNITS
 70
     5
  9
$LUPREC
 70
     4
  9
$SKETCHINC
 40
0.1
  9
$FILLETRAD
 40
0.187
  9
$AUNITS
 70
     0
  9
$AUPREC
 70
     0
  9
$MENU
  1
acad
  9
$ELEVATION
 40
0.0
  9
$PELEVATION
 40
0.0
  9
$THICKNESS
 40
0.0
  9
$LIMCHECK
 70
     0
  9
$BLIPMODE
 70
     0
  9
$CHAMFERA
 40
0.0
  9
$CHAMFERB
 40
0.0
  9
$CHAMFERC
 40
0.0
  9
$CHAMFERD
 40
0.0
  9
$SKPOLY
 70
     0
  9
$TDCREATE
 40
2450406.482602234
  9
$TDUPDATE
 40
2452297.079155266
  9
$TDINDWG
 40
0.0422771991
  9
$TDUSRTIMER
 40
0.0422771991
  9
$USRTIMER
 70
     1
  9
$ANGBASE
 50
0.0
  9
$ANGDIR
 70
     0
  9
$PDMODE
 70
     0
  9
$PDSIZE
 40
0.0
  9
$PLINEWID
 40
0.0
  9
$COORDS
 70
     2
  9
$SPLFRAME
 70
     0
  9
$SPLINETYPE
 70
     6
  9
$SPLINESEGS
 70
     8
  9
$ATTDIA
 70
     0
  9
$ATTREQ
 70
     1
  9
$HANDLING
 70
 22529
  9
$HANDSEED
  5
2F0
  9
$SURFTAB1
 70
     6
  9
$SURFTAB2
 70
     6
  9
$SURFTYPE
 70
     6
  9
$SURFU
 70
     6
  9
$SURFV
 70
     6
  9
$UCSNAME
  2

  9
$UCSORG
 10
0.0
 20
0.0
 30
0.0
  9
$UCSXDIR
 10
1.0
 20
0.0
 30
0.0
  9
$UCSYDIR
 10
0.0
 20
1.0
 30
0.0
  9
$PUCSNAME
  2

  9
$PUCSORG
 10
0.0
 20
0.0
 30
0.0
  9
$PUCSXDIR
 10
1.0
 20
0.0
 30
0.0
  9
$PUCSYDIR
 10
0.0
 20
1.0
 30
0.0
  9
$USERI1
 70
     0
  9
$USERI2
 70
     0
  9
$USERI3
 70
     0
  9
$USERI4
 70
     0
  9
$USERI5
 70
     0
  9
$USERR1
 40
0.0
  9
$USERR2
 40
0.0
  9
$USERR3
 40
0.0
  9
$USERR4
 40
0.0
  9
$USERR5
 40
0.0
  9
$WORLDVIEW
 70
     1
  9
$SHADEDGE
 70
     3
  9
$SHADEDIF
 70
    70
  9
$TILEMODE
 70
     1
  9
$MAXACTVP
 70
    15
  9
$PINSBASE
 10
0.0008545024320483
 20
1.750284242913068
 30
0.0
  9
$PLIMCHECK
 70
     0
  9
$PEXTMIN
 10
1.000000000000000E+20
 20
1.000000000000000E+20
 30
1.000000000000000E+20
  9
$PEXTMAX
 10
-1.000000000000000E+20
 20
-1.000000000000000E+20
 30
-1.000000000000000E+20
  9
$PLIMMIN
 10
0.0
 20
0.0
  9
$PLIMMAX
 10
12.0
 20
9.0
  9
$UNITMODE
 70
     0
  9
$VISRETAIN
 70
     0
  9
$PLINEGEN
 70
     0
  9
$PSLTSCALE
 70
     1
  9
$TREEDEPTH
 70
  3020
  9
$PICKSTYLE
 70
     1
  9
$CMLSTYLE
  2
STANDARD
  9
$CMLJUST
 70
     0
  9
$CMLSCALE
 40
1.0
  9
$PROXYGRAPHICS
 70
     1
  9
$MEASUREMENT
 70
     0
  0
ENDSEC
  0
SECTION
  2
CLASSES
  0
CLASS
  1
ACDBDICTIONARYWDFLT
  2
AcDbDictionaryWithDefault
  3
AutoCAD 2000
 90
        0
280
     0
281
     0
  0
CLASS
  1
ACDBPLACEHOLDER
  2
AcDbPlaceHolder
  3
AutoCAD 2000
 90
        0
280
     0
281
     0
  0
CLASS
  1
LAYOUT
  2
AcDbLayout
  3
AutoCAD 2000
 90
        0
280
     0
281
     0
  0
CLASS
  1
DICTIONARYVAR
  2
AcDbDictionaryVar
  3
AutoCAD 2000
 90
        0
280
     0
281
     0
  0
CLASS
  1
LONG_TRANSACTION
  2
AcDbLongTransaction
  3
AutoCAD 2000
 90
        0
280
     0
281
     0
  0
CLASS
  1
LWPOLYLINE
  2
AcDbPolyline
  3
AutoCAD 2000
 90
        0
280
     0
281
     1
  0
CLASS
  1
HATCH
  2
AcDbHatch
  3
AutoCAD 2000
 90
        0
280
     0
281
     1
  0
CLASS
  1
XRECORD
  2
AcDbXrecord
  3
AutoCAD 2000
 90
        0
280
     0
281
     0
  0
CLASS
  1
LONG_TRANSACTION
  2
AcDbLongTransaction
  3
AutoCAD 2000
 90
        0
280
     0
281
     0
  0
CLASS
  1
LWPOLYLINE
  2
AcDbPolyline
  3
AutoCAD 2000
 90
        0
280
     0
281
     1
  0
CLASS
  1
HATCH
  2
AcDbHatch
  3
AutoCAD 2000
 90
        0
280
     0
281
     1
  0
CLASS
  1
XRECORD
  2
AcDbXrecord
  3
AutoCAD 2000
 90
        0
280
     0
281
     0
  0
CLASS
  1
LONG_TRANSACTION
  2
AcDbLongTransaction
  3
AutoCAD 2000
 90
        0
280
     0
281
     0
  0
CLASS
  1
LWPOLYLINE
  2
AcDbPolyline
  3
AutoCAD 2000
 90
        0
280
     0
281
     1
  0
CLASS
  1
HATCH
  2
AcDbHatch
  3
AutoCAD 2000
 90
        0
280
     0
281
     1
  0
CLASS
  1
XRECORD
  2
AcDbXrecord
  3
AutoCAD 2000
 90
        0
280
     0
281
     0
  0
CLASS
  1
LONG_TRANSACTION
  2
AcDbLongTransaction
  3
AutoCAD 2000
 90
        0
280
     0
281
     0
  0
CLASS
  1
LWPOLYLINE
  2
AcDbPolyline
  3
AutoCAD 2000
 90
        0
280
     0
281
     1
  0
CLASS
  1
HATCH
  2
AcDbHatch
  3
AutoCAD 2000
 90
        0
280
     0
281
     1
  0
CLASS
  1
XRECORD
  2
AcDbXrecord
  3
AutoCAD 2000
 90
        0
280
     0
281
     0
  0
CLASS
  1
LONG_TRANSACTION
  2
AcDbLongTransaction
  3
AutoCAD 2000
 90
        0
280
     0
281
     0
  0
CLASS
  1
LWPOLYLINE
  2
AcDbPolyline
  3
AutoCAD 2000
 90
        0
280
     0
281
     1
  0
CLASS
  1
HATCH
  2
AcDbHatch
  3
AutoCAD 2000
 90
        0
280
     0
281
     1
  0
CLASS
  1
XRECORD
  2
AcDbXrecord
  3
AutoCAD 2000
 90
        0
280
     0
281
     0
  0
CLASS
  1
LONG_TRANSACTION
  2
AcDbLongTransaction
  3
AutoCAD 2000
 90
        0
280
     0
281
     0
  0
CLASS
  1
LWPOLYLINE
  2
AcDbPolyline
  3
AutoCAD 2000
 90
        0
280
     0
281
     1
  0
CLASS
  1
HATCH
  2
AcDbHatch
  3
AutoCAD 2000
 90
        0
280
     0
281
     1
  0
CLASS
  1
XRECORD
  2
AcDbXrecord
  3
AutoCAD 2000
 90
        0
280
     0
281
     0
  0
ENDSEC
  0
SECTION
  2
TABLES
  0
TABLE
  2
VPORT
  5
8
330
0
100
AcDbSymbolTable
 70
     2
  0
VPORT
  5
2CC
330
8
100
AcDbSymbolTableRecord
100
AcDbViewportTableRecord
  2
*ACTIVE
 70
     0
 10
0.0
 20
0.0
 11
1.0
 21
1.0
 12
17.22593439789997
 22
-6.248101713926013
 13
0.0
 23
0.0
 14
0.5740882589684922
 24
0.5740882589684922
 15
0.5
 25
0.5
 16
0.0
 26
0.0
 36
1.0
 17
0.0
 27
0.0
 37
0.0
 40
16.7294315644493
 41
1.570528967254408
 42
50.0
 43
0.0
 44
0.0
 50
0.0
 51
0.0
 71
     0
 72
   100
 73
     1
 74
     0
 75
     0
 76
     0
 77
     0
 78
     0
  0
ENDTAB
  0
TABLE
  2
LTYPE
  5
5
330
0
100
AcDbSymbolTable
 70
     2
  0
LTYPE
  5
13
330
5
100
AcDbSymbolTableRecord
100
AcDbLinetypeTableRecord
  2
BYBLOCK
 70
     0
  3

 72
    65
 73
     0
 40
0.0
  0
LTYPE
  5
14
330
5
100
AcDbSymbolTableRecord
100
AcDbLinetypeTableRecord
  2
BYLAYER
 70
     0
  3

 72
    65
 73
     0
 40
0.0
  0
LTYPE
  5
15
330
5
100
AcDbSymbolTableRecord
100
AcDbLinetypeTableRecord
  2
CONTINUOUS
 70
     0
  3
Solid line
 72
    65
 73
     0
 40
0.0
  0
LTYPE
  5
8C
330
5
100
AcDbSymbolTableRecord
100
AcDbLinetypeTableRecord
  2
HIDDEN2
 70
     0
  3
_ _ _ _ _ _ _ _ _ _ _ _ _ _ _ _ _ _ _ _ _ _ _ _
 72
    65
 73
     2
 40
0.1875
 49
0.125
 74
     0
 49
-0.0625
 74
     0
  0
ENDTAB
  0
TABLE
  2
LAYER
  5
2
330
0
100
AcDbSymbolTable
 70
     5
  0
LAYER
  5
10
330
2
100
AcDbSymbolTableRecord
100
AcDbLayerTableRecord
  2
0
 70
     0
 62
     7
  6
CONTINUOUS
  0
LAYER
  5
90
330
2
100
AcDbSymbolTableRecord
100
AcDbLayerTableRecord
  2
ADP1DETAIL
 70
     0
 62
     7
  6
CONTINUOUS
  0
LAYER
  5
92
330
2
100
AcDbSymbolTableRecord
100
AcDbLayerTableRecord
  2
DEFPOINTS
 70
     0
 62
     7
  6
CONTINUOUS
  0
LAYER
  5
93
330
2
100
AcDbSymbolTableRecord
100
AcDbLayerTableRecord
  2
ADPDIM
 70
     0
 62
     3
  6
CONTINUOUS
  0
LAYER
  5
95
330
2
100
AcDbSymbolTableRecord
100
AcDbLayerTableRecord
  2
ADP2DETAIL
 70
     0
 62
     5
  6
CONTINUOUS
  0
ENDTAB
  0
TABLE
  2
STYLE
  5
3
330
0
100
AcDbSymbolTable
 70
     2
  0
STYLE
  5
11
330
3
100
AcDbSymbolTableRecord
100
AcDbTextStyleTableRecord
  2
STANDARD
 70
     0
 40
0.0
 41
1.0
 50
0.0
 71
     0
 42
0.2
  3
txt
  4

  0
STYLE
  5
FF
330
3
100
AcDbSymbolTableRecord
100
AcDbTextStyleTableRecord
  2
ARIAL_WIDE
 70
     0
 40
0.0
 41
1.25
 50
0.0
 71
     0
 42
0.2
  3
ARIAL.TTF
  4

1001
ACAD
1000
Arial
1071
       34
  0
ENDTAB
  0
TABLE
  2
VIEW
  5
6
330
0
100
AcDbSymbolTable
 70
     0
  0
ENDTAB
  0
TABLE
  2
UCS
  5
7
330
0
100
AcDbSymbolTable
 70
     0
  0
ENDTAB
  0
TABLE
  2
APPID
  5
9
330
0
100
AcDbSymbolTable
 70
     1
  0
APPID
  5
12
330
9
100
AcDbSymbolTableRecord
100
AcDbRegAppTableRecord
  2
ACAD
 70
     0
  0
ENDTAB
  0
TABLE
  2
DIMSTYLE
  5
A
330
0
100
AcDbSymbolTable
 70
     1
  0
DIMSTYLE
105
FD
330
A
100
AcDbSymbolTableRecord
100
AcDbDimStyleTableRecord
  2
STANDARD
 70
     0
  3

  4

  5

  6

  7

 40
1.0
 41
0.18
 42
0.0625
 43
0.38
 44
0.18
 45
0.0
 46
0.0
 47
0.0
 48
0.0
140
0.18
141
0.09
142
0.0
143
25.4
144
1.0
145
0.0
146
1.0
147
0.09
 71
     0
 72
     0
 73
     1
 74
     1
 75
     0
 76
     0
 77
     0
 78
     0
170
     0
171
     2
172
     0
173
     0
174
     0
175
     0
176
     0
177
     0
178
     0
270
     2
271
     4
272
     4
273
     2
274
     2
340
11
275
     0
280
     0
281
     0
282
     0
283
     1
284
     0
285
     0
286
     0
287
     3
288
     0
  0
ENDTAB
  0
TABLE
  2
BLOCK_RECORD
  5
1
330
0
100
AcDbSymbolTable
 70
     5
  0
BLOCK_RECORD
  5
1E
102
{ACAD_XDICTIONARY
360
13C
102
}
330
1
100
AcDbSymbolTableRecord
100
AcDbBlockTableRecord
  2
*MODEL_SPACE
  0
BLOCK_RECORD
  5
1A
102
{ACAD_XDICTIONARY
360
13E
102
}
330
1
100
AcDbSymbolTableRecord
100
AcDbBlockTableRecord
  2
*PAPER_SPACE
  0
BLOCK_RECORD
  5
74
330
1
100
AcDbSymbolTableRecord
100
AcDbBlockTableRecord
  2
*D0
  0
BLOCK_RECORD
  5
75
330
1
100
AcDbSymbolTableRecord
100
AcDbBlockTableRecord
  2
*D1
  0
BLOCK_RECORD
  5
76
330
1
100
AcDbSymbolTableRecord
100
AcDbBlockTableRecord
  2
*D2
  0
BLOCK_RECORD
  5
77
330
1
100
AcDbSymbolTableRecord
100
AcDbBlockTableRecord
  2
*D3
  0
BLOCK_RECORD
  5
78
330
1
100
AcDbSymbolTableRecord
100
AcDbBlockTableRecord
  2
*D4
  0
ENDTAB
  0
ENDSEC
  0
SECTION
  2
BLOCKS
  0
BLOCK
  5
98
330
1E
100
AcDbEntity
  8
0
100
AcDbBlockBegin
  2
*MODEL_SPACE
 70
     0
 10
0.0
 20
0.0
 30
0.0
  3
*MODEL_SPACE
  1

  0
ENDBLK
  5
99
330
1E
100
AcDbEntity
  8
0
100
AcDbBlockEnd
  0
BLOCK
  5
96
330
1A
100
AcDbEntity
 67
     1
  8
0
100
AcDbBlockBegin
  2
*PAPER_SPACE
 70
     0
 10
0.0
 20
0.0
 30
0.0
  3
*PAPER_SPACE
  1

  0
ENDBLK
  5
97
330
1A
100
AcDbEntity
 67
     1
  8
0
100
AcDbBlockEnd
  0
BLOCK
  5
9B
330
74
100
AcDbEntity
  8
0
100
AcDbBlockBegin
  2
*D0
 70
     1
 10
0.0
 20
0.0
 30
0.0
  3
*D0
  1

  0
LINE
  5
9C
330
74
100
AcDbEntity
  8
0
  6
BYBLOCK
 62
     0
100
AcDbLine
 10
15.45453011530494
 20
-5.966364930536757
 30
0.0
 11
15.45453011530494
 21
-6.722797316482242
 31
0.0
  0
LINE
  5
9D
330
74
100
AcDbEntity
  8
0
  6
BYBLOCK
 62
     0
100
AcDbLine
 10
19.95453011530494
 20
-3.216364930536757
 30
0.0
 11
19.95453011530494
 21
-6.722797316482242
 31
0.0
  0
LINE
  5
9E
330
74
100
AcDbEntity
  8
0
  6
BYBLOCK
 62
     0
100
AcDbLine
 10
15.45453011530494
 20
-6.542797316482243
 30
0.0
 11
17.30869678197161
 21
-6.542797316482243
 31
0.0
  0
LINE
  5
9F
330
74
100
AcDbEntity
  8
0
  6
BYBLOCK
 62
     0
100
AcDbLine
 10
19.95453011530494
 20
-6.542797316482243
 30
0.0
 11
18.10036344863828
 21
-6.542797316482243
 31
0.0
  0
LINE
  5
A0
330
74
100
AcDbEntity
  8
0
  6
BYBLOCK
 62
     0
100
AcDbLine
 10
15.32953011530494
 20
-6.667797316482243
 30
0.0
 11
15.57953011530494
 21
-6.417797316482243
 31
0.0
  0
LINE
  5
A1
330
74
100
AcDbEntity
  8
0
  6
BYBLOCK
 62
     0
100
AcDbLine
 10
19.82953011530494
 20
-6.667797316482243
 30
0.0
 11
20.07953011530494
 21
-6.417797316482243
 31
0.0
  0
TEXT
  5
A2
330
74
100
AcDbEntity
  8
0
  6
BYBLOCK
 62
     0
100
AcDbText
 10
17.43369678197161
 20
-6.605297316482243
 30
0.0
 40
0.125
  1
4 1/2
 72
     1
 11
17.70453011530494
 21
-6.542797316482243
 31
0.0
100
AcDbText
 73
     2
  0
POINT
  5
A4
330
74
100
AcDbEntity
  8
DEFPOINTS
  6
BYBLOCK
 62
     0
100
AcDbPoint
 10
15.45453011530494
 20
-5.903864930536757
 30
0.0
  0
POINT
  5
A5
330
74
100
AcDbEntity
  8
DEFPOINTS
  6
BYBLOCK
 62
     0
100
AcDbPoint
 10
19.95453011530494
 20
-3.153864930536757
 30
0.0
  0
POINT
  5
A6
330
74
100
AcDbEntity
  8
DEFPOINTS
  6
BYBLOCK
 62
     0
100
AcDbPoint
 10
19.95453011530494
 20
-6.542797316482243
 30
0.0
  0
ENDBLK
  5
A7
330
74
100
AcDbEntity
  8
0
100
AcDbBlockEnd
  0
BLOCK
  5
A8
330
75
100
AcDbEntity
  8
0
100
AcDbBlockBegin
  2
*D1
 70
     1
 10
0.0
 20
0.0
 30
0.0
  3
*D1
  1

  0
LINE
  5
A9
330
75
100
AcDbEntity
  8
0
  6
BYBLOCK
 62
     0
100
AcDbLine
 10
16.74920348377431
 20
-10.5431431855146
 30
0.0
 11
16.93596241642322
 21
-10.70933915741477
 31
0.0
  0
LINE
  5
AA
330
75
100
AcDbEntity
  8
0
  6
BYBLOCK
 62
     0
100
AcDbLine
 10
16.57272603149977
 20
-10.55342466588898
 30
0.0
 11
16.92568093604884
 21
-10.53286170514023
 31
0.0
  0
LINE
  5
AB
330
75
100
AcDbEntity
  8
0
  6
BYBLOCK
 62
     0
100
AcDbLine
 10
15.25439095523193
 20
-9.379771382213474
 30
0.0
 11
15.62939095523193
 21
-9.379771382213474
 31
0.0
  0
LINE
  5
AC
330
75
100
AcDbEntity
  8
0
  6
BYBLOCK
 62
     0
100
AcDbLine
 10
15.44189095523193
 20
-9.567271382213474
 30
0.0
 11
15.44189095523193
 21
-9.192271382213474
 31
0.0
  0
TEXT
  5
AD
330
75
100
AcDbEntity
  8
0
  6
BYBLOCK
 62
     0
100
AcDbText
 10
16.98779288977263
 20
-10.83912687652707
 30
0.0
 40
0.125
  1
%%c3 1/2
 50
318.3342520236672
 72
     1
 11
17.27835379294622
 21
-11.01403177256506
 31
0.0
100
AcDbText
 73
     2
  0
POINT
  5
AE
330
75
100
AcDbEntity
  8
DEFPOINTS
  6
BYBLOCK
 62
     0
100
AcDbPoint
 10
16.74920348377431
 20
-10.5431431855146
 30
0.0
  0
POINT
  5
AF
330
75
100
AcDbEntity
  8
DEFPOINTS
  6
BYBLOCK
 62
     0
100
AcDbPoint
 10
14.13457842668955
 20
-8.216399578912342
 30
0.0
  0
ENDBLK
  5
B0
330
75
100
AcDbEntity
  8
0
100
AcDbBlockEnd
  0
BLOCK
  5
B1
330
76
100
AcDbEntity
  8
0
100
AcDbBlockBegin
  2
*D2
 70
     1
 10
0.0
 20
0.0
 30
0.0
  3
*D2
  1

  0
LINE
  5
B2
330
76
100
AcDbEntity
  8
0
  6
BYBLOCK
 62
     0
100
AcDbLine
 10
15.00402760760017
 20
-11.11691339051683
 30
0.0
 11
13.26541342408363
 21
-11.11691339051683
 31
0.0
  0
LINE
  5
B3
330
76
100
AcDbEntity
  8
0
  6
BYBLOCK
 62
     0
100
AcDbLine
 10
15.00402760760017
 20
-9.866913390516838
 30
0.0
 11
13.26541342408363
 21
-9.866913390516836
 31
0.0
  0
LINE
  5
B4
330
76
100
AcDbEntity
  8
0
  6
BYBLOCK
 62
     0
100
AcDbLine
 10
13.44541342408363
 20
-11.11691339051683
 30
0.0
 11
13.44541342408363
 21
-10.86691339051683
 31
0.0
  0
LINE
  5
B5
330
76
100
AcDbEntity
  8
0
  6
BYBLOCK
 62
     0
100
AcDbLine
 10
13.44541342408363
 20
-9.866913390516836
 30
0.0
 11
13.44541342408363
 21
-10.11691339051683
 31
0.0
  0
LINE
  5
B6
330
76
100
AcDbEntity
  8
0
  6
BYBLOCK
 62
     0
100
AcDbLine
 10
13.57041342408363
 20
-11.24191339051683
 30
0.0
 11
13.32041342408363
 21
-10.99191339051683
 31
0.0
  0
LINE
  5
B7
330
76
100
AcDbEntity
  8
0
  6
BYBLOCK
 62
     0
100
AcDbLine
 10
13.57041342408363
 20
-9.991913390516836
 30
0.0
 11
13.32041342408363
 21
-9.741913390516836
 31
0.0
  0
TEXT
  5
B8
330
76
100
AcDbEntity
  8
0
  6
BYBLOCK
 62
     0
100
AcDbText
 10
13.50791342408363
 20
-10.74191339051683
 30
0.0
 40
0.125
  1
1 1/4
 50
90.0
 72
     1
 11
13.44541342408363
 21
-10.49191339051683
 31
0.0
100
AcDbText
 73
     2
  0
POINT
  5
B9
330
76
100
AcDbEntity
  8
DEFPOINTS
  6
BYBLOCK
 62
     0
100
AcDbPoint
 10
15.06652760760017
 20
-11.11691339051683
 30
0.0
  0
POINT
  5
BA
330
76
100
AcDbEntity
  8
DEFPOINTS
  6
BYBLOCK
 62
     0
100
AcDbPoint
 10
15.06652760760017
 20
-9.866913390516838
 30
0.0
  0
POINT
  5
BB
330
76
100
AcDbEntity
  8
DEFPOINTS
  6
BYBLOCK
 62
     0
100
AcDbPoint
 10
13.44541342408363
 20
-9.866913390516836
 30
0.0
  0
ENDBLK
  5
BC
330
76
100
AcDbEntity
  8
0
100
AcDbBlockEnd
  0
BLOCK
  5
BD
330
77
100
AcDbEntity
  8
0
100
AcDbBlockBegin
  2
*D3
 70
     1
 10
0.0
 20
0.0
 30
0.0
  3
*D3
  1

  0
LINE
  5
BE
330
77
100
AcDbEntity
  8
0
  6
BYBLOCK
 62
     0
100
AcDbLine
 10
14.94152760760017
 20
-11.17941339051683
 30
0.0
 11
14.94152760760017
 21
-11.68590656036885
 31
0.0
  0
LINE
  5
BF
330
77
100
AcDbEntity
  8
0
  6
BYBLOCK
 62
     0
100
AcDbLine
 10
15.94152760760017
 20
-11.17941339051683
 30
0.0
 11
15.94152760760017
 21
-11.68590656036885
 31
0.0
  0
LINE
  5
C0
330
77
100
AcDbEntity
  8
0
  6
BYBLOCK
 62
     0
100
AcDbLine
 10
14.94152760760017
 20
-11.50590656036886
 30
0.0
 11
15.29569427426683
 21
-11.50590656036886
 31
0.0
  0
LINE
  5
C1
330
77
100
AcDbEntity
  8
0
  6
BYBLOCK
 62
     0
100
AcDbLine
 10
15.94152760760017
 20
-11.50590656036886
 30
0.0
 11
15.5873609409335
 21
-11.50590656036886
 31
0.0
  0
LINE
  5
C2
330
77
100
AcDbEntity
  8
0
  6
BYBLOCK
 62
     0
100
AcDbLine
 10
14.81652760760017
 20
-11.63090656036886
 30
0.0
 11
15.06652760760017
 21
-11.38090656036885
 31
0.0
  0
LINE
  5
C3
330
77
100
AcDbEntity
  8
0
  6
BYBLOCK
 62
     0
100
AcDbLine
 10
15.81652760760017
 20
-11.63090656036886
 30
0.0
 11
16.06652760760017
 21
-11.38090656036885
 31
0.0
  0
TEXT
  5
C4
330
77
100
AcDbEntity
  8
0
  6
BYBLOCK
 62
     0
100
AcDbText
 10
15.42069427426683
 20
-11.56840656036886
 30
0.0
 40
0.125
  1
1
 72
     1
 11
15.44152760760017
 21
-11.50590656036886
 31
0.0
100
AcDbText
 73
     2
  0
POINT
  5
C5
330
77
100
AcDbEntity
  8
DEFPOINTS
  6
BYBLOCK
 62
     0
100
AcDbPoint
 10
14.94152760760017
 20
-11.11691339051683
 30
0.0
  0
POINT
  5
C6
330
77
100
AcDbEntity
  8
DEFPOINTS
  6
BYBLOCK
 62
     0
100
AcDbPoint
 10
15.94152760760017
 20
-11.11691339051683
 30
0.0
  0
POINT
  5
C7
330
77
100
AcDbEntity
  8
DEFPOINTS
  6
BYBLOCK
 62
     0
100
AcDbPoint
 10
15.94152760760017
 20
-11.50590656036886
 30
0.0
  0
ENDBLK
  5
C8
330
77
100
AcDbEntity
  8
0
100
AcDbBlockEnd
  0
BLOCK
  5
C9
330
78
100
AcDbEntity
  8
0
100
AcDbBlockBegin
  2
*D4
 70
     1
 10
0.0
 20
0.0
 30
0.0
  3
*D4
  1

  0
LINE
  5
CA
330
78
100
AcDbEntity
  8
0
  6
BYBLOCK
 62
     0
100
AcDbLine
 10
16.67547647875274
 20
-8.347105417940055
 30
0.0
 11
16.77232683036475
 21
-8.44395576955207
 31
0.0
  0
LINE
  5
CB
330
78
100
AcDbEntity
  8
0
  6
BYBLOCK
 62
     0
100
AcDbLine
 10
16.76386482640106
 20
-8.258717070291737
 30
0.0
 11
16.86071517801307
 21
-8.355567421903753
 31
0.0
  0
LINE
  5
CC
330
78
100
AcDbEntity
  8
0
  6
BYBLOCK
 62
     0
100
AcDbLine
 10
16.64504760975117
 20
-8.316676548938492
 30
0.0
 11
16.46827091445453
 21
-8.493453244235126
 31
0.0
  0
LINE
  5
CD
330
78
100
AcDbEntity
  8
0
  6
BYBLOCK
 62
     0
100
AcDbLine
 10
16.73343595739949
 20
-8.228288201290174
 30
0.0
 11
16.91021265269613
 21
-8.05151150599354
 31
0.0
  0
LINE
  5
CE
330
78
100
AcDbEntity
  8
0
  6
BYBLOCK
 62
     0
100
AcDbLine
 10
16.64504760975117
 20
-8.493453244235128
 30
0.0
 11
16.64504760975118
 21
-8.139899853641853
 31
0.0
  0
LINE
  5
CF
330
78
100
AcDbEntity
  8
0
  6
BYBLOCK
 62
     0
100
AcDbLine
 10
16.73343595739949
 20
-8.405064896586811
 30
0.0
 11
16.7334359573995
 21
-8.051511505993538
 31
0.0
  0
TEXT
  5
D0
330
78
100
AcDbEntity
  8
0
  6
BYBLOCK
 62
     0
100
AcDbText
 10
17.04279517416861
 20
-8.007317332169382
 30
0.0
 40
0.125
  1
1/8
 50
44.99999999999942
 72
     1
 11
17.10172073926749
 21
-7.860003419422184
 31
0.0
100
AcDbText
 73
     2
  0
POINT
  5
D1
330
78
100
AcDbEntity
  8
DEFPOINTS
  6
BYBLOCK
 62
     0
100
AcDbPoint
 10
16.63128230492858
 20
-8.302911244115895
 30
0.0
  0
POINT
  5
D2
330
78
100
AcDbEntity
  8
DEFPOINTS
  6
BYBLOCK
 62
     0
100
AcDbPoint
 10
16.7196706525769
 20
-8.214522896467578
 30
0.0
  0
POINT
  5
D3
330
78
100
AcDbEntity
  8
DEFPOINTS
  6
BYBLOCK
 62
     0
100
AcDbPoint
 10
16.73343595739949
 20
-8.228288201290174
 30
0.0
  0
ENDBLK
  5
D4
330
78
100
AcDbEntity
  8
0
100
AcDbBlockEnd
  0
ENDSEC
  0
SECTION
  2
ENTITIES
  0
DIMENSION
  5
D5
330
1E
100
AcDbEntity
  8
ADPDIM
100
AcDbDimension
  2
*D2
 10
13.44541342408363
 20
-9.866913390516836
 30
0.0
 11
13.44541342408363
 21
-10.49191339051683
 31
0.0
100
AcDbAlignedDimension
 13
15.06652760760017
 23
-11.11691339051683
 33
0.0
 14
15.06652760760017
 24
-9.866913390516838
 34
0.0
 50
90.0
100
AcDbRotatedDimension
  0
LINE
  5
D6
330
1E
100
AcDbEntity
  8
ADP1DETAIL
100
AcDbLine
 10
13.70453011530494
 20
-5.903864930536757
 30
0.0
 11
13.70453011530494
 21
0.3461350694632443
 31
0.0
  0
LINE
  5
D7
330
1E
100
AcDbEntity
  8
ADP1DETAIL
100
AcDbLine
 10
17.20453011530494
 20
-3.153864930536757
 30
0.0
 11
13.70453011530494
 21
0.3461350694632443
 31
0.0
  0
LINE
  5
D8
330
1E
100
AcDbEntity
  8
ADP1DETAIL
100
AcDbLine
 10
19.95453011530494
 20
0.3461350694632443
 30
0.0
 11
19.95453011530494
 21
-3.153864930536757
 31
0.0
  0
DIMENSION
  5
D9
330
1E
100
AcDbEntity
  8
ADPDIM
100
AcDbDimension
  2
*D1
 10
14.13457842668955
 20
-8.216399578912342
 30
0.0
 11
17.27835379294622
 21
-11.01403177256506
 31
0.0
 70
     3
100
AcDbDiametricDimension
 15
16.74920348377431
 25
-10.5431431855146
 35
0.0
 40
0.0
  0
ARC
  5
DA
330
1E
100
AcDbEntity
  8
ADP1DETAIL
100
AcDbCircle
 10
15.44748033884495
 20
-9.4015372946933
 30
0.0
 40
1.750530642760783
100
AcDbArc
 50
287.8904112745992
 51
252.0075518163339
  0
ARC
  5
DB
330
1E
100
AcDbEntity
  8
ADP1DETAIL
100
AcDbCircle
 10
15.44895109567066
 20
-9.401007269781178
 30
0.0
 40
1.625
100
AcDbArc
 50
294.1308806905601
 51
245.6383853867367
  0
LINE
  5
DC
330
1E
100
AcDbEntity
  8
ADP1DETAIL
100
AcDbLine
 10
14.94602280937298
 20
-11.03792923645003
 30
0.0
 11
14.94602280937298
 21
-10.90169533895154
 31
0.0
  0
LINE
  5
DD
330
1E
100
AcDbEntity
  8
ADP1DETAIL
100
AcDbLine
 10
15.94602280937298
 20
-10.90169533895154
 30
0.0
 11
15.94602280937298
 21
-11.03887310311103
 31
0.0
  0
DIMENSION
  5
DE
330
1E
100
AcDbEntity
  8
ADPDIM
100
AcDbDimension
  2
*D3
 10
15.94152760760017
 20
-11.50590656036886
 30
0.0
 11
15.44152760760017
 21
-11.50590656036886
 31
0.0
100
AcDbAlignedDimension
 13
14.94152760760017
 23
-11.11691339051683
 33
0.0
 14
15.94152760760017
 24
-11.11691339051683
 34
0.0
100
AcDbRotatedDimension
  0
ARC
  5
DF
330
1E
100
AcDbEntity
  8
ADP1DETAIL
100
AcDbCircle
 10
14.91602280937297
 20
-11.03792923645003
 30
0.0
 40
0.03
100
AcDbArc
 50
252.0075518163355
 51
0.0
  0
ARC
  5
E0
330
1E
100
AcDbEntity
  8
ADP1DETAIL
100
AcDbCircle
 10
15.97602280937298
 20
-11.03887310311103
 30
0.0
 40
0.03
100
AcDbArc
 50
180.0
 51
287.8904112745988
  0
LINE
  5
E1
330
1E
100
AcDbEntity
  8
ADP2DETAIL
  6
HIDDEN2
100
AcDbLine
 10
14.95453011530494
 20
-0.903864930536752
 30
0.0
 11
19.95453011530494
 21
-0.9038649305367574
 31
0.0
  0
LINE
  5
E2
330
1E
100
AcDbEntity
  8
ADP2DETAIL
  6
HIDDEN2
100
AcDbLine
 10
19.95453011530494
 20
-1.903864930536757
 30
0.0
 11
15.95453011530494
 21
-1.903864930536757
 31
0.0
  0
DIMENSION
  5
E3
330
1E
100
AcDbEntity
  8
ADPDIM
100
AcDbDimension
  2
*D4
 10
16.73343595739949
 20
-8.228288201290174
 30
0.0
 11
17.10172073926749
 21
-7.860003419422184
 31
0.0
 70
     1
100
AcDbAlignedDimension
 13
16.63128230492858
 23
-8.302911244115895
 33
0.0
 14
16.7196706525769
 24
-8.214522896467578
 34
0.0
  0
DIMENSION
  5
E4
330
1E
100
AcDbEntity
  8
ADPDIM
100
AcDbDimension
  2
*D0
 10
19.95453011530494
 20
-6.542797316482243
 30
0.0
 11
17.70453011530494
 21
-6.542797316482243
 31
0.0
100
AcDbAlignedDimension
 13
15.45453011530494
 23
-5.903864930536757
 33
0.0
 14
19.95453011530494
 24
-3.153864930536757
 34
0.0
100
AcDbRotatedDimension
  0
LINE
  5
E5
330
1E
100
AcDbEntity
  8
ADP1DETAIL
100
AcDbLine
 10
17.20453011530494
 20
-5.903864930536757
 30
0.0
 11
13.70453011530494
 21
-5.903864930536757
 31
0.0
  0
LINE
  5
E6
330
1E
100
AcDbEntity
  8
ADP2DETAIL
  6
HIDDEN2
100
AcDbLine
 10
14.95453011530494
 20
-5.903864930536757
 30
0.0
 11
14.95453011530494
 21
-0.903864930536752
 31
0.0
  0
LINE
  5
E7
330
1E
100
AcDbEntity
  8
ADP2DETAIL
  6
HIDDEN2
100
AcDbLine
 10
15.95453011530494
 20
-1.903864930536757
 30
0.0
 11
15.95453011530494
 21
-5.903864930536757
 31
0.0
  0
LINE
  5
E8
330
1E
100
AcDbEntity
  8
ADP1DETAIL
100
AcDbLine
 10
14.94602280937298
 20
-9.745695338951547
 30
0.0
 11
15.68002280937298
 21
-9.745695338951547
 31
0.0
  0
LINE
  5
E9
330
1E
100
AcDbEntity
  8
ADP1DETAIL
100
AcDbLine
 10
14.96102280937298
 20
-9.870695338951545
 30
0.0
 11
15.44602280937298
 21
-9.870695338951547
 31
0.0
  0
ARC
  5
EA
330
1E
100
AcDbEntity
  8
ADP1DETAIL
100
AcDbCircle
 10
14.96102280937298
 20
-9.885695338951546
 30
0.0
 40
0.015
100
AcDbArc
 50
90.0
 51
180.0
  0
LINE
  5
EB
330
1E
100
AcDbEntity
  8
ADP1DETAIL
100
AcDbLine
 10
14.94602280937298
 20
-10.83969533895154
 30
0.0
 11
14.94602280937298
 21
-9.885695338951546
 31
0.0
  0
LINE
  5
EC
330
1E
100
AcDbEntity
  8
ADP1DETAIL
100
AcDbLine
 10
14.82102280937298
 20
-10.85398881477388
 30
0.0
 11
14.82102280937298
 21
-9.870695338951547
 31
0.0
  0
ARC
  5
ED
330
1E
100
AcDbEntity
  8
ADP1DETAIL
100
AcDbCircle
 10
14.79102280937298
 20
-10.85398881477388
 30
0.0
 40
0.03
100
AcDbArc
 50
245.6383853867366
 51
0.0
  0
LINE
  5
EE
330
1E
100
AcDbEntity
  8
ADP1DETAIL
100
AcDbLine
 10
14.94602280937298
 20
-10.83969533895154
 30
0.0
 11
14.91502280937298
 21
-10.87069533895154
 31
0.0
  0
LINE
  5
EF
330
1E
100
AcDbEntity
  8
ADP1DETAIL
100
AcDbLine
 10
14.91502280937298
 20
-10.87069533895154
 30
0.0
 11
14.94602280937298
 21
-10.90169533895154
 31
0.0
  0
ARC
  5
F0
330
1E
100
AcDbEntity
  8
ADP1DETAIL
100
AcDbCircle
 10
14.94602280937298
 20
-9.870695338951547
 30
0.0
 40
0.125
100
AcDbArc
 50
90.0
 51
180.0
  0
ARC
  5
F1
330
1E
100
AcDbEntity
  8
ADP1DETAIL
100
AcDbCircle
 10
15.94602280937298
 20
-9.870695338951549
 30
0.0
 40
0.125
100
AcDbArc
 50
0.0
 51
90.0
  0
LINE
  5
F2
330
1E
100
AcDbEntity
  8
ADP1DETAIL
100
AcDbLine
 10
15.44602280937298
 20
-9.870695338951547
 30
0.0
 11
15.93102280937298
 21
-9.870695338951547
 31
0.0
  0
LINE
  5
F3
330
1E
100
AcDbEntity
  8
ADP1DETAIL
100
AcDbLine
 10
15.94602280937298
 20
-9.885695338951547
 30
0.0
 11
15.94602280937298
 21
-10.83969533895154
 31
0.0
  0
LINE
  5
F4
330
1E
100
AcDbEntity
  8
ADP1DETAIL
100
AcDbLine
 10
15.94602280937298
 20
-10.83969533895154
 30
0.0
 11
15.97702280937298
 21
-10.87069533895154
 31
0.0
  0
LINE
  5
F5
330
1E
100
AcDbEntity
  8
ADP1DETAIL
100
AcDbLine
 10
15.97702280937298
 20
-10.87069533895154
 30
0.0
 11
15.94602280937298
 21
-10.90169533895154
 31
0.0
  0
LINE
  5
F6
330
1E
100
AcDbEntity
  8
ADP1DETAIL
100
AcDbLine
 10
15.68002280937298
 20
-9.745695338951547
 30
0.0
 11
15.94602280937298
 21
-9.745695338951549
 31
0.0
  0
ARC
  5
F7
330
1E
100
AcDbEntity
  8
ADP1DETAIL
100
AcDbCircle
 10
15.93102280937298
 20
-9.885695338951547
 30
0.0
 40
0.015
100
AcDbArc
 50
0.0
 51
90.0
  0
LINE
  5
F8
330
1E
100
AcDbEntity
  8
ADP1DETAIL
100
AcDbLine
 10
16.07102280937298
 20
-9.870695338951549
 30
0.0
 11
16.07102280937298
 21
-10.85662654699254
 31
0.0
  0
ARC
  5
F9
330
1E
100
AcDbEntity
  8
ADP1DETAIL
100
AcDbCircle
 10
16.10102280937298
 20
-10.85662654699254
 30
0.0
 40
0.03
100
AcDbArc
 50
180.0
 51
294.1308806905592
  0
LINE
  5
FA
330
1E
100
AcDbEntity
  8
ADP1DETAIL
100
AcDbLine
 10
17.20453011530494
 20
-3.153864930536757
 30
0.0
 11
17.20453011530494
 21
-5.903864930536757
 31
0.0
  0
LINE
  5
FB
330
1E
100
AcDbEntity
  8
ADP1DETAIL
100
AcDbLine
 10
19.95453011530494
 20
-3.153864930536757
 30
0.0
 11
17.20453011530494
 21
-3.153864930536757
 31
0.0
  0
LINE
  5
FC
330
1E
100
AcDbEntity
  8
ADP1DETAIL
100
AcDbLine
 10
13.70453011530494
 20
0.3461350694632443
 30
0.0
 11
19.95453011530494
 21
0.3461350694632443
 31
0.0
  0
TEXT
  5
100
330
1E
100
AcDbEntity
  8
ADPDIM
100
AcDbText
 10
4.153072066191715
 20
-12.76775219498842
 30
0.0
 40
0.25
  1
J U L I U S  B L U M  &  C O . ,  I N C .      ( 8 0 0 )  5 2 6 - 6 2 9 3        W W W . J U L I U S B L U M . C O M        P A R T  N o .  1 1 1 4
 41
1.25
  7
ARIAL_WIDE
 72
     1
 11
17.20453011530494
 21
-12.51775219498842
 31
0.0
100
AcDbText
 73
     3
  0
ENDSEC
  0
SECTION
  2
OBJECTS
  0
DICTIONARY
  5
C
330
0
100
AcDbDictionary
  3
ACAD_GROUP
350
D
  3
ACAD_LAYOUT
350
19
  3
ACAD_MLINESTYLE
350
16
  3
ACAD_PLOTSETTINGS
350
18
  3
ACAD_PLOTSTYLENAME
350
E
  3
ACDBHEADERROUNDTRIPXREC
350
2CD
  3
ACDBVARIABLEDICTIONARY
350
171
  0
DICTIONARY
  5
13C
330
1E
100
AcDbDictionary
280
     1
  3
ACAD_LAYOUTSELFREF
360
2EF
  0
DICTIONARY
  5
13E
330
1A
100
AcDbDictionary
280
     1
  3
ACAD_LAYOUTSELFREF
360
2EE
  0
DICTIONARY
  5
D
102
{ACAD_REACTORS
330
C
102
}
330
C
100
AcDbDictionary
  0
DICTIONARY
  5
19
102
{ACAD_REACTORS
330
C
102
}
330
C
100
AcDbDictionary
  0
DICTIONARY
  5
16
102
{ACAD_REACTORS
330
C
102
}
330
C
100
AcDbDictionary
  3
STANDARD
350
17
  0
DICTIONARY
  5
18
102
{ACAD_REACTORS
330
C
102
}
330
C
100
AcDbDictionary
  0
ACDBDICTIONARYWDFLT
  5
E
102
{ACAD_REACTORS
330
C
102
}
330
C
100
AcDbDictionary
281
     1
  3
Normal
350
F
100
AcDbDictionaryWithDefault
340
F
  0
DICTIONARY
  5
2CD
102
{ACAD_REACTORS
330
C
102
}
330
C
100
AcDbDictionary
  3
CEPSNTYPE
350
2D7
  3
DIMSTYLEDATA
350
2DB
  3
FINGERPRINTGUID
350
2D8
  3
HYPERLINKBASE
350
2D0
  3
INSUNITS
350
2D6
  3
LAYOUTDICT
350
2D2
  3
LWETCUNION
350
2D5
  3
PLOTSETDICT
350
2D3
  3
PLOTSTYLNAMDICT
350
2D4
  3
PSVPSCALE
350
2DA
  3
PUCSBASE
350
2DE
  3
PUCSORGBACK
350
2E4
  3
PUCSORGBOTTOM
350
2E0
  3
PUCSORGFRONT
350
2E3
  3
PUCSORGLEFT
350
2E1
  3
PUCSORGRIGHT
350
2E2
  3
PUCSORGTOP
350
2DF
  3
PUCSORTHOREF
350
2DC
  3
PUCSORTHOVIEW
350
2DD
  3
STYLESHEET
350
2D1
  3
TSTACKALIGN
350
2CE
  3
TSTACKSIZE
350
2CF
  3
UCSBASE
350
2E7
  3
UCSORGBACK
350
2ED
  3
UCSORGBOTTOM
350
2E9
  3
UCSORGFRONT
350
2EC
  3
UCSORGLEFT
350
2EA
  3
UCSORGRIGHT
350
2EB
  3
UCSORGTOP
350
2E8
  3
UCSORTHOREF
350
2E5
  3
UCSORTHOVIEW
350
2E6
  3
VERSIONGUID
350
2D9
  0
DICTIONARY
  5
171
102
{ACAD_REACTORS
330
C
102
}
330
C
100
AcDbDictionary
  3
DIMASSOC
350
173
  3
HIDETEXT
350
172
  0
XRECORD
  5
2EF
102
{ACAD_REACTORS
330
13C
102
}
330
13C
100
AcDbXrecord
340
1E
  0
XRECORD
  5
2EE
102
{ACAD_REACTORS
330
13E
102
}
330
13E
100
AcDbXrecord
340
1A
  0
MLINESTYLE
  5
17
102
{ACAD_REACTORS
330
16
102
}
330
16
100
AcDbMlineStyle
  2
STANDARD
 70
     0
  3

 62
   256
 51
90.0
 52
90.0
 71
     2
 49
0.5
 62
   256
  6
BYLAYER
 49
-0.5
 62
   256
  6
BYLAYER
  0
ACDBPLACEHOLDER
  5
F
102
{ACAD_REACTORS
330
E
102
}
330
E
100
AcDbPlaceHolder
280
     0
  0
XRECORD
  5
2D7
102
{ACAD_REACTORS
330
2CD
102
}
330
2CD
100
AcDbXrecord
 90
        0
  0
XRECORD
  5
2DB
102
{ACAD_REACTORS
330
2CD
102
}
330
2CD
100
AcDbXrecord
1000
DSTYLE
1002
{
1070
   277
 70
     5
1070
   279
 70
     2
1002
}
  0
XRECORD
  5
2D8
102
{ACAD_REACTORS
330
2CD
102
}
330
2CD
100
AcDbXrecord
  1
{0331BF23-6ADE-4C59-B6F7-1B03C42D7A0F}
  0
XRECORD
  5
2D0
102
{ACAD_REACTORS
330
2CD
102
}
330
2CD
100
AcDbXrecord
  1

  0
XRECORD
  5
2D6
102
{ACAD_REACTORS
330
2CD
102
}
330
2CD
100
AcDbXrecord
 90
        0
  0
XRECORD
  5
2D2
102
{ACAD_REACTORS
330
2CD
102
}
330
2CD
100
AcDbXrecord
340
19
  0
XRECORD
  5
2D5
102
{ACAD_REACTORS
330
2CD
102
}
330
2CD
100
AcDbXrecord
 90
    14877
  0
XRECORD
  5
2D3
102
{ACAD_REACTORS
330
2CD
102
}
330
2CD
100
AcDbXrecord
340
18
  0
XRECORD
  5
2D4
102
{ACAD_REACTORS
330
2CD
102
}
330
2CD
100
AcDbXrecord
340
E
  0
XRECORD
  5
2DA
102
{ACAD_REACTORS
330
2CD
102
}
330
2CD
100
AcDbXrecord
 40
0.0
  0
XRECORD
  5
2DE
102
{ACAD_REACTORS
330
2CD
102
}
330
2CD
100
AcDbXrecord
340
0
  0
XRECORD
  5
2E4
102
{ACAD_REACTORS
330
2CD
102
}
330
2CD
100
AcDbXrecord
 10
0.0
 20
0.0
 30
0.0
  0
XRECORD
  5
2E0
102
{ACAD_REACTORS
330
2CD
102
}
330
2CD
100
AcDbXrecord
 10
0.0
 20
0.0
 30
0.0
  0
XRECORD
  5
2E3
102
{ACAD_REACTORS
330
2CD
102
}
330
2CD
100
AcDbXrecord
 10
0.0
 20
0.0
 30
0.0
  0
XRECORD
  5
2E1
102
{ACAD_REACTORS
330
2CD
102
}
330
2CD
100
AcDbXrecord
 10
0.0
 20
0.0
 30
0.0
  0
XRECORD
  5
2E2
102
{ACAD_REACTORS
330
2CD
102
}
330
2CD
100
AcDbXrecord
 10
0.0
 20
0.0
 30
0.0
  0
XRECORD
  5
2DF
102
{ACAD_REACTORS
330
2CD
102
}
330
2CD
100
AcDbXrecord
 10
0.0
 20
0.0
 30
0.0
  0
XRECORD
  5
2DC
102
{ACAD_REACTORS
330
2CD
102
}
330
2CD
100
AcDbXrecord
340
0
  0
XRECORD
  5
2DD
102
{ACAD_REACTORS
330
2CD
102
}
330
2CD
100
AcDbXrecord
 70
     0
  0
XRECORD
  5
2D1
102
{ACAD_REACTORS
330
2CD
102
}
330
2CD
100
AcDbXrecord
  1

  0
XRECORD
  5
2CE
102
{ACAD_REACTORS
330
2CD
102
}
330
2CD
100
AcDbXrecord
 90
        1
  0
XRECORD
  5
2CF
102
{ACAD_REACTORS
330
2CD
102
}
330
2CD
100
AcDbXrecord
 90
       70
  0
XRECORD
  5
2E7
102
{ACAD_REACTORS
330
2CD
102
}
330
2CD
100
AcDbXrecord
340
0
  0
XRECORD
  5
2ED
102
{ACAD_REACTORS
330
2CD
102
}
330
2CD
100
AcDbXrecord
 10
0.0
 20
0.0
 30
0.0
  0
XRECORD
  5
2E9
102
{ACAD_REACTORS
330
2CD
102
}
330
2CD
100
AcDbXrecord
 10
0.0
 20
0.0
 30
0.0
  0
XRECORD
  5
2EC
102
{ACAD_REACTORS
330
2CD
102
}
330
2CD
100
AcDbXrecord
 10
0.0
 20
0.0
 30
0.0
  0
XRECORD
  5
2EA
102
{ACAD_REACTORS
330
2CD
102
}
330
2CD
100
AcDbXrecord
 10
0.0
 20
0.0
 30
0.0
  0
XRECORD
  5
2EB
102
{ACAD_REACTORS
330
2CD
102
}
330
2CD
100
AcDbXrecord
 10
0.0
 20
0.0
 30
0.0
  0
XRECORD
  5
2E8
102
{ACAD_REACTORS
330
2CD
102
}
330
2CD
100
AcDbXrecord
 10
0.0
 20
0.0
 30
0.0
  0
XRECORD
  5
2E5
102
{ACAD_REACTORS
330
2CD
102
}
330
2CD
100
AcDbXrecord
340
0
  0
XRECORD
  5
2E6
102
{ACAD_REACTORS
330
2CD
102
}
330
2CD
100
AcDbXrecord
 70
     0
  0
XRECORD
  5
2D9
102
{ACAD_REACTORS
330
2CD
102
}
330
2CD
100
AcDbXrecord
  1
{D5574DB4-19EC-44B1-9669-64E053CC00BD}
  0
DICTIONARYVAR
  5
173
102
{ACAD_REACTORS
330
171
102
}
330
171
100
DictionaryVariables
280
     0
  1
2
  0
DICTIONARYVAR
  5
172
102
{ACAD_REACTORS
330
171
102
}
330
171
100
DictionaryVariables
280
     0
  1
1
  0
ENDSEC
  0
EOF
