  0
SECTION
  2
HEADER
  9
$ACADVER
  1
AC1015
  9
$ACADMAINTVER
 70
    18
  9
$DWGCODEPAGE
  3
ANSI_1252
  9
$INSBASE
 10
0.0
 20
0.0
 30
0.0
  9
$EXTMIN
 10
1.000000000000000E+20
 20
1.000000000000000E+20
 30
1.000000000000000E+20
  9
$EXTMAX
 10
0.0
 20
0.0
 30
0.0
  9
$LIMMIN
 10
-123.5686848958333
 20
-79.91656901041666
  9
$LIMMAX
 10
111.9270182291666
 20
0.0
  9
$ORTHOMODE
 70
     0
  9
$REGENMODE
 70
     1
  9
$FILLMODE
 70
     1
  9
$QTEXTMODE
 70
     0
  9
$MIRRTEXT
 70
     1
  9
$LTSCALE
 40
1.0
  9
$ATTMODE
 70
     1
  9
$TEXTSIZE
 40
0.0
  9
$TRACEWID
 40
0.05
  9
$TEXTSTYLE
  7
Standard
  9
$CLAYER
  8
0
  9
$CELTYPE
  6
Continuous
  9
$CECOLOR
 62
   256
  9
$CELTSCALE
 40
1.0
  9
$DISPSILH
 70
     0
  9
$DIMSCALE
 40
1.0
  9
$DIMASZ
 40
0.18
  9
$DIMEXO
 40
0.0625
  9
$DIMDLI
 40
0.38
  9
$DIMRND
 40
0.0
  9
$DIMDLE
 40
0.0
  9
$DIMEXE
 40
0.18
  9
$DIMTP
 40
0.0
  9
$DIMTM
 40
0.0
  9
$DIMTXT
 40
0.18
  9
$DIMCEN
 40
0.09
  9
$DIMTSZ
 40
0.0
  9
$DIMTOL
 70
     0
  9
$DIMLIM
 70
     0
  9
$DIMTIH
 70
     1
  9
$DIMTOH
 70
     1
  9
$DIMSE1
 70
     0
  9
$DIMSE2
 70
     0
  9
$DIMTAD
 70
     0
  9
$DIMZIN
 70
     0
  9
$DIMBLK
  1

  9
$DIMASO
 70
     1
  9
$DIMSHO
 70
     1
  9
$DIMPOST
  1

  9
$DIMAPOST
  1

  9
$DIMALT
 70
     0
  9
$DIMALTD
 70
     2
  9
$DIMALTF
 40
25.4
  9
$DIMLFAC
 40
1.0
  9
$DIMTOFL
 70
     0
  9
$DIMTVP
 40
0.0
  9
$DIMTIX
 70
     0
  9
$DIMSOXD
 70
     0
  9
$DIMSAH
 70
     0
  9
$DIMBLK1
  1

  9
$DIMBLK2
  1

  9
$DIMSTYLE
  2
Standard
  9
$DIMCLRD
 70
     0
  9
$DIMCLRE
 70
     0
  9
$DIMCLRT
 70
     0
  9
$DIMTFAC
 40
1.0
  9
$DIMGAP
 40
0.09
  9
$DIMJUST
 70
     0
  9
$DIMSD1
 70
     0
  9
$DIMSD2
 70
     0
  9
$DIMTOLJ
 70
     1
  9
$DIMTZIN
 70
     0
  9
$DIMALTZ
 70
     0
  9
$DIMALTTZ
 70
     0
  9
$DIMUPT
 70
     0
  9
$DIMDEC
 70
     4
  9
$DIMTDEC
 70
     4
  9
$DIMALTU
 70
     2
  9
$DIMALTTD
 70
     2
  9
$DIMTXSTY
  7
Standard
  9
$DIMAUNIT
 70
     0
  9
$DIMADEC
 70
     0
  9
$DIMALTRND
 40
0.0
  9
$DIMAZIN
 70
     0
  9
$DIMDSEP
 70
     0
  9
$DIMATFIT
 70
     3
  9
$DIMFRAC
 70
     0
  9
$DIMLDRBLK
  1

  9
$DIMLUNIT
 70
     2
  9
$DIMLWD
 70
     0
  9
$DIMLWE
 70
     0
  9
$DIMTMOVE
 70
     0
  9
$LUNITS
 70
     2
  9
$LUPREC
 70
     4
  9
$SKETCHINC
 40
0.1
  9
$FILLETRAD
 40
0.0
  9
$AUNITS
 70
     0
  9
$AUPREC
 70
     0
  9
$MENU
  1
acad
  9
$ELEVATION
 40
0.0
  9
$PELEVATION
 40
0.0
  9
$THICKNESS
 40
0.0
  9
$LIMCHECK
 70
     0
  9
$CHAMFERA
 40
0.0
  9
$CHAMFERB
 40
0.0
  9
$CHAMFERC
 40
0.0
  9
$CHAMFERD
 40
0.0
  9
$SKPOLY
 70
     0
  9
$TDCREATE
 40
2454257.526547847
  9
$TDUCREATE
 40
2454257.693214514
  9
$TDUPDATE
 40
2454263.488099676
  9
$TDUUPDATE
 40
2454263.654766343
  9
$TDINDWG
 40
0.0536022569
  9
$TDUSRTIMER
 40
0.0536022569
  9
$USRTIMER
 70
     1
  9
$ANGBASE
 50
0.0
  9
$ANGDIR
 70
     0
  9
$PDMODE
 70
     0
  9
$PDSIZE
 40
0.0
  9
$PLINEWID
 40
0.0
  9
$SPLFRAME
 70
     0
  9
$SPLINETYPE
 70
     6
  9
$SPLINESEGS
 70
     8
  9
$HANDSEED
  5
D9
  9
$SURFTAB1
 70
     6
  9
$SURFTAB2
 70
     6
  9
$SURFTYPE
 70
     6
  9
$SURFU
 70
     6
  9
$SURFV
 70
     6
  9
$UCSBASE
  2

  9
$UCSNAME
  2

  9
$UCSORG
 10
0.0
 20
0.0
 30
0.0
  9
$UCSXDIR
 10
1.0
 20
0.0
 30
0.0
  9
$UCSYDIR
 10
0.0
 20
1.0
 30
0.0
  9
$UCSORTHOREF
  2

  9
$UCSORTHOVIEW
 70
     0
  9
$UCSORGTOP
 10
0.0
 20
0.0
 30
0.0
  9
$UCSORGBOTTOM
 10
0.0
 20
0.0
 30
0.0
  9
$UCSORGLEFT
 10
0.0
 20
0.0
 30
0.0
  9
$UCSORGRIGHT
 10
0.0
 20
0.0
 30
0.0
  9
$UCSORGFRONT
 10
0.0
 20
0.0
 30
0.0
  9
$UCSORGBACK
 10
0.0
 20
0.0
 30
0.0
  9
$PUCSBASE
  2

  9
$PUCSNAME
  2

  9
$PUCSORG
 10
0.0
 20
0.0
 30
0.0
  9
$PUCSXDIR
 10
1.0
 20
0.0
 30
0.0
  9
$PUCSYDIR
 10
0.0
 20
1.0
 30
0.0
  9
$PUCSORTHOREF
  2

  9
$PUCSORTHOVIEW
 70
     0
  9
$PUCSORGTOP
 10
0.0
 20
0.0
 30
0.0
  9
$PUCSORGBOTTOM
 10
0.0
 20
0.0
 30
0.0
  9
$PUCSORGLEFT
 10
0.0
 20
0.0
 30
0.0
  9
$PUCSORGRIGHT
 10
0.0
 20
0.0
 30
0.0
  9
$PUCSORGFRONT
 10
0.0
 20
0.0
 30
0.0
  9
$PUCSORGBACK
 10
0.0
 20
0.0
 30
0.0
  9
$USERI1
 70
     0
  9
$USERI2
 70
     0
  9
$USERI3
 70
     0
  9
$USERI4
 70
     0
  9
$USERI5
 70
     0
  9
$USERR1
 40
0.0
  9
$USERR2
 40
0.0
  9
$USERR3
 40
0.0
  9
$USERR4
 40
0.0
  9
$USERR5
 40
0.0
  9
$WORLDVIEW
 70
     1
  9
$SHADEDGE
 70
     3
  9
$SHADEDIF
 70
    70
  9
$TILEMODE
 70
     1
  9
$MAXACTVP
 70
    16
  9
$PINSBASE
 10
0.0
 20
0.0
 30
0.0
  9
$PLIMCHECK
 70
     0
  9
$PEXTMIN
 10
1.000000000000000E+20
 20
1.000000000000000E+20
 30
1.000000000000000E+20
  9
$PEXTMAX
 10
-1.000000000000000E+20
 20
-1.000000000000000E+20
 30
-1.000000000000000E+20
  9
$PLIMMIN
 10
0.0
 20
0.0
  9
$PLIMMAX
 10
12.0
 20
9.0
  9
$UNITMODE
 70
     0
  9
$VISRETAIN
 70
     0
  9
$PLINEGEN
 70
     1
  9
$PSLTSCALE
 70
     0
  9
$TREEDEPTH
 70
  3020
  9
$CMLSTYLE
  2
Standard
  9
$CMLJUST
 70
     0
  9
$CMLSCALE
 40
1.0
  9
$PROXYGRAPHICS
 70
     0
  9
$MEASUREMENT
 70
     1
  9
$CELWEIGHT
370
    -1
  9
$ENDCAPS
280
     0
  9
$JOINSTYLE
280
     0
  9
$LWDISPLAY
290
     0
  9
$INSUNITS
 70
     0
  9
$HYPERLINKBASE
  1

  9
$STYLESHEET
  1

  9
$XEDIT
290
     1
  9
$CEPSNTYPE
380
     0
  9
$PSTYLEMODE
290
     1
  9
$FINGERPRINTGUID
  2

  9
$VERSIONGUID
  2
{0A83C885-C384-40EF-9F11-C7264C7F773E}
  9
$EXTNAMES
290
     1
  9
$PSVPSCALE
 40
0.0
  9
$OLESTARTUP
290
     0
  0
ENDSEC
  0
SECTION
  2
CLASSES
  0
CLASS
  1
IMAGE
  2
AcDbRasterImage
  3
ISM
 90
    32895
280
     0
281
     1
  0
CLASS
  1
DICTIONARYVAR
  2
AcDbDictionaryVar
  3
ObjectDBX Classes
 90
        0
280
     0
281
     0
  0
CLASS
  1
RASTERVARIABLES
  2
AcDbRasterVariables
  3
ISM
 90
    32768
280
     0
281
     0
  0
CLASS
  1
IMAGEDEF
  2
AcDbRasterImageDef
  3
ISM
 90
    32768
280
     0
281
     0
  0
CLASS
  1
IMAGEDEF_REACTOR
  2
AcDbRasterImageDefReactor
  3
ISM
 90
    32769
280
     0
281
     0
  0
CLASS
  1
IDBUFFER
  2
AcDbIdBuffer
  3
ObjectDBX Classes
 90
    32768
280
     0
281
     0
  0
CLASS
  1
SPATIAL_FILTER
  2
AcDbSpatialFilter
  3
ObjectDBX Classes
 90
    32768
280
     0
281
     0
  0
CLASS
  1
SORTENTSTABLE
  2
AcDbSortentsTable
  3
ObjectDBX Classes
 90
    32768
280
     0
281
     0
  0
CLASS
  1
LAYER_INDEX
  2
AcDbLayerIndex
  3
ObjectDBX Classes
 90
    32768
280
     0
281
     0
  0
CLASS
  1
SPATIAL_INDEX
  2
AcDbSpatialIndex
  3
ObjectDBX Classes
 90
    32768
280
     0
281
     0
  0
CLASS
  1
OBJECT_PTR
  2
CAseDLPNTableRecord
  3
ASE-LPNTableRecord
 90
    32769
280
     0
281
     0
  0
CLASS
  1
LAYOUT
  2
AcDbLayout
  3
ObjectDBX Classes
 90
        0
280
     0
281
     0
  0
CLASS
  1
PLOTSETTINGS
  2
AcDbPlotSettings
  3
ObjectDBX Classes
 90
    32768
280
     0
281
     0
  0
CLASS
  1
ACDBDICTIONARYWDFLT
  2
AcDbDictionaryWithDefault
  3
ObjectDBX Classes
 90
        0
280
     0
281
     0
  0
CLASS
  1
ACDBPLACEHOLDER
  2
AcDbPlaceHolder
  3
ObjectDBX Classes
 90
        0
280
     0
281
     0
  0
CLASS
  1
VBA_PROJECT
  2
AcDbVbaProject
  3
acad
 90
    32768
280
     0
281
     0
  0
CLASS
  1
WIPEOUT
  2
AcDbWipeout
  3
"WipeOut|Product Desc: Object Enabler for WipeOut entity^I^I^I^I^I^I|Company: Autodesk, Inc.^I^I^I^I^I^I|WEB Address: www.autodesk.com"
 90
    32895
280
     0
281
     1
  0
CLASS
  1
WIPEOUTVARIABLES
  2
AcDbWipeoutVariables
  3
"WipeOut|Product Desc:     WipeOut Dbx Application|Company:          Autodesk, Inc.|WEB Address:      www.autodesk.com"
 90
    32768
280
     0
281
     0
  0
CLASS
  1
RTEXT
  2
RText
  3
RText|AutoCAD Express Tool|expresstools@autodesk.com
 90
    32768
280
     1
281
     1
  0
CLASS
  1
ARCALIGNEDTEXT
  2
AcDbArcAlignedText
  3
ATEXT|AutoCAD Express Tool|expresstools@autodesk.com
 90
    32768
280
     1
281
     1
  0
CLASS
  1
MATERIAL
  2
AcDbMaterial
  3
ObjectDBX Classes
 90
        0
280
     0
281
     0
  0
ENDSEC
  0
SECTION
  2
TABLES
  0
TABLE
  2
VPORT
  5
C3
330
0
100
AcDbSymbolTable
 70
     1
  0
VPORT
  5
C4
330
C3
100
AcDbSymbolTableRecord
100
AcDbViewportTableRecord
  2
*Active
 70
     0
 10
0.0
 20
0.0
 11
1.0
 21
1.0
 12
-6.275031586909344
 22
-35.55699465926661
 13
0.0
 23
0.0
 14
1.0
 24
1.0
 15
0.0
 25
0.0
 16
0.0
 26
0.0
 36
1.0
 17
0.0
 27
0.0
 37
0.0
 40
10.63808077091758
 41
1.974155069582504
 42
50.0
 43
0.0
 44
0.0
 50
0.0
 51
0.0
 71
     0
 72
   100
 73
     1
 74
     1
 75
     0
 76
     0
 77
     0
 78
     0
281
     0
 65
     0
110
0.0
120
0.0
130
0.0
111
1.0
121
0.0
131
0.0
112
0.0
122
1.0
132
0.0
 79
     0
146
0.0
  0
ENDTAB
  0
TABLE
  2
LTYPE
  5
BE
330
0
100
AcDbSymbolTable
 70
     8
  0
LTYPE
  5
BF
330
BE
100
AcDbSymbolTableRecord
100
AcDbLinetypeTableRecord
  2
ByBlock
 70
     0
  3

 72
    65
 73
     0
 40
0.0
  0
LTYPE
  5
C0
330
BE
100
AcDbSymbolTableRecord
100
AcDbLinetypeTableRecord
  2
ByLayer
 70
     0
  3

 72
    65
 73
     0
 40
0.0
  0
LTYPE
  5
9
330
BE
100
AcDbSymbolTableRecord
100
AcDbLinetypeTableRecord
  2
Continuous
 70
     0
  3
Solid line
 72
    65
 73
     0
 40
0.0
  0
LTYPE
  5
31
330
BE
100
AcDbSymbolTableRecord
100
AcDbLinetypeTableRecord
  2
AI9-LType2
 70
     0
  3
Illustrator Dash Style No.2
 72
    65
 73
     2
 40
1.41111111111111
 49
0.7055555555555556
 74
     0
 49
-0.7055555555555556
 74
     0
  0
LTYPE
  5
39
330
BE
100
AcDbSymbolTableRecord
100
AcDbLinetypeTableRecord
  2
AI9-LType9
 70
     0
  3
Illustrator Dash Style No.9
 72
    65
 73
     2
 40
0.7061199885275629
 49
0.4521199994617038
 74
     0
 49
-0.253999989065859
 74
     0
  0
LTYPE
  5
33
330
BE
100
AcDbSymbolTableRecord
100
AcDbLinetypeTableRecord
  2
AI9-LType10
 70
     0
  3
Illustrator Dash Style No.10
 72
    65
 73
     2
 40
0.7061199885275629
 49
0.4521199994617038
 74
     0
 49
-0.253999989065859
 74
     0
  0
LTYPE
  5
2B
330
BE
100
AcDbSymbolTableRecord
100
AcDbLinetypeTableRecord
  2
AI9-LType11
 70
     0
  3
Illustrator Dash Style No.11
 72
    65
 73
     2
 40
0.7061199885275629
 49
0.4521199994617038
 74
     0
 49
-0.253999989065859
 74
     0
  0
LTYPE
  5
25
330
BE
100
AcDbSymbolTableRecord
100
AcDbLinetypeTableRecord
  2
AI9-LType12
 70
     0
  3
Illustrator Dash Style No.12
 72
    65
 73
     2
 40
0.7061199885275629
 49
0.4521199994617038
 74
     0
 49
-0.253999989065859
 74
     0
  0
LTYPE
  5
18
330
BE
100
AcDbSymbolTableRecord
100
AcDbLinetypeTableRecord
  2
AI9-LType13
 70
     0
  3
Illustrator Dash Style No.13
 72
    65
 73
     2
 40
0.7061199885275629
 49
0.4521199994617038
 74
     0
 49
-0.253999989065859
 74
     0
  0
LTYPE
  5
12
330
BE
100
AcDbSymbolTableRecord
100
AcDbLinetypeTableRecord
  2
AI9-LType14
 70
     0
  3
Illustrator Dash Style No.14
 72
    65
 73
     2
 40
0.7061199885275629
 49
0.4521199994617038
 74
     0
 49
-0.253999989065859
 74
     0
  0
ENDTAB
  0
TABLE
  2
LAYER
  5
B9
102
{ACAD_XDICTIONARY
360
BA
102
}
330
0
100
AcDbSymbolTable
 70
     5
  0
LAYER
  5
5
330
B9
100
AcDbSymbolTableRecord
100
AcDbLayerTableRecord
  2
0
 70
     0
 62
     7
  6
Continuous
370
    -3
390
6
  0
LAYER
  5
11
330
B9
100
AcDbSymbolTableRecord
100
AcDbLayerTableRecord
  2
ADP2DETAIL
 70
     0
 62
     5
  6
Continuous
370
    -3
390
6
  0
LAYER
  5
F
330
B9
100
AcDbSymbolTableRecord
100
AcDbLayerTableRecord
  2
ADP1DETAIL
 70
     0
 62
     1
  6
Continuous
370
    -3
390
6
  0
LAYER
  5
B
330
B9
100
AcDbSymbolTableRecord
100
AcDbLayerTableRecord
  2
ADPDIM
 70
     0
 62
   160
  6
Continuous
370
    -3
390
6
  0
LAYER
  5
56
102
{ACAD_XDICTIONARY
360
57
102
}
330
B9
100
AcDbSymbolTableRecord
100
AcDbLayerTableRecord
  2
DEFPOINTS
 70
     0
 62
     7
  6
Continuous
290
     0
370
    -3
390
6
  0
ENDTAB
  0
TABLE
  2
STYLE
  5
BC
330
0
100
AcDbSymbolTable
 70
     2
  0
STYLE
  5
4A
330
BC
100
AcDbSymbolTableRecord
100
AcDbTextStyleTableRecord
  2
Standard
 70
     0
 40
0.0
 41
1.0
 50
0.0
 71
     0
 42
0.0
  3
txt
  4

  0
STYLE
  5
C
330
BC
100
AcDbSymbolTableRecord
100
AcDbTextStyleTableRecord
  2
ARIAL_WIDE
 70
     0
 40
0.0
 41
1.25
 50
0.0
 71
     0
 42
0.2
  3
ARIAL.TTF
  4

1001
ACAD
1000
Arial
1071
       34
  0
ENDTAB
  0
TABLE
  2
VIEW
  5
C1
330
0
100
AcDbSymbolTable
 70
     0
  0
ENDTAB
  0
TABLE
  2
UCS
  5
C2
330
0
100
AcDbSymbolTable
 70
     0
  0
ENDTAB
  0
TABLE
  2
APPID
  5
C5
330
0
100
AcDbSymbolTable
 70
     1
  0
APPID
  5
D
330
C5
100
AcDbSymbolTableRecord
100
AcDbRegAppTableRecord
  2
ACAD
 70
     0
  0
ENDTAB
  0
TABLE
  2
DIMSTYLE
  5
C6
330
0
100
AcDbSymbolTable
 70
     1
100
AcDbDimStyleTable
 71
     1
340
4B
  0
DIMSTYLE
105
4B
102
{ACAD_REACTORS
330
49
330
60
330
6E
330
7C
330
8A
330
96
330
A2
102
}
330
C6
100
AcDbSymbolTableRecord
100
AcDbDimStyleTableRecord
  2
Standard
 70
     0
340
4A
  0
ENDTAB
  0
TABLE
  2
BLOCK_RECORD
  5
1
330
0
100
AcDbSymbolTable
 70
     7
  0
BLOCK_RECORD
  5
2
102
{ACAD_XDICTIONARY
360
3
102
}
330
1
100
AcDbSymbolTableRecord
100
AcDbBlockTableRecord
  2
*MODEL_SPACE
340
B3
  0
BLOCK_RECORD
  5
B5
330
1
100
AcDbSymbolTableRecord
100
AcDbBlockTableRecord
  2
*PAPER_SPACE
340
B8
  0
BLOCK_RECORD
  5
4C
330
1
100
AcDbSymbolTableRecord
100
AcDbBlockTableRecord
  2
*D0
340
0
  0
BLOCK_RECORD
  5
61
330
1
100
AcDbSymbolTableRecord
100
AcDbBlockTableRecord
  2
*D1
340
0
  0
BLOCK_RECORD
  5
6F
330
1
100
AcDbSymbolTableRecord
100
AcDbBlockTableRecord
  2
*D2
340
0
  0
BLOCK_RECORD
  5
7D
330
1
100
AcDbSymbolTableRecord
100
AcDbBlockTableRecord
  2
*D3
340
0
  0
BLOCK_RECORD
  5
8B
330
1
100
AcDbSymbolTableRecord
100
AcDbBlockTableRecord
  2
*D4
340
0
  0
BLOCK_RECORD
  5
97
330
1
100
AcDbSymbolTableRecord
100
AcDbBlockTableRecord
  2
*D5
340
0
  0
BLOCK_RECORD
  5
A3
330
1
100
AcDbSymbolTableRecord
100
AcDbBlockTableRecord
  2
*D6
340
0
  0
ENDTAB
  0
ENDSEC
  0
SECTION
  2
BLOCKS
  0
BLOCK
  5
4
330
2
100
AcDbEntity
  8
0
100
AcDbBlockBegin
  2
*MODEL_SPACE
 70
     0
 10
0.0
 20
0.0
 30
0.0
  3
*MODEL_SPACE
  1

  0
ENDBLK
  5
B2
330
2
100
AcDbEntity
  8
0
100
AcDbBlockEnd
  0
BLOCK
  5
B6
330
B5
100
AcDbEntity
 67
     1
  8
0
100
AcDbBlockBegin
  2
*PAPER_SPACE
 70
     0
 10
0.0
 20
0.0
 30
0.0
  3
*PAPER_SPACE
  1

  0
ENDBLK
  5
B7
330
B5
100
AcDbEntity
 67
     1
  8
0
100
AcDbBlockEnd
  0
BLOCK
  5
4D
330
4C
100
AcDbEntity
  8
0
370
     0
100
AcDbBlockBegin
  2
*D0
 70
     1
 10
0.0
 20
0.0
 30
0.0
  3
*D0
  1

  0
LINE
  5
4E
330
4C
100
AcDbEntity
  8
ADPDIM
 62
     0
370
    -2
100
AcDbLine
 10
-8.559263356283524
 20
-35.05498643847127
 30
0.0
 11
-8.559263356283524
 21
-33.76922194636912
 31
0.0
  0
LINE
  5
4F
330
4C
100
AcDbEntity
  8
ADPDIM
 62
     0
370
    -2
100
AcDbLine
 10
-6.062615591727904
 20
-34.17512836513046
 30
0.0
 11
-6.062615591727904
 21
-33.76922194636912
 31
0.0
  0
LINE
  5
50
330
4C
100
AcDbEntity
  8
ADPDIM
 62
     0
370
    -2
100
AcDbLine
 10
-8.379263356283525
 20
-33.94922194636912
 30
0.0
 11
-7.850939474005714
 21
-33.94922194636912
 31
0.0
  0
LINE
  5
51
330
4C
100
AcDbEntity
  8
ADPDIM
 62
     0
370
    -2
100
AcDbLine
 10
-6.242615591727903
 20
-33.94922194636912
 30
0.0
 11
-6.770939474005714
 21
-33.94922194636912
 31
0.0
  0
SOLID
  5
52
330
4C
100
AcDbEntity
  8
ADPDIM
 62
     0
370
     0
100
AcDbTrace
 10
-8.379263356283525
 20
-33.91922194636912
 30
0.0
 11
-8.379263356283525
 21
-33.97922194636912
 31
0.0
 12
-8.559263356283524
 22
-33.94922194636912
 32
0.0
 13
-8.559263356283524
 23
-33.94922194636912
 33
0.0
  0
SOLID
  5
53
330
4C
100
AcDbEntity
  8
ADPDIM
 62
     0
370
     0
100
AcDbTrace
 10
-6.242615591727903
 20
-33.91922194636912
 30
0.0
 11
-6.242615591727903
 21
-33.97922194636912
 31
0.0
 12
-6.062615591727904
 22
-33.94922194636912
 32
0.0
 13
-6.062615591727904
 23
-33.94922194636912
 33
0.0
  0
MTEXT
  5
54
330
4C
100
AcDbEntity
  8
ADPDIM
 62
     0
100
AcDbMText
 10
-7.310939474005714
 20
-33.94922194636912
 30
0.0
 40
0.18
 41
0.0
 71
     5
 72
     1
  1
\A1;2 1/2"
 73
     1
 44
1.0
1001
ACAD
1000
MTEXTBEGIN
1070
    73
1070
     1
1070
    44
1040
1.0
1070
    74
1070
     0
1000
MTEXTEND
  0
POINT
  5
55
330
4C
100
AcDbEntity
  8
DEFPOINTS
 62
     0
370
     0
100
AcDbPoint
 10
-8.559263356283524
 20
-35.11748643847127
 30
0.0
  0
POINT
  5
5D
330
4C
100
AcDbEntity
  8
DEFPOINTS
 62
     0
370
     0
100
AcDbPoint
 10
-6.062615591727904
 20
-34.23762836513045
 30
0.0
  0
POINT
  5
5E
330
4C
100
AcDbEntity
  8
DEFPOINTS
 62
     0
370
     0
100
AcDbPoint
 10
-6.062615591727904
 20
-33.94922194636912
 30
0.0
  0
ENDBLK
  5
5F
330
4C
100
AcDbEntity
  8
0
370
     0
100
AcDbBlockEnd
  0
BLOCK
  5
62
330
61
100
AcDbEntity
  8
0
370
     0
100
AcDbBlockBegin
  2
*D1
 70
     1
 10
0.0
 20
0.0
 30
0.0
  3
*D1
  1

  0
LINE
  5
63
330
61
100
AcDbEntity
  8
ADPDIM
 62
     0
370
    -2
100
AcDbLine
 10
-5.082520629510811
 20
-34.05973062671793
 30
0.0
 11
-5.082520629510811
 21
-33.09077504405812
 31
0.0
  0
LINE
  5
64
330
61
100
AcDbEntity
  8
ADPDIM
 62
     0
370
    -2
100
AcDbLine
 10
-3.086457053094073
 20
-34.05973062671793
 30
0.0
 11
-3.086457053094073
 21
-33.09077504405812
 31
0.0
  0
LINE
  5
65
330
61
100
AcDbEntity
  8
ADPDIM
 62
     0
370
    -2
100
AcDbLine
 10
-4.902520629510811
 20
-33.27077504405812
 30
0.0
 11
-4.287740326214836
 21
-33.27077504405812
 31
0.0
  0
LINE
  5
66
330
61
100
AcDbEntity
  8
ADPDIM
 62
     0
370
    -2
100
AcDbLine
 10
-3.266457053094073
 20
-33.27077504405812
 30
0.0
 11
-3.867740326214836
 21
-33.27077504405812
 31
0.0
  0
SOLID
  5
67
330
61
100
AcDbEntity
  8
ADPDIM
 62
     0
370
     0
100
AcDbTrace
 10
-4.902520629510811
 20
-33.24077504405812
 30
0.0
 11
-4.902520629510811
 21
-33.30077504405812
 31
0.0
 12
-5.082520629510811
 22
-33.27077504405812
 32
0.0
 13
-5.082520629510811
 23
-33.27077504405812
 33
0.0
  0
SOLID
  5
68
330
61
100
AcDbEntity
  8
ADPDIM
 62
     0
370
     0
100
AcDbTrace
 10
-3.266457053094073
 20
-33.24077504405812
 30
0.0
 11
-3.266457053094073
 21
-33.30077504405812
 31
0.0
 12
-3.086457053094073
 22
-33.27077504405812
 32
0.0
 13
-3.086457053094073
 23
-33.27077504405812
 33
0.0
  0
MTEXT
  5
69
330
61
100
AcDbEntity
  8
ADPDIM
 62
     0
100
AcDbMText
 10
-4.077740326214836
 20
-33.27077504405812
 30
0.0
 40
0.18
 41
0.0
 71
     5
 72
     1
  1
\A1;2"
 73
     1
 44
1.0
1001
ACAD
1000
MTEXTBEGIN
1070
    73
1070
     1
1070
    44
1040
1.0
1070
    74
1070
     0
1000
MTEXTEND
  0
POINT
  5
6A
330
61
100
AcDbEntity
  8
DEFPOINTS
 62
     0
370
     0
100
AcDbPoint
 10
-5.082520629510811
 20
-34.12223062671792
 30
0.0
  0
POINT
  5
6B
330
61
100
AcDbEntity
  8
DEFPOINTS
 62
     0
370
     0
100
AcDbPoint
 10
-3.086457053094073
 20
-34.12223062671792
 30
0.0
  0
POINT
  5
6C
330
61
100
AcDbEntity
  8
DEFPOINTS
 62
     0
370
     0
100
AcDbPoint
 10
-3.086457053094073
 20
-33.27077504405812
 30
0.0
  0
ENDBLK
  5
6D
330
61
100
AcDbEntity
  8
0
370
     0
100
AcDbBlockEnd
  0
BLOCK
  5
70
330
6F
100
AcDbEntity
  8
0
370
     0
100
AcDbBlockBegin
  2
*D2
 70
     1
 10
0.0
 20
0.0
 30
0.0
  3
*D2
  1

  0
LINE
  5
71
330
6F
100
AcDbEntity
  8
ADPDIM
 62
     0
370
    -2
100
AcDbLine
 10
-4.772183401696565
 20
-34.0482166739943
 30
0.0
 11
-4.772183401696565
 21
-33.71371667399431
 31
0.0
  0
LINE
  5
72
330
6F
100
AcDbEntity
  8
ADPDIM
 62
     0
370
    -2
100
AcDbLine
 10
-3.397183401696565
 20
-34.0482166739943
 30
0.0
 11
-3.397183401696565
 21
-33.71371667399431
 31
0.0
  0
LINE
  5
73
330
6F
100
AcDbEntity
  8
ADPDIM
 62
     0
370
    -2
100
AcDbLine
 10
-4.952183401696565
 20
-33.8937166739943
 30
0.0
 11
-5.132183401696566
 21
-33.8937166739943
 31
0.0
  0
LINE
  5
74
330
6F
100
AcDbEntity
  8
ADPDIM
 62
     0
370
    -2
100
AcDbLine
 10
-3.217183401696565
 20
-33.8937166739943
 30
0.0
 11
-3.037183401696565
 21
-33.8937166739943
 31
0.0
  0
SOLID
  5
75
330
6F
100
AcDbEntity
  8
ADPDIM
 62
     0
370
     0
100
AcDbTrace
 10
-4.952183401696565
 20
-33.8637166739943
 30
0.0
 11
-4.952183401696565
 21
-33.92371667399431
 31
0.0
 12
-4.772183401696565
 22
-33.8937166739943
 32
0.0
 13
-4.772183401696565
 23
-33.8937166739943
 33
0.0
  0
SOLID
  5
76
330
6F
100
AcDbEntity
  8
ADPDIM
 62
     0
370
     0
100
AcDbTrace
 10
-3.217183401696565
 20
-33.8637166739943
 30
0.0
 11
-3.217183401696565
 21
-33.92371667399431
 31
0.0
 12
-3.397183401696565
 22
-33.8937166739943
 32
0.0
 13
-3.397183401696565
 23
-33.8937166739943
 33
0.0
  0
MTEXT
  5
77
330
6F
100
AcDbEntity
  8
ADPDIM
 62
     0
100
AcDbMText
 10
-4.084683401696565
 20
-33.8937166739943
 30
0.0
 40
0.18
 41
0.0
 71
     5
 72
     1
  1
\A1;1 3/8"
 73
     1
 44
1.0
1001
ACAD
1000
MTEXTBEGIN
1070
    73
1070
     1
1070
    44
1040
1.0
1070
    74
1070
     0
1000
MTEXTEND
  0
POINT
  5
78
330
6F
100
AcDbEntity
  8
DEFPOINTS
 62
     0
370
     0
100
AcDbPoint
 10
-4.772183401696565
 20
-34.11071667399431
 30
0.0
  0
POINT
  5
79
330
6F
100
AcDbEntity
  8
DEFPOINTS
 62
     0
370
     0
100
AcDbPoint
 10
-3.397183401696565
 20
-34.11071667399431
 30
0.0
  0
POINT
  5
7A
330
6F
100
AcDbEntity
  8
DEFPOINTS
 62
     0
370
     0
100
AcDbPoint
 10
-3.397183401696565
 20
-33.8937166739943
 30
0.0
  0
ENDBLK
  5
7B
330
6F
100
AcDbEntity
  8
0
370
     0
100
AcDbBlockEnd
  0
BLOCK
  5
7E
330
7D
100
AcDbEntity
  8
0
370
     0
100
AcDbBlockBegin
  2
*D3
 70
     1
 10
0.0
 20
0.0
 30
0.0
  3
*D3
  1

  0
LINE
  5
7F
330
7D
100
AcDbEntity
  8
ADPDIM
 62
     0
370
    -2
100
AcDbLine
 10
-3.91026552380469
 20
-36.62072114245499
 30
0.0
 11
-2.218534374291014
 21
-36.62072114245499
 31
0.0
  0
LINE
  5
80
330
7D
100
AcDbEntity
  8
ADPDIM
 62
     0
370
    -2
100
AcDbLine
 10
-2.99264907282756
 20
-34.45802829877831
 30
0.0
 11
-2.218534374291013
 21
-34.45802829877831
 31
0.0
  0
LINE
  5
81
330
7D
100
AcDbEntity
  8
ADPDIM
 62
     0
370
    -2
100
AcDbLine
 10
-2.398534374291014
 20
-36.44072114245498
 30
0.0
 11
-2.398534374291014
 21
-35.71937472061665
 31
0.0
  0
LINE
  5
82
330
7D
100
AcDbEntity
  8
ADPDIM
 62
     0
370
    -2
100
AcDbLine
 10
-2.398534374291013
 20
-34.63802829877831
 30
0.0
 11
-2.398534374291014
 21
-35.35937472061665
 31
0.0
  0
SOLID
  5
83
330
7D
100
AcDbEntity
  8
ADPDIM
 62
     0
370
     0
100
AcDbTrace
 10
-2.428534374291014
 20
-36.44072114245498
 30
0.0
 11
-2.368534374291014
 21
-36.44072114245498
 31
0.0
 12
-2.398534374291014
 22
-36.62072114245499
 32
0.0
 13
-2.398534374291014
 23
-36.62072114245499
 33
0.0
  0
SOLID
  5
84
330
7D
100
AcDbEntity
  8
ADPDIM
 62
     0
370
     0
100
AcDbTrace
 10
-2.428534374291013
 20
-34.63802829877831
 30
0.0
 11
-2.368534374291014
 21
-34.63802829877831
 31
0.0
 12
-2.398534374291013
 22
-34.45802829877831
 32
0.0
 13
-2.398534374291013
 23
-34.45802829877831
 33
0.0
  0
MTEXT
  5
85
330
7D
100
AcDbEntity
  8
ADPDIM
 62
     0
100
AcDbMText
 10
-2.398534374291008
 20
-35.53937472061665
 30
0.0
 40
0.18
 41
0.0
 71
     5
 72
     1
  1
\A1;2 3/16"
 73
     1
 44
1.0
1001
ACAD
1000
MTEXTBEGIN
1070
    73
1070
     1
1070
    44
1040
1.0
1070
    74
1070
     0
1000
MTEXTEND
  0
POINT
  5
86
330
7D
100
AcDbEntity
  8
DEFPOINTS
 62
     0
370
     0
100
AcDbPoint
 10
-3.97276552380469
 20
-36.62072114245499
 30
0.0
  0
POINT
  5
87
330
7D
100
AcDbEntity
  8
DEFPOINTS
 62
     0
370
     0
100
AcDbPoint
 10
-3.05514907282756
 20
-34.45802829877831
 30
0.0
  0
POINT
  5
88
330
7D
100
AcDbEntity
  8
DEFPOINTS
 62
     0
370
     0
100
AcDbPoint
 10
-2.398534374291013
 20
-34.45802829877831
 30
0.0
  0
ENDBLK
  5
89
330
7D
100
AcDbEntity
  8
0
370
     0
100
AcDbBlockEnd
  0
BLOCK
  5
8C
330
8B
100
AcDbEntity
  8
0
370
     0
100
AcDbBlockBegin
  2
*D4
 70
     1
 10
0.0
 20
0.0
 30
0.0
  3
*D4
  1

  0
LINE
  5
8D
330
8B
100
AcDbEntity
  8
ADPDIM
 62
     0
370
    -2
100
AcDbLine
 10
-4.565553371298193
 20
-37.12431088562303
 30
0.0
 11
-4.385553371298195
 21
-37.12431088562303
 31
0.0
  0
LINE
  5
8E
330
8B
100
AcDbEntity
  8
ADPDIM
 62
     0
370
    -2
100
AcDbLine
 10
-4.385553371298195
 20
-37.12431088562303
 30
0.0
 11
-4.289786682433677
 21
-36.97190110475603
 31
0.0
  0
MTEXT
  5
8F
330
8B
100
AcDbEntity
  8
ADPDIM
 62
     0
100
AcDbMText
 10
-5.105553371298196
 20
-37.12431088562302
 30
0.0
 40
0.18
 41
0.0
 71
     5
 72
     1
  1
\A1;\U+22057/16"
 73
     1
 44
1.0
1001
ACAD
1000
MTEXTBEGIN
1070
    73
1070
     1
1070
    44
1040
1.0
1070
    74
1070
     0
1000
MTEXTEND
  0
SOLID
  5
90
330
8B
100
AcDbEntity
  8
ADPDIM
 62
     0
370
     0
100
AcDbTrace
 10
-4.315188312578177
 20
-36.95593998994527
 30
0.0
 11
-4.264385052289176
 21
-36.98786221956678
 31
0.0
 12
-4.194019993569158
 22
-36.81949132388903
 32
0.0
 13
-4.194019993569158
 23
-36.81949132388903
 33
0.0
  0
LINE
  5
91
330
8B
100
AcDbEntity
  8
ADPDIM
 62
     0
370
    -2
100
AcDbLine
 10
-4.172658725565121
 20
-36.64226324328182
 30
0.0
 11
-3.992658725565117
 21
-36.64226324328182
 31
0.0
  0
LINE
  5
92
330
8B
100
AcDbEntity
  8
ADPDIM
 62
     0
370
    -2
100
AcDbLine
 10
-4.082658725565115
 20
-36.73226324328182
 30
0.0
 11
-4.082658725565115
 21
-36.55226324328181
 31
0.0
  0
POINT
  5
93
330
8B
100
AcDbEntity
  8
DEFPOINTS
 62
     0
370
     0
100
AcDbPoint
 10
-4.194019993569158
 20
-36.81949132388903
 30
0.0
  0
POINT
  5
94
330
8B
100
AcDbEntity
  8
DEFPOINTS
 62
     0
370
     0
100
AcDbPoint
 10
-3.97129745756108
 20
-36.46503516267461
 30
0.0
  0
ENDBLK
  5
95
330
8B
100
AcDbEntity
  8
0
370
     0
100
AcDbBlockEnd
  0
BLOCK
  5
98
330
97
100
AcDbEntity
  8
0
370
     0
100
AcDbBlockBegin
  2
*D5
 70
     1
 10
0.0
 20
0.0
 30
0.0
  3
*D5
  1

  0
LINE
  5
99
330
97
100
AcDbEntity
  8
ADPDIM
 62
     0
370
    -2
100
AcDbLine
 10
-5.620861019819997
 20
-37.72185183523746
 30
0.0
 11
-5.440861019819998
 21
-37.72185183523746
 31
0.0
  0
LINE
  5
9A
330
97
100
AcDbEntity
  8
ADPDIM
 62
     0
370
    -2
100
AcDbLine
 10
-5.440861019819998
 20
-37.72185183523746
 30
0.0
 11
-5.299952424450616
 21
-37.60984840782996
 31
0.0
  0
MTEXT
  5
9B
330
97
100
AcDbEntity
  8
ADPDIM
 62
     0
100
AcDbMText
 10
-6.280861019819992
 20
-37.72185183523746
 30
0.0
 40
0.18
 41
0.0
 71
     5
 72
     1
  1
\A1;\U+22052 3/4"
 73
     1
 44
1.0
1001
ACAD
1000
MTEXTBEGIN
1070
    73
1070
     1
1070
    44
1040
1.0
1070
    74
1070
     0
1000
MTEXTEND
  0
SOLID
  5
9C
330
97
100
AcDbEntity
  8
ADPDIM
 62
     0
370
     0
100
AcDbTrace
 10
-5.318619662351864
 20
-37.58636364193506
 30
0.0
 11
-5.281285186549364
 21
-37.63333317372486
 31
0.0
 12
-5.159043829081234
 22
-37.49784498042246
 32
0.0
 13
-5.159043829081234
 23
-37.49784498042246
 33
0.0
  0
LINE
  5
9D
330
97
100
AcDbEntity
  8
ADPDIM
 62
     0
370
    -2
100
AcDbLine
 10
-4.172658725565121
 20
-36.6422632432818
 30
0.0
 11
-3.992658725565121
 21
-36.64226324328181
 31
0.0
  0
LINE
  5
9E
330
97
100
AcDbEntity
  8
ADPDIM
 62
     0
370
    -2
100
AcDbLine
 10
-4.082658725565121
 20
-36.73226324328182
 30
0.0
 11
-4.082658725565117
 21
-36.55226324328181
 31
0.0
  0
POINT
  5
9F
330
97
100
AcDbEntity
  8
DEFPOINTS
 62
     0
370
     0
100
AcDbPoint
 10
-5.159043829081234
 20
-37.49784498042246
 30
0.0
  0
POINT
  5
A0
330
97
100
AcDbEntity
  8
DEFPOINTS
 62
     0
370
     0
100
AcDbPoint
 10
-3.006273622049004
 20
-35.78668150614117
 30
0.0
  0
ENDBLK
  5
A1
330
97
100
AcDbEntity
  8
0
370
     0
100
AcDbBlockEnd
  0
BLOCK
  5
A4
330
A3
100
AcDbEntity
  8
0
370
     0
100
AcDbBlockBegin
  2
*D6
 70
     1
 10
0.0
 20
0.0
 30
0.0
  3
*D6
  1

  0
LINE
  5
A5
330
A3
100
AcDbEntity
  8
ADPDIM
  6
Continuous
 62
     0
370
     0
100
AcDbLine
 10
-8.589893935467571
 20
-35.25873399994102
 30
0.0
 11
-9.398333991013023
 21
-35.25873399994102
 31
0.0
  0
LINE
  5
A6
330
A3
100
AcDbEntity
  8
ADPDIM
  6
Continuous
 62
     0
370
     0
100
AcDbLine
 10
-8.631350392510299
 20
-37.97837232117161
 30
0.0
 11
-9.398333991013025
 21
-37.97837232117161
 31
0.0
  0
LINE
  5
A7
330
A3
100
AcDbEntity
  8
ADPDIM
  6
Continuous
 62
     0
370
     0
100
AcDbLine
 10
-9.218333991013023
 20
-35.43873399994102
 30
0.0
 11
-9.218333991013025
 21
-36.43855316055632
 31
0.0
  0
LINE
  5
A8
330
A3
100
AcDbEntity
  8
ADPDIM
  6
Continuous
 62
     0
370
     0
100
AcDbLine
 10
-9.218333991013025
 20
-37.79837232117162
 30
0.0
 11
-9.218333991013025
 21
-36.79855316055632
 31
0.0
  0
SOLID
  5
A9
330
A3
100
AcDbEntity
  8
ADPDIM
  6
Continuous
 62
     0
370
     0
100
AcDbTrace
 10
-9.248333991013023
 20
-35.43873399994102
 30
0.0
 11
-9.188333991013024
 21
-35.43873399994102
 31
0.0
 12
-9.218333991013023
 22
-35.25873399994102
 32
0.0
 13
-9.218333991013023
 23
-35.25873399994102
 33
0.0
  0
SOLID
  5
AA
330
A3
100
AcDbEntity
  8
ADPDIM
  6
Continuous
 62
     0
370
     0
100
AcDbTrace
 10
-9.248333991013025
 20
-37.79837232117162
 30
0.0
 11
-9.188333991013026
 21
-37.79837232117162
 31
0.0
 12
-9.218333991013025
 22
-37.97837232117161
 32
0.0
 13
-9.218333991013025
 23
-37.97837232117161
 33
0.0
  0
MTEXT
  5
AB
330
A3
100
AcDbEntity
  8
ADPDIM
  6
Continuous
 62
     0
370
     0
100
AcDbMText
 10
-9.218333991013018
 20
-36.61855316055632
 30
0.0
 40
0.18
 41
0.0
 71
     5
 72
     1
  1
\A1;2 3/4"
 73
     1
 44
1.0
1001
ACAD
1000
MTEXTBEGIN
1070
    73
1070
     1
1070
    44
1040
1.0
1070
    74
1070
     0
1000
MTEXTEND
  0
POINT
  5
AC
330
A3
100
AcDbEntity
  8
DEFPOINTS
  6
Continuous
 62
     0
370
     0
100
AcDbPoint
 10
-8.527393935467571
 20
-35.25873399994102
 30
0.0
  0
POINT
  5
AD
330
A3
100
AcDbEntity
  8
DEFPOINTS
  6
Continuous
 62
     0
370
     0
100
AcDbPoint
 10
-8.568850392510299
 20
-37.97837232117161
 30
0.0
  0
POINT
  5
AE
330
A3
100
AcDbEntity
  8
DEFPOINTS
  6
Continuous
 62
     0
370
     0
100
AcDbPoint
 10
-9.218333991013025
 20
-37.97837232117161
 30
0.0
  0
ENDBLK
  5
AF
330
A3
100
AcDbEntity
  8
0
370
     0
100
AcDbBlockEnd
  0
ENDSEC
  0
SECTION
  2
ENTITIES
  0
TEXT
  5
A
330
2
100
AcDbEntity
  8
ADPDIM
 62
     3
100
AcDbText
 10
-12.29745869962871
 20
-39.30344889131799
 30
0.0
 40
0.125
  1
J U L I U S  B L U M  &  C O . ,  I N C .      ( 8 0 0 )  5 2 6 - 6 2 9 3        W W W . J U L I U S B L U M . C O M        P A R T  N O .  1 0 8 7
 41
1.25
  7
ARIAL_WIDE
 72
     1
 11
-5.747535439055724
 21
-39.17844889131798
 31
0.0
100
AcDbText
 73
     3
  0
SPLINE
  5
E
330
2
100
AcDbEntity
  8
ADP1DETAIL
 62
     7
100
AcDbSpline
210
0.0
220
0.0
230
1.0
 70
     8
 71
     3
 72
    17
 73
    13
 74
     0
 42
0.0000000001
 43
0.0000000001
 40
0.0
 40
0.0
 40
0.0
 40
0.0
 40
1.0
 40
1.0
 40
1.0
 40
2.0
 40
2.0
 40
2.0
 40
3.0
 40
3.0
 40
3.0
 40
4.0
 40
4.0
 40
4.0
 40
4.0
 10
-3.818352954662755
 20
-35.27601939503754
 30
0.0
 10
-3.178012043970383
 20
-35.39997643903343
 30
0.0
 10
-2.694641862358242
 20
-35.95716023729639
 30
0.0
 10
-2.694641862358242
 20
-36.62615453504309
 30
0.0
 10
-2.694641862358242
 20
-37.38609219170136
 30
0.0
 10
-3.318164480649161
 20
-38.00182856351012
 30
0.0
 10
-4.087757082945295
 20
-38.00182856351012
 30
0.0
 10
-4.857349685241429
 20
-38.00182856351012
 30
0.0
 10
-5.480872303532349
 20
-37.38609219170136
 30
0.0
 10
-5.480872303532349
 20
-36.62615453504309
 30
0.0
 10
-5.480872303532349
 20
-35.95186558968852
 30
0.0
 10
-4.989715875438053
 20
-35.39063294325486
 30
0.0
 10
-4.341588718263526
 20
-35.27290489644467
 30
0.0
  0
POLYLINE
  5
10
330
2
100
AcDbEntity
  8
ADP2DETAIL
  6
AI9-LType14
 62
     5
100
AcDb2dPolyline
 66
     1
 10
0.0
 20
0.0
 30
0.0
  0
VERTEX
  5
13
330
10
100
AcDbEntity
  8
ADP2DETAIL
  6
AI9-LType14
 62
     5
100
AcDbVertex
100
AcDb2dVertex
 10
-6.163043028752618
 20
-34.43923932050211
 30
0.0
  0
VERTEX
  5
14
330
10
100
AcDbEntity
  8
ADP2DETAIL
  6
AI9-LType14
 62
     5
100
AcDbVertex
100
AcDb2dVertex
 10
-6.163043028752618
 20
-34.54295212364441
 30
0.0
  0
VERTEX
  5
15
330
10
100
AcDbEntity
  8
ADP2DETAIL
  6
AI9-LType14
 62
     5
100
AcDbVertex
100
AcDb2dVertex
 10
-6.234987946247724
 20
-34.62206038790309
 30
0.0
  0
SEQEND
  5
16
330
10
100
AcDbEntity
  8
ADP2DETAIL
  6
AI9-LType14
 62
     5
  0
POLYLINE
  5
17
330
2
100
AcDbEntity
  8
ADP2DETAIL
  6
AI9-LType13
 62
     5
100
AcDb2dPolyline
 66
     1
 10
0.0
 20
0.0
 30
0.0
  0
VERTEX
  5
19
330
17
100
AcDbEntity
  8
ADP2DETAIL
  6
AI9-LType13
 62
     5
100
AcDbVertex
100
AcDb2dVertex
 10
-5.984582259381641
 20
-34.43923932050211
 30
0.0
  0
VERTEX
  5
1A
330
17
100
AcDbEntity
  8
ADP2DETAIL
  6
AI9-LType13
 62
     5
100
AcDbVertex
100
AcDb2dVertex
 10
-5.984582259381641
 20
-34.54295212364441
 30
0.0
  0
VERTEX
  5
1B
330
17
100
AcDbEntity
  8
ADP2DETAIL
  6
AI9-LType13
 62
     5
100
AcDbVertex
100
AcDb2dVertex
 10
-5.912637341886534
 20
-34.62206038790309
 30
0.0
  0
SEQEND
  5
1C
330
17
100
AcDbEntity
  8
ADP2DETAIL
  6
AI9-LType13
 62
     5
  0
LINE
  5
1D
330
2
100
AcDbEntity
  8
ADP2DETAIL
 62
     5
100
AcDbLine
 10
-6.011055497420965
 20
-34.54295212364441
 30
0.0
 11
-6.132209492683286
 21
-34.54295212364441
 31
0.0
  0
CIRCLE
  5
1E
330
2
100
AcDbEntity
  8
ADP1DETAIL
 62
     7
100
AcDbCircle
 10
-4.088379982663868
 20
-36.62475301067632
 30
0.0
 40
0.1776821447227619
  0
SPLINE
  5
1F
330
2
100
AcDbEntity
  8
ADP1DETAIL
 62
     7
100
AcDbSpline
210
0.0
220
0.0
230
1.0
 70
     8
 71
     3
 72
     8
 73
     4
 74
     0
 42
0.0000000001
 43
0.0000000001
 40
0.0
 40
0.0
 40
0.0
 40
0.0
 40
1.0
 40
1.0
 40
1.0
 40
1.0
 10
-4.283706781911249
 20
-34.67813026487176
 30
0.0
 10
-4.283706781911249
 20
-34.67813026487176
 30
0.0
 10
-4.297674288104175
 20
-35.42208937904275
 30
0.0
 10
-4.411664936602915
 20
-35.39935353931485
 30
0.0
  0
SPLINE
  5
20
330
2
100
AcDbEntity
  8
ADP1DETAIL
 62
     7
100
AcDbSpline
210
0.0
220
0.0
230
1.0
 70
     8
 71
     3
 72
     8
 73
     4
 74
     0
 42
0.0000000001
 43
0.0000000001
 40
0.0
 40
0.0
 40
0.0
 40
0.0
 40
1.0
 40
1.0
 40
1.0
 40
1.0
 10
-3.888486981737216
 20
-34.67813026487176
 30
0.0
 10
-3.888486981737216
 20
-34.67813026487176
 30
0.0
 10
-3.866316232992826
 20
-35.42240082890202
 30
0.0
 10
-3.752325584494087
 20
-35.39935353931485
 30
0.0
  0
SPLINE
  5
21
330
2
100
AcDbEntity
  8
ADP1DETAIL
 62
     7
100
AcDbSpline
210
0.0
220
0.0
230
1.0
 70
     8
 71
     3
 72
    11
 73
     7
 74
     0
 42
0.0000000001
 43
0.0000000001
 40
0.0
 40
0.0
 40
0.0
 40
0.0
 40
1.0
 40
1.0
 40
1.0
 40
2.0
 40
2.0
 40
2.0
 40
2.0
 10
-4.957013640213005
 20
-36.3153275754755
 30
0.0
 10
-4.900018315963635
 20
-36.3153275754755
 30
0.0
 10
-4.548079974970259
 20
-36.3153275754755
 30
0.0
 10
-4.548079974970259
 20
-36.3153275754755
 30
0.0
 10
-4.2858391934513
 20
-36.281068090954
 30
0.0
 10
-4.257607389569557
 20
-34.67813026487176
 30
0.0
 10
-4.257607389569557
 20
-34.67813026487176
 30
0.0
  0
SPLINE
  5
22
330
2
100
AcDbEntity
  8
ADP1DETAIL
 62
     7
100
AcDbSpline
210
0.0
220
0.0
230
1.0
 70
     8
 71
     3
 72
    11
 73
     7
 74
     0
 42
0.0000000001
 43
0.0000000001
 40
0.0
 40
0.0
 40
0.0
 40
0.0
 40
1.0
 40
1.0
 40
1.0
 40
2.0
 40
2.0
 40
2.0
 40
2.0
 10
-3.201370783416845
 20
-36.3153275754755
 30
0.0
 10
-3.258366107666216
 20
-36.3153275754755
 30
0.0
 10
-3.597223554569572
 20
-36.3153275754755
 30
0.0
 10
-3.597223554569572
 20
-36.3153275754755
 30
0.0
 10
-3.859775785947816
 20
-36.281068090954
 30
0.0
 10
-3.914586439578897
 20
-34.67813026487176
 30
0.0
 10
-3.914586439578897
 20
-34.67813026487176
 30
0.0
  0
SPLINE
  5
23
330
2
100
AcDbEntity
  8
ADP1DETAIL
 62
     7
100
AcDbSpline
210
0.0
220
0.0
230
1.0
 70
    11
 71
     3
 72
    35
 73
    31
 74
     0
 42
0.0000000001
 43
0.0000000001
 40
0.0
 40
0.0
 40
0.0
 40
0.0
 40
1.0
 40
1.0
 40
1.0
 40
2.0
 40
2.0
 40
2.0
 40
3.0
 40
3.0
 40
3.0
 40
4.0
 40
4.0
 40
4.0
 40
5.0
 40
5.0
 40
5.0
 40
6.0
 40
6.0
 40
6.0
 40
7.0
 40
7.0
 40
7.0
 40
8.0
 40
8.0
 40
8.0
 40
9.0
 40
9.0
 40
9.0
 40
10.0
 40
10.0
 40
10.0
 40
10.0
 10
-5.090625629846774
 20
-34.44657748918305
 30
0.0
 10
-5.090625629846774
 20
-34.44657748918305
 30
0.0
 10
-5.090625629846774
 20
-34.63749625292546
 30
0.0
 10
-5.090625629846774
 20
-34.63749625292546
 30
0.0
 10
-5.090625629846774
 20
-34.65867484335694
 30
0.0
 10
-5.073184437726748
 20
-34.67549313575838
 30
0.0
 10
-5.052317297154573
 20
-34.67549313575838
 30
0.0
 10
-5.052317297154573
 20
-34.67549313575838
 30
0.0
 10
-4.98348687825233
 20
-34.67549313575838
 30
0.0
 10
-4.98348687825233
 20
-34.67549313575838
 30
0.0
 10
-4.918705307520806
 20
-34.67549313575838
 30
0.0
 10
-4.767340675907726
 20
-34.67549313575838
 30
0.0
 10
-4.683560663759744
 20
-34.67549313575838
 30
0.0
 10
-4.683560663759744
 20
-34.67549313575838
 30
0.0
 10
-3.812435407336318
 20
-34.67549313575838
 30
0.0
 10
-3.812435407336318
 20
-34.67549313575838
 30
0.0
 10
-3.752948484212659
 20
-34.67549313575838
 30
0.0
 10
-3.593174706398851
 20
-34.67549313575838
 30
0.0
 10
-3.512509192843733
 20
-34.67549313575838
 30
0.0
 10
-3.512509192843733
 20
-34.67549313575838
 30
0.0
 10
-3.128180066484595
 20
-34.67549313575838
 30
0.0
 10
-3.128180066484595
 20
-34.67549313575838
 30
0.0
 10
-3.107001476053135
 20
-34.67549313575838
 30
0.0
 10
-3.089871733792395
 20
-34.65867484335694
 30
0.0
 10
-3.089871733792395
 20
-34.63749625292546
 30
0.0
 10
-3.089871733792395
 20
-34.63749625292546
 30
0.0
 10
-3.089871733792395
 20
-34.44657748918305
 30
0.0
 10
-3.089871733792395
 20
-34.44657748918305
 30
0.0
 10
-3.089871733792395
 20
-34.44657748918305
 30
0.0
 10
-5.090625629846774
 20
-34.44657748918305
 30
0.0
 10
-5.090625629846774
 20
-34.44657748918305
 30
0.0
  0
POLYLINE
  5
24
330
2
100
AcDbEntity
  8
ADP2DETAIL
  6
AI9-LType12
 62
     5
100
AcDb2dPolyline
 66
     1
 10
0.0
 20
0.0
 30
0.0
  0
VERTEX
  5
26
330
24
100
AcDbEntity
  8
ADP2DETAIL
  6
AI9-LType12
 62
     5
100
AcDbVertex
100
AcDb2dVertex
 10
-4.860775633693577
 20
-34.45872403369521
 30
0.0
  0
VERTEX
  5
27
330
24
100
AcDbEntity
  8
ADP2DETAIL
  6
AI9-LType12
 62
     5
100
AcDbVertex
100
AcDb2dVertex
 10
-4.860775633693577
 20
-34.5671085847268
 30
0.0
  0
VERTEX
  5
28
330
24
100
AcDbEntity
  8
ADP2DETAIL
  6
AI9-LType12
 62
     5
100
AcDbVertex
100
AcDb2dVertex
 10
-4.957947989790864
 20
-34.66428094082407
 30
0.0
  0
SEQEND
  5
29
330
24
100
AcDbEntity
  8
ADP2DETAIL
  6
AI9-LType12
 62
     5
  0
POLYLINE
  5
2A
330
2
100
AcDbEntity
  8
ADP2DETAIL
  6
AI9-LType11
 62
     5
100
AcDb2dPolyline
 66
     1
 10
0.0
 20
0.0
 30
0.0
  0
VERTEX
  5
2C
330
2A
100
AcDbEntity
  8
ADP2DETAIL
  6
AI9-LType11
 62
     5
100
AcDbVertex
100
AcDb2dVertex
 10
-4.677954566292593
 20
-34.45872403369521
 30
0.0
  0
VERTEX
  5
2D
330
2A
100
AcDbEntity
  8
ADP2DETAIL
  6
AI9-LType11
 62
     5
100
AcDbVertex
100
AcDb2dVertex
 10
-4.677954566292593
 20
-34.5671085847268
 30
0.0
  0
VERTEX
  5
2E
330
2A
100
AcDbEntity
  8
ADP2DETAIL
  6
AI9-LType11
 62
     5
100
AcDbVertex
100
AcDb2dVertex
 10
-4.580782210195307
 20
-34.66428094082407
 30
0.0
  0
SEQEND
  5
2F
330
2A
100
AcDbEntity
  8
ADP2DETAIL
  6
AI9-LType11
 62
     5
  0
LINE
  5
30
330
2
100
AcDbEntity
  8
ADP2DETAIL
  6
AI9-LType2
 62
     5
100
AcDbLine
 10
-4.719065947718368
 20
-34.5671085847268
 30
0.0
 11
-4.822778750860663
 21
-34.5671085847268
 31
0.0
  0
POLYLINE
  5
32
330
2
100
AcDbEntity
  8
ADP2DETAIL
  6
AI9-LType10
 62
     5
100
AcDb2dPolyline
 66
     1
 10
0.0
 20
0.0
 30
0.0
  0
VERTEX
  5
34
330
32
100
AcDbEntity
  8
ADP2DETAIL
  6
AI9-LType10
 62
     5
100
AcDbVertex
100
AcDb2dVertex
 10
-3.304149236981284
 20
-34.45872403369521
 30
0.0
  0
VERTEX
  5
35
330
32
100
AcDbEntity
  8
ADP2DETAIL
  6
AI9-LType10
 62
     5
100
AcDbVertex
100
AcDb2dVertex
 10
-3.304149236981284
 20
-34.5671085847268
 30
0.0
  0
VERTEX
  5
36
330
32
100
AcDbEntity
  8
ADP2DETAIL
  6
AI9-LType10
 62
     5
100
AcDbVertex
100
AcDb2dVertex
 10
-3.207288330743282
 20
-34.66428094082407
 30
0.0
  0
SEQEND
  5
37
330
32
100
AcDbEntity
  8
ADP2DETAIL
  6
AI9-LType10
 62
     5
  0
POLYLINE
  5
38
330
2
100
AcDbEntity
  8
ADP2DETAIL
  6
AI9-LType9
 62
     5
100
AcDb2dPolyline
 66
     1
 10
0.0
 20
0.0
 30
0.0
  0
VERTEX
  5
3A
330
38
100
AcDbEntity
  8
ADP2DETAIL
  6
AI9-LType9
 62
     5
100
AcDbVertex
100
AcDb2dVertex
 10
-3.486970304382267
 20
-34.45872403369521
 30
0.0
  0
VERTEX
  5
3B
330
38
100
AcDbEntity
  8
ADP2DETAIL
  6
AI9-LType9
 62
     5
100
AcDbVertex
100
AcDb2dVertex
 10
-3.486970304382267
 20
-34.5671085847268
 30
0.0
  0
VERTEX
  5
3C
330
38
100
AcDbEntity
  8
ADP2DETAIL
  6
AI9-LType9
 62
     5
100
AcDbVertex
100
AcDb2dVertex
 10
-3.584142660479552
 20
-34.66428094082407
 30
0.0
  0
SEQEND
  5
3D
330
38
100
AcDbEntity
  8
ADP2DETAIL
  6
AI9-LType9
 62
     5
  0
LINE
  5
3E
330
2
100
AcDbEntity
  8
ADP2DETAIL
  6
AI9-LType2
 62
     5
100
AcDbLine
 10
-3.438384126333623
 20
-34.5671085847268
 30
0.0
 11
-3.305083586559141
 21
-34.5671085847268
 31
0.0
  0
LINE
  5
3F
330
2
100
AcDbEntity
  8
ADP1DETAIL
 62
     7
100
AcDbLine
 10
-4.087757082945295
 20
-36.55078366909584
 30
0.0
 11
-4.087757082945295
 21
-36.71990094268823
 31
0.0
  0
LINE
  5
40
330
2
100
AcDbEntity
  8
ADP1DETAIL
 62
     7
100
AcDbLine
 10
-4.18088059087186
 20
-36.63238353222883
 30
0.0
 11
-3.985290079240145
 21
-36.63238353222883
 31
0.0
  0
LINE
  5
41
330
2
100
AcDbEntity
  8
ADP2DETAIL
  6
AI9-LType2
 62
     5
100
AcDbLine
 10
-8.523737428758263
 20
-36.80648400356979
 30
0.0
 11
-8.257136349209298
 21
-36.80648400356979
 31
0.0
  0
LINE
  5
42
330
2
100
AcDbEntity
  8
ADP2DETAIL
  6
AI9-LType2
 62
     5
100
AcDbLine
 10
-8.276446240485041
 20
-36.44302201778281
 30
0.0
 11
-8.523737428758263
 21
-36.44302201778281
 31
0.0
  0
SPLINE
  5
43
330
2
100
AcDbEntity
  8
ADP1DETAIL
 62
     7
100
AcDbSpline
210
0.0
220
0.0
230
1.0
 70
     8
 71
     3
 72
    38
 73
    34
 74
     0
 42
0.0000000001
 43
0.0000000001
 40
0.0
 40
0.0
 40
0.0
 40
0.0
 40
1.0
 40
1.0
 40
1.0
 40
2.0
 40
2.0
 40
2.0
 40
3.0
 40
3.0
 40
3.0
 40
4.0
 40
4.0
 40
4.0
 40
5.0
 40
5.0
 40
5.0
 40
6.0
 40
6.0
 40
6.0
 40
7.0
 40
7.0
 40
7.0
 40
8.0
 40
8.0
 40
8.0
 40
9.0
 40
9.0
 40
9.0
 40
10.0
 40
10.0
 40
10.0
 40
11.0
 40
11.0
 40
11.0
 40
11.0
 10
-7.042641291529889
 20
-36.21169224806222
 30
0.0
 10
-6.515890808633926
 20
-36.15437953781744
 30
0.0
 10
-6.290019037957827
 20
-35.9909547904474
 30
0.0
 10
-6.087576629421814
 20
-35.606314214229
 30
0.0
 10
-6.003173717555261
 20
-35.44560608683731
 30
0.0
 10
-5.96424248514449
 20
-35.27119416563708
 30
0.0
 10
-5.948358542320894
 20
-35.12232113289827
 30
0.0
 10
-5.939326496401596
 20
-35.03791822103171
 30
0.0
 10
-5.937146347386592
 20
-34.96161300550661
 30
0.0
 10
-5.938392146823738
 20
-34.9011917328051
 30
0.0
 10
-5.939949396120168
 20
-34.81336287248639
 30
0.0
 10
-5.848071687630747
 20
-34.67383333552618
 30
0.0
 10
-5.684560511505506
 20
-34.67383333552618
 30
0.0
 10
-5.684560511505506
 20
-34.67383333552618
 30
0.0
 10
-5.68269181234979
 20
-34.44429478923228
 30
0.0
 10
-5.68269181234979
 20
-34.44429478923228
 30
0.0
 10
-5.751522231252033
 20
-34.44429478923228
 30
0.0
 10
-6.374110499965094
 20
-34.44491768895086
 30
0.0
 10
-6.470659956343808
 20
-34.44429478923228
 30
0.0
 10
-6.470659956343808
 20
-34.44429478923228
 30
0.0
 10
-6.470659956343808
 20
-34.57416938055462
 30
0.0
 10
-6.470659956343808
 20
-34.57416938055462
 30
0.0
 10
-6.470659956343808
 20
-34.57416938055462
 30
0.0
 10
-6.470037056625235
 20
-34.63427920339685
 30
0.0
 10
-6.470659956343808
 20
-34.72615691188626
 30
0.0
 10
-6.471905755780953
 20
-34.91645277591012
 30
0.0
 10
-6.524400372245324
 20
-35.26590571983451
 30
0.0
 10
-6.832863914783587
 20
-35.46260458891866
 30
0.0
 10
-7.134764422735926
 20
-35.66586004383991
 30
0.0
 10
-7.52854767689115
 20
-35.60029378732394
 30
0.0
 10
-7.633556557765871
 20
-35.5675106258872
 30
0.0
 10
-7.823885150257567
 20
-35.55439738785552
 30
0.0
 10
-8.042699234622176
 20
-35.40865759760315
 30
0.0
 10
-8.307639991590647
 20
-35.31601910546438
 30
0.0
  0
SPLINE
  5
44
330
2
100
AcDbEntity
  8
ADP1DETAIL
 62
     7
100
AcDbSpline
210
0.0
220
0.0
230
1.0
 70
     8
 71
     3
 72
    26
 73
    22
 74
     0
 42
0.0000000001
 43
0.0000000001
 40
0.0
 40
0.0
 40
0.0
 40
0.0
 40
1.0
 40
1.0
 40
1.0
 40
2.0
 40
2.0
 40
2.0
 40
3.0
 40
3.0
 40
3.0
 40
4.0
 40
4.0
 40
4.0
 40
5.0
 40
5.0
 40
5.0
 40
6.0
 40
6.0
 40
6.0
 40
7.0
 40
7.0
 40
7.0
 40
7.0
 10
-8.312885874021523
 20
-35.30778728068471
 30
0.0
 10
-8.312885874021523
 20
-35.30778728068471
 30
0.0
 10
-8.422827674349544
 20
-35.29252623757971
 30
0.0
 10
-8.547719067923297
 20
-35.29252623757971
 30
0.0
 10
-8.547719067923297
 20
-35.29252623757971
 30
0.0
 10
-8.552390815812593
 20
-37.9778469243451
 30
0.0
 10
-8.552390815812593
 20
-37.9778469243451
 30
0.0
 10
-8.552390815812593
 20
-37.9778469243451
 30
0.0
 10
-8.403829232933086
 20
-37.97566677533008
 30
0.0
 10
-8.403829232933086
 20
-37.97566677533008
 30
0.0
 10
-8.403829232933086
 20
-37.97566677533008
 30
0.0
 10
-8.22443411398425
 20
-37.62123683546242
 30
0.0
 10
-8.22443411398425
 20
-37.62123683546242
 30
0.0
 10
-8.22443411398425
 20
-37.62123683546242
 30
0.0
 10
-8.228794412014256
 20
-36.40533658480919
 30
0.0
 10
-8.228794412014256
 20
-36.40533658480919
 30
0.0
 10
-8.228794412014256
 20
-36.40533658480919
 30
0.0
 10
-8.221319615391387
 20
-36.28013374137616
 30
0.0
 10
-8.121655660419815
 20
-36.28013374137616
 30
0.0
 10
-8.021991705448236
 20
-36.28013374137616
 30
0.0
 10
-7.458890359858836
 20
-36.25521775263326
 30
0.0
 10
-7.042641291529889
 20
-36.21169224806222
 30
0.0
  0
SPLINE
  5
45
330
2
100
AcDbEntity
  8
ADP1DETAIL
 62
     7
100
AcDbSpline
210
0.0
220
0.0
230
1.0
 70
     8
 71
     3
 72
    17
 73
    13
 74
     0
 42
0.0000000001
 43
0.0000000001
 40
0.0
 40
0.0
 40
0.0
 40
0.0
 40
1.0
 40
1.0
 40
1.0
 40
2.0
 40
2.0
 40
2.0
 40
3.0
 40
3.0
 40
3.0
 40
4.0
 40
4.0
 40
4.0
 40
4.0
 10
-8.403829232933086
 20
-37.97566677533008
 30
0.0
 10
-8.403829232933086
 20
-37.97566677533008
 30
0.0
 10
-8.4035177830738
 20
-35.65411952421094
 30
0.0
 10
-8.4035177830738
 20
-35.55227542022436
 30
0.0
 10
-8.4035177830738
 20
-35.45074276609707
 30
0.0
 10
-8.258693598505729
 20
-35.38938714381771
 30
0.0
 10
-8.101722869425497
 20
-35.4364160725699
 30
0.0
 10
-8.101722869425497
 20
-35.4364160725699
 30
0.0
 10
-7.771380677070197
 20
-35.6855299340662
 30
0.0
 10
-7.239773303610647
 20
-35.65930342482406
 30
0.0
 10
-6.498148168401655
 20
-35.58062389709765
 30
0.0
 10
-6.420516528998733
 20
-34.90321391347197
 30
0.0
 10
-6.447924116615917
 20
-34.43853072341701
 30
0.0
  0
SPLINE
  5
46
330
2
100
AcDbEntity
  8
ADP1DETAIL
 62
     7
100
AcDbSpline
210
0.0
220
0.0
230
1.0
 70
     8
 71
     3
 72
    17
 73
    13
 74
     0
 42
0.0000000001
 43
0.0000000001
 40
0.0
 40
0.0
 40
0.0
 40
0.0
 40
1.0
 40
1.0
 40
1.0
 40
2.0
 40
2.0
 40
2.0
 40
3.0
 40
3.0
 40
3.0
 40
4.0
 40
4.0
 40
4.0
 40
4.0
 10
-3.723360747580472
 20
-35.62640048673448
 30
0.0
 10
-3.318787380367732
 20
-35.77465061975468
 30
0.0
 10
-3.029450461090877
 20
-36.16365149400313
 30
0.0
 10
-3.029450461090877
 20
-36.62023698771667
 30
0.0
 10
-3.029450461090877
 20
-37.2051398234561
 30
0.0
 10
-3.503165697065147
 20
-37.67885505943035
 30
0.0
 10
-4.087757082945295
 20
-37.67885505943035
 30
0.0
 10
-4.672348468825442
 20
-37.67885505943035
 30
0.0
 10
-5.146063704799712
 20
-37.2051398234561
 30
0.0
 10
-5.146063704799712
 20
-36.62023698771667
 30
0.0
 10
-5.146063704799712
 20
-36.18202703570101
 30
0.0
 10
-4.879774075110034
 20
-35.80579560568331
 30
0.0
 10
-4.499805246780902
 20
-35.64508747829165
 30
0.0
  0
SPLINE
  5
47
330
2
100
AcDbEntity
  8
ADP1DETAIL
 62
     7
100
AcDbSpline
210
0.0
220
0.0
230
1.0
 70
     8
 71
     3
 72
    17
 73
    13
 74
     0
 42
0.0000000001
 43
0.0000000001
 40
0.0
 40
0.0
 40
0.0
 40
0.0
 40
1.0
 40
1.0
 40
1.0
 40
2.0
 40
2.0
 40
2.0
 40
3.0
 40
3.0
 40
3.0
 40
4.0
 40
4.0
 40
4.0
 40
4.0
 10
-3.197633385105411
 20
-36.33806341520339
 30
0.0
 10
-3.197633385105411
 20
-36.33806341520339
 30
0.0
 10
-3.948850445703661
 20
-36.33806341520339
 30
0.0
 10
-3.948850445703661
 20
-36.33806341520339
 30
0.0
 10
-3.948850445703661
 20
-36.32124512280192
 30
0.0
 10
-4.0133205665759
 20
-36.30785277885261
 30
0.0
 10
-4.092740280693873
 20
-36.30785277885261
 30
0.0
 10
-4.171848544952561
 20
-36.30785277885261
 30
0.0
 10
-4.236318665824799
 20
-36.32124512280192
 30
0.0
 10
-4.236318665824799
 20
-36.33806341520339
 30
0.0
 10
-4.236318665824799
 20
-36.33806341520339
 30
0.0
 10
-4.9728975830366
 20
-36.33806341520339
 30
0.0
 10
-4.9728975830366
 20
-36.33806341520339
 30
0.0
  0
LINE
  5
48
330
2
100
AcDbEntity
  8
ADP1DETAIL
 62
     7
100
AcDbLine
 10
-6.447924116615917
 20
-34.62898624725881
 30
0.0
 11
-5.685877483267788
 21
-34.63003680164496
 31
0.0
  0
DIMENSION
  5
49
330
2
100
AcDbEntity
  8
ADPDIM
 62
     3
100
AcDbDimension
  2
*D0
 10
-6.062615591727904
 20
-33.94922194636912
 30
0.0
 11
-7.310939474005714
 21
-33.94922194636912
 31
0.0
 71
     5
 42
2.49664776455562
  3
Standard
100
AcDbAlignedDimension
 13
-8.559263356283524
 23
-35.11748643847127
 33
0.0
 14
-6.062615591727904
 24
-34.23762836513045
 34
0.0
100
AcDbRotatedDimension
1001
ACAD
1000
DSTYLE
1002
{
1070
     3
1000
"
1070
   276
1070
     2
1070
   277
1070
     5
1002
}
  0
DIMENSION
  5
60
330
2
100
AcDbEntity
  8
ADPDIM
 62
     3
100
AcDbDimension
  2
*D1
 10
-3.086457053094073
 20
-33.27077504405812
 30
0.0
 11
-4.077740326214836
 21
-33.27077504405812
 31
0.0
 70
   128
 71
     5
 42
1.996063576416737
  3
Standard
100
AcDbAlignedDimension
 13
-5.082520629510811
 23
-34.12223062671792
 33
0.0
 14
-3.086457053094073
 24
-34.12223062671792
 34
0.0
100
AcDbRotatedDimension
1001
ACAD
1000
DSTYLE
1002
{
1070
     3
1000
"
1070
   276
1070
     2
1070
   277
1070
     5
1002
}
  0
DIMENSION
  5
6E
330
2
100
AcDbEntity
  8
ADPDIM
 62
     3
100
AcDbDimension
  2
*D2
 10
-3.397183401696565
 20
-33.8937166739943
 30
0.0
 11
-4.084683401696565
 21
-33.8937166739943
 31
0.0
 71
     5
 42
1.375
  3
Standard
100
AcDbAlignedDimension
 13
-4.772183401696565
 23
-34.11071667399431
 33
0.0
 14
-3.397183401696565
 24
-34.11071667399431
 34
0.0
100
AcDbRotatedDimension
1001
ACAD
1000
DSTYLE
1002
{
1070
     3
1000
"
1070
   276
1070
     2
1070
   277
1070
     5
1002
}
  0
DIMENSION
  5
7C
330
2
100
AcDbEntity
  8
ADPDIM
 62
     3
100
AcDbDimension
  2
*D3
 10
-2.398534374291013
 20
-34.45802829877831
 30
0.0
 11
-2.398534374291008
 21
-35.53937472061665
 31
0.0
 71
     5
 42
2.162692843676673
  3
Standard
100
AcDbAlignedDimension
 13
-3.97276552380469
 23
-36.62072114245499
 33
0.0
 14
-3.05514907282756
 24
-34.45802829877831
 34
0.0
 50
90.0
100
AcDbRotatedDimension
1001
ACAD
1000
DSTYLE
1002
{
1070
     3
1000
"
1070
   276
1070
     2
1070
   277
1070
     5
1002
}
  0
DIMENSION
  5
8A
330
2
100
AcDbEntity
  8
ADPDIM
 62
     3
100
AcDbDimension
  2
*D4
 10
-3.97129745756108
 20
-36.46503516267461
 30
0.0
 11
-5.105553371298196
 21
-37.12431088562302
 31
0.0
 70
     3
 71
     5
 42
0.418622142592497
  3
Standard
100
AcDbDiametricDimension
 15
-4.194019993569158
 25
-36.81949132388903
 35
0.0
 40
0.0
1001
ACAD
1000
DSTYLE
1002
{
1070
     3
1000
"
1070
   276
1070
     2
1070
   277
1070
     5
1002
}
  0
DIMENSION
  5
96
330
2
100
AcDbEntity
  8
ADPDIM
 62
     3
100
AcDbDimension
  2
*D5
 10
-3.006273622049004
 20
-35.78668150614117
 30
0.0
 11
-6.280861019819992
 21
-37.72185183523746
 31
0.0
 70
     3
 71
     5
 42
2.750000000000003
  3
Standard
100
AcDbDiametricDimension
 15
-5.159043829081234
 25
-37.49784498042246
 35
0.0
 40
0.0
1001
ACAD
1000
DSTYLE
1002
{
1070
     3
1000
"
1070
   276
1070
     2
1070
   277
1070
     5
1002
}
  0
DIMENSION
  5
A2
330
2
100
AcDbEntity
  8
ADPDIM
  6
Continuous
 62
     3
370
     0
100
AcDbDimension
  2
*D6
 10
-9.218333991013025
 20
-37.97837232117161
 30
0.0
 11
-9.218333991013018
 21
-36.61855316055632
 31
0.0
 71
     5
 42
2.71963832123059
  3
Standard
100
AcDbAlignedDimension
 13
-8.527393935467571
 23
-35.25873399994102
 33
0.0
 14
-8.568850392510299
 24
-37.97837232117161
 34
0.0
 50
90.0
100
AcDbRotatedDimension
1001
ACAD
1000
DSTYLE
1002
{
1070
     3
1000
"
1070
   276
1070
     2
1070
   277
1070
     5
1070
   278
1070
     0
1070
   371
1070
     0
1070
   372
1070
     0
1002
}
  0
MTEXT
  5
B0
102
{ACAD_REACTORS
330
B1
102
}
330
2
100
AcDbEntity
  8
ADPDIM
  6
Continuous
 62
     3
370
     0
100
AcDbMText
 10
-6.821115052674969
 20
-35.04848053695809
 30
0.0
 40
0.18
 41
0.0
 71
     9
 72
     1
  1
Ctsk for\P#10 FHMS
 73
     1
 44
1.0
1001
ACAD
1000
MTEXTBEGIN
1070
    73
1070
     1
1070
    44
1040
1.0
1070
    74
1070
     0
1000
MTEXTEND
  0
LEADER
  5
B1
330
2
100
AcDbEntity
  8
ADPDIM
  6
Continuous
 62
     3
370
     0
100
AcDbLeader
  3
Standard
 73
     0
 75
     1
 40
0.48
 41
1.379999999999999
 76
     3
 10
-6.080231257971032
 20
-34.65269986706396
 30
0.0
 10
-6.551115052674969
 20
-34.95848053695809
 30
0.0
 10
-6.731115052674969
 20
-34.95848053695809
 30
0.0
340
B0
213
0.0
223
0.09
233
0.0
1001
ACAD
1000
DSTYLE
1002
{
1070
   147
1040
0.09
1070
    77
1070
     0
1070
   278
1070
     0
1070
   371
1070
     0
1070
   372
1070
     0
1002
}
  0
ENDSEC
  0
SECTION
  2
OBJECTS
  0
DICTIONARY
  5
8
330
0
100
AcDbDictionary
281
     1
  3
ACAD_COLOR
350
CB
  3
ACAD_GROUP
350
C8
  3
ACAD_LAYOUT
350
B4
  3
ACAD_MATERIAL
350
5A
  3
ACAD_MLINESTYLE
350
C9
  3
ACAD_PLOTSETTINGS
350
CA
  3
ACAD_PLOTSTYLENAME
350
7
  3
ACDBHEADERROUNDTRIPXREC
350
D1
  3
AcDbVariableDictionary
350
CD
  0
DICTIONARY
  5
BA
330
B9
100
AcDbDictionary
280
     1
281
     1
  3
ACAD_LAYERSTATES
360
BB
  0
DICTIONARY
  5
57
330
56
100
AcDbDictionary
280
     1
281
     1
  3
ACAD_XREC_ROUNDTRIP
360
58
  0
DICTIONARY
  5
3
330
2
100
AcDbDictionary
280
     1
281
     1
  0
DICTIONARY
  5
CB
102
{ACAD_REACTORS
330
8
102
}
330
8
100
AcDbDictionary
281
     1
  0
DICTIONARY
  5
C8
102
{ACAD_REACTORS
330
8
102
}
330
8
100
AcDbDictionary
281
     1
  0
DICTIONARY
  5
B4
102
{ACAD_REACTORS
330
8
102
}
330
8
100
AcDbDictionary
281
     1
  3
Layout1
350
B8
  3
Model
350
B3
  0
DICTIONARY
  5
5A
102
{ACAD_REACTORS
330
8
102
}
330
8
100
AcDbDictionary
281
     1
  3
Global
350
59
  0
DICTIONARY
  5
C9
102
{ACAD_REACTORS
330
8
102
}
330
8
100
AcDbDictionary
281
     1
  3
Standard
350
CC
  0
DICTIONARY
  5
CA
102
{ACAD_REACTORS
330
8
102
}
330
8
100
AcDbDictionary
281
     1
  0
ACDBDICTIONARYWDFLT
  5
7
102
{ACAD_REACTORS
330
8
102
}
330
8
100
AcDbDictionary
281
     1
  3
Normal
350
6
100
AcDbDictionaryWithDefault
340
6
  0
DICTIONARY
  5
D1
102
{ACAD_REACTORS
330
8
102
}
330
8
100
AcDbDictionary
281
     1
  3
COLORDICT
350
D3
  3
MATERIALDICT
350
D2
  0
DICTIONARY
  5
CD
102
{ACAD_REACTORS
330
8
102
}
330
8
100
AcDbDictionary
281
     1
  3
DIMASSOC
350
CF
  3
HIDETEXT
350
CE
  3
PROJECTNAME
350
D0
  0
DICTIONARY
  5
BB
102
{ACAD_REACTORS
330
BA
102
}
330
BA
100
AcDbDictionary
281
     1
  0
XRECORD
  5
58
102
{ACAD_REACTORS
330
57
102
}
330
57
100
AcDbXrecord
280
     1
102
MATERIAL
340
59
  0
LAYOUT
  5
B8
102
{ACAD_XDICTIONARY
360
D7
102
}
102
{ACAD_REACTORS
330
B4
102
}
330
B4
100
AcDbPlotSettings
  1

  2

  4

  6

 40
0.0
 41
0.0
 42
0.0
 43
0.0
 44
0.0
 45
0.0
 46
0.0
 47
0.0
 48
0.0
 49
0.0
140
0.0
141
0.0
142
1.0
143
1.0
 70
     0
 72
     0
 73
     0
 74
     0
  7

 75
     0
147
1.0
148
0.0
149
0.0
100
AcDbLayout
  1
Layout1
 70
     0
 71
     1
 10
0.0
 20
0.0
 11
12.0
 21
9.0
 12
0.0
 22
0.0
 32
0.0
 14
1.000000000000000E+20
 24
1.000000000000000E+20
 34
1.000000000000000E+20
 15
-1.000000000000000E+20
 25
-1.000000000000000E+20
 35
-1.000000000000000E+20
146
0.0
 13
0.0
 23
0.0
 33
0.0
 16
1.0
 26
0.0
 36
0.0
 17
0.0
 27
1.0
 37
0.0
 76
     0
330
B5
  0
LAYOUT
  5
B3
102
{ACAD_XDICTIONARY
360
D5
102
}
102
{ACAD_REACTORS
330
B4
102
}
330
B4
100
AcDbPlotSettings
  1

  2

  4

  6

 40
0.0
 41
0.0
 42
0.0
 43
0.0
 44
0.0
 45
0.0
 46
0.0
 47
0.0
 48
0.0
 49
0.0
140
0.0
141
0.0
142
1.0
143
1.0
 70
  1024
 72
     0
 73
     0
 74
     0
  7

 75
     0
147
1.0
148
0.0
149
0.0
100
AcDbLayout
  1
Model
 70
     0
 71
     0
 10
0.0
 20
0.0
 11
0.0
 21
0.0
 12
0.0
 22
0.0
 32
0.0
 14
0.0
 24
0.0
 34
0.0
 15
0.0
 25
0.0
 35
0.0
146
0.0
 13
0.0
 23
0.0
 33
0.0
 16
0.0
 26
0.0
 36
0.0
 17
0.0
 27
0.0
 37
0.0
 76
     0
330
2
  0
MATERIAL
  5
59
102
{ACAD_XDICTIONARY
360
5B
102
}
102
{ACAD_REACTORS
330
5A
102
}
330
5A
100
AcDbMaterial
  1
Global
  0
MLINESTYLE
  5
CC
102
{ACAD_REACTORS
330
C9
102
}
330
C9
100
AcDbMlineStyle
  2
STANDARD
 70
     0
  3

 62
     0
 51
90.0
 52
90.0
 71
     2
 49
0.5
 62
   256
  6
BYLAYER
 49
-0.5
 62
   256
  6
BYLAYER
  0
ACDBPLACEHOLDER
  5
6
102
{ACAD_REACTORS
330
7
102
}
330
7
  0
XRECORD
  5
D3
102
{ACAD_REACTORS
330
D1
102
}
330
D1
100
AcDbXrecord
280
     1
340
CB
  0
XRECORD
  5
D2
102
{ACAD_REACTORS
330
D1
102
}
330
D1
100
AcDbXrecord
280
     1
340
5A
  0
DICTIONARYVAR
  5
CF
102
{ACAD_REACTORS
330
CD
102
}
330
CD
100
DictionaryVariables
280
     0
  1
1
  0
DICTIONARYVAR
  5
CE
102
{ACAD_REACTORS
330
CD
102
}
330
CD
100
DictionaryVariables
280
     0
  1
1
  0
DICTIONARYVAR
  5
D0
102
{ACAD_REACTORS
330
CD
102
}
330
CD
100
DictionaryVariables
280
     0
  1

  0
DICTIONARY
  5
D7
330
B8
100
AcDbDictionary
280
     1
281
     1
  3
ACAD_XREC_ROUNDTRIP
360
D8
  0
DICTIONARY
  5
D5
330
B3
100
AcDbDictionary
280
     1
281
     1
  3
ACAD_XREC_ROUNDTRIP
360
D6
  0
DICTIONARY
  5
5B
330
59
100
AcDbDictionary
280
     1
281
     1
  3
ACAD_XREC_ROUNDTRIP
360
5C
  0
XRECORD
  5
D8
102
{ACAD_REACTORS
330
D7
102
}
330
D7
100
AcDbXrecord
280
     1
102
SHADEPLOT
 70
     0
102
SHADEPLOTRESLEVEL
 70
     2
102
SHADEPLOTCUSTOMDPI
 70
   300
  0
XRECORD
  5
D6
102
{ACAD_REACTORS
330
D5
102
}
330
D5
100
AcDbXrecord
280
     1
102
SHADEPLOT
 70
     0
102
SHADEPLOTRESLEVEL
 70
     2
102
SHADEPLOTCUSTOMDPI
 70
   300
  0
XRECORD
  5
5C
102
{ACAD_REACTORS
330
5B
102
}
330
5B
100
AcDbXrecord
280
     1
102
MATERIAL
148
0.0
149
0.0
149
0.0
 93
        0
 94
       63
282
     0
 72
     1
 77
     1
171
     1
175
     1
179
     1
273
     0
  0
ENDSEC
  0
EOF
