  0
SECTION
  2
HEADER
  9
$ACADVER
  1
AC1014
  9
$ACADMAINTVER
 70
     9
  9
$DWGCODEPAGE
  3
ANSI_1252
  9
$INSBASE
 10
10.78522356072512
 20
1.542745098039216
 30
0.0
  9
$EXTMIN
 10
2.967504514224472
 20
0.2001924521671756
 30
0.0
  9
$EXTMAX
 10
12.6558571745246
 20
2.251722495386412
 30
0.0
  9
$LIMMIN
 10
0.0
 20
0.0
  9
$LIMMAX
 10
36.0
 20
36.0
  9
$ORTHOMODE
 70
     1
  9
$REGENMODE
 70
     1
  9
$FILLMODE
 70
     1
  9
$QTEXTMODE
 70
     0
  9
$MIRRTEXT
 70
     1
  9
$DRAGMODE
 70
     0
  9
$LTSCALE
 40
1.0
  9
$OSMODE
 70
    37
  9
$ATTMODE
 70
     1
  9
$TEXTSIZE
 40
0.2
  9
$TRACEWID
 40
0.05
  9
$TEXTSTYLE
  7
STANDARD
  9
$CLAYER
  8
ADPDIM
  9
$CELTYPE
  6
BYLAYER
  9
$CECOLOR
 62
   256
  9
$CELTSCALE
 40
1.0
  9
$DELOBJ
 70
     1
  9
$DISPSILH
 70
     0
  9
$DIMSCALE
 40
1.0
  9
$DIMASZ
 40
0.125
  9
$DIMEXO
 40
0.0625
  9
$DIMDLI
 40
0.38
  9
$DIMRND
 40
0.0
  9
$DIMDLE
 40
0.0
  9
$DIMEXE
 40
0.18
  9
$DIMTP
 40
0.0
  9
$DIMTM
 40
0.0
  9
$DIMTXT
 40
0.125
  9
$DIMCEN
 40
0.1875
  9
$DIMTSZ
 40
0.125
  9
$DIMTOL
 70
     0
  9
$DIMLIM
 70
     0
  9
$DIMTIH
 70
     0
  9
$DIMTOH
 70
     0
  9
$DIMSE1
 70
     0
  9
$DIMSE2
 70
     0
  9
$DIMTAD
 70
     0
  9
$DIMZIN
 70
     3
  9
$DIMBLK
  1

  9
$DIMASO
 70
     1
  9
$DIMSHO
 70
     1
  9
$DIMPOST
  1

  9
$DIMAPOST
  1

  9
$DIMALT
 70
     0
  9
$DIMALTD
 70
     1
  9
$DIMALTF
 40
25.4
  9
$DIMLFAC
 40
1.0
  9
$DIMTOFL
 70
     0
  9
$DIMTVP
 40
0.0
  9
$DIMTIX
 70
     0
  9
$DIMSOXD
 70
     0
  9
$DIMSAH
 70
     0
  9
$DIMBLK1
  1

  9
$DIMBLK2
  1

  9
$DIMSTYLE
  2
STANDARD
  9
$DIMCLRD
 70
     0
  9
$DIMCLRE
 70
     0
  9
$DIMCLRT
 70
     0
  9
$DIMTFAC
 40
1.0
  9
$DIMGAP
 40
0.125
  9
$DIMJUST
 70
     0
  9
$DIMSD1
 70
     0
  9
$DIMSD2
 70
     0
  9
$DIMTOLJ
 70
     1
  9
$DIMTZIN
 70
     3
  9
$DIMALTZ
 70
     3
  9
$DIMALTTZ
 70
     3
  9
$DIMFIT
 70
     5
  9
$DIMUPT
 70
     0
  9
$DIMUNIT
 70
     5
  9
$DIMDEC
 70
     4
  9
$DIMTDEC
 70
     4
  9
$DIMALTU
 70
     5
  9
$DIMALTTD
 70
     1
  9
$DIMTXSTY
  7
STANDARD
  9
$DIMAUNIT
 70
     0
  9
$LUNITS
 70
     5
  9
$LUPREC
 70
     5
  9
$SKETCHINC
 40
0.1
  9
$FILLETRAD
 40
0.0
  9
$AUNITS
 70
     0
  9
$AUPREC
 70
     0
  9
$MENU
  1
acad
  9
$ELEVATION
 40
0.0
  9
$PELEVATION
 40
0.0
  9
$THICKNESS
 40
0.0
  9
$LIMCHECK
 70
     0
  9
$BLIPMODE
 70
     0
  9
$CHAMFERA
 40
0.0
  9
$CHAMFERB
 40
0.0
  9
$CHAMFERC
 40
0.0
  9
$CHAMFERD
 40
0.0
  9
$SKPOLY
 70
     0
  9
$TDCREATE
 40
2450365.663488611
  9
$TDUPDATE
 40
2452297.063502234
  9
$TDINDWG
 40
0.0112829745
  9
$TDUSRTIMER
 40
0.0112829745
  9
$USRTIMER
 70
     1
  9
$ANGBASE
 50
0.0
  9
$ANGDIR
 70
     0
  9
$PDMODE
 70
     0
  9
$PDSIZE
 40
0.0
  9
$PLINEWID
 40
0.0
  9
$COORDS
 70
     2
  9
$SPLFRAME
 70
     0
  9
$SPLINETYPE
 70
     6
  9
$SPLINESEGS
 70
     8
  9
$ATTDIA
 70
     0
  9
$ATTREQ
 70
     1
  9
$HANDLING
 70
 22529
  9
$HANDSEED
  5
1B8
  9
$SURFTAB1
 70
     6
  9
$SURFTAB2
 70
     6
  9
$SURFTYPE
 70
     6
  9
$SURFU
 70
     6
  9
$SURFV
 70
     6
  9
$UCSNAME
  2

  9
$UCSORG
 10
0.0
 20
0.0
 30
0.0
  9
$UCSXDIR
 10
1.0
 20
0.0
 30
0.0
  9
$UCSYDIR
 10
0.0
 20
1.0
 30
0.0
  9
$PUCSNAME
  2

  9
$PUCSORG
 10
0.0
 20
0.0
 30
0.0
  9
$PUCSXDIR
 10
1.0
 20
0.0
 30
0.0
  9
$PUCSYDIR
 10
0.0
 20
1.0
 30
0.0
  9
$USERI1
 70
     0
  9
$USERI2
 70
     0
  9
$USERI3
 70
     0
  9
$USERI4
 70
     0
  9
$USERI5
 70
     0
  9
$USERR1
 40
0.0
  9
$USERR2
 40
0.0
  9
$USERR3
 40
0.0
  9
$USERR4
 40
0.0
  9
$USERR5
 40
0.0
  9
$WORLDVIEW
 70
     1
  9
$SHADEDGE
 70
     3
  9
$SHADEDIF
 70
    70
  9
$TILEMODE
 70
     1
  9
$MAXACTVP
 70
    15
  9
$PINSBASE
 10
0.0
 20
1.185938525249334E+80
 30
0.125976562521828
  9
$PLIMCHECK
 70
     0
  9
$PEXTMIN
 10
1.000000000000000E+20
 20
1.000000000000000E+20
 30
1.000000000000000E+20
  9
$PEXTMAX
 10
-1.000000000000000E+20
 20
-1.000000000000000E+20
 30
-1.000000000000000E+20
  9
$PLIMMIN
 10
0.0
 20
0.0
  9
$PLIMMAX
 10
12.0
 20
9.0
  9
$UNITMODE
 70
     0
  9
$VISRETAIN
 70
     0
  9
$PLINEGEN
 70
     0
  9
$PSLTSCALE
 70
     1
  9
$TREEDEPTH
 70
  3020
  9
$PICKSTYLE
 70
     1
  9
$CMLSTYLE
  2
STANDARD
  9
$CMLJUST
 70
     0
  9
$CMLSCALE
 40
1.0
  9
$PROXYGRAPHICS
 70
     1
  9
$MEASUREMENT
 70
     0
  0
ENDSEC
  0
SECTION
  2
CLASSES
  0
CLASS
  1
DICTIONARYVAR
  2
AcDbDictionaryVar
  3
AutoCAD 2000
 90
        0
280
     0
281
     0
  0
CLASS
  1
ACDBDICTIONARYWDFLT
  2
AcDbDictionaryWithDefault
  3
AutoCAD 2000
 90
        0
280
     0
281
     0
  0
CLASS
  1
ACDBPLACEHOLDER
  2
AcDbPlaceHolder
  3
AutoCAD 2000
 90
        0
280
     0
281
     0
  0
CLASS
  1
LAYOUT
  2
AcDbLayout
  3
AutoCAD 2000
 90
        0
280
     0
281
     0
  0
CLASS
  1
LONG_TRANSACTION
  2
AcDbLongTransaction
  3
AutoCAD 2000
 90
        0
280
     0
281
     0
  0
CLASS
  1
LWPOLYLINE
  2
AcDbPolyline
  3
AutoCAD 2000
 90
        0
280
     0
281
     1
  0
CLASS
  1
HATCH
  2
AcDbHatch
  3
AutoCAD 2000
 90
        0
280
     0
281
     1
  0
CLASS
  1
XRECORD
  2
AcDbXrecord
  3
AutoCAD 2000
 90
        0
280
     0
281
     0
  0
CLASS
  1
LONG_TRANSACTION
  2
AcDbLongTransaction
  3
AutoCAD 2000
 90
        0
280
     0
281
     0
  0
CLASS
  1
LWPOLYLINE
  2
AcDbPolyline
  3
AutoCAD 2000
 90
        0
280
     0
281
     1
  0
CLASS
  1
HATCH
  2
AcDbHatch
  3
AutoCAD 2000
 90
        0
280
     0
281
     1
  0
CLASS
  1
XRECORD
  2
AcDbXrecord
  3
AutoCAD 2000
 90
        0
280
     0
281
     0
  0
CLASS
  1
LONG_TRANSACTION
  2
AcDbLongTransaction
  3
AutoCAD 2000
 90
        0
280
     0
281
     0
  0
CLASS
  1
LWPOLYLINE
  2
AcDbPolyline
  3
AutoCAD 2000
 90
        0
280
     0
281
     1
  0
CLASS
  1
HATCH
  2
AcDbHatch
  3
AutoCAD 2000
 90
        0
280
     0
281
     1
  0
CLASS
  1
XRECORD
  2
AcDbXrecord
  3
AutoCAD 2000
 90
        0
280
     0
281
     0
  0
CLASS
  1
LONG_TRANSACTION
  2
AcDbLongTransaction
  3
AutoCAD 2000
 90
        0
280
     0
281
     0
  0
CLASS
  1
LWPOLYLINE
  2
AcDbPolyline
  3
AutoCAD 2000
 90
        0
280
     0
281
     1
  0
CLASS
  1
HATCH
  2
AcDbHatch
  3
AutoCAD 2000
 90
        0
280
     0
281
     1
  0
CLASS
  1
XRECORD
  2
AcDbXrecord
  3
AutoCAD 2000
 90
        0
280
     0
281
     0
  0
CLASS
  1
LONG_TRANSACTION
  2
AcDbLongTransaction
  3
AutoCAD 2000
 90
        0
280
     0
281
     0
  0
CLASS
  1
LWPOLYLINE
  2
AcDbPolyline
  3
AutoCAD 2000
 90
        0
280
     0
281
     1
  0
CLASS
  1
HATCH
  2
AcDbHatch
  3
AutoCAD 2000
 90
        0
280
     0
281
     1
  0
CLASS
  1
XRECORD
  2
AcDbXrecord
  3
AutoCAD 2000
 90
        0
280
     0
281
     0
  0
ENDSEC
  0
SECTION
  2
TABLES
  0
TABLE
  2
VPORT
  5
8
330
0
100
AcDbSymbolTable
 70
     2
  0
VPORT
  5
194
330
8
100
AcDbSymbolTableRecord
100
AcDbViewportTableRecord
  2
*ACTIVE
 70
     0
 10
0.0
 20
0.0
 11
1.0
 21
1.0
 12
7.811554027036248
 22
1.225904242239709
 13
0.0
 23
0.0
 14
0.5740882589684922
 24
0.5740882589684922
 15
0.5
 25
0.5
 16
0.0
 26
0.0
 36
1.0
 17
0.0
 27
0.0
 37
0.0
 40
6.201264878668126
 41
1.570528967254408
 42
50.0
 43
0.0
 44
0.0
 50
0.0
 51
0.0
 71
     0
 72
   100
 73
     1
 74
     1
 75
     0
 76
     0
 77
     0
 78
     0
  0
ENDTAB
  0
TABLE
  2
LTYPE
  5
5
330
0
100
AcDbSymbolTable
 70
     2
  0
LTYPE
  5
11
330
5
100
AcDbSymbolTableRecord
100
AcDbLinetypeTableRecord
  2
BYBLOCK
 70
     0
  3

 72
    65
 73
     0
 40
0.0
  0
LTYPE
  5
12
330
5
100
AcDbSymbolTableRecord
100
AcDbLinetypeTableRecord
  2
BYLAYER
 70
     0
  3

 72
    65
 73
     0
 40
0.0
  0
LTYPE
  5
13
330
5
100
AcDbSymbolTableRecord
100
AcDbLinetypeTableRecord
  2
CONTINUOUS
 70
     0
  3
Solid line
 72
    65
 73
     0
 40
0.0
  0
LTYPE
  5
1F
330
5
100
AcDbSymbolTableRecord
100
AcDbLinetypeTableRecord
  2
HIDDEN2
 70
     0
  3
_ _ _ _ _ _ _ _ _ _ _ _ _ _ _ _ _ _ _ _ _ _ _ _
 72
    65
 73
     2
 40
0.1875
 49
0.125
 74
     0
 49
-0.0625
 74
     0
  0
ENDTAB
  0
TABLE
  2
LAYER
  5
2
330
0
100
AcDbSymbolTable
 70
     5
  0
LAYER
  5
E
330
2
100
AcDbSymbolTableRecord
100
AcDbLayerTableRecord
  2
0
 70
     0
 62
     7
  6
CONTINUOUS
  0
LAYER
  5
21
330
2
100
AcDbSymbolTableRecord
100
AcDbLayerTableRecord
  2
ADP2DETAIL
 70
     0
 62
     5
  6
CONTINUOUS
  0
LAYER
  5
22
330
2
100
AcDbSymbolTableRecord
100
AcDbLayerTableRecord
  2
ADPDIM
 70
     0
 62
     3
  6
CONTINUOUS
  0
LAYER
  5
23
330
2
100
AcDbSymbolTableRecord
100
AcDbLayerTableRecord
  2
ADP1DETAIL
 70
     0
 62
     7
  6
CONTINUOUS
  0
LAYER
  5
24
330
2
100
AcDbSymbolTableRecord
100
AcDbLayerTableRecord
  2
DEFPOINTS
 70
     0
 62
     7
  6
CONTINUOUS
  0
ENDTAB
  0
TABLE
  2
STYLE
  5
3
330
0
100
AcDbSymbolTable
 70
     2
  0
STYLE
  5
F
330
3
100
AcDbSymbolTableRecord
100
AcDbTextStyleTableRecord
  2
STANDARD
 70
     0
 40
0.0
 41
1.0
 50
0.0
 71
     0
 42
0.2
  3
txt
  4

  0
STYLE
  5
9C
330
3
100
AcDbSymbolTableRecord
100
AcDbTextStyleTableRecord
  2
ARIAL_WIDE
 70
     0
 40
0.0
 41
1.25
 50
0.0
 71
     0
 42
0.2
  3
ARIAL.TTF
  4

1001
ACAD
1000
Arial
1071
       34
  0
ENDTAB
  0
TABLE
  2
VIEW
  5
6
330
0
100
AcDbSymbolTable
 70
     0
  0
ENDTAB
  0
TABLE
  2
UCS
  5
7
330
0
100
AcDbSymbolTable
 70
     0
  0
ENDTAB
  0
TABLE
  2
APPID
  5
9
330
0
100
AcDbSymbolTable
 70
     1
  0
APPID
  5
10
330
9
100
AcDbSymbolTableRecord
100
AcDbRegAppTableRecord
  2
ACAD
 70
     0
  0
ENDTAB
  0
TABLE
  2
DIMSTYLE
  5
A
330
0
100
AcDbSymbolTable
 70
     1
  0
DIMSTYLE
105
9A
330
A
100
AcDbSymbolTableRecord
100
AcDbDimStyleTableRecord
  2
STANDARD
 70
     0
  3

  4

  5

  6

  7

 40
1.0
 41
0.18
 42
0.0625
 43
0.38
 44
0.18
 45
0.0
 46
0.0
 47
0.0
 48
0.0
140
0.18
141
0.09
142
0.0
143
25.4
144
1.0
145
0.0
146
1.0
147
0.09
 71
     0
 72
     0
 73
     1
 74
     1
 75
     0
 76
     0
 77
     0
 78
     0
170
     0
171
     2
172
     0
173
     0
174
     0
175
     0
176
     0
177
     0
178
     0
270
     2
271
     4
272
     4
273
     2
274
     2
340
F
275
     0
280
     0
281
     0
282
     0
283
     1
284
     0
285
     0
286
     0
287
     3
288
     0
  0
ENDTAB
  0
TABLE
  2
BLOCK_RECORD
  5
1
330
0
100
AcDbSymbolTable
 70
     3
  0
BLOCK_RECORD
  5
17
102
{ACAD_XDICTIONARY
360
D5
102
}
330
1
100
AcDbSymbolTableRecord
100
AcDbBlockTableRecord
  2
*MODEL_SPACE
  0
BLOCK_RECORD
  5
14
102
{ACAD_XDICTIONARY
360
D3
102
}
330
1
100
AcDbSymbolTableRecord
100
AcDbBlockTableRecord
  2
*PAPER_SPACE
  0
BLOCK_RECORD
  5
1C
330
1
100
AcDbSymbolTableRecord
100
AcDbBlockTableRecord
  2
*D0
  0
BLOCK_RECORD
  5
1D
330
1
100
AcDbSymbolTableRecord
100
AcDbBlockTableRecord
  2
*D1
  0
BLOCK_RECORD
  5
1E
330
1
100
AcDbSymbolTableRecord
100
AcDbBlockTableRecord
  2
*D2
  0
ENDTAB
  0
ENDSEC
  0
SECTION
  2
BLOCKS
  0
BLOCK
  5
27
330
17
100
AcDbEntity
  8
0
100
AcDbBlockBegin
  2
*MODEL_SPACE
 70
     0
 10
0.0
 20
0.0
 30
0.0
  3
*MODEL_SPACE
  1

  0
ENDBLK
  5
28
330
17
100
AcDbEntity
  8
0
100
AcDbBlockEnd
  0
BLOCK
  5
25
330
14
100
AcDbEntity
 67
     1
  8
0
100
AcDbBlockBegin
  2
*PAPER_SPACE
 70
     0
 10
0.0
 20
0.0
 30
0.0
  3
*PAPER_SPACE
  1

  0
ENDBLK
  5
26
330
14
100
AcDbEntity
 67
     1
  8
0
100
AcDbBlockEnd
  0
BLOCK
  5
2B
330
1C
100
AcDbEntity
  8
0
100
AcDbBlockBegin
  2
*D0
 70
     1
 10
0.0
 20
0.0
 30
0.0
  3
*D0
  1
*U
  0
LINE
  5
2C
330
1C
100
AcDbEntity
  8
0
  6
BYBLOCK
 62
     0
100
AcDbLine
 10
5.058556894058457
 20
1.911911764705885
 30
0.0
 11
5.058556894058457
 21
2.251722495386412
 31
0.0
  0
LINE
  5
2D
330
1C
100
AcDbEntity
  8
0
  6
BYBLOCK
 62
     0
100
AcDbLine
 10
9.058556894058458
 20
1.911911764705885
 30
0.0
 11
9.058556894058458
 21
2.251722495386412
 31
0.0
  0
LINE
  5
2E
330
1C
100
AcDbEntity
  8
0
  6
BYBLOCK
 62
     0
100
AcDbLine
 10
5.058556894058457
 20
2.071722495386412
 30
0.0
 11
6.891890227391791
 21
2.071722495386412
 31
0.0
  0
LINE
  5
2F
330
1C
100
AcDbEntity
  8
0
  6
BYBLOCK
 62
     0
100
AcDbLine
 10
9.058556894058458
 20
2.071722495386412
 30
0.0
 11
7.225223560725125
 21
2.071722495386412
 31
0.0
  0
LINE
  5
30
330
1C
100
AcDbEntity
  8
0
  6
BYBLOCK
 62
     0
100
AcDbLine
 10
4.933556894058457
 20
1.946722495386412
 30
0.0
 11
5.183556894058457
 21
2.196722495386412
 31
0.0
  0
LINE
  5
31
330
1C
100
AcDbEntity
  8
0
  6
BYBLOCK
 62
     0
100
AcDbLine
 10
8.933556894058458
 20
1.946722495386412
 30
0.0
 11
9.183556894058458
 21
2.196722495386412
 31
0.0
  0
TEXT
  5
32
330
1C
100
AcDbEntity
  8
0
  6
BYBLOCK
 62
     0
100
AcDbText
 10
7.016890227391791
 20
2.009222495386412
 30
0.0
 40
0.125
  1
4
 72
     1
 11
7.058556894058458
 21
2.071722495386412
 31
0.0
100
AcDbText
 73
     2
  0
POINT
  5
34
330
1C
100
AcDbEntity
  8
DEFPOINTS
  6
BYBLOCK
 62
     0
100
AcDbPoint
 10
5.058556894058457
 20
1.849411764705885
 30
0.0
  0
POINT
  5
35
330
1C
100
AcDbEntity
  8
DEFPOINTS
  6
BYBLOCK
 62
     0
100
AcDbPoint
 10
9.058556894058458
 20
1.849411764705885
 30
0.0
  0
POINT
  5
36
330
1C
100
AcDbEntity
  8
DEFPOINTS
  6
BYBLOCK
 62
     0
100
AcDbPoint
 10
9.058556894058458
 20
2.071722495386412
 30
0.0
  0
ENDBLK
  5
37
330
1C
100
AcDbEntity
  8
0
100
AcDbBlockEnd
  0
BLOCK
  5
38
330
1D
100
AcDbEntity
  8
0
100
AcDbBlockBegin
  2
*D1
 70
     1
 10
0.0
 20
0.0
 30
0.0
  3
*D1
  1
*U
  0
LINE
  5
39
330
1D
100
AcDbEntity
  8
0
  6
BYBLOCK
 62
     0
100
AcDbLine
 10
9.791890227391789
 20
1.85857843137255
 30
0.0
 11
9.791890227391789
 21
2.251722495386412
 31
0.0
  0
LINE
  5
3A
330
1D
100
AcDbEntity
  8
0
  6
BYBLOCK
 62
     0
100
AcDbLine
 10
10.78522356072512
 20
1.85857843137255
 30
0.0
 11
10.78522356072512
 21
2.251722495386412
 31
0.0
  0
LINE
  5
3B
330
1D
100
AcDbEntity
  8
0
  6
BYBLOCK
 62
     0
100
AcDbLine
 10
9.791890227391789
 20
2.071722495386412
 30
0.0
 11
10.14272356072512
 21
2.071722495386412
 31
0.0
  0
LINE
  5
3C
330
1D
100
AcDbEntity
  8
0
  6
BYBLOCK
 62
     0
100
AcDbLine
 10
10.78522356072512
 20
2.071722495386412
 30
0.0
 11
10.43439022739178
 21
2.071722495386412
 31
0.0
  0
LINE
  5
3D
330
1D
100
AcDbEntity
  8
0
  6
BYBLOCK
 62
     0
100
AcDbLine
 10
9.666890227391789
 20
1.946722495386412
 30
0.0
 11
9.916890227391789
 21
2.196722495386412
 31
0.0
  0
LINE
  5
3E
330
1D
100
AcDbEntity
  8
0
  6
BYBLOCK
 62
     0
100
AcDbLine
 10
10.66022356072512
 20
1.946722495386412
 30
0.0
 11
10.91022356072512
 21
2.196722495386412
 31
0.0
  0
TEXT
  5
3F
330
1D
100
AcDbEntity
  8
0
  6
BYBLOCK
 62
     0
100
AcDbText
 10
10.26772356072512
 20
2.009222495386412
 30
0.0
 40
0.125
  1
1
 72
     1
 11
10.28855689405845
 21
2.071722495386412
 31
0.0
100
AcDbText
 73
     2
  0
POINT
  5
40
330
1D
100
AcDbEntity
  8
DEFPOINTS
  6
BYBLOCK
 62
     0
100
AcDbPoint
 10
9.791890227391789
 20
1.79607843137255
 30
0.0
  0
POINT
  5
41
330
1D
100
AcDbEntity
  8
DEFPOINTS
  6
BYBLOCK
 62
     0
100
AcDbPoint
 10
10.78522356072512
 20
1.79607843137255
 30
0.0
  0
POINT
  5
42
330
1D
100
AcDbEntity
  8
DEFPOINTS
  6
BYBLOCK
 62
     0
100
AcDbPoint
 10
10.78522356072512
 20
2.071722495386412
 30
0.0
  0
ENDBLK
  5
43
330
1D
100
AcDbEntity
  8
0
100
AcDbBlockEnd
  0
BLOCK
  5
44
330
1E
100
AcDbEntity
  8
0
100
AcDbBlockBegin
  2
*D2
 70
     1
 10
0.0
 20
0.0
 30
0.0
  3
*D2
  1
*U
  0
LINE
  5
45
330
1E
100
AcDbEntity
  8
0
  6
BYBLOCK
 62
     0
100
AcDbLine
 10
10.84772356072512
 20
1.79607843137255
 30
0.0
 11
11.16604706235414
 21
1.79607843137255
 31
0.0
  0
LINE
  5
46
330
1E
100
AcDbEntity
  8
0
  6
BYBLOCK
 62
     0
100
AcDbLine
 10
10.84772356072512
 20
1.542745098039216
 30
0.0
 11
11.16604706235414
 21
1.542745098039216
 31
0.0
  0
LINE
  5
47
330
1E
100
AcDbEntity
  8
0
  6
BYBLOCK
 62
     0
100
AcDbLine
 10
10.98604706235414
 20
1.79607843137255
 30
0.0
 11
10.98604706235414
 21
2.046078431372549
 31
0.0
  0
LINE
  5
48
330
1E
100
AcDbEntity
  8
0
  6
BYBLOCK
 62
     0
100
AcDbLine
 10
10.98604706235414
 20
1.542745098039216
 30
0.0
 11
10.98604706235414
 21
1.292745098039216
 31
0.0
  0
LINE
  5
49
330
1E
100
AcDbEntity
  8
0
  6
BYBLOCK
 62
     0
100
AcDbLine
 10
11.11104706235414
 20
1.67107843137255
 30
0.0
 11
10.86104706235414
 21
1.92107843137255
 31
0.0
  0
LINE
  5
4A
330
1E
100
AcDbEntity
  8
0
  6
BYBLOCK
 62
     0
100
AcDbLine
 10
11.11104706235414
 20
1.417745098039216
 30
0.0
 11
10.86104706235414
 21
1.667745098039216
 31
0.0
  0
TEXT
  5
4B
330
1E
100
AcDbEntity
  8
0
  6
BYBLOCK
 62
     0
100
AcDbText
 10
11.04854706235414
 20
0.8760784313725501
 30
0.0
 40
0.125
  1
1/4
 50
90.0
 72
     1
 11
10.98604706235414
 21
1.021911764705883
 31
0.0
100
AcDbText
 73
     2
  0
POINT
  5
4C
330
1E
100
AcDbEntity
  8
DEFPOINTS
  6
BYBLOCK
 62
     0
100
AcDbPoint
 10
10.78522356072512
 20
1.79607843137255
 30
0.0
  0
POINT
  5
4D
330
1E
100
AcDbEntity
  8
DEFPOINTS
  6
BYBLOCK
 62
     0
100
AcDbPoint
 10
10.78522356072512
 20
1.542745098039216
 30
0.0
  0
POINT
  5
4E
330
1E
100
AcDbEntity
  8
DEFPOINTS
  6
BYBLOCK
 62
     0
100
AcDbPoint
 10
10.98604706235414
 20
1.542745098039216
 30
0.0
  0
ENDBLK
  5
4F
330
1E
100
AcDbEntity
  8
0
100
AcDbBlockEnd
  0
ENDSEC
  0
SECTION
  2
ENTITIES
  0
DIMENSION
  5
50
330
17
100
AcDbEntity
  8
ADPDIM
100
AcDbDimension
  2
*D0
 10
9.058556894058458
 20
2.071722495386412
 30
0.0
 11
7.058556894058458
 21
2.071722495386412
 31
0.0
100
AcDbAlignedDimension
 13
5.058556894058457
 23
1.849411764705885
 33
0.0
 14
9.058556894058458
 24
1.849411764705885
 34
0.0
100
AcDbRotatedDimension
  0
LINE
  5
51
330
17
100
AcDbEntity
  8
ADP1DETAIL
100
AcDbLine
 10
9.058556894058458
 20
1.596078431372552
 30
0.0
 11
5.058556894058457
 21
1.596078431372552
 31
0.0
  0
LINE
  5
52
330
17
100
AcDbEntity
  8
ADP1DETAIL
100
AcDbLine
 10
5.058556894058457
 20
1.482745098039217
 30
0.0
 11
9.058556894058458
 21
1.482745098039217
 31
0.0
  0
LINE
  5
53
330
17
100
AcDbEntity
  8
ADP1DETAIL
100
AcDbLine
 10
9.058556894058458
 20
1.849411764705885
 30
0.0
 11
5.058556894058457
 21
1.849411764705885
 31
0.0
  0
LINE
  5
54
330
17
100
AcDbEntity
  8
ADP1DETAIL
100
AcDbLine
 10
5.058556894058457
 20
1.849411764705885
 30
0.0
 11
5.058556894058457
 21
1.482745098039217
 31
0.0
  0
LINE
  5
55
330
17
100
AcDbEntity
  8
ADP2DETAIL
  6
HIDDEN2
100
AcDbLine
 10
5.678556894058457
 20
1.79607843137255
 30
0.0
 11
5.565223560725123
 21
1.47607843137255
 31
0.0
  0
LINE
  5
56
330
17
100
AcDbEntity
  8
ADP2DETAIL
  6
HIDDEN2
100
AcDbLine
 10
5.51189022739179
 20
1.862745098039219
 30
0.0
 11
5.39189022739179
 21
1.509411764705885
 31
0.0
  0
LINE
  5
57
330
17
100
AcDbEntity
  8
ADP1DETAIL
100
AcDbLine
 10
5.558556894058457
 20
1.449411764705886
 30
0.0
 11
5.565223560725123
 21
1.47607843137255
 31
0.0
  0
LINE
  5
58
330
17
100
AcDbEntity
  8
ADP1DETAIL
100
AcDbLine
 10
5.485223560725123
 20
1.482745098039217
 30
0.0
 11
5.558556894058457
 21
1.449411764705886
 31
0.0
  0
LINE
  5
59
330
17
100
AcDbEntity
  8
ADP2DETAIL
  6
HIDDEN2
100
AcDbLine
 10
5.39189022739179
 20
1.509411764705885
 30
0.0
 11
5.485223560725123
 21
1.482745098039217
 31
0.0
  0
LINE
  5
5A
330
17
100
AcDbEntity
  8
ADP2DETAIL
  6
HIDDEN2
100
AcDbLine
 10
5.625223560725124
 20
1.856078431372552
 30
0.0
 11
5.665223560725124
 21
1.836078431372551
 31
0.0
  0
LINE
  5
5B
330
17
100
AcDbEntity
  8
ADP2DETAIL
  6
HIDDEN2
100
AcDbLine
 10
5.665223560725124
 20
1.836078431372551
 30
0.0
 11
5.678556894058457
 21
1.79607843137255
 31
0.0
  0
LINE
  5
5C
330
17
100
AcDbEntity
  8
ADP1DETAIL
100
AcDbLine
 10
5.505223560725124
 20
1.849411764705885
 30
0.0
 11
5.51189022739179
 21
1.862745098039219
 31
0.0
  0
LINE
  5
5D
330
17
100
AcDbEntity
  8
ADP1DETAIL
100
AcDbLine
 10
5.51189022739179
 20
1.862745098039219
 30
0.0
 11
5.51189022739179
 21
1.862745098039219
 31
0.0
  0
LINE
  5
5E
330
17
100
AcDbEntity
  8
ADP1DETAIL
100
AcDbLine
 10
5.51189022739179
 20
1.862745098039219
 30
0.0
 11
5.545223560725124
 21
1.882745098039217
 31
0.0
  0
LINE
  5
5F
330
17
100
AcDbEntity
  8
ADP2DETAIL
  6
HIDDEN2
100
AcDbLine
 10
5.545223560725124
 20
1.882745098039217
 30
0.0
 11
5.638556894058457
 21
1.849411764705885
 31
0.0
  0
LINE
  5
60
330
17
100
AcDbEntity
  8
ADP2DETAIL
  6
HIDDEN2
100
AcDbLine
 10
5.638556894058457
 20
1.849411764705885
 30
0.0
 11
5.505223560725124
 21
1.849411764705885
 31
0.0
  0
LINE
  5
61
330
17
100
AcDbEntity
  8
ADP2DETAIL
  6
HIDDEN2
100
AcDbLine
 10
6.51189022739179
 20
1.862745098039219
 30
0.0
 11
6.385223560725123
 21
1.509411764705885
 31
0.0
  0
LINE
  5
62
330
17
100
AcDbEntity
  8
ADP2DETAIL
  6
HIDDEN2
100
AcDbLine
 10
6.678556894058457
 20
1.79607843137255
 30
0.0
 11
6.565223560725123
 21
1.47607843137255
 31
0.0
  0
LINE
  5
63
330
17
100
AcDbEntity
  8
ADP2DETAIL
  6
HIDDEN2
100
AcDbLine
 10
6.385223560725123
 20
1.509411764705885
 30
0.0
 11
6.485223560725123
 21
1.482745098039217
 31
0.0
  0
LINE
  5
64
330
17
100
AcDbEntity
  8
ADP1DETAIL
100
AcDbLine
 10
6.558556894058457
 20
1.449411764705886
 30
0.0
 11
6.565223560725123
 21
1.47607843137255
 31
0.0
  0
LINE
  5
65
330
17
100
AcDbEntity
  8
ADP1DETAIL
100
AcDbLine
 10
6.485223560725123
 20
1.482745098039217
 30
0.0
 11
6.558556894058457
 21
1.449411764705886
 31
0.0
  0
LINE
  5
66
330
17
100
AcDbEntity
  8
ADP2DETAIL
  6
HIDDEN2
100
AcDbLine
 10
6.625223560725124
 20
1.856078431372552
 30
0.0
 11
6.665223560725124
 21
1.836078431372551
 31
0.0
  0
LINE
  5
67
330
17
100
AcDbEntity
  8
ADP2DETAIL
  6
HIDDEN2
100
AcDbLine
 10
6.665223560725124
 20
1.836078431372551
 30
0.0
 11
6.678556894058457
 21
1.79607843137255
 31
0.0
  0
LINE
  5
68
330
17
100
AcDbEntity
  8
ADP1DETAIL
100
AcDbLine
 10
6.505223560725124
 20
1.849411764705885
 30
0.0
 11
6.51189022739179
 21
1.862745098039219
 31
0.0
  0
LINE
  5
69
330
17
100
AcDbEntity
  8
ADP1DETAIL
100
AcDbLine
 10
6.51189022739179
 20
1.862745098039219
 30
0.0
 11
6.51189022739179
 21
1.862745098039219
 31
0.0
  0
LINE
  5
6A
330
17
100
AcDbEntity
  8
ADP1DETAIL
100
AcDbLine
 10
6.51189022739179
 20
1.862745098039219
 30
0.0
 11
6.545223560725124
 21
1.882745098039217
 31
0.0
  0
LINE
  5
6B
330
17
100
AcDbEntity
  8
ADP1DETAIL
100
AcDbLine
 10
6.638556894058456
 20
1.849411764705885
 30
0.0
 11
6.505223560725124
 21
1.849411764705885
 31
0.0
  0
LINE
  5
6C
330
17
100
AcDbEntity
  8
ADP1DETAIL
100
AcDbLine
 10
6.545223560725124
 20
1.882745098039217
 30
0.0
 11
6.638556894058456
 21
1.849411764705885
 31
0.0
  0
LINE
  5
6D
330
17
100
AcDbEntity
  8
ADP2DETAIL
  6
HIDDEN2
100
AcDbLine
 10
7.49189022739179
 20
1.856078431372552
 30
0.0
 11
7.451890227391791
 21
1.836078431372551
 31
0.0
  0
LINE
  5
6E
330
17
100
AcDbEntity
  8
ADP2DETAIL
  6
HIDDEN2
100
AcDbLine
 10
7.438556894058457
 20
1.79607843137255
 30
0.0
 11
7.55189022739179
 21
1.47607843137255
 31
0.0
  0
LINE
  5
6F
330
17
100
AcDbEntity
  8
ADP2DETAIL
  6
HIDDEN2
100
AcDbLine
 10
7.451890227391791
 20
1.836078431372551
 30
0.0
 11
7.438556894058457
 21
1.79607843137255
 31
0.0
  0
LINE
  5
70
330
17
100
AcDbEntity
  8
ADP2DETAIL
  6
HIDDEN2
100
AcDbLine
 10
7.605223560725123
 20
1.862745098039219
 30
0.0
 11
7.731890227391789
 21
1.509411764705885
 31
0.0
  0
LINE
  5
71
330
17
100
AcDbEntity
  8
ADP2DETAIL
  6
HIDDEN2
100
AcDbLine
 10
7.731890227391789
 20
1.509411764705885
 30
0.0
 11
7.638556894058456
 21
1.482745098039217
 31
0.0
  0
LINE
  5
72
330
17
100
AcDbEntity
  8
ADP1DETAIL
100
AcDbLine
 10
7.558556894058458
 20
1.449411764705886
 30
0.0
 11
7.55189022739179
 21
1.47607843137255
 31
0.0
  0
LINE
  5
73
330
17
100
AcDbEntity
  8
ADP1DETAIL
100
AcDbLine
 10
7.638556894058456
 20
1.482745098039217
 30
0.0
 11
7.558556894058458
 21
1.449411764705886
 31
0.0
  0
LINE
  5
74
330
17
100
AcDbEntity
  8
ADP1DETAIL
100
AcDbLine
 10
7.605223560725123
 20
1.862745098039219
 30
0.0
 11
7.57189022739179
 21
1.882745098039217
 31
0.0
  0
LINE
  5
75
330
17
100
AcDbEntity
  8
ADP1DETAIL
100
AcDbLine
 10
7.605223560725123
 20
1.862745098039219
 30
0.0
 11
7.605223560725123
 21
1.862745098039219
 31
0.0
  0
LINE
  5
76
330
17
100
AcDbEntity
  8
ADP1DETAIL
100
AcDbLine
 10
7.57189022739179
 20
1.882745098039217
 30
0.0
 11
7.478556894058457
 21
1.849411764705885
 31
0.0
  0
LINE
  5
77
330
17
100
AcDbEntity
  8
ADP1DETAIL
100
AcDbLine
 10
7.478556894058457
 20
1.849411764705885
 30
0.0
 11
7.618556894058457
 21
1.849411764705885
 31
0.0
  0
LINE
  5
78
330
17
100
AcDbEntity
  8
ADP1DETAIL
100
AcDbLine
 10
7.618556894058457
 20
1.849411764705885
 30
0.0
 11
7.605223560725123
 21
1.862745098039219
 31
0.0
  0
LINE
  5
79
330
17
100
AcDbEntity
  8
ADP2DETAIL
  6
HIDDEN2
100
AcDbLine
 10
8.605223560725123
 20
1.862745098039219
 30
0.0
 11
8.73189022739179
 21
1.509411764705885
 31
0.0
  0
LINE
  5
7A
330
17
100
AcDbEntity
  8
ADP2DETAIL
  6
HIDDEN2
100
AcDbLine
 10
8.438556894058457
 20
1.79607843137255
 30
0.0
 11
8.55189022739179
 21
1.47607843137255
 31
0.0
  0
LINE
  5
7B
330
17
100
AcDbEntity
  8
ADP2DETAIL
  6
HIDDEN2
100
AcDbLine
 10
8.73189022739179
 20
1.509411764705885
 30
0.0
 11
8.638556894058456
 21
1.482745098039217
 31
0.0
  0
LINE
  5
7C
330
17
100
AcDbEntity
  8
ADP1DETAIL
100
AcDbLine
 10
8.558556894058456
 20
1.449411764705886
 30
0.0
 11
8.55189022739179
 21
1.47607843137255
 31
0.0
  0
LINE
  5
7D
330
17
100
AcDbEntity
  8
ADP1DETAIL
100
AcDbLine
 10
8.638556894058456
 20
1.482745098039217
 30
0.0
 11
8.558556894058456
 21
1.449411764705886
 31
0.0
  0
LINE
  5
7E
330
17
100
AcDbEntity
  8
ADP1DETAIL
100
AcDbLine
 10
8.57189022739179
 20
1.882745098039217
 30
0.0
 11
8.478556894058456
 21
1.849411764705885
 31
0.0
  0
LINE
  5
7F
330
17
100
AcDbEntity
  8
ADP1DETAIL
100
AcDbLine
 10
8.478556894058456
 20
1.849411764705885
 30
0.0
 11
8.618556894058459
 21
1.849411764705885
 31
0.0
  0
LINE
  5
80
330
17
100
AcDbEntity
  8
ADP2DETAIL
  6
HIDDEN2
100
AcDbLine
 10
8.491890227391792
 20
1.856078431372552
 30
0.0
 11
8.451890227391791
 21
1.836078431372551
 31
0.0
  0
LINE
  5
81
330
17
100
AcDbEntity
  8
ADP2DETAIL
  6
HIDDEN2
100
AcDbLine
 10
8.451890227391791
 20
1.836078431372551
 30
0.0
 11
8.438556894058457
 21
1.79607843137255
 31
0.0
  0
LINE
  5
82
330
17
100
AcDbEntity
  8
ADP1DETAIL
100
AcDbLine
 10
8.605223560725123
 20
1.862745098039219
 30
0.0
 11
8.57189022739179
 21
1.882745098039217
 31
0.0
  0
LINE
  5
83
330
17
100
AcDbEntity
  8
ADP1DETAIL
100
AcDbLine
 10
8.605223560725123
 20
1.862745098039219
 30
0.0
 11
8.605223560725123
 21
1.862745098039219
 31
0.0
  0
LINE
  5
84
330
17
100
AcDbEntity
  8
ADP1DETAIL
100
AcDbLine
 10
8.618556894058459
 20
1.849411764705885
 30
0.0
 11
8.605223560725123
 21
1.862745098039219
 31
0.0
  0
LINE
  5
85
330
17
100
AcDbEntity
  8
ADP1DETAIL
100
AcDbLine
 10
9.058556894058458
 20
1.482745098039217
 30
0.0
 11
9.058556894058458
 21
1.849411764705885
 31
0.0
  0
LINE
  5
86
330
17
100
AcDbEntity
  8
ADP1DETAIL
100
AcDbLine
 10
9.058556894058458
 20
1.482745098039217
 30
0.0
 11
9.058556894058458
 21
1.482745098039217
 31
0.0
  0
DIMENSION
  5
87
330
17
100
AcDbEntity
  8
ADPDIM
100
AcDbDimension
  2
*D2
 10
10.98604706235414
 20
1.542745098039216
 30
0.0
 11
10.98604706235414
 21
1.021911764705883
 31
0.0
100
AcDbAlignedDimension
 13
10.78522356072512
 23
1.79607843137255
 33
0.0
 14
10.78522356072512
 24
1.542745098039216
 34
0.0
 50
90.0
100
AcDbRotatedDimension
  0
DIMENSION
  5
88
330
17
100
AcDbEntity
  8
ADPDIM
100
AcDbDimension
  2
*D1
 10
10.78522356072512
 20
2.071722495386412
 30
0.0
 11
10.28855689405845
 21
2.071722495386412
 31
0.0
100
AcDbAlignedDimension
 13
9.791890227391789
 23
1.79607843137255
 33
0.0
 14
10.78522356072512
 24
1.79607843137255
 34
0.0
100
AcDbRotatedDimension
  0
LINE
  5
89
330
17
100
AcDbEntity
  8
ADP1DETAIL
100
AcDbLine
 10
10.35189022739179
 20
1.829411764705884
 30
0.0
 11
10.22522356072512
 21
1.829411764705884
 31
0.0
  0
LINE
  5
8A
330
17
100
AcDbEntity
  8
ADP2DETAIL
  6
HIDDEN2
100
AcDbLine
 10
10.35189022739179
 20
1.536078431372553
 30
0.0
 11
10.23189022739179
 21
1.536078431372553
 31
0.0
  0
LINE
  5
8B
330
17
100
AcDbEntity
  8
ADP1DETAIL
100
AcDbLine
 10
10.04522356072512
 20
1.429411764705885
 30
0.0
 11
10.53855689405845
 21
1.429411764705885
 31
0.0
  0
LINE
  5
8C
330
17
100
AcDbEntity
  8
ADP1DETAIL
100
AcDbLine
 10
10.78522356072512
 20
1.79607843137255
 30
0.0
 11
9.791890227391789
 21
1.79607843137255
 31
0.0
  0
LINE
  5
8D
330
17
100
AcDbEntity
  8
ADP2DETAIL
  6
HIDDEN2
100
AcDbLine
 10
10.23189022739179
 20
1.536078431372553
 30
0.0
 11
10.23189022739179
 21
1.429411764705885
 31
0.0
  0
LINE
  5
8E
330
17
100
AcDbEntity
  8
ADP1DETAIL
100
AcDbLine
 10
10.04522356072512
 20
1.542745098039216
 30
0.0
 11
10.04522356072512
 21
1.429411764705885
 31
0.0
  0
LINE
  5
8F
330
17
100
AcDbEntity
  8
ADP2DETAIL
  6
HIDDEN2
100
AcDbLine
 10
10.19855689405845
 20
1.79607843137255
 30
0.0
 11
10.19855689405845
 21
1.429411764705885
 31
0.0
  0
LINE
  5
90
330
17
100
AcDbEntity
  8
ADP1DETAIL
100
AcDbLine
 10
9.791890227391789
 20
1.542745098039216
 30
0.0
 11
10.04522356072512
 21
1.542745098039216
 31
0.0
  0
LINE
  5
91
330
17
100
AcDbEntity
  8
ADP1DETAIL
100
AcDbLine
 10
9.791890227391789
 20
1.79607843137255
 30
0.0
 11
9.791890227391789
 21
1.542745098039216
 31
0.0
  0
LINE
  5
92
330
17
100
AcDbEntity
  8
ADP1DETAIL
100
AcDbLine
 10
10.22522356072512
 20
1.829411764705884
 30
0.0
 11
10.19855689405845
 21
1.79607843137255
 31
0.0
  0
LINE
  5
93
330
17
100
AcDbEntity
  8
ADP1DETAIL
100
AcDbLine
 10
10.53855689405845
 20
1.429411764705885
 30
0.0
 11
10.53855689405845
 21
1.542745098039216
 31
0.0
  0
LINE
  5
94
330
17
100
AcDbEntity
  8
ADP2DETAIL
  6
HIDDEN2
100
AcDbLine
 10
10.35189022739179
 20
1.429411764705885
 30
0.0
 11
10.35189022739179
 21
1.536078431372553
 31
0.0
  0
LINE
  5
95
330
17
100
AcDbEntity
  8
ADP2DETAIL
  6
HIDDEN2
100
AcDbLine
 10
10.37855689405845
 20
1.429411764705885
 30
0.0
 11
10.37855689405845
 21
1.789411764705883
 31
0.0
  0
LINE
  5
96
330
17
100
AcDbEntity
  8
ADP1DETAIL
100
AcDbLine
 10
10.53855689405845
 20
1.542745098039216
 30
0.0
 11
10.78522356072512
 21
1.542745098039216
 31
0.0
  0
LINE
  5
97
330
17
100
AcDbEntity
  8
ADP1DETAIL
100
AcDbLine
 10
10.37855689405845
 20
1.789411764705883
 30
0.0
 11
10.35189022739179
 21
1.829411764705884
 31
0.0
  0
LINE
  5
98
330
17
100
AcDbEntity
  8
ADP1DETAIL
100
AcDbLine
 10
10.78522356072512
 20
1.79607843137255
 30
0.0
 11
10.78522356072512
 21
1.79607843137255
 31
0.0
  0
LINE
  5
99
330
17
100
AcDbEntity
  8
ADP1DETAIL
100
AcDbLine
 10
10.78522356072512
 20
1.542745098039216
 30
0.0
 11
10.78522356072512
 21
1.79607843137255
 31
0.0
  0
TEXT
  5
A3
330
17
100
AcDbEntity
  8
ADPDIM
100
AcDbText
 10
2.967504514224472
 20
0.2279465449366163
 30
0.0
 40
0.09375
  1
J U L I U S  B L U M  &  C O . ,  I N C .      ( 8 0 0 )  5 2 6 - 6 2 9 3        W W W . J U L I U S B L U M . C O M        P A R T  N O .  1 0 4
 41
1.25
  7
ARIAL_WIDE
 72
     1
 11
7.81168084437454
 21
0.3216965449366163
 31
0.0
100
AcDbText
 73
     3
  0
ENDSEC
  0
SECTION
  2
OBJECTS
  0
DICTIONARY
  5
C
330
0
100
AcDbDictionary
  3
ACAD_GROUP
350
D
  3
ACAD_LAYOUT
350
A8
  3
ACAD_MLINESTYLE
350
1A
  3
ACAD_PLOTSETTINGS
350
A9
  3
ACAD_PLOTSTYLENAME
350
A6
  3
ACDBHEADERROUNDTRIPXREC
350
195
  3
ACDBVARIABLEDICTIONARY
350
29
  0
DICTIONARY
  5
D5
330
17
100
AcDbDictionary
280
     1
  3
ACAD_LAYOUTSELFREF
360
1B7
  0
DICTIONARY
  5
D3
330
14
100
AcDbDictionary
280
     1
  3
ACAD_LAYOUTSELFREF
360
1B6
  0
DICTIONARY
  5
D
102
{ACAD_REACTORS
330
C
102
}
330
C
100
AcDbDictionary
  0
DICTIONARY
  5
A8
102
{ACAD_REACTORS
330
C
102
}
330
C
100
AcDbDictionary
  0
DICTIONARY
  5
1A
102
{ACAD_REACTORS
330
C
102
}
330
C
100
AcDbDictionary
  3
STANDARD
350
1B
  0
DICTIONARY
  5
A9
102
{ACAD_REACTORS
330
C
102
}
330
C
100
AcDbDictionary
  0
ACDBDICTIONARYWDFLT
  5
A6
102
{ACAD_REACTORS
330
C
102
}
330
C
100
AcDbDictionary
281
     1
  3
Normal
350
A7
100
AcDbDictionaryWithDefault
340
A7
  0
DICTIONARY
  5
195
102
{ACAD_REACTORS
330
C
102
}
330
C
100
AcDbDictionary
  3
CEPSNTYPE
350
19F
  3
DIMSTYLEDATA
350
1A3
  3
FINGERPRINTGUID
350
1A0
  3
HYPERLINKBASE
350
198
  3
INSUNITS
350
19E
  3
LAYOUTDICT
350
19A
  3
LWETCUNION
350
19D
  3
PLOTSETDICT
350
19B
  3
PLOTSTYLNAMDICT
350
19C
  3
PSVPSCALE
350
1A2
  3
PUCSBASE
350
1A6
  3
PUCSORGBACK
350
1AC
  3
PUCSORGBOTTOM
350
1A8
  3
PUCSORGFRONT
350
1AB
  3
PUCSORGLEFT
350
1A9
  3
PUCSORGRIGHT
350
1AA
  3
PUCSORGTOP
350
1A7
  3
PUCSORTHOREF
350
1A4
  3
PUCSORTHOVIEW
350
1A5
  3
STYLESHEET
350
199
  3
TSTACKALIGN
350
196
  3
TSTACKSIZE
350
197
  3
UCSBASE
350
1AF
  3
UCSORGBACK
350
1B5
  3
UCSORGBOTTOM
350
1B1
  3
UCSORGFRONT
350
1B4
  3
UCSORGLEFT
350
1B2
  3
UCSORGRIGHT
350
1B3
  3
UCSORGTOP
350
1B0
  3
UCSORTHOREF
350
1AD
  3
UCSORTHOVIEW
350
1AE
  3
VERSIONGUID
350
1A1
  0
DICTIONARY
  5
29
102
{ACAD_REACTORS
330
C
102
}
330
C
100
AcDbDictionary
  3
DIMADEC
350
2A
  3
DIMASSOC
350
DB
  0
XRECORD
  5
1B7
102
{ACAD_REACTORS
330
D5
102
}
330
D5
100
AcDbXrecord
340
17
  0
XRECORD
  5
1B6
102
{ACAD_REACTORS
330
D3
102
}
330
D3
100
AcDbXrecord
340
14
  0
MLINESTYLE
  5
1B
102
{ACAD_REACTORS
330
1A
102
}
330
1A
100
AcDbMlineStyle
  2
STANDARD
 70
     0
  3

 62
   256
 51
90.0
 52
90.0
 71
     2
 49
0.5
 62
   256
  6
BYLAYER
 49
-0.5
 62
   256
  6
BYLAYER
  0
ACDBPLACEHOLDER
  5
A7
102
{ACAD_REACTORS
330
A6
102
}
330
A6
100
AcDbPlaceHolder
280
     0
  0
XRECORD
  5
19F
102
{ACAD_REACTORS
330
195
102
}
330
195
100
AcDbXrecord
 90
        0
  0
XRECORD
  5
1A3
102
{ACAD_REACTORS
330
195
102
}
330
195
100
AcDbXrecord
1000
DSTYLE
1002
{
1070
   277
 70
     5
1070
   279
 70
     2
1002
}
  0
XRECORD
  5
1A0
102
{ACAD_REACTORS
330
195
102
}
330
195
100
AcDbXrecord
  1
{1A1E1D4F-38B4-4671-A281-A97462788100}
  0
XRECORD
  5
198
102
{ACAD_REACTORS
330
195
102
}
330
195
100
AcDbXrecord
  1

  0
XRECORD
  5
19E
102
{ACAD_REACTORS
330
195
102
}
330
195
100
AcDbXrecord
 90
        0
  0
XRECORD
  5
19A
102
{ACAD_REACTORS
330
195
102
}
330
195
100
AcDbXrecord
340
A8
  0
XRECORD
  5
19D
102
{ACAD_REACTORS
330
195
102
}
330
195
100
AcDbXrecord
 90
    14877
  0
XRECORD
  5
19B
102
{ACAD_REACTORS
330
195
102
}
330
195
100
AcDbXrecord
340
A9
  0
XRECORD
  5
19C
102
{ACAD_REACTORS
330
195
102
}
330
195
100
AcDbXrecord
340
A6
  0
XRECORD
  5
1A2
102
{ACAD_REACTORS
330
195
102
}
330
195
100
AcDbXrecord
 40
0.0
  0
XRECORD
  5
1A6
102
{ACAD_REACTORS
330
195
102
}
330
195
100
AcDbXrecord
340
0
  0
XRECORD
  5
1AC
102
{ACAD_REACTORS
330
195
102
}
330
195
100
AcDbXrecord
 10
0.0
 20
0.0
 30
0.0
  0
XRECORD
  5
1A8
102
{ACAD_REACTORS
330
195
102
}
330
195
100
AcDbXrecord
 10
0.0
 20
0.0
 30
0.0
  0
XRECORD
  5
1AB
102
{ACAD_REACTORS
330
195
102
}
330
195
100
AcDbXrecord
 10
0.0
 20
0.0
 30
0.0
  0
XRECORD
  5
1A9
102
{ACAD_REACTORS
330
195
102
}
330
195
100
AcDbXrecord
 10
0.0
 20
0.0
 30
0.0
  0
XRECORD
  5
1AA
102
{ACAD_REACTORS
330
195
102
}
330
195
100
AcDbXrecord
 10
0.0
 20
0.0
 30
0.0
  0
XRECORD
  5
1A7
102
{ACAD_REACTORS
330
195
102
}
330
195
100
AcDbXrecord
 10
0.0
 20
0.0
 30
0.0
  0
XRECORD
  5
1A4
102
{ACAD_REACTORS
330
195
102
}
330
195
100
AcDbXrecord
340
0
  0
XRECORD
  5
1A5
102
{ACAD_REACTORS
330
195
102
}
330
195
100
AcDbXrecord
 70
     0
  0
XRECORD
  5
199
102
{ACAD_REACTORS
330
195
102
}
330
195
100
AcDbXrecord
  1

  0
XRECORD
  5
196
102
{ACAD_REACTORS
330
195
102
}
330
195
100
AcDbXrecord
 90
        1
  0
XRECORD
  5
197
102
{ACAD_REACTORS
330
195
102
}
330
195
100
AcDbXrecord
 90
       70
  0
XRECORD
  5
1AF
102
{ACAD_REACTORS
330
195
102
}
330
195
100
AcDbXrecord
340
0
  0
XRECORD
  5
1B5
102
{ACAD_REACTORS
330
195
102
}
330
195
100
AcDbXrecord
 10
0.0
 20
0.0
 30
0.0
  0
XRECORD
  5
1B1
102
{ACAD_REACTORS
330
195
102
}
330
195
100
AcDbXrecord
 10
0.0
 20
0.0
 30
0.0
  0
XRECORD
  5
1B4
102
{ACAD_REACTORS
330
195
102
}
330
195
100
AcDbXrecord
 10
0.0
 20
0.0
 30
0.0
  0
XRECORD
  5
1B2
102
{ACAD_REACTORS
330
195
102
}
330
195
100
AcDbXrecord
 10
0.0
 20
0.0
 30
0.0
  0
XRECORD
  5
1B3
102
{ACAD_REACTORS
330
195
102
}
330
195
100
AcDbXrecord
 10
0.0
 20
0.0
 30
0.0
  0
XRECORD
  5
1B0
102
{ACAD_REACTORS
330
195
102
}
330
195
100
AcDbXrecord
 10
0.0
 20
0.0
 30
0.0
  0
XRECORD
  5
1AD
102
{ACAD_REACTORS
330
195
102
}
330
195
100
AcDbXrecord
340
0
  0
XRECORD
  5
1AE
102
{ACAD_REACTORS
330
195
102
}
330
195
100
AcDbXrecord
 70
     0
  0
XRECORD
  5
1A1
102
{ACAD_REACTORS
330
195
102
}
330
195
100
AcDbXrecord
  1
{1B3AF804-8390-4461-9F37-B6645EC92B74}
  0
DICTIONARYVAR
  5
2A
102
{ACAD_REACTORS
330
29
102
}
330
29
100
DictionaryVariables
280
     0
  1
0
  0
DICTIONARYVAR
  5
DB
102
{ACAD_REACTORS
330
29
102
}
330
29
100
DictionaryVariables
280
     0
  1
1
  0
ENDSEC
  0
EOF
