  0
SECTION
  2
HEADER
  9
$ACADVER
  1
AC1015
  9
$ACADMAINTVER
 70
    20
  9
$DWGCODEPAGE
  3
ANSI_1252
  9
$INSBASE
 10
31.56179768844066
 20
-24.76382566744023
 30
0.0
  9
$EXTMIN
 10
28.45403946172062
 20
-26.04749217149779
 30
0.0
  9
$EXTMAX
 10
41.50549751083384
 20
-19.86447378672673
 30
0.0
  9
$LIMMIN
 10
0.0
 20
0.0
  9
$LIMMAX
 10
36.0
 20
36.0
  9
$ORTHOMODE
 70
     1
  9
$REGENMODE
 70
     1
  9
$FILLMODE
 70
     1
  9
$QTEXTMODE
 70
     0
  9
$MIRRTEXT
 70
     1
  9
$LTSCALE
 40
1.0
  9
$ATTMODE
 70
     1
  9
$TEXTSIZE
 40
0.2
  9
$TRACEWID
 40
0.05
  9
$TEXTSTYLE
  7
STANDARD
  9
$CLAYER
  8
ADP2DETAIL
  9
$CELTYPE
  6
ByLayer
  9
$CECOLOR
 62
   256
  9
$CELTSCALE
 40
1.0
  9
$DISPSILH
 70
     0
  9
$DIMSCALE
 40
1.0
  9
$DIMASZ
 40
0.125
  9
$DIMEXO
 40
0.0625
  9
$DIMDLI
 40
0.38
  9
$DIMRND
 40
0.0
  9
$DIMDLE
 40
0.0
  9
$DIMEXE
 40
0.18
  9
$DIMTP
 40
0.0
  9
$DIMTM
 40
0.0
  9
$DIMTXT
 40
0.125
  9
$DIMCEN
 40
0.1875
  9
$DIMTSZ
 40
0.125
  9
$DIMTOL
 70
     0
  9
$DIMLIM
 70
     0
  9
$DIMTIH
 70
     0
  9
$DIMTOH
 70
     0
  9
$DIMSE1
 70
     0
  9
$DIMSE2
 70
     0
  9
$DIMTAD
 70
     0
  9
$DIMZIN
 70
     3
  9
$DIMBLK
  1

  9
$DIMASO
 70
     1
  9
$DIMSHO
 70
     1
  9
$DIMPOST
  1

  9
$DIMAPOST
  1

  9
$DIMALT
 70
     0
  9
$DIMALTD
 70
     1
  9
$DIMALTF
 40
25.4
  9
$DIMLFAC
 40
1.0
  9
$DIMTOFL
 70
     0
  9
$DIMTVP
 40
0.0
  9
$DIMTIX
 70
     0
  9
$DIMSOXD
 70
     0
  9
$DIMSAH
 70
     0
  9
$DIMBLK1
  1

  9
$DIMBLK2
  1

  9
$DIMSTYLE
  2
Standard
  9
$DIMCLRD
 70
     0
  9
$DIMCLRE
 70
     0
  9
$DIMCLRT
 70
     0
  9
$DIMTFAC
 40
1.0
  9
$DIMGAP
 40
0.125
  9
$DIMJUST
 70
     0
  9
$DIMSD1
 70
     0
  9
$DIMSD2
 70
     0
  9
$DIMTOLJ
 70
     1
  9
$DIMTZIN
 70
     3
  9
$DIMALTZ
 70
     3
  9
$DIMALTTZ
 70
     3
  9
$DIMUPT
 70
     0
  9
$DIMDEC
 70
     4
  9
$DIMTDEC
 70
     4
  9
$DIMALTU
 70
     5
  9
$DIMALTTD
 70
     1
  9
$DIMTXSTY
  7
STANDARD
  9
$DIMAUNIT
 70
     0
  9
$DIMADEC
 70
     0
  9
$DIMALTRND
 40
0.0
  9
$DIMAZIN
 70
     0
  9
$DIMDSEP
 70
    46
  9
$DIMATFIT
 70
     3
  9
$DIMFRAC
 70
     0
  9
$DIMLDRBLK
  1

  9
$DIMLUNIT
 70
     5
  9
$DIMLWD
 70
    -2
  9
$DIMLWE
 70
    -2
  9
$DIMTMOVE
 70
     2
  9
$LUNITS
 70
     5
  9
$LUPREC
 70
     4
  9
$SKETCHINC
 40
0.1
  9
$FILLETRAD
 40
0.062
  9
$AUNITS
 70
     0
  9
$AUPREC
 70
     0
  9
$MENU
  1
acad
  9
$ELEVATION
 40
0.0
  9
$PELEVATION
 40
0.0
  9
$THICKNESS
 40
0.0
  9
$LIMCHECK
 70
     0
  9
$CHAMFERA
 40
0.0
  9
$CHAMFERB
 40
0.0
  9
$CHAMFERC
 40
0.0
  9
$CHAMFERD
 40
0.0
  9
$SKPOLY
 70
     0
  9
$TDCREATE
 40
2450386.505591435
  9
$TDUCREATE
 40
2450386.672258102
  9
$TDUPDATE
 40
2453959.008053241
  9
$TDUUPDATE
 40
2453959.174719908
  9
$TDINDWG
 40
0.0425296412
  9
$TDUSRTIMER
 40
0.0425296412
  9
$USRTIMER
 70
     1
  9
$ANGBASE
 50
0.0
  9
$ANGDIR
 70
     0
  9
$PDMODE
 70
     0
  9
$PDSIZE
 40
0.0
  9
$PLINEWID
 40
0.0
  9
$SPLFRAME
 70
     0
  9
$SPLINETYPE
 70
     6
  9
$SPLINESEGS
 70
     8
  9
$HANDSEED
  5
3AF
  9
$SURFTAB1
 70
     6
  9
$SURFTAB2
 70
     6
  9
$SURFTYPE
 70
     6
  9
$SURFU
 70
     6
  9
$SURFV
 70
     6
  9
$UCSBASE
  2

  9
$UCSNAME
  2

  9
$UCSORG
 10
0.0
 20
0.0
 30
0.0
  9
$UCSXDIR
 10
1.0
 20
0.0
 30
0.0
  9
$UCSYDIR
 10
0.0
 20
1.0
 30
0.0
  9
$UCSORTHOREF
  2

  9
$UCSORTHOVIEW
 70
     0
  9
$UCSORGTOP
 10
0.0
 20
0.0
 30
0.0
  9
$UCSORGBOTTOM
 10
0.0
 20
0.0
 30
0.0
  9
$UCSORGLEFT
 10
0.0
 20
0.0
 30
0.0
  9
$UCSORGRIGHT
 10
0.0
 20
0.0
 30
0.0
  9
$UCSORGFRONT
 10
0.0
 20
0.0
 30
0.0
  9
$UCSORGBACK
 10
0.0
 20
0.0
 30
0.0
  9
$PUCSBASE
  2

  9
$PUCSNAME
  2

  9
$PUCSORG
 10
0.0
 20
0.0
 30
0.0
  9
$PUCSXDIR
 10
1.0
 20
0.0
 30
0.0
  9
$PUCSYDIR
 10
0.0
 20
1.0
 30
0.0
  9
$PUCSORTHOREF
  2

  9
$PUCSORTHOVIEW
 70
     0
  9
$PUCSORGTOP
 10
0.0
 20
0.0
 30
0.0
  9
$PUCSORGBOTTOM
 10
0.0
 20
0.0
 30
0.0
  9
$PUCSORGLEFT
 10
0.0
 20
0.0
 30
0.0
  9
$PUCSORGRIGHT
 10
0.0
 20
0.0
 30
0.0
  9
$PUCSORGFRONT
 10
0.0
 20
0.0
 30
0.0
  9
$PUCSORGBACK
 10
0.0
 20
0.0
 30
0.0
  9
$USERI1
 70
     0
  9
$USERI2
 70
     0
  9
$USERI3
 70
     0
  9
$USERI4
 70
     0
  9
$USERI5
 70
     0
  9
$USERR1
 40
0.0
  9
$USERR2
 40
0.0
  9
$USERR3
 40
0.0
  9
$USERR4
 40
0.0
  9
$USERR5
 40
0.0
  9
$WORLDVIEW
 70
     1
  9
$SHADEDGE
 70
     3
  9
$SHADEDIF
 70
    70
  9
$TILEMODE
 70
     1
  9
$MAXACTVP
 70
    15
  9
$PINSBASE
 10
4.403525741743744E+99
 20
7.061986388769092E+99
 30
0.0
  9
$PLIMCHECK
 70
     0
  9
$PEXTMIN
 10
1.000000000000000E+20
 20
1.000000000000000E+20
 30
1.000000000000000E+20
  9
$PEXTMAX
 10
-1.000000000000000E+20
 20
-1.000000000000000E+20
 30
-1.000000000000000E+20
  9
$PLIMMIN
 10
0.0
 20
0.0
  9
$PLIMMAX
 10
12.0
 20
9.0
  9
$UNITMODE
 70
     0
  9
$VISRETAIN
 70
     0
  9
$PLINEGEN
 70
     0
  9
$PSLTSCALE
 70
     1
  9
$TREEDEPTH
 70
  3020
  9
$CMLSTYLE
  2
Standard
  9
$CMLJUST
 70
     0
  9
$CMLSCALE
 40
1.0
  9
$PROXYGRAPHICS
 70
     1
  9
$MEASUREMENT
 70
     0
  9
$CELWEIGHT
370
    -1
  9
$ENDCAPS
280
     0
  9
$JOINSTYLE
280
     0
  9
$LWDISPLAY
290
     0
  9
$INSUNITS
 70
     0
  9
$HYPERLINKBASE
  1

  9
$STYLESHEET
  1

  9
$XEDIT
290
     1
  9
$CEPSNTYPE
380
     0
  9
$PSTYLEMODE
290
     1
  9
$FINGERPRINTGUID
  2
{913392C0-3CE0-498A-8B66-A4D42B101A2C}
  9
$VERSIONGUID
  2
{A7AA7669-C43C-46DF-A88F-4C1BDE84C5DC}
  9
$EXTNAMES
290
     1
  9
$PSVPSCALE
 40
0.0
  9
$OLESTARTUP
290
     0
  0
ENDSEC
  0
SECTION
  2
CLASSES
  0
CLASS
  1
ACDBDICTIONARYWDFLT
  2
AcDbDictionaryWithDefault
  3
ObjectDBX Classes
 90
        0
280
     0
281
     0
  0
CLASS
  1
ACDBPLACEHOLDER
  2
AcDbPlaceHolder
  3
ObjectDBX Classes
 90
        0
280
     0
281
     0
  0
CLASS
  1
LAYOUT
  2
AcDbLayout
  3
ObjectDBX Classes
 90
        0
280
     0
281
     0
  0
CLASS
  1
DICTIONARYVAR
  2
AcDbDictionaryVar
  3
ObjectDBX Classes
 90
        0
280
     0
281
     0
  0
CLASS
  1
MATERIAL
  2
AcDbMaterial
  3
ObjectDBX Classes
 90
     1024
280
     0
281
     0
  0
CLASS
  1
VISUALSTYLE
  2
AcDbVisualStyle
  3
ObjectDBX Classes
 90
     4095
280
     0
281
     0
  0
CLASS
  1
TABLESTYLE
  2
AcDbTableStyle
  3
ObjectDBX Classes
 90
     4095
280
     0
281
     0
  0
ENDSEC
  0
SECTION
  2
TABLES
  0
TABLE
  2
VPORT
  5
8
330
0
100
AcDbSymbolTable
 70
     1
  0
VPORT
  5
331
330
8
100
AcDbSymbolTableRecord
100
AcDbViewportTableRecord
  2
*Active
 70
     0
 10
0.0
 20
0.0
 11
1.0
 21
1.0
 12
35.84200795471169
 22
-22.95579714847612
 13
0.0
 23
0.0
 14
0.5740882589684922
 24
0.5740882589684922
 15
0.5
 25
0.5
 16
0.0
 26
0.0
 36
1.0
 17
0.0
 27
0.0
 37
0.0
 40
8.37436083187879
 41
1.774011299435028
 42
50.0
 43
0.0
 44
0.0
 50
0.0
 51
0.0
 71
     0
 72
   100
 73
     1
 74
     0
 75
     0
 76
     0
 77
     0
 78
     0
281
     0
 65
     1
110
0.0
120
0.0
130
0.0
111
1.0
121
0.0
131
0.0
112
0.0
122
1.0
132
0.0
 79
     0
146
0.0
  0
ENDTAB
  0
TABLE
  2
LTYPE
  5
5
330
0
100
AcDbSymbolTable
 70
     2
  0
LTYPE
  5
13
330
5
100
AcDbSymbolTableRecord
100
AcDbLinetypeTableRecord
  2
ByBlock
 70
     0
  3

 72
    65
 73
     0
 40
0.0
  0
LTYPE
  5
14
330
5
100
AcDbSymbolTableRecord
100
AcDbLinetypeTableRecord
  2
ByLayer
 70
     0
  3

 72
    65
 73
     0
 40
0.0
  0
LTYPE
  5
15
330
5
100
AcDbSymbolTableRecord
100
AcDbLinetypeTableRecord
  2
CONTINUOUS
 70
     0
  3
Solid line
 72
    65
 73
     0
 40
0.0
  0
LTYPE
  5
D4
330
5
100
AcDbSymbolTableRecord
100
AcDbLinetypeTableRecord
  2
HIDDEN2
 70
     0
  3
_ _ _ _ _ _ _ _ _ _ _ _ _ _ _ _ _ _ _ _ _ _ _ _
 72
    65
 73
     2
 40
0.1875
 49
0.125
 74
     0
 49
-0.0625
 74
     0
  0
ENDTAB
  0
TABLE
  2
LAYER
  5
2
330
0
100
AcDbSymbolTable
 70
     5
  0
LAYER
  5
10
330
2
100
AcDbSymbolTableRecord
100
AcDbLayerTableRecord
  2
0
 70
     0
 62
     7
  6
CONTINUOUS
370
    -3
390
F
  0
LAYER
  5
D8
330
2
100
AcDbSymbolTableRecord
100
AcDbLayerTableRecord
  2
ADP1DETAIL
 70
     0
 62
     7
  6
CONTINUOUS
370
    -3
390
F
  0
LAYER
  5
DA
330
2
100
AcDbSymbolTableRecord
100
AcDbLayerTableRecord
  2
DEFPOINTS
 70
     0
 62
     7
  6
CONTINUOUS
290
     0
370
    -3
390
F
  0
LAYER
  5
DB
330
2
100
AcDbSymbolTableRecord
100
AcDbLayerTableRecord
  2
ADP2DETAIL
 70
     0
 62
     5
  6
CONTINUOUS
370
    -3
390
F
  0
LAYER
  5
DC
330
2
100
AcDbSymbolTableRecord
100
AcDbLayerTableRecord
  2
ADPDIM
 70
     0
 62
     3
  6
CONTINUOUS
370
    -3
390
F
  0
ENDTAB
  0
TABLE
  2
STYLE
  5
3
330
0
100
AcDbSymbolTable
 70
     2
  0
STYLE
  5
11
330
3
100
AcDbSymbolTableRecord
100
AcDbTextStyleTableRecord
  2
STANDARD
 70
     0
 40
0.0
 41
1.0
 50
0.0
 71
     0
 42
0.2
  3
txt
  4

  0
STYLE
  5
19E
330
3
100
AcDbSymbolTableRecord
100
AcDbTextStyleTableRecord
  2
ARIAL_WIDE
 70
     0
 40
0.0
 41
1.25
 50
0.0
 71
     0
 42
0.2
  3
ARIAL.TTF
  4

1001
ACAD
1000
Arial
1071
       34
  0
ENDTAB
  0
TABLE
  2
VIEW
  5
6
330
0
100
AcDbSymbolTable
 70
     0
  0
ENDTAB
  0
TABLE
  2
UCS
  5
7
330
0
100
AcDbSymbolTable
 70
     0
  0
ENDTAB
  0
TABLE
  2
APPID
  5
9
330
0
100
AcDbSymbolTable
 70
     1
  0
APPID
  5
12
330
9
100
AcDbSymbolTableRecord
100
AcDbRegAppTableRecord
  2
ACAD
 70
     0
  0
ENDTAB
  0
TABLE
  2
DIMSTYLE
  5
A
330
0
100
AcDbSymbolTable
 70
     1
100
AcDbDimStyleTable
 71
     0
  0
DIMSTYLE
105
19C
330
A
100
AcDbSymbolTableRecord
100
AcDbDimStyleTableRecord
  2
Standard
 70
     0
340
11
  0
ENDTAB
  0
TABLE
  2
BLOCK_RECORD
  5
1
330
0
100
AcDbSymbolTable
 70
     6
  0
BLOCK_RECORD
  5
1E
102
{ACAD_XDICTIONARY
360
1DB
102
}
330
1
100
AcDbSymbolTableRecord
100
AcDbBlockTableRecord
  2
*Model_Space
340
21
  0
BLOCK_RECORD
  5
1A
102
{ACAD_XDICTIONARY
360
1DD
102
}
330
1
100
AcDbSymbolTableRecord
100
AcDbBlockTableRecord
  2
*Paper_Space
340
1D
  0
BLOCK_RECORD
  5
CD
330
1
100
AcDbSymbolTableRecord
100
AcDbBlockTableRecord
  2
*D0
340
0
  0
BLOCK_RECORD
  5
CE
330
1
100
AcDbSymbolTableRecord
100
AcDbBlockTableRecord
  2
*D1
340
0
  0
BLOCK_RECORD
  5
CF
330
1
100
AcDbSymbolTableRecord
100
AcDbBlockTableRecord
  2
*D2
340
0
  0
BLOCK_RECORD
  5
D0
330
1
100
AcDbSymbolTableRecord
100
AcDbBlockTableRecord
  2
*D3
340
0
  0
BLOCK_RECORD
  5
D1
330
1
100
AcDbSymbolTableRecord
100
AcDbBlockTableRecord
  2
*D4
340
0
  0
BLOCK_RECORD
  5
D2
330
1
100
AcDbSymbolTableRecord
100
AcDbBlockTableRecord
  2
*D5
340
0
  0
ENDTAB
  0
ENDSEC
  0
SECTION
  2
BLOCKS
  0
BLOCK
  5
DF
330
1E
100
AcDbEntity
  8
0
100
AcDbBlockBegin
  2
*Model_Space
 70
     0
 10
0.0
 20
0.0
 30
0.0
  3
*Model_Space
  1

  0
ENDBLK
  5
E0
330
1E
100
AcDbEntity
  8
0
100
AcDbBlockEnd
  0
BLOCK
  5
DD
330
1A
100
AcDbEntity
 67
     1
  8
0
100
AcDbBlockBegin
  2
*Paper_Space
 70
     0
 10
0.0
 20
0.0
 30
0.0
  3
*Paper_Space
  1

  0
ENDBLK
  5
DE
330
1A
100
AcDbEntity
 67
     1
  8
0
100
AcDbBlockEnd
  0
BLOCK
  5
E2
330
CD
100
AcDbEntity
  8
0
100
AcDbBlockBegin
  2
*D0
 70
     1
 10
0.0
 20
0.0
 30
0.0
  3
*D0
  1

  0
LINE
  5
E3
330
CD
100
AcDbEntity
  8
0
  6
ByBlock
 62
     0
100
AcDbLine
 10
31.56179768844066
 20
-22.01081538599654
 30
0.0
 11
31.56179768844066
 21
-20.20322865191313
 31
0.0
  0
LINE
  5
E4
330
CD
100
AcDbEntity
  8
0
  6
ByBlock
 62
     0
100
AcDbLine
 10
34.57999633478919
 20
-20.68516584090861
 30
0.0
 11
34.57999633478919
 21
-20.20322865191313
 31
0.0
  0
LINE
  5
E5
330
CD
100
AcDbEntity
  8
0
  6
ByBlock
 62
     0
100
AcDbLine
 10
31.56179768844066
 20
-20.38322865191313
 30
0.0
 11
32.90423034494825
 21
-20.38322865191313
 31
0.0
  0
LINE
  5
E6
330
CD
100
AcDbEntity
  8
0
  6
ByBlock
 62
     0
100
AcDbLine
 10
34.57999633478919
 20
-20.38322865191313
 30
0.0
 11
33.23756367828158
 21
-20.38322865191313
 31
0.0
  0
LINE
  5
E7
330
CD
100
AcDbEntity
  8
0
  6
ByBlock
 62
     0
100
AcDbLine
 10
31.43679768844065
 20
-20.50822865191313
 30
0.0
 11
31.68679768844065
 21
-20.25822865191313
 31
0.0
  0
LINE
  5
E8
330
CD
100
AcDbEntity
  8
0
  6
ByBlock
 62
     0
100
AcDbLine
 10
34.45499633478919
 20
-20.50822865191313
 30
0.0
 11
34.70499633478919
 21
-20.25822865191313
 31
0.0
  0
TEXT
  5
E9
330
CD
100
AcDbEntity
  8
0
  6
ByBlock
 62
     0
100
AcDbText
 10
33.02923034494825
 20
-20.44572865191313
 30
0.0
 40
0.125
  1
3
 72
     1
 11
33.07089701161492
 21
-20.38322865191313
 31
0.0
100
AcDbText
 73
     2
  0
POINT
  5
EB
330
CD
100
AcDbEntity
  8
DEFPOINTS
  6
ByBlock
 62
     0
100
AcDbPoint
 10
31.56179768844066
 20
-22.07331538599655
 30
0.0
  0
POINT
  5
EC
330
CD
100
AcDbEntity
  8
DEFPOINTS
  6
ByBlock
 62
     0
100
AcDbPoint
 10
34.57999633478919
 20
-20.74766584090861
 30
0.0
  0
POINT
  5
ED
330
CD
100
AcDbEntity
  8
DEFPOINTS
  6
ByBlock
 62
     0
100
AcDbPoint
 10
34.57999633478919
 20
-20.38322865191313
 30
0.0
  0
ENDBLK
  5
EE
330
CD
100
AcDbEntity
  8
0
100
AcDbBlockEnd
  0
BLOCK
  5
EF
330
CE
100
AcDbEntity
  8
0
100
AcDbBlockBegin
  2
*D1
 70
     1
 10
0.0
 20
0.0
 30
0.0
  3
*D1
  1

  0
LINE
  5
F0
330
CE
100
AcDbEntity
  8
0
  6
ByBlock
 62
     0
100
AcDbLine
 10
36.67584177753399
 20
-23.4706038911452
 30
0.0
 11
38.24718694277066
 21
-23.4706038911452
 31
0.0
  0
LINE
  5
F1
330
CE
100
AcDbEntity
  8
0
  6
ByBlock
 62
     0
100
AcDbLine
 10
37.45538908288648
 20
-20.73628438782072
 30
0.0
 11
38.24718694277066
 21
-20.73628438782072
 31
0.0
  0
LINE
  5
F2
330
CE
100
AcDbEntity
  8
0
  6
ByBlock
 62
     0
100
AcDbLine
 10
38.06718694277066
 20
-23.4706038911452
 30
0.0
 11
38.06718694277066
 21
-22.52011080614963
 31
0.0
  0
LINE
  5
F3
330
CE
100
AcDbEntity
  8
0
  6
ByBlock
 62
     0
100
AcDbLine
 10
38.06718694277066
 20
-20.73628438782072
 30
0.0
 11
38.06718694277066
 21
-21.68677747281629
 31
0.0
  0
LINE
  5
F4
330
CE
100
AcDbEntity
  8
0
  6
ByBlock
 62
     0
100
AcDbLine
 10
38.19218694277066
 20
-23.5956038911452
 30
0.0
 11
37.94218694277066
 21
-23.3456038911452
 31
0.0
  0
LINE
  5
F5
330
CE
100
AcDbEntity
  8
0
  6
ByBlock
 62
     0
100
AcDbLine
 10
38.19218694277066
 20
-20.86128438782072
 30
0.0
 11
37.94218694277066
 21
-20.61128438782072
 31
0.0
  0
TEXT
  5
F6
330
CE
100
AcDbEntity
  8
0
  6
ByBlock
 62
     0
100
AcDbText
 10
38.12968694277066
 20
-22.39511080614962
 30
0.0
 40
0.125
  1
2 3/4
 50
90.0
 72
     1
 11
38.06718694277066
 21
-22.10344413948296
 31
0.0
100
AcDbText
 73
     2
  0
POINT
  5
F7
330
CE
100
AcDbEntity
  8
DEFPOINTS
  6
ByBlock
 62
     0
100
AcDbPoint
 10
36.61334177753399
 20
-23.4706038911452
 30
0.0
  0
POINT
  5
F8
330
CE
100
AcDbEntity
  8
DEFPOINTS
  6
ByBlock
 62
     0
100
AcDbPoint
 10
37.39288908288648
 20
-20.73628438782072
 30
0.0
  0
POINT
  5
F9
330
CE
100
AcDbEntity
  8
DEFPOINTS
  6
ByBlock
 62
     0
100
AcDbPoint
 10
38.06718694277066
 20
-20.73628438782072
 30
0.0
  0
ENDBLK
  5
FA
330
CE
100
AcDbEntity
  8
0
100
AcDbBlockEnd
  0
BLOCK
  5
FB
330
CF
100
AcDbEntity
  8
0
100
AcDbBlockBegin
  2
*D2
 70
     1
 10
0.0
 20
0.0
 30
0.0
  3
*D2
  1

  0
LINE
  5
FC
330
CF
100
AcDbEntity
  8
0
  6
ByBlock
 62
     0
100
AcDbLine
 10
36.54797663577693
 20
-23.68796231922966
 30
0.0
 11
36.57613075948316
 21
-23.93637195132619
 31
0.0
  0
LINE
  5
FD
330
CF
100
AcDbEntity
  8
0
  6
ByBlock
 62
     0
100
AcDbLine
 10
36.40969475787556
 20
-23.57783456503451
 30
0.0
 11
36.68625851367831
 21
-23.79809007342482
 31
0.0
  0
LINE
  5
FE
330
CF
100
AcDbEntity
  8
0
  6
ByBlock
 62
     0
100
AcDbLine
 10
36.33584177753399
 20
-23.4706038911452
 30
0.0
 11
36.71084177753399
 21
-23.4706038911452
 31
0.0
  0
LINE
  5
FF
330
CF
100
AcDbEntity
  8
0
  6
ByBlock
 62
     0
100
AcDbLine
 10
36.52334177753399
 20
-23.6581038911452
 30
0.0
 11
36.52334177753399
 21
-23.2831038911452
 31
0.0
  0
TEXT
  5
100
330
CF
100
AcDbEntity
  8
0
  6
ByBlock
 62
     0
100
AcDbText
 10
36.52810541331214
 20
-24.06761529830101
 30
0.0
 40
0.125
  1
%%c7/16
 50
276.466167127056
 72
     1
 11
36.62070812201801
 21
-24.3296872021457
 31
0.0
100
AcDbText
 73
     2
  0
POINT
  5
101
330
CF
100
AcDbEntity
  8
DEFPOINTS
  6
ByBlock
 62
     0
100
AcDbPoint
 10
36.54797663577693
 20
-23.68796231922966
 30
0.0
  0
POINT
  5
102
330
CF
100
AcDbEntity
  8
DEFPOINTS
  6
ByBlock
 62
     0
100
AcDbPoint
 10
36.49870691929105
 20
-23.25324546306074
 30
0.0
  0
ENDBLK
  5
103
330
CF
100
AcDbEntity
  8
0
100
AcDbBlockEnd
  0
BLOCK
  5
104
330
D0
100
AcDbEntity
  8
0
100
AcDbBlockBegin
  2
*D3
 70
     1
 10
0.0
 20
0.0
 30
0.0
  3
*D3
  1

  0
LINE
  5
105
330
D0
100
AcDbEntity
  8
0
  6
ByBlock
 62
     0
100
AcDbLine
 10
35.14218694277067
 20
-23.56631790115025
 30
0.0
 11
35.14218694277067
 21
-25.26481790115024
 31
0.0
  0
LINE
  5
106
330
D0
100
AcDbEntity
  8
0
  6
ByBlock
 62
     0
100
AcDbLine
 10
37.89218694277066
 20
-23.56631790115025
 30
0.0
 11
37.89218694277066
 21
-25.26481790115024
 31
0.0
  0
LINE
  5
107
330
D0
100
AcDbEntity
  8
0
  6
ByBlock
 62
     0
100
AcDbLine
 10
35.14218694277067
 20
-25.08481790115025
 30
0.0
 11
36.100520276104
 21
-25.08481790115025
 31
0.0
  0
LINE
  5
108
330
D0
100
AcDbEntity
  8
0
  6
ByBlock
 62
     0
100
AcDbLine
 10
37.89218694277066
 20
-25.08481790115025
 30
0.0
 11
36.93385360943733
 21
-25.08481790115025
 31
0.0
  0
LINE
  5
109
330
D0
100
AcDbEntity
  8
0
  6
ByBlock
 62
     0
100
AcDbLine
 10
35.01718694277066
 20
-25.20981790115025
 30
0.0
 11
35.26718694277067
 21
-24.95981790115024
 31
0.0
  0
LINE
  5
10A
330
D0
100
AcDbEntity
  8
0
  6
ByBlock
 62
     0
100
AcDbLine
 10
37.76718694277067
 20
-25.20981790115025
 30
0.0
 11
38.01718694277067
 21
-24.95981790115024
 31
0.0
  0
TEXT
  5
10B
330
D0
100
AcDbEntity
  8
0
  6
ByBlock
 62
     0
100
AcDbText
 10
36.225520276104
 20
-25.14731790115025
 30
0.0
 40
0.125
  1
2 3/4
 72
     1
 11
36.51718694277067
 21
-25.08481790115025
 31
0.0
100
AcDbText
 73
     2
  0
POINT
  5
10C
330
D0
100
AcDbEntity
  8
DEFPOINTS
  6
ByBlock
 62
     0
100
AcDbPoint
 10
35.14218694277067
 20
-23.50381790115025
 30
0.0
  0
POINT
  5
10D
330
D0
100
AcDbEntity
  8
DEFPOINTS
  6
ByBlock
 62
     0
100
AcDbPoint
 10
37.89218694277066
 20
-23.50381790115025
 30
0.0
  0
POINT
  5
10E
330
D0
100
AcDbEntity
  8
DEFPOINTS
  6
ByBlock
 62
     0
100
AcDbPoint
 10
37.89218694277066
 20
-25.08481790115025
 30
0.0
  0
ENDBLK
  5
10F
330
D0
100
AcDbEntity
  8
0
100
AcDbBlockEnd
  0
BLOCK
  5
110
330
D1
100
AcDbEntity
  8
0
100
AcDbBlockBegin
  2
*D4
 70
     1
 10
0.0
 20
0.0
 30
0.0
  3
*D4
  1

  0
LINE
  5
111
330
D1
100
AcDbEntity
  8
0
  6
ByBlock
 62
     0
100
AcDbLine
 10
35.64288908288649
 20
-20.50180939742955
 30
0.0
 11
35.64288908288649
 21
-19.86447378672673
 31
0.0
  0
LINE
  5
112
330
D1
100
AcDbEntity
  8
0
  6
ByBlock
 62
     0
100
AcDbLine
 10
37.39288908288648
 20
-20.50180939742955
 30
0.0
 11
37.39288908288648
 21
-19.86447378672673
 31
0.0
  0
LINE
  5
113
330
D1
100
AcDbEntity
  8
0
  6
ByBlock
 62
     0
100
AcDbLine
 10
35.64288908288649
 20
-20.04447378672674
 30
0.0
 11
36.12205574955315
 21
-20.04447378672674
 31
0.0
  0
LINE
  5
114
330
D1
100
AcDbEntity
  8
0
  6
ByBlock
 62
     0
100
AcDbLine
 10
37.39288908288648
 20
-20.04447378672674
 30
0.0
 11
36.91372241621982
 21
-20.04447378672674
 31
0.0
  0
LINE
  5
115
330
D1
100
AcDbEntity
  8
0
  6
ByBlock
 62
     0
100
AcDbLine
 10
35.51788908288648
 20
-20.16947378672674
 30
0.0
 11
35.76788908288648
 21
-19.91947378672674
 31
0.0
  0
LINE
  5
116
330
D1
100
AcDbEntity
  8
0
  6
ByBlock
 62
     0
100
AcDbLine
 10
37.26788908288649
 20
-20.16947378672674
 30
0.0
 11
37.51788908288649
 21
-19.91947378672674
 31
0.0
  0
TEXT
  5
117
330
D1
100
AcDbEntity
  8
0
  6
ByBlock
 62
     0
100
AcDbText
 10
36.24705574955315
 20
-20.10697378672674
 30
0.0
 40
0.125
  1
1 3/4
 72
     1
 11
36.51788908288648
 21
-20.04447378672674
 31
0.0
100
AcDbText
 73
     2
  0
POINT
  5
118
330
D1
100
AcDbEntity
  8
DEFPOINTS
  6
ByBlock
 62
     0
100
AcDbPoint
 10
35.64288908288649
 20
-20.56430939742955
 30
0.0
  0
POINT
  5
119
330
D1
100
AcDbEntity
  8
DEFPOINTS
  6
ByBlock
 62
     0
100
AcDbPoint
 10
37.39288908288648
 20
-20.56430939742955
 30
0.0
  0
POINT
  5
11A
330
D1
100
AcDbEntity
  8
DEFPOINTS
  6
ByBlock
 62
     0
100
AcDbPoint
 10
37.39288908288648
 20
-20.04447378672674
 30
0.0
  0
ENDBLK
  5
11B
330
D1
100
AcDbEntity
  8
0
100
AcDbBlockEnd
  0
BLOCK
  5
11C
330
D2
100
AcDbEntity
  8
0
100
AcDbBlockBegin
  2
*D5
 70
     1
 10
0.0
 20
0.0
 30
0.0
  3
*D5
  1

  0
LINE
  5
11D
330
D2
100
AcDbEntity
  8
0
  6
ByBlock
 62
     0
100
AcDbLine
 10
36.03473750417521
 20
-20.50897378672674
 30
0.0
 11
36.03473750417521
 21
-20.20547378672674
 31
0.0
  0
LINE
  5
11E
330
D2
100
AcDbEntity
  8
0
  6
ByBlock
 62
     0
100
AcDbLine
 10
37.03473750417521
 20
-20.50897378672674
 30
0.0
 11
37.03473750417521
 21
-20.20547378672674
 31
0.0
  0
LINE
  5
11F
330
D2
100
AcDbEntity
  8
0
  6
ByBlock
 62
     0
100
AcDbLine
 10
36.03473750417521
 20
-20.38547378672673
 30
0.0
 11
36.38890417084188
 21
-20.38547378672673
 31
0.0
  0
LINE
  5
120
330
D2
100
AcDbEntity
  8
0
  6
ByBlock
 62
     0
100
AcDbLine
 10
37.03473750417521
 20
-20.38547378672673
 30
0.0
 11
36.68057083750855
 21
-20.38547378672673
 31
0.0
  0
LINE
  5
121
330
D2
100
AcDbEntity
  8
0
  6
ByBlock
 62
     0
100
AcDbLine
 10
35.90973750417521
 20
-20.51047378672674
 30
0.0
 11
36.15973750417521
 21
-20.26047378672673
 31
0.0
  0
LINE
  5
122
330
D2
100
AcDbEntity
  8
0
  6
ByBlock
 62
     0
100
AcDbLine
 10
36.90973750417521
 20
-20.51047378672674
 30
0.0
 11
37.15973750417521
 21
-20.26047378672673
 31
0.0
  0
TEXT
  5
123
330
D2
100
AcDbEntity
  8
0
  6
ByBlock
 62
     0
100
AcDbText
 10
36.51390417084188
 20
-20.44797378672674
 30
0.0
 40
0.125
  1
1
 72
     1
 11
36.53473750417521
 21
-20.38547378672673
 31
0.0
100
AcDbText
 73
     2
  0
POINT
  5
124
330
D2
100
AcDbEntity
  8
DEFPOINTS
  6
ByBlock
 62
     0
100
AcDbPoint
 10
36.03473750417521
 20
-20.57147378672674
 30
0.0
  0
POINT
  5
125
330
D2
100
AcDbEntity
  8
DEFPOINTS
  6
ByBlock
 62
     0
100
AcDbPoint
 10
37.03473750417521
 20
-20.57147378672674
 30
0.0
  0
POINT
  5
126
330
D2
100
AcDbEntity
  8
DEFPOINTS
  6
ByBlock
 62
     0
100
AcDbPoint
 10
37.03473750417521
 20
-20.38547378672673
 30
0.0
  0
ENDBLK
  5
127
330
D2
100
AcDbEntity
  8
0
100
AcDbBlockEnd
  0
ENDSEC
  0
SECTION
  2
ENTITIES
  0
LWPOLYLINE
  5
128
330
1E
100
AcDbEntity
  8
ADP1DETAIL
100
AcDbPolyline
 90
        3
 70
     0
 43
0.0
 10
36.38524669158019
 20
-20.9004423811237
 42
0.1205385940077053
 10
36.43348029834856
 20
-21.0570646547957
 42
0.4139574634132975
 10
36.50583065388767
 20
-21.09320821279769
 42
-0.1622327392325012
  0
ARC
  5
12D
330
1E
100
AcDbEntity
  8
ADP1DETAIL
100
AcDbCircle
 10
36.52334177753399
 20
-23.4081038911452
 30
0.0
 40
1.375
100
AcDbArc
 50
78.7306025026415
 51
102.8089017104464
  0
CIRCLE
  5
12E
330
1E
100
AcDbEntity
  8
ADP1DETAIL
100
AcDbCircle
 10
36.52334177753399
 20
-23.4081038911452
 30
0.0
 40
0.21875
  0
DIMENSION
  5
12F
330
1E
100
AcDbEntity
  8
ADPDIM
100
AcDbDimension
  2
*D2
 10
36.49870691929105
 20
-23.25324546306074
 30
0.0
 11
36.62070812201801
 21
-24.3296872021457
 31
0.0
 70
     3
 71
     5
 42
-1.0
100
AcDbDiametricDimension
 15
36.54797663577693
 25
-23.68796231922966
 35
0.0
 40
0.0
  0
LINE
  5
130
330
1E
100
AcDbEntity
  8
ADP2DETAIL
  6
HIDDEN2
100
AcDbLine
 10
35.64288908288649
 20
-20.73628438782072
 30
0.0
 11
37.39288908288648
 21
-20.73628438782072
 31
0.0
  0
DIMENSION
  5
131
330
1E
100
AcDbEntity
  8
ADPDIM
100
AcDbDimension
  2
*D5
 10
37.03473750417521
 20
-20.38547378672673
 30
0.0
 11
36.53473750417521
 21
-20.38547378672673
 31
0.0
 71
     5
 42
-1.0
100
AcDbAlignedDimension
 13
36.03473750417521
 23
-20.57147378672674
 33
0.0
 14
37.03473750417521
 24
-20.57147378672674
 34
0.0
100
AcDbRotatedDimension
  0
DIMENSION
  5
132
330
1E
100
AcDbEntity
  8
ADPDIM
100
AcDbDimension
  2
*D4
 10
37.39288908288648
 20
-20.04447378672674
 30
0.0
 11
36.51788908288648
 21
-20.04447378672674
 31
0.0
 71
     5
 42
-1.0
100
AcDbAlignedDimension
 13
35.64288908288649
 23
-20.56430939742955
 33
0.0
 14
37.39288908288648
 24
-20.56430939742955
 34
0.0
100
AcDbRotatedDimension
  0
DIMENSION
  5
133
330
1E
100
AcDbEntity
  8
ADPDIM
100
AcDbDimension
  2
*D3
 10
37.89218694277066
 20
-25.08481790115025
 30
0.0
 11
36.51718694277067
 21
-25.08481790115025
 31
0.0
 71
     5
 42
-1.0
100
AcDbAlignedDimension
 13
35.14218694277067
 23
-23.50381790115025
 33
0.0
 14
37.89218694277066
 24
-23.50381790115025
 34
0.0
100
AcDbRotatedDimension
  0
ARC
  5
134
330
1E
100
AcDbEntity
  8
ADP1DETAIL
100
AcDbCircle
 10
36.52334177753399
 20
-23.4081038911452
 30
0.0
 40
1.375
100
AcDbArc
 50
117.4078065444871
 51
63.08396505750881
  0
CIRCLE
  5
135
330
1E
100
AcDbEntity
  8
ADP1DETAIL
100
AcDbCircle
 10
36.52334177753399
 20
-23.4081038911452
 30
0.0
 40
0.5625
  0
CIRCLE
  5
136
330
1E
100
AcDbEntity
  8
ADP1DETAIL
100
AcDbCircle
 10
36.52334177753399
 20
-23.4081038911452
 30
0.0
 40
0.8129999999999999
  0
LINE
  5
137
330
1E
100
AcDbEntity
  8
ADP1DETAIL
100
AcDbLine
 10
35.64288908288649
 20
-20.56430939742955
 30
0.0
 11
37.39288908288648
 21
-20.56430939742955
 31
0.0
  0
LINE
  5
138
330
1E
100
AcDbEntity
  8
ADP1DETAIL
100
AcDbLine
 10
35.64288908288649
 20
-20.64247986038858
 30
0.0
 11
37.39288908288648
 21
-20.64247986038858
 31
0.0
  0
LINE
  5
139
330
1E
100
AcDbEntity
  8
ADP1DETAIL
100
AcDbLine
 10
37.39288908288648
 20
-20.90825944850863
 30
0.0
 11
35.64288908288649
 21
-20.90825944850863
 31
0.0
  0
LINE
  5
13A
330
1E
100
AcDbEntity
  8
ADP2DETAIL
  6
HIDDEN2
100
AcDbLine
 10
31.72336947403769
 20
-22.82665829031532
 30
0.0
 11
31.72336947403769
 21
-23.94322002911932
 31
0.0
  0
LINE
  5
13B
330
1E
100
AcDbEntity
  8
ADP2DETAIL
  6
HIDDEN2
100
AcDbLine
 10
31.61565495030633
 20
-24.0104828339952
 30
0.0
 11
31.60219066214664
 21
-22.7593955563132
 31
0.0
  0
LWPOLYLINE
  5
13C
330
1E
100
AcDbEntity
  8
ADP1DETAIL
100
AcDbPolyline
 90
        8
 70
     0
 43
0.0
 10
34.19604754520413
 20
-20.66025518188016
 10
34.1923685510626
 20
-20.6607974758357
 42
0.793486323515077
 10
33.96326679074095
 20
-20.75496537431243
 42
-0.1232837408391267
 10
33.61319464322747
 20
-21.65628629343588
 42
-0.2578022817940444
 10
32.88612188110799
 20
-21.89843220671727
 42
0.0494633377142408
 10
32.19462032421535
 20
-21.76390673871303
 42
0.4097897590905095
 10
31.56179768844066
 20
-22.07331538599655
 10
31.56179768844066
 20
-24.7503731206398
  0
LWPOLYLINE
  5
146
330
1E
100
AcDbEntity
  8
ADP1DETAIL
100
AcDbPolyline
 90
        7
 70
     0
 43
0.0
 10
31.65604792401231
 20
-24.81763585464193
 10
31.65604792401231
 20
-22.69213275143733
 42
-0.2705097233003482
 10
32.16769174789595
 20
-22.20784092487454
 42
-0.0692515028622713
 10
32.76012140996467
 20
-22.19438837807412
 42
0.309918630834058
 10
33.66705190509315
 20
-21.95224246479272
 42
0.1154486127069453
 10
34.16107295625236
 20
-20.79882078630664
 10
34.17359064866977
 20
-20.79684054969053
  0
LWPOLYLINE
  5
14F
330
1E
100
AcDbEntity
  8
ADP1DETAIL
100
AcDbPolyline
 90
        5
 70
     0
 43
0.0
 10
31.56179768844066
 20
-24.76382566744023
 10
31.65604792401231
 20
-24.83108840144235
 10
31.93879841227353
 20
-24.18536594240072
 10
31.93879841227353
 20
-22.58451237703393
 10
31.81761960038247
 20
-22.40962919775466
  0
LINE
  5
156
330
1E
100
AcDbEntity
  8
ADP2DETAIL
  6
HIDDEN2
100
AcDbLine
 10
31.89840554779443
 20
-24.31989148127871
 30
0.0
 11
31.61565495030633
 21
-24.0104828339952
 31
0.0
  0
LINE
  5
157
330
1E
100
AcDbEntity
  8
ADP2DETAIL
  6
HIDDEN2
100
AcDbLine
 10
31.72336947403769
 20
-23.94322002911932
 30
0.0
 11
31.93879841227353
 21
-24.17191339560029
 31
0.0
  0
LINE
  5
158
330
1E
100
AcDbEntity
  8
ADP2DETAIL
  6
HIDDEN2
100
AcDbLine
 10
31.60219066214664
 20
-22.7593955563132
 30
0.0
 11
31.85801257408845
 21
-22.47689193175678
 31
0.0
  0
DIMENSION
  5
159
330
1E
100
AcDbEntity
  8
ADPDIM
100
AcDbDimension
  2
*D0
 10
34.57999633478919
 20
-20.38322865191313
 30
0.0
 11
33.07089701161492
 21
-20.38322865191313
 31
0.0
 71
     5
 42
-1.0
100
AcDbAlignedDimension
 13
31.56179768844066
 23
-22.07331538599655
 33
0.0
 14
34.57999633478919
 24
-20.74766584090861
 34
0.0
100
AcDbRotatedDimension
  0
LWPOLYLINE
  5
15A
330
1E
100
AcDbEntity
  8
ADP1DETAIL
100
AcDbPolyline
 90
        5
 70
     0
 43
0.0
 10
31.56179768844066
 20
-22.65177511103606
 42
-0.3557792251709553
 10
32.34272782165269
 20
-22.07331538599655
 42
0.0168486437348487
 10
33.12847939566323
 20
-22.08676793279697
 42
0.2892369824028639
 10
33.66705190509315
 20
-21.72354909831176
 42
0.1361706868240651
 10
33.93633821442155
 20
-20.94330110039212
 42
-0.9565501772085045
  0
LINE
  5
161
330
1E
100
AcDbEntity
  8
ADP2DETAIL
  6
HIDDEN2
100
AcDbLine
 10
31.93879841227353
 20
-22.59796492383436
 30
0.0
 11
31.72336947403769
 21
-22.82665829031532
 31
0.0
  0
ARC
  5
162
330
1E
100
AcDbEntity
  8
ADP1DETAIL
100
AcDbCircle
 10
34.39648776280326
 20
-21.11288069324021
 30
0.0
 40
0.3034838332640872
100
AcDbArc
 50
114.0214536755995
 51
162.9734991815762
  0
ARC
  5
163
330
1E
100
AcDbEntity
  8
ADP1DETAIL
100
AcDbCircle
 10
34.55382590735066
 20
-20.199287512041
 30
0.0
 40
0.7082714767293013
100
AcDbArc
 50
237.5305661425971
 51
320.4482585735626
  0
LWPOLYLINE
  5
164
330
1E
100
AcDbEntity
  8
ADP1DETAIL
100
AcDbPolyline
 90
        7
 70
     0
 43
0.0
 10
36.10790347996878
 20
-21.78027666175256
 42
0.2771268277112633
 10
35.15528988282708
 20
-23.16578139584129
 42
-0.1464190960979094
 10
35.58939223451553
 20
-22.18990419580731
 42
-0.3331326365626539
 10
35.84261869735619
 20
-22.08147338005381
 42
0.0000003121527055
 10
35.96320265966367
 20
-22.12966483797231
 42
0.3189829978771932
 10
36.09584505096997
 20
-22.04532975117806
 42
0.0165659393114925
 10
36.0753303898879
 20
-20.90825944850863
 42
0.0044249504173475
  0
LWPOLYLINE
  5
16D
330
1E
100
AcDbEntity
  8
ADP1DETAIL
100
AcDbPolyline
 90
        7
 70
     0
 43
0.0
 10
36.08158668591572
 20
-20.90825944850863
 42
0.0041064845646499
 10
36.21642901327745
 20
-21.78027666175256
 42
-0.0978002102719689
 10
36.20437069350552
 20
-22.14171273788881
 42
-0.3359227347050692
 10
36.13202022873952
 20
-22.20195202485006
 42
-0.09641522944013
 10
35.80644351958663
 20
-22.16580846684806
 42
0.2489535179987626
 10
35.61350909251315
 20
-22.20195202485006
 42
0.1165424108752354
 10
35.16734831182589
 20
-23.16578139584129
 42
1.224916379559648
  0
ARC
  5
176
330
1E
100
AcDbEntity
  8
ADP1DETAIL
100
AcDbCircle
 10
34.52928256471916
 20
-20.08347730624452
 30
0.0
 40
0.666121832740791
100
AcDbArc
 50
232.5891510310478
 51
316.1434837145058
  0
LINE
  5
177
330
1E
100
AcDbEntity
  8
ADP2DETAIL
  6
HIDDEN2
100
AcDbLine
 10
34.48028020368038
 20
-20.72846739073253
 30
0.0
 11
34.48028020368038
 21
-20.8513483255863
 31
0.0
  0
LWPOLYLINE
  5
178
330
1E
100
AcDbEntity
  8
ADP1DETAIL
100
AcDbPolyline
 90
        2
 70
     0
 43
0.0
 10
35.0999385254698
 20
-20.65029692777351
 10
35.00605206605191
 20
-20.54085826557152
  0
LINE
  5
17C
330
1E
100
AcDbEntity
  8
ADP2DETAIL
  6
HIDDEN2
100
AcDbLine
 10
34.6852729505258
 20
-20.7206503233476
 30
0.0
 11
34.6852729505258
 21
-20.8513483255863
 31
0.0
  0
LINE
  5
17D
330
1E
100
AcDbEntity
  8
ADP1DETAIL
100
AcDbLine
 10
35.64288908288649
 20
-20.90825944850863
 30
0.0
 11
35.64288908288649
 21
-20.56430939742955
 31
0.0
  0
LINE
  5
17E
330
1E
100
AcDbEntity
  8
ADP2DETAIL
  6
HIDDEN2
100
AcDbLine
 10
35.92702748189412
 20
-20.72846739073253
 30
0.0
 11
35.92702748189412
 21
-20.90825944850863
 31
0.0
  0
LINE
  5
17F
330
1E
100
AcDbEntity
  8
ADP2DETAIL
  6
HIDDEN2
100
AcDbLine
 10
36.13202022873952
 20
-20.73628438782072
 30
0.0
 11
36.13202022873952
 21
-20.90825944850863
 31
0.0
  0
DIMENSION
  5
180
330
1E
100
AcDbEntity
  8
ADPDIM
100
AcDbDimension
  2
*D1
 10
38.06718694277066
 20
-20.73628438782072
 30
0.0
 11
38.06718694277066
 21
-22.10344413948296
 31
0.0
 71
     5
 42
-1.0
100
AcDbAlignedDimension
 13
36.61334177753399
 23
-23.4706038911452
 33
0.0
 14
37.39288908288648
 24
-20.73628438782072
 34
0.0
 50
90.0
100
AcDbRotatedDimension
  0
LWPOLYLINE
  5
181
330
1E
100
AcDbEntity
  8
ADP1DETAIL
100
AcDbPolyline
 90
        3
 70
     0
 43
0.0
 10
36.62641461619516
 20
-20.9004423811237
 42
-0.1205385940077053
 10
36.57818100942679
 20
-21.0570646547957
 42
-0.4139574634132975
 10
36.50583065388767
 20
-21.09320821279769
 42
0.1622327392325012
  0
LWPOLYLINE
  5
186
330
1E
100
AcDbEntity
  8
ADP1DETAIL
100
AcDbPolyline
 90
        7
 70
     0
 43
0.0
 10
36.93007462185962
 20
-20.90825944850863
 42
-0.0041064845646499
 10
36.79523229449789
 20
-21.78027666175256
 42
0.0978002102719689
 10
36.80729061426982
 20
-22.14171273788881
 42
0.3359227347050692
 10
36.87964107903582
 20
-22.20195202485006
 42
0.09641522944013
 10
37.20521778818871
 20
-22.16580846684806
 42
-0.2489535179987626
 10
37.39815221526219
 20
-22.20195202485006
 42
-0.1165424108752354
 10
37.84431299594944
 20
-23.16578139584129
 42
-1.224916379559648
  0
LWPOLYLINE
  5
18F
330
1E
100
AcDbEntity
  8
ADP1DETAIL
100
AcDbPolyline
 90
        7
 70
     0
 43
0.0
 10
36.90375782780656
 20
-21.78027666175256
 42
-0.2771268277112622
 10
37.85637142494826
 20
-23.16578139584129
 42
0.1464190960979079
 10
37.42226907325981
 20
-22.18990419580731
 42
0.3331326365626539
 10
37.16904261041916
 20
-22.08147338005381
 42
-0.0000003121527055
 10
37.04845864811167
 20
-22.12966483797231
 42
-0.3189829978771932
 10
36.91581625680537
 20
-22.04532975117806
 42
-0.0165659393114925
 10
36.93633091788745
 20
-20.90825944850863
 42
-0.0044249504173475
  0
ARC
  5
198
330
1E
100
AcDbEntity
  8
ADP1DETAIL
100
AcDbCircle
 10
36.52334177753399
 20
-23.4081038911452
 30
0.0
 40
1.375
100
AcDbArc
 50
68.45179470670196
 51
71.29663387575418
  0
LINE
  5
199
330
1E
100
AcDbEntity
  8
ADP2DETAIL
  6
HIDDEN2
100
AcDbLine
 10
36.87964107903582
 20
-20.72846739073253
 30
0.0
 11
36.87964107903582
 21
-20.90825944850863
 31
0.0
  0
LINE
  5
19A
330
1E
100
AcDbEntity
  8
ADP2DETAIL
  6
HIDDEN2
100
AcDbLine
 10
37.08463382588123
 20
-20.72846739073253
 30
0.0
 11
37.08463382588123
 21
-20.91607644559681
 31
0.0
  0
LINE
  5
19B
330
1E
100
AcDbEntity
  8
ADP1DETAIL
100
AcDbLine
 10
37.39288908288648
 20
-20.56430939742955
 30
0.0
 11
37.39288908288648
 21
-20.90825944850863
 31
0.0
  0
TEXT
  5
19F
330
1E
100
AcDbEntity
  8
ADPDIM
100
AcDbText
 10
28.45403946172062
 20
-26.01048671447186
 30
0.0
 40
0.125
  1
J U L I U S  B L U M  &  C O . ,  I N C .      ( 8 0 0 )  5 2 6 - 6 2 9 3        W W W . J U L I U S B L U M . C O M        P A R T  N o .  1 0 2 6
 41
1.25
  7
ARIAL_WIDE
 72
     1
 11
34.97976848627724
 21
-25.88548671447187
 31
0.0
100
AcDbText
 73
     3
  0
ENDSEC
  0
SECTION
  2
OBJECTS
  0
DICTIONARY
  5
C
330
0
100
AcDbDictionary
281
     1
  3
ACAD_COLOR
350
37D
  3
ACAD_GROUP
350
D
  3
ACAD_LAYOUT
350
19
  3
ACAD_MATERIAL
350
368
  3
ACAD_MLINESTYLE
350
16
  3
ACAD_PLOTSETTINGS
350
18
  3
ACAD_PLOTSTYLENAME
350
E
  3
ACAD_TABLESTYLE
350
37E
  3
ACAD_VISUALSTYLE
350
36C
  3
AcDbVariableDictionary
350
210
  3
DWGPROPS
350
3A2
  0
DICTIONARY
  5
1DB
330
1E
100
AcDbDictionary
280
     1
281
     1
  3
ACAD_LAYOUTSELFREF
360
364
  0
DICTIONARY
  5
1DD
330
1A
100
AcDbDictionary
280
     1
281
     1
  3
ACAD_LAYOUTSELFREF
360
363
  0
DICTIONARY
  5
37D
102
{ACAD_REACTORS
330
C
102
}
330
C
100
AcDbDictionary
281
     1
  0
DICTIONARY
  5
D
102
{ACAD_REACTORS
330
C
102
}
330
C
100
AcDbDictionary
281
     1
  0
DICTIONARY
  5
19
102
{ACAD_REACTORS
330
C
102
}
330
C
100
AcDbDictionary
281
     1
  3
Layout1
350
1D
  3
Model
350
21
  0
DICTIONARY
  5
368
102
{ACAD_REACTORS
330
C
102
}
330
C
100
AcDbDictionary
281
     1
  3
ByBlock
350
36A
  3
ByLayer
350
369
  3
Global
350
36B
  0
DICTIONARY
  5
16
102
{ACAD_REACTORS
330
C
102
}
330
C
100
AcDbDictionary
281
     1
  3
Standard
350
17
  0
DICTIONARY
  5
18
102
{ACAD_REACTORS
330
C
102
}
330
C
100
AcDbDictionary
281
     1
  0
ACDBDICTIONARYWDFLT
  5
E
102
{ACAD_REACTORS
330
C
102
}
330
C
100
AcDbDictionary
281
     1
  3
Normal
350
F
100
AcDbDictionaryWithDefault
340
F
  0
DICTIONARY
  5
37E
102
{ACAD_REACTORS
330
C
102
}
330
C
100
AcDbDictionary
281
     1
  3
Standard
350
37F
  0
DICTIONARY
  5
36C
102
{ACAD_REACTORS
330
C
102
}
330
C
100
AcDbDictionary
281
     1
  3
2dWireframe
350
372
  3
3D Hidden
350
374
  3
3dWireframe
350
373
  3
Basic
350
371
  3
Brighten
350
378
  3
ColorChange
350
37C
  3
Conceptual
350
375
  3
Dim
350
377
  3
Facepattern
350
37B
  3
Flat
350
36D
  3
FlatWithEdges
350
36E
  3
Gouraud
350
36F
  3
GouraudWithEdges
350
370
  3
Linepattern
350
37A
  3
Realistic
350
376
  3
Thicken
350
379
  0
DICTIONARY
  5
210
102
{ACAD_REACTORS
330
C
102
}
330
C
100
AcDbDictionary
281
     1
  3
CTABLESTYLE
350
39F
  3
DIMASSOC
350
212
  3
HIDETEXT
350
211
  3
INDEXCTL
350
3A1
  3
SORTENTS
350
3A0
  0
XRECORD
  5
3A2
102
{ACAD_REACTORS
330
C
102
}
330
C
100
AcDbXrecord
280
     1
  1
DWGPROPS COOKIE
  2

  3

  4

  6

  7

  8
Yu Hu
  9

300
=
301
=
302
=
303
=
304
=
305
=
306
=
307
=
308
=
309
=
 40
0.042529525462963
 41
2450386.505591435
 42
2453959.008053241
  1

 90
        0
  0
XRECORD
  5
364
102
{ACAD_REACTORS
330
1DB
102
}
330
1DB
100
AcDbXrecord
280
     1
340
1E
  0
XRECORD
  5
363
102
{ACAD_REACTORS
330
1DD
102
}
330
1DD
100
AcDbXrecord
280
     1
340
1A
  0
LAYOUT
  5
1D
102
{ACAD_XDICTIONARY
360
3A3
102
}
102
{ACAD_REACTORS
330
19
102
}
330
19
100
AcDbPlotSettings
  1

  2
Fax
  4

  6

 40
0.0
 41
0.0
 42
0.0
 43
0.0
 44
0.0
 45
0.0
 46
0.0
 47
0.0
 48
0.0
 49
0.0
140
0.0
141
0.0
142
1.0
143
1.0
 70
   688
 72
     0
 73
     0
 74
     5
  7
Default R14 pen assignments.ctb
 75
    16
147
1.0
148
0.0
149
0.0
100
AcDbLayout
  1
Layout1
 70
     1
 71
     1
 10
0.0
 20
0.0
 11
12.0
 21
9.0
 12
4.403525741743744E+99
 22
7.061986388769092E+99
 32
0.0
 14
1.000000000000000E+20
 24
1.000000000000000E+20
 34
1.000000000000000E+20
 15
-1.000000000000000E+20
 25
-1.000000000000000E+20
 35
-1.000000000000000E+20
146
0.0
 13
0.0
 23
0.0
 33
0.0
 16
1.0
 26
0.0
 36
0.0
 17
0.0
 27
1.0
 37
0.0
 76
     0
330
1A
  0
LAYOUT
  5
21
102
{ACAD_XDICTIONARY
360
3A5
102
}
102
{ACAD_REACTORS
330
19
102
}
330
19
100
AcDbPlotSettings
  1

  2
Fax
  4

  6

 40
0.0
 41
0.0
 42
0.0
 43
0.0
 44
0.0
 45
0.0
 46
0.0
 47
0.0
 48
0.0
 49
0.0
140
0.0
141
0.0
142
1.0
143
1.0
 70
  1712
 72
     0
 73
     0
 74
     0
  7
Default R14 pen assignments.ctb
 75
     0
147
1.0
148
0.0
149
0.0
100
AcDbLayout
  1
Model
 70
     1
 71
     0
 10
0.0
 20
0.0
 11
12.0
 21
9.0
 12
0.0
 22
0.0
 32
0.0
 14
0.0
 24
0.0
 34
0.0
 15
0.0
 25
0.0
 35
0.0
146
0.0
 13
0.0
 23
0.0
 33
0.0
 16
1.0
 26
0.0
 36
0.0
 17
0.0
 27
1.0
 37
0.0
 76
     0
330
1E
331
331
  0
MATERIAL
  5
36A
102
{ACAD_XDICTIONARY
360
3A9
102
}
102
{ACAD_REACTORS
330
368
102
}
330
368
100
AcDbMaterial
  1
ByBlock
  0
MATERIAL
  5
369
102
{ACAD_XDICTIONARY
360
3A7
102
}
102
{ACAD_REACTORS
330
368
102
}
330
368
100
AcDbMaterial
  1
ByLayer
  0
MATERIAL
  5
36B
102
{ACAD_XDICTIONARY
360
3AB
102
}
102
{ACAD_REACTORS
330
368
102
}
330
368
100
AcDbMaterial
  1
Global
  0
MLINESTYLE
  5
17
102
{ACAD_REACTORS
330
16
102
}
330
16
100
AcDbMlineStyle
  2
STANDARD
 70
     0
  3

 62
   256
 51
90.0
 52
90.0
 71
     2
 49
0.5
 62
   256
  6
BYLAYER
 49
-0.5
 62
   256
  6
BYLAYER
  0
ACDBPLACEHOLDER
  5
F
102
{ACAD_REACTORS
330
E
102
}
330
E
  0
TABLESTYLE
  5
37F
102
{ACAD_XDICTIONARY
360
3AD
102
}
102
{ACAD_REACTORS
330
37E
102
}
330
37E
100
AcDbTableStyle
  3
Standard
 70
     0
 71
     0
 40
0.06
 41
0.06
280
     0
281
     0
  7
STANDARD
140
0.18
170
     2
 62
     0
 63
     7
283
     0
274
    -2
284
     1
 64
     0
275
    -2
285
     1
 65
     0
276
    -2
286
     1
 66
     0
277
    -2
287
     1
 67
     0
278
    -2
288
     1
 68
     0
279
    -2
289
     1
 69
     0
  7
STANDARD
140
0.25
170
     5
 62
     0
 63
     7
283
     0
274
    -2
284
     1
 64
     0
275
    -2
285
     1
 65
     0
276
    -2
286
     1
 66
     0
277
    -2
287
     1
 67
     0
278
    -2
288
     1
 68
     0
279
    -2
289
     1
 69
     0
  7
STANDARD
140
0.18
170
     5
 62
     0
 63
     7
283
     0
274
    -2
284
     1
 64
     0
275
    -2
285
     1
 65
     0
276
    -2
286
     1
 66
     0
277
    -2
287
     1
 67
     0
278
    -2
288
     1
 68
     0
279
    -2
289
     1
 69
     0
  0
VISUALSTYLE
  5
372
102
{ACAD_REACTORS
330
36C
102
}
330
36C
100
AcDbVisualStyle
  2
2dWireframe
 70
     4
 71
     0
 72
     2
 73
     0
 90
        0
 40
-0.6
 41
-30.0
 62
     5
 63
     7
 74
     1
 91
        4
 64
     7
 65
   257
 75
     1
175
     1
 42
1.0
 92
        0
 66
   257
 43
1.0
 76
     1
 77
     6
 78
     2
 67
     7
 79
     5
170
     0
171
     0
290
     0
174
     0
 93
        1
 44
0.0
173
     0
291
     0
 45
0.0
1001
ACAD
1000
AcDbSavedByObjectVersion
1070
     0
  0
VISUALSTYLE
  5
374
102
{ACAD_REACTORS
330
36C
102
}
330
36C
100
AcDbVisualStyle
  2
3D Hidden
 70
     6
 71
     1
 72
     2
 73
     2
 90
        0
 40
-0.6
 41
-30.0
 62
     5
 63
     7
 74
     2
 91
        2
 64
     7
 65
   257
 75
     2
175
     1
 42
40.0
 92
        0
 66
   257
 43
1.0
 76
     1
 77
     6
 78
     2
 67
     7
 79
     3
170
     0
171
     0
290
     0
174
     0
 93
        1
 44
0.0
173
     0
291
     0
 45
0.0
1001
ACAD
1000
AcDbSavedByObjectVersion
1070
     0
  0
VISUALSTYLE
  5
373
102
{ACAD_REACTORS
330
36C
102
}
330
36C
100
AcDbVisualStyle
  2
3dWireframe
 70
     5
 71
     0
 72
     2
 73
     0
 90
        0
 40
-0.6
 41
-30.0
 62
     5
 63
     7
 74
     1
 91
        4
 64
     7
 65
   257
 75
     1
175
     1
 42
1.0
 92
        0
 66
   257
 43
1.0
 76
     1
 77
     6
 78
     2
 67
     7
 79
     5
170
     0
171
     0
290
     0
174
     0
 93
        1
 44
0.0
173
     0
291
     0
 45
0.0
1001
ACAD
1000
AcDbSavedByObjectVersion
1070
     0
  0
VISUALSTYLE
  5
371
102
{ACAD_REACTORS
330
36C
102
}
330
36C
100
AcDbVisualStyle
  2
Basic
 70
     7
 71
     1
 72
     0
 73
     1
 90
        0
 40
-0.6
 41
-30.0
 62
     5
 63
     7
 74
     0
 91
        4
 64
     7
 65
   257
 75
     1
175
     1
 42
1.0
 92
        8
 66
     7
 43
1.0
 76
     1
 77
     6
 78
     2
 67
     7
 79
     5
170
     0
171
     0
290
     0
174
     0
 93
        1
 44
0.0
173
     0
291
     1
 45
0.0
1001
ACAD
1000
AcDbSavedByObjectVersion
1070
     0
  0
VISUALSTYLE
  5
378
102
{ACAD_REACTORS
330
36C
102
}
330
36C
100
AcDbVisualStyle
  2
Brighten
 70
    12
 71
     2
 72
     2
 73
     0
 90
        0
 40
-0.6
 41
-30.0
 62
     5
 63
     7
 74
     1
 91
        4
 64
     7
 65
   257
 75
     1
175
     1
 42
1.0
 92
        8
 66
     7
 43
1.0
 76
     1
 77
     6
 78
     2
 67
     7
 79
     5
170
     0
171
     0
290
     0
174
     0
 93
        1
 44
50.0
173
     0
291
     1
 45
0.0
1001
ACAD
1000
AcDbSavedByObjectVersion
1070
     0
  0
VISUALSTYLE
  5
37C
102
{ACAD_REACTORS
330
36C
102
}
330
36C
100
AcDbVisualStyle
  2
ColorChange
 70
    16
 71
     2
 72
     2
 73
     3
 90
        0
 40
-0.6
 41
-30.0
 62
     5
 63
     8
 74
     1
 91
        4
 64
     7
 65
   257
 75
     1
175
     1
 42
1.0
 92
        8
 66
     8
 43
1.0
 76
     1
 77
     6
 78
     2
 67
     7
 79
     5
170
     0
171
     0
290
     0
174
     0
 93
        1
 44
0.0
173
     0
291
     1
 45
0.0
1001
ACAD
1000
AcDbSavedByObjectVersion
1070
     0
  0
VISUALSTYLE
  5
375
102
{ACAD_REACTORS
330
36C
102
}
330
36C
100
AcDbVisualStyle
  2
Conceptual
 70
     9
 71
     3
 72
     2
 73
     0
 90
        0
 40
-0.6
 41
-30.0
 62
     5
 63
     7
 74
     2
 91
        2
 64
     7
 65
   257
 75
     1
175
     1
 42
40.0
 92
        8
 66
     7
 43
1.0
 76
     1
 77
     6
 78
     2
 67
     7
 79
     3
170
     0
171
     0
290
     0
174
     0
 93
        1
 44
0.0
173
     0
291
     0
 45
0.0
1001
ACAD
1000
AcDbSavedByObjectVersion
1070
     0
  0
VISUALSTYLE
  5
377
102
{ACAD_REACTORS
330
36C
102
}
330
36C
100
AcDbVisualStyle
  2
Dim
 70
    11
 71
     2
 72
     2
 73
     0
 90
        0
 40
-0.6
 41
-30.0
 62
     5
 63
     7
 74
     1
 91
        4
 64
     7
 65
   257
 75
     1
175
     1
 42
1.0
 92
        8
 66
     7
 43
1.0
 76
     1
 77
     6
 78
     2
 67
     7
 79
     5
170
     0
171
     0
290
     0
174
     0
 93
        1
 44
-50.0
173
     0
291
     1
 45
0.0
1001
ACAD
1000
AcDbSavedByObjectVersion
1070
     0
  0
VISUALSTYLE
  5
37B
102
{ACAD_REACTORS
330
36C
102
}
330
36C
100
AcDbVisualStyle
  2
Facepattern
 70
    15
 71
     2
 72
     2
 73
     0
 90
        0
 40
-0.6
 41
-30.0
 62
     5
 63
     7
 74
     1
 91
        4
 64
     7
 65
   257
 75
     1
175
     1
 42
1.0
 92
        8
 66
     7
 43
1.0
 76
     1
 77
     6
 78
     2
 67
     7
 79
     5
170
     0
171
     0
290
     0
174
     0
 93
        1
 44
0.0
173
     0
291
     1
 45
0.0
1001
ACAD
1000
AcDbSavedByObjectVersion
1070
     0
  0
VISUALSTYLE
  5
36D
102
{ACAD_REACTORS
330
36C
102
}
330
36C
100
AcDbVisualStyle
  2
Flat
 70
     0
 71
     2
 72
     1
 73
     1
 90
        2
 40
-0.6
 41
30.0
 62
     5
 63
     7
 74
     0
 91
        4
 64
     7
 65
   257
 75
     1
175
     1
 42
1.0
 92
        8
 66
     7
 43
1.0
 76
     1
 77
     6
 78
     2
 67
     7
 79
     5
170
     0
171
     0
290
     0
174
     0
 93
       13
 44
0.0
173
     0
291
     1
 45
0.0
1001
ACAD
1000
AcDbSavedByObjectVersion
1070
     0
  0
VISUALSTYLE
  5
36E
102
{ACAD_REACTORS
330
36C
102
}
330
36C
100
AcDbVisualStyle
  2
FlatWithEdges
 70
     1
 71
     2
 72
     1
 73
     1
 90
        2
 40
-0.6
 41
30.0
 62
     5
 63
     7
 74
     1
 91
        4
 64
     7
 65
   257
 75
     1
175
     1
 42
1.0
 92
        0
 66
   257
 43
1.0
 76
     1
 77
     6
 78
     2
 67
     7
 79
     5
170
     0
171
     0
290
     0
174
     0
 93
       13
 44
0.0
173
     0
291
     1
 45
0.0
1001
ACAD
1000
AcDbSavedByObjectVersion
1070
     0
  0
VISUALSTYLE
  5
36F
102
{ACAD_REACTORS
330
36C
102
}
330
36C
100
AcDbVisualStyle
  2
Gouraud
 70
     2
 71
     2
 72
     2
 73
     1
 90
        2
 40
-0.6
 41
30.0
 62
     5
 63
     7
 74
     0
 91
        4
 64
     7
 65
   257
 75
     1
175
     1
 42
1.0
 92
        0
 66
     7
 43
1.0
 76
     1
 77
     6
 78
     2
 67
     7
 79
     5
170
     0
171
     0
290
     0
174
     0
 93
       13
 44
0.0
173
     0
291
     1
 45
0.0
1001
ACAD
1000
AcDbSavedByObjectVersion
1070
     0
  0
VISUALSTYLE
  5
370
102
{ACAD_REACTORS
330
36C
102
}
330
36C
100
AcDbVisualStyle
  2
GouraudWithEdges
 70
     3
 71
     2
 72
     2
 73
     1
 90
        2
 40
-0.6
 41
30.0
 62
     5
 63
     7
 74
     1
 91
        4
 64
     7
 65
   257
 75
     1
175
     1
 42
1.0
 92
        0
 66
   257
 43
1.0
 76
     1
 77
     6
 78
     2
 67
     7
 79
     5
170
     0
171
     0
290
     0
174
     0
 93
       13
 44
0.0
173
     0
291
     1
 45
0.0
1001
ACAD
1000
AcDbSavedByObjectVersion
1070
     0
  0
VISUALSTYLE
  5
37A
102
{ACAD_REACTORS
330
36C
102
}
330
36C
100
AcDbVisualStyle
  2
Linepattern
 70
    14
 71
     2
 72
     2
 73
     0
 90
        0
 40
-0.6
 41
-30.0
 62
     5
 63
     7
 74
     1
 91
        4
 64
     7
 65
   257
 75
     7
175
     7
 42
1.0
 92
        8
 66
     7
 43
1.0
 76
     1
 77
     6
 78
     2
 67
     7
 79
     5
170
     0
171
     0
290
     0
174
     0
 93
        1
 44
0.0
173
     0
291
     1
 45
0.0
1001
ACAD
1000
AcDbSavedByObjectVersion
1070
     0
  0
VISUALSTYLE
  5
376
102
{ACAD_REACTORS
330
36C
102
}
330
36C
100
AcDbVisualStyle
  2
Realistic
 70
     8
 71
     2
 72
     2
 73
     0
 90
        0
 40
-0.6
 41
-30.0
 62
     5
 63
     7
 74
     1
 91
        0
 64
     7
 65
   257
 75
     1
175
     1
 42
1.0
 92
        8
 66
     8
 43
1.0
 76
     1
 77
     6
 78
     2
 67
     7
 79
     5
170
     0
171
     0
290
     0
174
     0
 93
       13
 44
0.0
173
     0
291
     0
 45
0.0
1001
ACAD
1000
AcDbSavedByObjectVersion
1070
     0
  0
VISUALSTYLE
  5
379
102
{ACAD_REACTORS
330
36C
102
}
330
36C
100
AcDbVisualStyle
  2
Thicken
 70
    13
 71
     2
 72
     2
 73
     0
 90
        0
 40
-0.6
 41
-30.0
 62
     5
 63
     7
 74
     1
 91
        4
 64
     7
 65
   257
 75
     1
175
     1
 42
1.0
 92
       12
 66
     7
 43
1.0
 76
     1
 77
     6
 78
     2
 67
     7
 79
     5
170
     0
171
     0
290
     0
174
     0
 93
        1
 44
0.0
173
     0
291
     1
 45
0.0
1001
ACAD
1000
AcDbSavedByObjectVersion
1070
     0
  0
DICTIONARYVAR
  5
39F
102
{ACAD_REACTORS
330
210
102
}
330
210
100
DictionaryVariables
280
     0
  1
STANDARD
  0
DICTIONARYVAR
  5
212
102
{ACAD_REACTORS
330
210
102
}
330
210
100
DictionaryVariables
280
     0
  1
2
  0
DICTIONARYVAR
  5
211
102
{ACAD_REACTORS
330
210
102
}
330
210
100
DictionaryVariables
280
     0
  1
1
  0
DICTIONARYVAR
  5
3A1
102
{ACAD_REACTORS
330
210
102
}
330
210
100
DictionaryVariables
280
     0
  1
0
  0
DICTIONARYVAR
  5
3A0
102
{ACAD_REACTORS
330
210
102
}
330
210
100
DictionaryVariables
280
     0
  1
127
  0
DICTIONARY
  5
3A3
330
1D
100
AcDbDictionary
280
     1
281
     1
  3
ACAD_XREC_ROUNDTRIP
360
3A4
  0
DICTIONARY
  5
3A5
330
21
100
AcDbDictionary
280
     1
281
     1
  3
ACAD_XREC_ROUNDTRIP
360
3A6
  0
DICTIONARY
  5
3A9
330
36A
100
AcDbDictionary
280
     1
281
     1
  3
ACAD_XREC_ROUNDTRIP
360
3AA
  0
DICTIONARY
  5
3A7
330
369
100
AcDbDictionary
280
     1
281
     1
  3
ACAD_XREC_ROUNDTRIP
360
3A8
  0
DICTIONARY
  5
3AB
330
36B
100
AcDbDictionary
280
     1
281
     1
  3
ACAD_XREC_ROUNDTRIP
360
3AC
  0
DICTIONARY
  5
3AD
330
37F
100
AcDbDictionary
280
     1
281
     1
  3
ACAD_XREC_ROUNDTRIP
360
3AE
  0
XRECORD
  5
3A4
102
{ACAD_REACTORS
330
3A3
102
}
330
3A3
100
AcDbXrecord
280
     1
102
SHADEPLOT
 70
     0
102
SHADEPLOTRESLEVEL
 70
     2
102
SHADEPLOTCUSTOMDPI
 70
   300
  0
XRECORD
  5
3A6
102
{ACAD_REACTORS
330
3A5
102
}
330
3A5
100
AcDbXrecord
280
     1
102
SHADEPLOT
 70
     0
102
SHADEPLOTRESLEVEL
 70
     2
102
SHADEPLOTCUSTOMDPI
 70
   300
  0
XRECORD
  5
3AA
102
{ACAD_REACTORS
330
3A9
102
}
330
3A9
100
AcDbXrecord
280
     1
102
MATERIAL
148
0.0
149
0.0
149
0.0
 93
        0
 94
       63
282
     0
 72
     1
 77
     1
171
     1
175
     1
179
     1
273
     0
  0
XRECORD
  5
3A8
102
{ACAD_REACTORS
330
3A7
102
}
330
3A7
100
AcDbXrecord
280
     1
102
MATERIAL
148
0.0
149
0.0
149
0.0
 93
        0
 94
       63
282
     0
 72
     1
 77
     1
171
     1
175
     1
179
     1
273
     0
  0
XRECORD
  5
3AC
102
{ACAD_REACTORS
330
3AB
102
}
330
3AB
100
AcDbXrecord
280
     1
102
MATERIAL
148
0.0
149
0.0
149
0.0
 93
        0
 94
       63
282
     0
 72
     1
 77
     1
171
     1
175
     1
179
     1
273
     0
  0
XRECORD
  5
3AE
102
{ACAD_REACTORS
330
3AD
102
}
330
3AD
100
AcDbXrecord
280
     1
102
ACAD_ROUNDTRIP_PRE2007_TABLESTYLE
 90
      512
 91
        0
  1

 92
      512
 93
        0
  2

 94
      512
 95
        0
  3

  0
ENDSEC
  0
EOF
