  0
SECTION
  2
HEADER
  9
$ACADVER
  1
AC1014
  9
$ACADMAINTVER
 70
     9
  9
$DWGCODEPAGE
  3
ANSI_1252
  9
$INSBASE
 10
8.974015629327508
 20
7.791811530016667
 30
0.0
  9
$EXTMIN
 10
-0.6366099409669115
 20
0.9195101349751055
 30
0.0
  9
$EXTMAX
 10
12.76635731687756
 20
9.208478196683335
 30
0.0
  9
$LIMMIN
 10
0.0
 20
0.0
  9
$LIMMAX
 10
36.0
 20
36.0
  9
$ORTHOMODE
 70
     1
  9
$REGENMODE
 70
     1
  9
$FILLMODE
 70
     1
  9
$QTEXTMODE
 70
     0
  9
$MIRRTEXT
 70
     1
  9
$DRAGMODE
 70
     0
  9
$LTSCALE
 40
1.0
  9
$OSMODE
 70
    37
  9
$ATTMODE
 70
     1
  9
$TEXTSIZE
 40
0.2
  9
$TRACEWID
 40
0.05
  9
$TEXTSTYLE
  7
STANDARD
  9
$CLAYER
  8
ADPDIM
  9
$CELTYPE
  6
BYLAYER
  9
$CECOLOR
 62
   256
  9
$CELTSCALE
 40
1.0
  9
$DELOBJ
 70
     1
  9
$DISPSILH
 70
     0
  9
$DIMSCALE
 40
1.0
  9
$DIMASZ
 40
0.125
  9
$DIMEXO
 40
0.0625
  9
$DIMDLI
 40
0.38
  9
$DIMRND
 40
0.0
  9
$DIMDLE
 40
0.0
  9
$DIMEXE
 40
0.18
  9
$DIMTP
 40
0.0
  9
$DIMTM
 40
0.0
  9
$DIMTXT
 40
0.125
  9
$DIMCEN
 40
0.1875
  9
$DIMTSZ
 40
0.125
  9
$DIMTOL
 70
     0
  9
$DIMLIM
 70
     0
  9
$DIMTIH
 70
     0
  9
$DIMTOH
 70
     0
  9
$DIMSE1
 70
     0
  9
$DIMSE2
 70
     0
  9
$DIMTAD
 70
     0
  9
$DIMZIN
 70
     3
  9
$DIMBLK
  1

  9
$DIMASO
 70
     1
  9
$DIMSHO
 70
     1
  9
$DIMPOST
  1

  9
$DIMAPOST
  1

  9
$DIMALT
 70
     0
  9
$DIMALTD
 70
     1
  9
$DIMALTF
 40
25.4
  9
$DIMLFAC
 40
1.0
  9
$DIMTOFL
 70
     0
  9
$DIMTVP
 40
0.0
  9
$DIMTIX
 70
     0
  9
$DIMSOXD
 70
     0
  9
$DIMSAH
 70
     0
  9
$DIMBLK1
  1

  9
$DIMBLK2
  1

  9
$DIMSTYLE
  2
STANDARD
  9
$DIMCLRD
 70
     0
  9
$DIMCLRE
 70
     0
  9
$DIMCLRT
 70
     0
  9
$DIMTFAC
 40
1.0
  9
$DIMGAP
 40
0.125
  9
$DIMJUST
 70
     0
  9
$DIMSD1
 70
     0
  9
$DIMSD2
 70
     0
  9
$DIMTOLJ
 70
     1
  9
$DIMTZIN
 70
     3
  9
$DIMALTZ
 70
     3
  9
$DIMALTTZ
 70
     3
  9
$DIMFIT
 70
     5
  9
$DIMUPT
 70
     0
  9
$DIMUNIT
 70
     5
  9
$DIMDEC
 70
     4
  9
$DIMTDEC
 70
     4
  9
$DIMALTU
 70
     5
  9
$DIMALTTD
 70
     1
  9
$DIMTXSTY
  7
STANDARD
  9
$DIMAUNIT
 70
     0
  9
$LUNITS
 70
     5
  9
$LUPREC
 70
     4
  9
$SKETCHINC
 40
0.1
  9
$FILLETRAD
 40
0.0
  9
$AUNITS
 70
     0
  9
$AUPREC
 70
     0
  9
$MENU
  1
acad
  9
$ELEVATION
 40
0.0
  9
$PELEVATION
 40
0.0
  9
$THICKNESS
 40
0.0
  9
$LIMCHECK
 70
     0
  9
$BLIPMODE
 70
     0
  9
$CHAMFERA
 40
0.0
  9
$CHAMFERB
 40
0.0
  9
$CHAMFERC
 40
0.0
  9
$CHAMFERD
 40
0.0
  9
$SKPOLY
 70
     0
  9
$TDCREATE
 40
2450365.656884641
  9
$TDUPDATE
 40
2452297.063442916
  9
$TDINDWG
 40
0.0214712153
  9
$TDUSRTIMER
 40
0.0214712153
  9
$USRTIMER
 70
     1
  9
$ANGBASE
 50
0.0
  9
$ANGDIR
 70
     0
  9
$PDMODE
 70
     0
  9
$PDSIZE
 40
0.0
  9
$PLINEWID
 40
0.0
  9
$COORDS
 70
     2
  9
$SPLFRAME
 70
     0
  9
$SPLINETYPE
 70
     6
  9
$SPLINESEGS
 70
     8
  9
$ATTDIA
 70
     0
  9
$ATTREQ
 70
     1
  9
$HANDLING
 70
 22529
  9
$HANDSEED
  5
1AC
  9
$SURFTAB1
 70
     6
  9
$SURFTAB2
 70
     6
  9
$SURFTYPE
 70
     6
  9
$SURFU
 70
     6
  9
$SURFV
 70
     6
  9
$UCSNAME
  2

  9
$UCSORG
 10
0.0
 20
0.0
 30
0.0
  9
$UCSXDIR
 10
1.0
 20
0.0
 30
0.0
  9
$UCSYDIR
 10
0.0
 20
1.0
 30
0.0
  9
$PUCSNAME
  2

  9
$PUCSORG
 10
0.0
 20
0.0
 30
0.0
  9
$PUCSXDIR
 10
1.0
 20
0.0
 30
0.0
  9
$PUCSYDIR
 10
0.0
 20
1.0
 30
0.0
  9
$USERI1
 70
     0
  9
$USERI2
 70
     0
  9
$USERI3
 70
     0
  9
$USERI4
 70
     0
  9
$USERI5
 70
     0
  9
$USERR1
 40
0.0
  9
$USERR2
 40
0.0
  9
$USERR3
 40
0.0
  9
$USERR4
 40
0.0
  9
$USERR5
 40
0.0
  9
$WORLDVIEW
 70
     1
  9
$SHADEDGE
 70
     3
  9
$SHADEDIF
 70
    70
  9
$TILEMODE
 70
     1
  9
$MAXACTVP
 70
    15
  9
$PINSBASE
 10
0.1250045299530032
 20
0.0
 30
0.0
  9
$PLIMCHECK
 70
     0
  9
$PEXTMIN
 10
1.000000000000000E+20
 20
1.000000000000000E+20
 30
1.000000000000000E+20
  9
$PEXTMAX
 10
-1.000000000000000E+20
 20
-1.000000000000000E+20
 30
-1.000000000000000E+20
  9
$PLIMMIN
 10
0.0
 20
0.0
  9
$PLIMMAX
 10
12.0
 20
9.0
  9
$UNITMODE
 70
     0
  9
$VISRETAIN
 70
     0
  9
$PLINEGEN
 70
     0
  9
$PSLTSCALE
 70
     1
  9
$TREEDEPTH
 70
  3020
  9
$PICKSTYLE
 70
     1
  9
$CMLSTYLE
  2
STANDARD
  9
$CMLJUST
 70
     0
  9
$CMLSCALE
 40
1.0
  9
$PROXYGRAPHICS
 70
     1
  9
$MEASUREMENT
 70
     0
  0
ENDSEC
  0
SECTION
  2
CLASSES
  0
CLASS
  1
DICTIONARYVAR
  2
AcDbDictionaryVar
  3
AutoCAD 2000
 90
        0
280
     0
281
     0
  0
CLASS
  1
ACDBDICTIONARYWDFLT
  2
AcDbDictionaryWithDefault
  3
AutoCAD 2000
 90
        0
280
     0
281
     0
  0
CLASS
  1
ACDBPLACEHOLDER
  2
AcDbPlaceHolder
  3
AutoCAD 2000
 90
        0
280
     0
281
     0
  0
CLASS
  1
LAYOUT
  2
AcDbLayout
  3
AutoCAD 2000
 90
        0
280
     0
281
     0
  0
CLASS
  1
LONG_TRANSACTION
  2
AcDbLongTransaction
  3
AutoCAD 2000
 90
        0
280
     0
281
     0
  0
CLASS
  1
LWPOLYLINE
  2
AcDbPolyline
  3
AutoCAD 2000
 90
        0
280
     0
281
     1
  0
CLASS
  1
HATCH
  2
AcDbHatch
  3
AutoCAD 2000
 90
        0
280
     0
281
     1
  0
CLASS
  1
XRECORD
  2
AcDbXrecord
  3
AutoCAD 2000
 90
        0
280
     0
281
     0
  0
CLASS
  1
LONG_TRANSACTION
  2
AcDbLongTransaction
  3
AutoCAD 2000
 90
        0
280
     0
281
     0
  0
CLASS
  1
LWPOLYLINE
  2
AcDbPolyline
  3
AutoCAD 2000
 90
        0
280
     0
281
     1
  0
CLASS
  1
HATCH
  2
AcDbHatch
  3
AutoCAD 2000
 90
        0
280
     0
281
     1
  0
CLASS
  1
XRECORD
  2
AcDbXrecord
  3
AutoCAD 2000
 90
        0
280
     0
281
     0
  0
CLASS
  1
LONG_TRANSACTION
  2
AcDbLongTransaction
  3
AutoCAD 2000
 90
        0
280
     0
281
     0
  0
CLASS
  1
LWPOLYLINE
  2
AcDbPolyline
  3
AutoCAD 2000
 90
        0
280
     0
281
     1
  0
CLASS
  1
HATCH
  2
AcDbHatch
  3
AutoCAD 2000
 90
        0
280
     0
281
     1
  0
CLASS
  1
XRECORD
  2
AcDbXrecord
  3
AutoCAD 2000
 90
        0
280
     0
281
     0
  0
CLASS
  1
LONG_TRANSACTION
  2
AcDbLongTransaction
  3
AutoCAD 2000
 90
        0
280
     0
281
     0
  0
CLASS
  1
LWPOLYLINE
  2
AcDbPolyline
  3
AutoCAD 2000
 90
        0
280
     0
281
     1
  0
CLASS
  1
HATCH
  2
AcDbHatch
  3
AutoCAD 2000
 90
        0
280
     0
281
     1
  0
CLASS
  1
XRECORD
  2
AcDbXrecord
  3
AutoCAD 2000
 90
        0
280
     0
281
     0
  0
CLASS
  1
LONG_TRANSACTION
  2
AcDbLongTransaction
  3
AutoCAD 2000
 90
        0
280
     0
281
     0
  0
CLASS
  1
LWPOLYLINE
  2
AcDbPolyline
  3
AutoCAD 2000
 90
        0
280
     0
281
     1
  0
CLASS
  1
HATCH
  2
AcDbHatch
  3
AutoCAD 2000
 90
        0
280
     0
281
     1
  0
CLASS
  1
XRECORD
  2
AcDbXrecord
  3
AutoCAD 2000
 90
        0
280
     0
281
     0
  0
CLASS
  1
LONG_TRANSACTION
  2
AcDbLongTransaction
  3
AutoCAD 2000
 90
        0
280
     0
281
     0
  0
CLASS
  1
LWPOLYLINE
  2
AcDbPolyline
  3
AutoCAD 2000
 90
        0
280
     0
281
     1
  0
CLASS
  1
HATCH
  2
AcDbHatch
  3
AutoCAD 2000
 90
        0
280
     0
281
     1
  0
CLASS
  1
XRECORD
  2
AcDbXrecord
  3
AutoCAD 2000
 90
        0
280
     0
281
     0
  0
ENDSEC
  0
SECTION
  2
TABLES
  0
TABLE
  2
VPORT
  5
8
330
0
100
AcDbSymbolTable
 70
     2
  0
VPORT
  5
188
330
8
100
AcDbSymbolTableRecord
100
AcDbViewportTableRecord
  2
*ACTIVE
 70
     0
 10
0.0
 20
0.0
 11
1.0
 21
1.0
 12
6.064997764297387
 22
5.064971992588805
 13
0.0
 23
0.0
 14
0.5740882589684922
 24
0.5740882589684922
 15
0.5
 25
0.5
 16
0.0
 26
0.0
 36
1.0
 17
0.0
 27
0.0
 37
0.0
 40
8.576720742532772
 41
1.570528967254408
 42
50.0
 43
0.0
 44
0.0
 50
0.0
 51
0.0
 71
     0
 72
   100
 73
     1
 74
     1
 75
     0
 76
     0
 77
     0
 78
     0
  0
ENDTAB
  0
TABLE
  2
LTYPE
  5
5
330
0
100
AcDbSymbolTable
 70
     1
  0
LTYPE
  5
11
330
5
100
AcDbSymbolTableRecord
100
AcDbLinetypeTableRecord
  2
BYBLOCK
 70
     0
  3

 72
    65
 73
     0
 40
0.0
  0
LTYPE
  5
12
330
5
100
AcDbSymbolTableRecord
100
AcDbLinetypeTableRecord
  2
BYLAYER
 70
     0
  3

 72
    65
 73
     0
 40
0.0
  0
LTYPE
  5
13
330
5
100
AcDbSymbolTableRecord
100
AcDbLinetypeTableRecord
  2
CONTINUOUS
 70
     0
  3
Solid line
 72
    65
 73
     0
 40
0.0
  0
ENDTAB
  0
TABLE
  2
LAYER
  5
2
330
0
100
AcDbSymbolTable
 70
     4
  0
LAYER
  5
E
330
2
100
AcDbSymbolTableRecord
100
AcDbLayerTableRecord
  2
0
 70
     0
 62
     7
  6
CONTINUOUS
  0
LAYER
  5
1F
330
2
100
AcDbSymbolTableRecord
100
AcDbLayerTableRecord
  2
ADPDIM
 70
     0
 62
     3
  6
CONTINUOUS
  0
LAYER
  5
20
330
2
100
AcDbSymbolTableRecord
100
AcDbLayerTableRecord
  2
ADP1DETAIL
 70
     0
 62
     7
  6
CONTINUOUS
  0
LAYER
  5
21
330
2
100
AcDbSymbolTableRecord
100
AcDbLayerTableRecord
  2
DEFPOINTS
 70
     0
 62
     7
  6
CONTINUOUS
  0
ENDTAB
  0
TABLE
  2
STYLE
  5
3
330
0
100
AcDbSymbolTable
 70
     2
  0
STYLE
  5
F
330
3
100
AcDbSymbolTableRecord
100
AcDbTextStyleTableRecord
  2
STANDARD
 70
     0
 40
0.0
 41
1.0
 50
0.0
 71
     0
 42
0.2
  3
txt
  4

  0
STYLE
  5
62
330
3
100
AcDbSymbolTableRecord
100
AcDbTextStyleTableRecord
  2
ARIAL_WIDE
 70
     0
 40
0.0
 41
1.25
 50
0.0
 71
     0
 42
0.2
  3
ARIAL.TTF
  4

1001
ACAD
1000
Arial
1071
       34
  0
ENDTAB
  0
TABLE
  2
VIEW
  5
6
330
0
100
AcDbSymbolTable
 70
     0
  0
ENDTAB
  0
TABLE
  2
UCS
  5
7
330
0
100
AcDbSymbolTable
 70
     0
  0
ENDTAB
  0
TABLE
  2
APPID
  5
9
330
0
100
AcDbSymbolTable
 70
     1
  0
APPID
  5
10
330
9
100
AcDbSymbolTableRecord
100
AcDbRegAppTableRecord
  2
ACAD
 70
     0
  0
ENDTAB
  0
TABLE
  2
DIMSTYLE
  5
A
330
0
100
AcDbSymbolTable
 70
     1
  0
DIMSTYLE
105
60
330
A
100
AcDbSymbolTableRecord
100
AcDbDimStyleTableRecord
  2
STANDARD
 70
     0
  3

  4

  5

  6

  7

 40
1.0
 41
0.18
 42
0.0625
 43
0.38
 44
0.18
 45
0.0
 46
0.0
 47
0.0
 48
0.0
140
0.18
141
0.09
142
0.0
143
25.4
144
1.0
145
0.0
146
1.0
147
0.09
 71
     0
 72
     0
 73
     1
 74
     1
 75
     0
 76
     0
 77
     0
 78
     0
170
     0
171
     2
172
     0
173
     0
174
     0
175
     0
176
     0
177
     0
178
     0
270
     2
271
     4
272
     4
273
     2
274
     2
340
F
275
     0
280
     0
281
     0
282
     0
283
     1
284
     0
285
     0
286
     0
287
     3
288
     0
  0
ENDTAB
  0
TABLE
  2
BLOCK_RECORD
  5
1
330
0
100
AcDbSymbolTable
 70
     2
  0
BLOCK_RECORD
  5
17
102
{ACAD_XDICTIONARY
360
9B
102
}
330
1
100
AcDbSymbolTableRecord
100
AcDbBlockTableRecord
  2
*MODEL_SPACE
  0
BLOCK_RECORD
  5
14
102
{ACAD_XDICTIONARY
360
99
102
}
330
1
100
AcDbSymbolTableRecord
100
AcDbBlockTableRecord
  2
*PAPER_SPACE
  0
BLOCK_RECORD
  5
1C
330
1
100
AcDbSymbolTableRecord
100
AcDbBlockTableRecord
  2
*D0
  0
BLOCK_RECORD
  5
1D
330
1
100
AcDbSymbolTableRecord
100
AcDbBlockTableRecord
  2
*D1
  0
ENDTAB
  0
ENDSEC
  0
SECTION
  2
BLOCKS
  0
BLOCK
  5
24
330
17
100
AcDbEntity
  8
0
100
AcDbBlockBegin
  2
*MODEL_SPACE
 70
     0
 10
0.0
 20
0.0
 30
0.0
  3
*MODEL_SPACE
  1

  0
ENDBLK
  5
25
330
17
100
AcDbEntity
  8
0
100
AcDbBlockEnd
  0
BLOCK
  5
22
330
14
100
AcDbEntity
 67
     1
  8
0
100
AcDbBlockBegin
  2
*PAPER_SPACE
 70
     0
 10
0.0
 20
0.0
 30
0.0
  3
*PAPER_SPACE
  1

  0
ENDBLK
  5
23
330
14
100
AcDbEntity
 67
     1
  8
0
100
AcDbBlockEnd
  0
BLOCK
  5
28
330
1C
100
AcDbEntity
  8
0
100
AcDbBlockBegin
  2
*D0
 70
     1
 10
0.0
 20
0.0
 30
0.0
  3
*D0
  1
*U
  0
LINE
  5
29
330
1C
100
AcDbEntity
  8
0
  6
BYBLOCK
 62
     0
100
AcDbLine
 10
7.974015629327508
 20
8.604311530016669
 30
0.0
 11
7.974015629327508
 21
8.967661480603631
 31
0.0
  0
LINE
  5
2A
330
1C
100
AcDbEntity
  8
0
  6
BYBLOCK
 62
     0
100
AcDbLine
 10
8.974015629327508
 20
8.604311530016669
 30
0.0
 11
8.974015629327508
 21
8.967661480603631
 31
0.0
  0
LINE
  5
2B
330
1C
100
AcDbEntity
  8
0
  6
BYBLOCK
 62
     0
100
AcDbLine
 10
7.974015629327508
 20
8.787661480603631
 30
0.0
 11
8.328182295994174
 21
8.787661480603631
 31
0.0
  0
LINE
  5
2C
330
1C
100
AcDbEntity
  8
0
  6
BYBLOCK
 62
     0
100
AcDbLine
 10
8.974015629327508
 20
8.787661480603631
 30
0.0
 11
8.619848962660842
 21
8.787661480603631
 31
0.0
  0
LINE
  5
2D
330
1C
100
AcDbEntity
  8
0
  6
BYBLOCK
 62
     0
100
AcDbLine
 10
7.849015629327508
 20
8.662661480603631
 30
0.0
 11
8.099015629327508
 21
8.912661480603631
 31
0.0
  0
LINE
  5
2E
330
1C
100
AcDbEntity
  8
0
  6
BYBLOCK
 62
     0
100
AcDbLine
 10
8.849015629327508
 20
8.662661480603631
 30
0.0
 11
9.099015629327508
 21
8.912661480603631
 31
0.0
  0
TEXT
  5
2F
330
1C
100
AcDbEntity
  8
0
  6
BYBLOCK
 62
     0
100
AcDbText
 10
8.453182295994174
 20
8.725161480603631
 30
0.0
 40
0.125
  1
1
 72
     1
 11
8.474015629327508
 21
8.787661480603631
 31
0.0
100
AcDbText
 73
     2
  0
POINT
  5
31
330
1C
100
AcDbEntity
  8
DEFPOINTS
  6
BYBLOCK
 62
     0
100
AcDbPoint
 10
7.974015629327508
 20
8.541811530016669
 30
0.0
  0
POINT
  5
32
330
1C
100
AcDbEntity
  8
DEFPOINTS
  6
BYBLOCK
 62
     0
100
AcDbPoint
 10
8.974015629327508
 20
8.541811530016669
 30
0.0
  0
POINT
  5
33
330
1C
100
AcDbEntity
  8
DEFPOINTS
  6
BYBLOCK
 62
     0
100
AcDbPoint
 10
8.974015629327508
 20
8.787661480603631
 30
0.0
  0
ENDBLK
  5
34
330
1C
100
AcDbEntity
  8
0
100
AcDbBlockEnd
  0
BLOCK
  5
35
330
1D
100
AcDbEntity
  8
0
100
AcDbBlockBegin
  2
*D1
 70
     1
 10
0.0
 20
0.0
 30
0.0
  3
*D1
  1
*U
  0
LINE
  5
36
330
1D
100
AcDbEntity
  8
0
  6
BYBLOCK
 62
     0
100
AcDbLine
 10
7.911515629327508
 20
8.041811530016669
 30
0.0
 11
7.490585073217281
 21
8.041811530016669
 31
0.0
  0
LINE
  5
37
330
1D
100
AcDbEntity
  8
0
  6
BYBLOCK
 62
     0
100
AcDbLine
 10
7.911515629327508
 20
8.541811530016669
 30
0.0
 11
7.490585073217281
 21
8.541811530016669
 31
0.0
  0
LINE
  5
38
330
1D
100
AcDbEntity
  8
0
  6
BYBLOCK
 62
     0
100
AcDbLine
 10
7.670585073217281
 20
8.041811530016669
 30
0.0
 11
7.670585073217281
 21
7.791811530016668
 31
0.0
  0
LINE
  5
39
330
1D
100
AcDbEntity
  8
0
  6
BYBLOCK
 62
     0
100
AcDbLine
 10
7.670585073217281
 20
8.541811530016669
 30
0.0
 11
7.670585073217281
 21
8.791811530016669
 31
0.0
  0
LINE
  5
3A
330
1D
100
AcDbEntity
  8
0
  6
BYBLOCK
 62
     0
100
AcDbLine
 10
7.795585073217281
 20
7.916811530016668
 30
0.0
 11
7.545585073217281
 21
8.166811530016669
 31
0.0
  0
LINE
  5
3B
330
1D
100
AcDbEntity
  8
0
  6
BYBLOCK
 62
     0
100
AcDbLine
 10
7.795585073217281
 20
8.416811530016669
 30
0.0
 11
7.545585073217281
 21
8.666811530016669
 31
0.0
  0
TEXT
  5
3C
330
1D
100
AcDbEntity
  8
0
  6
BYBLOCK
 62
     0
100
AcDbText
 10
7.733085073217281
 20
8.916811530016669
 30
0.0
 40
0.125
  1
1/2
 50
90.0
 72
     1
 11
7.670585073217281
 21
9.062644863350003
 31
0.0
100
AcDbText
 73
     2
  0
POINT
  5
3D
330
1D
100
AcDbEntity
  8
DEFPOINTS
  6
BYBLOCK
 62
     0
100
AcDbPoint
 10
7.974015629327508
 20
8.041811530016669
 30
0.0
  0
POINT
  5
3E
330
1D
100
AcDbEntity
  8
DEFPOINTS
  6
BYBLOCK
 62
     0
100
AcDbPoint
 10
7.974015629327508
 20
8.541811530016669
 30
0.0
  0
POINT
  5
3F
330
1D
100
AcDbEntity
  8
DEFPOINTS
  6
BYBLOCK
 62
     0
100
AcDbPoint
 10
7.670585073217281
 20
8.541811530016669
 30
0.0
  0
ENDBLK
  5
40
330
1D
100
AcDbEntity
  8
0
100
AcDbBlockEnd
  0
ENDSEC
  0
SECTION
  2
ENTITIES
  0
ARC
  5
41
330
17
100
AcDbEntity
  8
ADP1DETAIL
100
AcDbCircle
 10
4.556819259810847
 20
4.393279053726088
 30
0.0
 40
1.802747756412804
100
AcDbArc
 50
121.7239991330674
 51
187.6384949707271
  0
ARC
  5
42
330
17
100
AcDbEntity
  8
ADP1DETAIL
100
AcDbCircle
 10
5.340021305564226
 20
4.274196164216924
 30
0.0
 40
2.572778488915887
100
AcDbArc
 50
182.6854653775393
 51
242.3247114812179
  0
ARC
  5
43
330
17
100
AcDbEntity
  8
ADP1DETAIL
100
AcDbCircle
 10
4.556819259810847
 20
4.393279053726088
 30
0.0
 40
1.704663189526839
100
AcDbArc
 50
121.7239991330674
 51
187.7804778035611
  0
ARC
  5
44
330
17
100
AcDbEntity
  8
ADP1DETAIL
100
AcDbCircle
 10
5.340021305564226
 20
4.274196164216924
 30
0.0
 40
2.474693922029922
100
AcDbArc
 50
182.5868236637404
 51
242.4401207922578
  0
ARC
  5
45
330
17
100
AcDbEntity
  8
ADP1DETAIL
100
AcDbCircle
 10
5.340021305564226
 20
4.274196164216924
 30
0.0
 40
1.572778488915887
100
AcDbArc
 50
214.1694938768929
 51
244.1622328421786
  0
ARC
  5
46
330
17
100
AcDbEntity
  8
ADP1DETAIL
100
AcDbCircle
 10
5.09403095293872
 20
5.290604806024061
 30
0.0
 40
2.885313079376169
100
AcDbArc
 50
294.5096443643845
 51
356.5173763276528
  0
ARC
  5
47
330
17
100
AcDbEntity
  8
ADP1DETAIL
100
AcDbCircle
 10
5.094030952938721
 20
5.290604806024061
 30
0.0
 40
3.885313079376169
100
AcDbArc
 50
294.1649481588222
 51
356.9989529958788
  0
ARC
  5
48
330
17
100
AcDbEntity
  8
ADP1DETAIL
100
AcDbCircle
 10
5.094030952938721
 20
5.290604806024061
 30
0.0
 40
3.787228512490203
100
AcDbArc
 50
294.1897893562838
 51
356.9603306898266
  0
ARC
  5
49
330
17
100
AcDbEntity
  8
ADP1DETAIL
100
AcDbCircle
 10
5.340021305564226
 20
4.274196164216924
 30
0.0
 40
1.670863055801852
100
AcDbArc
 50
203.7432894892575
 51
243.8865517607773
  0
ARC
  5
4A
330
17
100
AcDbEntity
  8
ADP1DETAIL
100
AcDbCircle
 10
5.094030952938719
 20
5.29060480602406
 30
0.0
 40
2.983397646262134
100
AcDbArc
 50
294.4640403596018
 51
356.5751208646967
  0
ARC
  5
4B
330
17
100
AcDbEntity
  8
ADP1DETAIL
100
AcDbCircle
 10
5.651143486137033
 20
4.271459316500152
 30
0.0
 40
1.728932937399322
100
AcDbArc
 50
234.8014316374199
 51
291.7207555367088
  0
ARC
  5
4C
330
17
100
AcDbEntity
  8
ADP1DETAIL
100
AcDbCircle
 10
5.651143486137033
 20
4.27145931650015
 30
0.0
 40
2.728932937399321
100
AcDbArc
 50
236.5031168270122
 51
292.2520819188083
  0
ARC
  5
4D
330
17
100
AcDbEntity
  8
ADP1DETAIL
100
AcDbCircle
 10
5.651143486137033
 20
4.271459316500152
 30
0.0
 40
2.630848370513357
100
AcDbArc
 50
236.3944346214526
 51
292.2165186268529
  0
ARC
  5
4E
330
17
100
AcDbEntity
  8
ADP1DETAIL
100
AcDbCircle
 10
5.651143486137033
 20
4.271459316500152
 30
0.0
 40
1.827017504285287
100
AcDbArc
 50
235.0528810779864
 51
291.7960381381119
  0
ARC
  5
4F
330
17
100
AcDbEntity
  8
ADP1DETAIL
100
AcDbCircle
 10
4.498151871710264
 20
4.77307701927975
 30
0.0
 40
1.358485713700136
100
AcDbArc
 50
239.5936494576971
 51
127.6272376909714
  0
ARC
  5
50
330
17
100
AcDbEntity
  8
ADP1DETAIL
100
AcDbCircle
 10
4.498151871710264
 20
4.77307701927975
 30
0.0
 40
1.4565702805861
100
AcDbArc
 50
251.6144839790032
 51
127.6272376909714
  0
LINE
  5
51
330
17
100
AcDbEntity
  8
ADP1DETAIL
100
AcDbLine
 10
7.974015629327508
 20
7.791811530016668
 30
0.0
 11
7.974015629327508
 21
5.115334073199212
 31
0.0
  0
LINE
  5
52
330
17
100
AcDbEntity
  8
ADP1DETAIL
100
AcDbLine
 10
8.974015629327508
 20
7.791811530016667
 30
0.0
 11
8.974015629327508
 21
5.087192329121272
 31
0.0
  0
LINE
  5
53
330
17
100
AcDbEntity
  8
ADP1DETAIL
100
AcDbLine
 10
8.875931062441543
 20
7.791811530016667
 30
0.0
 11
8.875931062441543
 21
5.089778095745504
 31
0.0
  0
LINE
  5
54
330
17
100
AcDbEntity
  8
ADP1DETAIL
100
AcDbLine
 10
8.072100196213474
 20
7.791811530016668
 30
0.0
 11
8.072100196213474
 21
5.112377148284359
 31
0.0
  0
DIMENSION
  5
55
330
17
100
AcDbEntity
  8
ADPDIM
100
AcDbDimension
  2
*D1
 10
7.670585073217281
 20
8.541811530016669
 30
0.0
 11
7.670585073217281
 21
9.062644863350003
 31
0.0
100
AcDbAlignedDimension
 13
7.974015629327508
 23
8.041811530016669
 33
0.0
 14
7.974015629327508
 24
8.541811530016669
 34
0.0
 50
90.0
100
AcDbRotatedDimension
  0
LINE
  5
56
330
17
100
AcDbEntity
  8
ADP1DETAIL
100
AcDbLine
 10
7.974015629327508
 20
7.791811530016668
 30
0.0
 11
8.974015629327508
 21
7.791811530016667
 31
0.0
  0
LINE
  5
57
330
17
100
AcDbEntity
  8
ADP1DETAIL
100
AcDbLine
 10
8.974015629327508
 20
8.041811530016669
 30
0.0
 11
7.974015629327508
 21
8.041811530016669
 31
0.0
  0
LINE
  5
58
330
17
100
AcDbEntity
  8
ADP1DETAIL
100
AcDbLine
 10
8.849015629327508
 20
8.166811530016669
 30
0.0
 11
8.099015629327508
 21
8.166811530016669
 31
0.0
  0
DIMENSION
  5
59
330
17
100
AcDbEntity
  8
ADPDIM
100
AcDbDimension
  2
*D0
 10
8.974015629327508
 20
8.787661480603631
 30
0.0
 11
8.474015629327508
 21
8.787661480603631
 31
0.0
100
AcDbAlignedDimension
 13
7.974015629327508
 23
8.541811530016669
 33
0.0
 14
8.974015629327508
 24
8.541811530016669
 34
0.0
100
AcDbRotatedDimension
  0
LINE
  5
5A
330
17
100
AcDbEntity
  8
ADP1DETAIL
100
AcDbLine
 10
7.974015629327508
 20
8.541811530016669
 30
0.0
 11
8.099015629327508
 21
8.541811530016669
 31
0.0
  0
LINE
  5
5B
330
17
100
AcDbEntity
  8
ADP1DETAIL
100
AcDbLine
 10
7.974015629327508
 20
8.041811530016669
 30
0.0
 11
7.974015629327508
 21
8.541811530016669
 31
0.0
  0
LINE
  5
5C
330
17
100
AcDbEntity
  8
ADP1DETAIL
100
AcDbLine
 10
8.099015629327508
 20
8.166811530016669
 30
0.0
 11
8.099015629327508
 21
8.541811530016669
 31
0.0
  0
LINE
  5
5D
330
17
100
AcDbEntity
  8
ADP1DETAIL
100
AcDbLine
 10
8.849015629327508
 20
8.541811530016669
 30
0.0
 11
8.974015629327508
 21
8.541811530016669
 31
0.0
  0
LINE
  5
5E
330
17
100
AcDbEntity
  8
ADP1DETAIL
100
AcDbLine
 10
8.849015629327508
 20
8.541811530016669
 30
0.0
 11
8.849015629327508
 21
8.166811530016669
 31
0.0
  0
LINE
  5
5F
330
17
100
AcDbEntity
  8
ADP1DETAIL
100
AcDbLine
 10
8.974015629327508
 20
8.541811530016669
 30
0.0
 11
8.974015629327508
 21
8.041811530016669
 31
0.0
  0
TEXT
  5
69
330
17
100
AcDbEntity
  8
ADPDIM
100
AcDbText
 10
-0.6366099409669115
 20
0.9565155920010264
 30
0.0
 40
0.125
  1
J U L I U S  B L U M  &  C O . ,  I N C .      ( 8 0 0 )  5 2 6 - 6 2 9 3        W W W . J U L I U S B L U M . C O M        P A R T  N O .  1 0 0 - J L
 41
1.25
  7
ARIAL_WIDE
 72
     1
 11
6.064873687955326
 21
1.081515592001026
 31
0.0
100
AcDbText
 73
     3
  0
ENDSEC
  0
SECTION
  2
OBJECTS
  0
DICTIONARY
  5
C
330
0
100
AcDbDictionary
  3
ACAD_GROUP
350
D
  3
ACAD_LAYOUT
350
6E
  3
ACAD_MLINESTYLE
350
1A
  3
ACAD_PLOTSETTINGS
350
6F
  3
ACAD_PLOTSTYLENAME
350
6C
  3
ACDBHEADERROUNDTRIPXREC
350
189
  3
ACDBVARIABLEDICTIONARY
350
26
  0
DICTIONARY
  5
9B
330
17
100
AcDbDictionary
280
     1
  3
ACAD_LAYOUTSELFREF
360
1AB
  0
DICTIONARY
  5
99
330
14
100
AcDbDictionary
280
     1
  3
ACAD_LAYOUTSELFREF
360
1AA
  0
DICTIONARY
  5
D
102
{ACAD_REACTORS
330
C
102
}
330
C
100
AcDbDictionary
  0
DICTIONARY
  5
6E
102
{ACAD_REACTORS
330
C
102
}
330
C
100
AcDbDictionary
  0
DICTIONARY
  5
1A
102
{ACAD_REACTORS
330
C
102
}
330
C
100
AcDbDictionary
  3
STANDARD
350
1B
  0
DICTIONARY
  5
6F
102
{ACAD_REACTORS
330
C
102
}
330
C
100
AcDbDictionary
  0
ACDBDICTIONARYWDFLT
  5
6C
102
{ACAD_REACTORS
330
C
102
}
330
C
100
AcDbDictionary
281
     1
  3
Normal
350
6D
100
AcDbDictionaryWithDefault
340
6D
  0
DICTIONARY
  5
189
102
{ACAD_REACTORS
330
C
102
}
330
C
100
AcDbDictionary
  3
CEPSNTYPE
350
193
  3
DIMSTYLEDATA
350
197
  3
FINGERPRINTGUID
350
194
  3
HYPERLINKBASE
350
18C
  3
INSUNITS
350
192
  3
LAYOUTDICT
350
18E
  3
LWETCUNION
350
191
  3
PLOTSETDICT
350
18F
  3
PLOTSTYLNAMDICT
350
190
  3
PSVPSCALE
350
196
  3
PUCSBASE
350
19A
  3
PUCSORGBACK
350
1A0
  3
PUCSORGBOTTOM
350
19C
  3
PUCSORGFRONT
350
19F
  3
PUCSORGLEFT
350
19D
  3
PUCSORGRIGHT
350
19E
  3
PUCSORGTOP
350
19B
  3
PUCSORTHOREF
350
198
  3
PUCSORTHOVIEW
350
199
  3
STYLESHEET
350
18D
  3
TSTACKALIGN
350
18A
  3
TSTACKSIZE
350
18B
  3
UCSBASE
350
1A3
  3
UCSORGBACK
350
1A9
  3
UCSORGBOTTOM
350
1A5
  3
UCSORGFRONT
350
1A8
  3
UCSORGLEFT
350
1A6
  3
UCSORGRIGHT
350
1A7
  3
UCSORGTOP
350
1A4
  3
UCSORTHOREF
350
1A1
  3
UCSORTHOVIEW
350
1A2
  3
VERSIONGUID
350
195
  0
DICTIONARY
  5
26
102
{ACAD_REACTORS
330
C
102
}
330
C
100
AcDbDictionary
  3
DIMADEC
350
27
  3
DIMASSOC
350
A1
  0
XRECORD
  5
1AB
102
{ACAD_REACTORS
330
9B
102
}
330
9B
100
AcDbXrecord
340
17
  0
XRECORD
  5
1AA
102
{ACAD_REACTORS
330
99
102
}
330
99
100
AcDbXrecord
340
14
  0
MLINESTYLE
  5
1B
102
{ACAD_REACTORS
330
1A
102
}
330
1A
100
AcDbMlineStyle
  2
STANDARD
 70
     0
  3

 62
   256
 51
90.0
 52
90.0
 71
     2
 49
0.5
 62
   256
  6
BYLAYER
 49
-0.5
 62
   256
  6
BYLAYER
  0
ACDBPLACEHOLDER
  5
6D
102
{ACAD_REACTORS
330
6C
102
}
330
6C
100
AcDbPlaceHolder
280
     0
  0
XRECORD
  5
193
102
{ACAD_REACTORS
330
189
102
}
330
189
100
AcDbXrecord
 90
        0
  0
XRECORD
  5
197
102
{ACAD_REACTORS
330
189
102
}
330
189
100
AcDbXrecord
1000
DSTYLE
1002
{
1070
   277
 70
     5
1070
   279
 70
     2
1002
}
  0
XRECORD
  5
194
102
{ACAD_REACTORS
330
189
102
}
330
189
100
AcDbXrecord
  1
{1CA2BF16-24E0-4C7C-B694-BC5318B2C882}
  0
XRECORD
  5
18C
102
{ACAD_REACTORS
330
189
102
}
330
189
100
AcDbXrecord
  1

  0
XRECORD
  5
192
102
{ACAD_REACTORS
330
189
102
}
330
189
100
AcDbXrecord
 90
        0
  0
XRECORD
  5
18E
102
{ACAD_REACTORS
330
189
102
}
330
189
100
AcDbXrecord
340
6E
  0
XRECORD
  5
191
102
{ACAD_REACTORS
330
189
102
}
330
189
100
AcDbXrecord
 90
    14877
  0
XRECORD
  5
18F
102
{ACAD_REACTORS
330
189
102
}
330
189
100
AcDbXrecord
340
6F
  0
XRECORD
  5
190
102
{ACAD_REACTORS
330
189
102
}
330
189
100
AcDbXrecord
340
6C
  0
XRECORD
  5
196
102
{ACAD_REACTORS
330
189
102
}
330
189
100
AcDbXrecord
 40
0.0
  0
XRECORD
  5
19A
102
{ACAD_REACTORS
330
189
102
}
330
189
100
AcDbXrecord
340
0
  0
XRECORD
  5
1A0
102
{ACAD_REACTORS
330
189
102
}
330
189
100
AcDbXrecord
 10
0.0
 20
0.0
 30
0.0
  0
XRECORD
  5
19C
102
{ACAD_REACTORS
330
189
102
}
330
189
100
AcDbXrecord
 10
0.0
 20
0.0
 30
0.0
  0
XRECORD
  5
19F
102
{ACAD_REACTORS
330
189
102
}
330
189
100
AcDbXrecord
 10
0.0
 20
0.0
 30
0.0
  0
XRECORD
  5
19D
102
{ACAD_REACTORS
330
189
102
}
330
189
100
AcDbXrecord
 10
0.0
 20
0.0
 30
0.0
  0
XRECORD
  5
19E
102
{ACAD_REACTORS
330
189
102
}
330
189
100
AcDbXrecord
 10
0.0
 20
0.0
 30
0.0
  0
XRECORD
  5
19B
102
{ACAD_REACTORS
330
189
102
}
330
189
100
AcDbXrecord
 10
0.0
 20
0.0
 30
0.0
  0
XRECORD
  5
198
102
{ACAD_REACTORS
330
189
102
}
330
189
100
AcDbXrecord
340
0
  0
XRECORD
  5
199
102
{ACAD_REACTORS
330
189
102
}
330
189
100
AcDbXrecord
 70
     0
  0
XRECORD
  5
18D
102
{ACAD_REACTORS
330
189
102
}
330
189
100
AcDbXrecord
  1

  0
XRECORD
  5
18A
102
{ACAD_REACTORS
330
189
102
}
330
189
100
AcDbXrecord
 90
        1
  0
XRECORD
  5
18B
102
{ACAD_REACTORS
330
189
102
}
330
189
100
AcDbXrecord
 90
       70
  0
XRECORD
  5
1A3
102
{ACAD_REACTORS
330
189
102
}
330
189
100
AcDbXrecord
340
0
  0
XRECORD
  5
1A9
102
{ACAD_REACTORS
330
189
102
}
330
189
100
AcDbXrecord
 10
0.0
 20
0.0
 30
0.0
  0
XRECORD
  5
1A5
102
{ACAD_REACTORS
330
189
102
}
330
189
100
AcDbXrecord
 10
0.0
 20
0.0
 30
0.0
  0
XRECORD
  5
1A8
102
{ACAD_REACTORS
330
189
102
}
330
189
100
AcDbXrecord
 10
0.0
 20
0.0
 30
0.0
  0
XRECORD
  5
1A6
102
{ACAD_REACTORS
330
189
102
}
330
189
100
AcDbXrecord
 10
0.0
 20
0.0
 30
0.0
  0
XRECORD
  5
1A7
102
{ACAD_REACTORS
330
189
102
}
330
189
100
AcDbXrecord
 10
0.0
 20
0.0
 30
0.0
  0
XRECORD
  5
1A4
102
{ACAD_REACTORS
330
189
102
}
330
189
100
AcDbXrecord
 10
0.0
 20
0.0
 30
0.0
  0
XRECORD
  5
1A1
102
{ACAD_REACTORS
330
189
102
}
330
189
100
AcDbXrecord
340
0
  0
XRECORD
  5
1A2
102
{ACAD_REACTORS
330
189
102
}
330
189
100
AcDbXrecord
 70
     0
  0
XRECORD
  5
195
102
{ACAD_REACTORS
330
189
102
}
330
189
100
AcDbXrecord
  1
{78ED5A21-9983-4459-A225-A407C6CDC677}
  0
DICTIONARYVAR
  5
27
102
{ACAD_REACTORS
330
26
102
}
330
26
100
DictionaryVariables
280
     0
  1
0
  0
DICTIONARYVAR
  5
A1
102
{ACAD_REACTORS
330
26
102
}
330
26
100
DictionaryVariables
280
     0
  1
1
  0
ENDSEC
  0
EOF
