  0
SECTION
  2
HEADER
  9
$ACADVER
  1
AC1014
  9
$ACADMAINTVER
 70
     9
  9
$DWGCODEPAGE
  3
ANSI_1252
  9
$INSBASE
 10
-3.149294886921063
 20
5.390281571146415
 30
0.0
  9
$EXTMIN
 10
-8.176014383709802
 20
-5.250728318060506
 30
0.0
  9
$EXTMAX
 10
12.05553617904599
 20
6.423083288785087
 30
0.0
  9
$LIMMIN
 10
0.0
 20
0.0
  9
$LIMMAX
 10
36.0
 20
36.0
  9
$ORTHOMODE
 70
     1
  9
$REGENMODE
 70
     1
  9
$FILLMODE
 70
     1
  9
$QTEXTMODE
 70
     0
  9
$MIRRTEXT
 70
     1
  9
$DRAGMODE
 70
     0
  9
$LTSCALE
 40
1.0
  9
$OSMODE
 70
    37
  9
$ATTMODE
 70
     1
  9
$TEXTSIZE
 40
0.2
  9
$TRACEWID
 40
0.05
  9
$TEXTSTYLE
  7
STANDARD
  9
$CLAYER
  8
ADPDIM
  9
$CELTYPE
  6
BYLAYER
  9
$CECOLOR
 62
   256
  9
$CELTSCALE
 40
1.0
  9
$DELOBJ
 70
     1
  9
$DISPSILH
 70
     0
  9
$DIMSCALE
 40
1.0
  9
$DIMASZ
 40
0.125
  9
$DIMEXO
 40
0.0625
  9
$DIMDLI
 40
0.38
  9
$DIMRND
 40
0.0
  9
$DIMDLE
 40
0.0
  9
$DIMEXE
 40
0.18
  9
$DIMTP
 40
0.0
  9
$DIMTM
 40
0.0
  9
$DIMTXT
 40
0.125
  9
$DIMCEN
 40
0.1875
  9
$DIMTSZ
 40
0.125
  9
$DIMTOL
 70
     0
  9
$DIMLIM
 70
     0
  9
$DIMTIH
 70
     0
  9
$DIMTOH
 70
     0
  9
$DIMSE1
 70
     0
  9
$DIMSE2
 70
     0
  9
$DIMTAD
 70
     0
  9
$DIMZIN
 70
     3
  9
$DIMBLK
  1

  9
$DIMASO
 70
     1
  9
$DIMSHO
 70
     1
  9
$DIMPOST
  1

  9
$DIMAPOST
  1

  9
$DIMALT
 70
     0
  9
$DIMALTD
 70
     1
  9
$DIMALTF
 40
25.4
  9
$DIMLFAC
 40
1.0
  9
$DIMTOFL
 70
     0
  9
$DIMTVP
 40
0.0
  9
$DIMTIX
 70
     0
  9
$DIMSOXD
 70
     0
  9
$DIMSAH
 70
     0
  9
$DIMBLK1
  1

  9
$DIMBLK2
  1

  9
$DIMSTYLE
  2
STANDARD
  9
$DIMCLRD
 70
     0
  9
$DIMCLRE
 70
     0
  9
$DIMCLRT
 70
     0
  9
$DIMTFAC
 40
1.0
  9
$DIMGAP
 40
0.125
  9
$DIMJUST
 70
     0
  9
$DIMSD1
 70
     0
  9
$DIMSD2
 70
     0
  9
$DIMTOLJ
 70
     1
  9
$DIMTZIN
 70
     3
  9
$DIMALTZ
 70
     3
  9
$DIMALTTZ
 70
     3
  9
$DIMFIT
 70
     5
  9
$DIMUPT
 70
     0
  9
$DIMUNIT
 70
     5
  9
$DIMDEC
 70
     4
  9
$DIMTDEC
 70
     4
  9
$DIMALTU
 70
     5
  9
$DIMALTTD
 70
     1
  9
$DIMTXSTY
  7
STANDARD
  9
$DIMAUNIT
 70
     0
  9
$LUNITS
 70
     5
  9
$LUPREC
 70
     4
  9
$SKETCHINC
 40
0.1
  9
$FILLETRAD
 40
0.0
  9
$AUNITS
 70
     0
  9
$AUPREC
 70
     0
  9
$MENU
  1
acad
  9
$ELEVATION
 40
0.0
  9
$PELEVATION
 40
0.0
  9
$THICKNESS
 40
0.0
  9
$LIMCHECK
 70
     0
  9
$BLIPMODE
 70
     0
  9
$CHAMFERA
 40
0.0
  9
$CHAMFERB
 40
0.0
  9
$CHAMFERC
 40
0.0
  9
$CHAMFERD
 40
0.0
  9
$SKPOLY
 70
     0
  9
$TDCREATE
 40
2450406.455138113
  9
$TDUPDATE
 40
2452297.063414884
  9
$TDINDWG
 40
0.0104990625
  9
$TDUSRTIMER
 40
0.0104990625
  9
$USRTIMER
 70
     1
  9
$ANGBASE
 50
0.0
  9
$ANGDIR
 70
     0
  9
$PDMODE
 70
     0
  9
$PDSIZE
 40
0.0
  9
$PLINEWID
 40
0.0
  9
$COORDS
 70
     2
  9
$SPLFRAME
 70
     0
  9
$SPLINETYPE
 70
     6
  9
$SPLINESEGS
 70
     8
  9
$ATTDIA
 70
     0
  9
$ATTREQ
 70
     1
  9
$HANDLING
 70
 22529
  9
$HANDSEED
  5
18B
  9
$SURFTAB1
 70
     6
  9
$SURFTAB2
 70
     6
  9
$SURFTYPE
 70
     6
  9
$SURFU
 70
     6
  9
$SURFV
 70
     6
  9
$UCSNAME
  2

  9
$UCSORG
 10
0.0
 20
0.0
 30
0.0
  9
$UCSXDIR
 10
1.0
 20
0.0
 30
0.0
  9
$UCSYDIR
 10
0.0
 20
1.0
 30
0.0
  9
$PUCSNAME
  2

  9
$PUCSORG
 10
0.0
 20
0.0
 30
0.0
  9
$PUCSXDIR
 10
1.0
 20
0.0
 30
0.0
  9
$PUCSYDIR
 10
0.0
 20
1.0
 30
0.0
  9
$USERI1
 70
     0
  9
$USERI2
 70
     0
  9
$USERI3
 70
     0
  9
$USERI4
 70
     0
  9
$USERI5
 70
     0
  9
$USERR1
 40
0.0
  9
$USERR2
 40
0.0
  9
$USERR3
 40
0.0
  9
$USERR4
 40
0.0
  9
$USERR5
 40
0.0
  9
$WORLDVIEW
 70
     1
  9
$SHADEDGE
 70
     3
  9
$SHADEDIF
 70
    70
  9
$TILEMODE
 70
     1
  9
$MAXACTVP
 70
    15
  9
$PINSBASE
 10
0.1250045299530032
 20
0.0
 30
0.0
  9
$PLIMCHECK
 70
     0
  9
$PEXTMIN
 10
1.000000000000000E+20
 20
1.000000000000000E+20
 30
1.000000000000000E+20
  9
$PEXTMAX
 10
-1.000000000000000E+20
 20
-1.000000000000000E+20
 30
-1.000000000000000E+20
  9
$PLIMMIN
 10
0.0
 20
0.0
  9
$PLIMMAX
 10
12.0
 20
9.0
  9
$UNITMODE
 70
     0
  9
$VISRETAIN
 70
     0
  9
$PLINEGEN
 70
     0
  9
$PSLTSCALE
 70
     1
  9
$TREEDEPTH
 70
  3020
  9
$PICKSTYLE
 70
     1
  9
$CMLSTYLE
  2
STANDARD
  9
$CMLJUST
 70
     0
  9
$CMLSCALE
 40
1.0
  9
$PROXYGRAPHICS
 70
     1
  9
$MEASUREMENT
 70
     0
  0
ENDSEC
  0
SECTION
  2
CLASSES
  0
CLASS
  1
DICTIONARYVAR
  2
AcDbDictionaryVar
  3
AutoCAD 2000
 90
        0
280
     0
281
     0
  0
CLASS
  1
LWPOLYLINE
  2
AcDbPolyline
  3
AutoCAD 2000
 90
        0
280
     0
281
     1
  0
CLASS
  1
ACDBDICTIONARYWDFLT
  2
AcDbDictionaryWithDefault
  3
AutoCAD 2000
 90
        0
280
     0
281
     0
  0
CLASS
  1
ACDBPLACEHOLDER
  2
AcDbPlaceHolder
  3
AutoCAD 2000
 90
        0
280
     0
281
     0
  0
CLASS
  1
LAYOUT
  2
AcDbLayout
  3
AutoCAD 2000
 90
        0
280
     0
281
     0
  0
CLASS
  1
LONG_TRANSACTION
  2
AcDbLongTransaction
  3
AutoCAD 2000
 90
        0
280
     0
281
     0
  0
CLASS
  1
LWPOLYLINE
  2
AcDbPolyline
  3
AutoCAD 2000
 90
        0
280
     0
281
     1
  0
CLASS
  1
HATCH
  2
AcDbHatch
  3
AutoCAD 2000
 90
        0
280
     0
281
     1
  0
CLASS
  1
XRECORD
  2
AcDbXrecord
  3
AutoCAD 2000
 90
        0
280
     0
281
     0
  0
CLASS
  1
LONG_TRANSACTION
  2
AcDbLongTransaction
  3
AutoCAD 2000
 90
        0
280
     0
281
     0
  0
CLASS
  1
LWPOLYLINE
  2
AcDbPolyline
  3
AutoCAD 2000
 90
        0
280
     0
281
     1
  0
CLASS
  1
HATCH
  2
AcDbHatch
  3
AutoCAD 2000
 90
        0
280
     0
281
     1
  0
CLASS
  1
XRECORD
  2
AcDbXrecord
  3
AutoCAD 2000
 90
        0
280
     0
281
     0
  0
CLASS
  1
LONG_TRANSACTION
  2
AcDbLongTransaction
  3
AutoCAD 2000
 90
        0
280
     0
281
     0
  0
CLASS
  1
LWPOLYLINE
  2
AcDbPolyline
  3
AutoCAD 2000
 90
        0
280
     0
281
     1
  0
CLASS
  1
HATCH
  2
AcDbHatch
  3
AutoCAD 2000
 90
        0
280
     0
281
     1
  0
CLASS
  1
XRECORD
  2
AcDbXrecord
  3
AutoCAD 2000
 90
        0
280
     0
281
     0
  0
CLASS
  1
LONG_TRANSACTION
  2
AcDbLongTransaction
  3
AutoCAD 2000
 90
        0
280
     0
281
     0
  0
CLASS
  1
LWPOLYLINE
  2
AcDbPolyline
  3
AutoCAD 2000
 90
        0
280
     0
281
     1
  0
CLASS
  1
HATCH
  2
AcDbHatch
  3
AutoCAD 2000
 90
        0
280
     0
281
     1
  0
CLASS
  1
XRECORD
  2
AcDbXrecord
  3
AutoCAD 2000
 90
        0
280
     0
281
     0
  0
CLASS
  1
LONG_TRANSACTION
  2
AcDbLongTransaction
  3
AutoCAD 2000
 90
        0
280
     0
281
     0
  0
CLASS
  1
LWPOLYLINE
  2
AcDbPolyline
  3
AutoCAD 2000
 90
        0
280
     0
281
     1
  0
CLASS
  1
HATCH
  2
AcDbHatch
  3
AutoCAD 2000
 90
        0
280
     0
281
     1
  0
CLASS
  1
XRECORD
  2
AcDbXrecord
  3
AutoCAD 2000
 90
        0
280
     0
281
     0
  0
ENDSEC
  0
SECTION
  2
TABLES
  0
TABLE
  2
VPORT
  5
8
330
0
100
AcDbSymbolTable
 70
     2
  0
VPORT
  5
167
330
8
100
AcDbSymbolTableRecord
100
AcDbViewportTableRecord
  2
*ACTIVE
 70
     0
 10
0.0
 20
0.0
 11
1.0
 21
1.0
 12
1.940165556185069
 22
0.5866585068021104
 13
0.0
 23
0.0
 14
0.5740882589684922
 24
0.5740882589684922
 15
0.5
 25
0.5
 16
0.0
 26
0.0
 36
1.0
 17
0.0
 27
0.0
 37
0.0
 40
12.94512687958467
 41
1.570528967254408
 42
50.0
 43
0.0
 44
0.0
 50
0.0
 51
0.0
 71
     0
 72
   100
 73
     1
 74
     1
 75
     0
 76
     0
 77
     0
 78
     0
  0
ENDTAB
  0
TABLE
  2
LTYPE
  5
5
330
0
100
AcDbSymbolTable
 70
     1
  0
LTYPE
  5
11
330
5
100
AcDbSymbolTableRecord
100
AcDbLinetypeTableRecord
  2
BYBLOCK
 70
     0
  3

 72
    65
 73
     0
 40
0.0
  0
LTYPE
  5
12
330
5
100
AcDbSymbolTableRecord
100
AcDbLinetypeTableRecord
  2
BYLAYER
 70
     0
  3

 72
    65
 73
     0
 40
0.0
  0
LTYPE
  5
13
330
5
100
AcDbSymbolTableRecord
100
AcDbLinetypeTableRecord
  2
CONTINUOUS
 70
     0
  3
Solid line
 72
    65
 73
     0
 40
0.0
  0
ENDTAB
  0
TABLE
  2
LAYER
  5
2
330
0
100
AcDbSymbolTable
 70
     4
  0
LAYER
  5
E
330
2
100
AcDbSymbolTableRecord
100
AcDbLayerTableRecord
  2
0
 70
     0
 62
     7
  6
CONTINUOUS
  0
LAYER
  5
22
330
2
100
AcDbSymbolTableRecord
100
AcDbLayerTableRecord
  2
ADPDIM
 70
     0
 62
     3
  6
CONTINUOUS
  0
LAYER
  5
23
330
2
100
AcDbSymbolTableRecord
100
AcDbLayerTableRecord
  2
ADP1DETAIL
 70
     0
 62
     7
  6
CONTINUOUS
  0
LAYER
  5
24
330
2
100
AcDbSymbolTableRecord
100
AcDbLayerTableRecord
  2
DEFPOINTS
 70
     0
 62
     7
  6
CONTINUOUS
  0
ENDTAB
  0
TABLE
  2
STYLE
  5
3
330
0
100
AcDbSymbolTable
 70
     2
  0
STYLE
  5
F
330
3
100
AcDbSymbolTableRecord
100
AcDbTextStyleTableRecord
  2
STANDARD
 70
     0
 40
0.0
 41
1.0
 50
0.0
 71
     0
 42
0.2
  3
txt
  4

  0
STYLE
  5
6F
330
3
100
AcDbSymbolTableRecord
100
AcDbTextStyleTableRecord
  2
ARIAL_WIDE
 70
     0
 40
0.0
 41
1.25
 50
0.0
 71
     0
 42
0.2
  3
ARIAL.TTF
  4

1001
ACAD
1000
Arial
1071
       34
  0
ENDTAB
  0
TABLE
  2
VIEW
  5
6
330
0
100
AcDbSymbolTable
 70
     0
  0
ENDTAB
  0
TABLE
  2
UCS
  5
7
330
0
100
AcDbSymbolTable
 70
     0
  0
ENDTAB
  0
TABLE
  2
APPID
  5
9
330
0
100
AcDbSymbolTable
 70
     1
  0
APPID
  5
10
330
9
100
AcDbSymbolTableRecord
100
AcDbRegAppTableRecord
  2
ACAD
 70
     0
  0
ENDTAB
  0
TABLE
  2
DIMSTYLE
  5
A
330
0
100
AcDbSymbolTable
 70
     1
  0
DIMSTYLE
105
6D
330
A
100
AcDbSymbolTableRecord
100
AcDbDimStyleTableRecord
  2
STANDARD
 70
     0
  3

  4

  5

  6

  7

 40
1.0
 41
0.18
 42
0.0625
 43
0.38
 44
0.18
 45
0.0
 46
0.0
 47
0.0
 48
0.0
140
0.18
141
0.09
142
0.0
143
25.4
144
1.0
145
0.0
146
1.0
147
0.09
 71
     0
 72
     0
 73
     1
 74
     1
 75
     0
 76
     0
 77
     0
 78
     0
170
     0
171
     2
172
     0
173
     0
174
     0
175
     0
176
     0
177
     0
178
     0
270
     2
271
     4
272
     4
273
     2
274
     2
340
F
275
     0
280
     0
281
     0
282
     0
283
     1
284
     0
285
     0
286
     0
287
     3
288
     0
  0
ENDTAB
  0
TABLE
  2
BLOCK_RECORD
  5
1
330
0
100
AcDbSymbolTable
 70
     2
  0
BLOCK_RECORD
  5
17
102
{ACAD_XDICTIONARY
360
A8
102
}
330
1
100
AcDbSymbolTableRecord
100
AcDbBlockTableRecord
  2
*MODEL_SPACE
  0
BLOCK_RECORD
  5
14
102
{ACAD_XDICTIONARY
360
A6
102
}
330
1
100
AcDbSymbolTableRecord
100
AcDbBlockTableRecord
  2
*PAPER_SPACE
  0
BLOCK_RECORD
  5
1E
330
1
100
AcDbSymbolTableRecord
100
AcDbBlockTableRecord
  2
*D0
  0
BLOCK_RECORD
  5
1F
330
1
100
AcDbSymbolTableRecord
100
AcDbBlockTableRecord
  2
*D1
  0
ENDTAB
  0
ENDSEC
  0
SECTION
  2
BLOCKS
  0
BLOCK
  5
27
330
17
100
AcDbEntity
  8
0
100
AcDbBlockBegin
  2
*MODEL_SPACE
 70
     0
 10
0.0
 20
0.0
 30
0.0
  3
*MODEL_SPACE
  1

  0
ENDBLK
  5
28
330
17
100
AcDbEntity
  8
0
100
AcDbBlockEnd
  0
BLOCK
  5
25
330
14
100
AcDbEntity
 67
     1
  8
0
100
AcDbBlockBegin
  2
*PAPER_SPACE
 70
     0
 10
0.0
 20
0.0
 30
0.0
  3
*PAPER_SPACE
  1

  0
ENDBLK
  5
26
330
14
100
AcDbEntity
 67
     1
  8
0
100
AcDbBlockEnd
  0
BLOCK
  5
2B
330
1E
100
AcDbEntity
  8
0
100
AcDbBlockBegin
  2
*D0
 70
     1
 10
0.0
 20
0.0
 30
0.0
  3
*D0
  1
*U
  0
LINE
  5
2C
330
1E
100
AcDbEntity
  8
0
  6
BYBLOCK
 62
     0
100
AcDbLine
 10
-3.208383040158465
 20
5.256416622118419
 30
0.0
 11
-3.547581197367061
 21
5.256416622118419
 31
0.0
  0
LINE
  5
2D
330
1E
100
AcDbEntity
  8
0
  6
BYBLOCK
 62
     0
100
AcDbLine
 10
-3.208383040158465
 20
5.75641662211842
 30
0.0
 11
-3.547581197367061
 21
5.75641662211842
 31
0.0
  0
LINE
  5
2E
330
1E
100
AcDbEntity
  8
0
  6
BYBLOCK
 62
     0
100
AcDbLine
 10
-3.367581197367061
 20
5.256416622118419
 30
0.0
 11
-3.367581197367061
 21
5.006416622118419
 31
0.0
  0
LINE
  5
2F
330
1E
100
AcDbEntity
  8
0
  6
BYBLOCK
 62
     0
100
AcDbLine
 10
-3.367581197367061
 20
5.75641662211842
 30
0.0
 11
-3.367581197367061
 21
6.00641662211842
 31
0.0
  0
LINE
  5
30
330
1E
100
AcDbEntity
  8
0
  6
BYBLOCK
 62
     0
100
AcDbLine
 10
-3.242581197367061
 20
5.131416622118419
 30
0.0
 11
-3.492581197367061
 21
5.381416622118419
 31
0.0
  0
LINE
  5
31
330
1E
100
AcDbEntity
  8
0
  6
BYBLOCK
 62
     0
100
AcDbLine
 10
-3.242581197367061
 20
5.63141662211842
 30
0.0
 11
-3.492581197367061
 21
5.88141662211842
 31
0.0
  0
TEXT
  5
32
330
1E
100
AcDbEntity
  8
0
  6
BYBLOCK
 62
     0
100
AcDbText
 10
-3.305081197367061
 20
6.13141662211842
 30
0.0
 40
0.125
  1
1/2
 50
90.0
 72
     1
 11
-3.367581197367061
 21
6.277249955451753
 31
0.0
100
AcDbText
 73
     2
  0
POINT
  5
34
330
1E
100
AcDbEntity
  8
DEFPOINTS
  6
BYBLOCK
 62
     0
100
AcDbPoint
 10
-3.145883040158465
 20
5.256416622118419
 30
0.0
  0
POINT
  5
35
330
1E
100
AcDbEntity
  8
DEFPOINTS
  6
BYBLOCK
 62
     0
100
AcDbPoint
 10
-3.145883040158465
 20
5.75641662211842
 30
0.0
  0
POINT
  5
36
330
1E
100
AcDbEntity
  8
DEFPOINTS
  6
BYBLOCK
 62
     0
100
AcDbPoint
 10
-3.367581197367061
 20
5.75641662211842
 30
0.0
  0
ENDBLK
  5
37
330
1E
100
AcDbEntity
  8
0
100
AcDbBlockEnd
  0
BLOCK
  5
38
330
1F
100
AcDbEntity
  8
0
100
AcDbBlockBegin
  2
*D1
 70
     1
 10
0.0
 20
0.0
 30
0.0
  3
*D1
  1
*U
  0
LINE
  5
39
330
1F
100
AcDbEntity
  8
0
  6
BYBLOCK
 62
     0
100
AcDbLine
 10
-3.145883040158465
 20
5.193916622118419
 30
0.0
 11
-3.145883040158465
 21
4.78785681744454
 31
0.0
  0
LINE
  5
3A
330
1F
100
AcDbEntity
  8
0
  6
BYBLOCK
 62
     0
100
AcDbLine
 10
-2.145883040158465
 20
5.193916622118419
 30
0.0
 11
-2.145883040158465
 21
4.78785681744454
 31
0.0
  0
LINE
  5
3B
330
1F
100
AcDbEntity
  8
0
  6
BYBLOCK
 62
     0
100
AcDbLine
 10
-3.145883040158465
 20
4.967856817444539
 30
0.0
 11
-2.791716373491799
 21
4.967856817444539
 31
0.0
  0
LINE
  5
3C
330
1F
100
AcDbEntity
  8
0
  6
BYBLOCK
 62
     0
100
AcDbLine
 10
-2.145883040158465
 20
4.967856817444539
 30
0.0
 11
-2.500049706825132
 21
4.967856817444539
 31
0.0
  0
LINE
  5
3D
330
1F
100
AcDbEntity
  8
0
  6
BYBLOCK
 62
     0
100
AcDbLine
 10
-3.270883040158465
 20
4.842856817444539
 30
0.0
 11
-3.020883040158465
 21
5.092856817444539
 31
0.0
  0
LINE
  5
3E
330
1F
100
AcDbEntity
  8
0
  6
BYBLOCK
 62
     0
100
AcDbLine
 10
-2.270883040158465
 20
4.842856817444539
 30
0.0
 11
-2.020883040158465
 21
5.092856817444539
 31
0.0
  0
TEXT
  5
3F
330
1F
100
AcDbEntity
  8
0
  6
BYBLOCK
 62
     0
100
AcDbText
 10
-2.666716373491799
 20
4.905356817444539
 30
0.0
 40
0.125
  1
1
 72
     1
 11
-2.645883040158465
 21
4.967856817444539
 31
0.0
100
AcDbText
 73
     2
  0
POINT
  5
40
330
1F
100
AcDbEntity
  8
DEFPOINTS
  6
BYBLOCK
 62
     0
100
AcDbPoint
 10
-3.145883040158465
 20
5.256416622118419
 30
0.0
  0
POINT
  5
41
330
1F
100
AcDbEntity
  8
DEFPOINTS
  6
BYBLOCK
 62
     0
100
AcDbPoint
 10
-2.145883040158465
 20
5.256416622118419
 30
0.0
  0
POINT
  5
42
330
1F
100
AcDbEntity
  8
DEFPOINTS
  6
BYBLOCK
 62
     0
100
AcDbPoint
 10
-2.145883040158465
 20
4.967856817444539
 30
0.0
  0
ENDBLK
  5
43
330
1F
100
AcDbEntity
  8
0
100
AcDbBlockEnd
  0
ENDSEC
  0
SECTION
  2
ENTITIES
  0
ARC
  5
44
330
17
100
AcDbEntity
  8
ADP1DETAIL
100
AcDbCircle
 10
2.891272116464618
 20
1.054255754613297
 30
0.0
 40
1.382000199444019
100
AcDbArc
 50
200.5942177507324
 51
105.4816450854381
  0
ARC
  5
45
330
17
100
AcDbEntity
  8
ADP1DETAIL
100
AcDbCircle
 10
3.578675248392713
 20
0.448744394891623
 30
0.0
 40
2.853421680586444
100
AcDbArc
 50
339.3441928366228
 51
53.08343774378202
  0
ARC
  5
46
330
17
100
AcDbEntity
  8
ADP1DETAIL
100
AcDbCircle
 10
2.237426715050731
 20
1.219743379229852
 30
0.0
 40
4.512221928081899
100
AcDbArc
 50
180.7681123030734
 51
248.8076348969311
  0
ARC
  5
47
330
17
100
AcDbEntity
  8
ADP1DETAIL
100
AcDbCircle
 10
3.578675248392711
 20
0.448744394891623
 30
0.0
 40
3.603421680586444
100
AcDbArc
 50
339.339465386719
 51
53.82592662079153
  0
ARC
  5
48
330
17
100
AcDbEntity
  8
ADP1DETAIL
100
AcDbCircle
 10
2.237426715050731
 20
1.219743379229852
 30
0.0
 40
5.262221928081897
100
AcDbArc
 50
180.7138050606902
 51
248.6993001962566
  0
ARC
  5
49
330
17
100
AcDbEntity
  8
ADP1DETAIL
100
AcDbCircle
 10
2.891272116464618
 20
1.054255754613297
 30
0.0
 40
1.507000199444019
100
AcDbArc
 50
200.5942177507324
 51
88.01242521508536
  0
LWPOLYLINE
  5
4A
330
17
100
AcDbEntity
  8
ADP1DETAIL
100
AcDbPolyline
 90
        6
 70
     0
 43
0.0
 10
-2.151161795953107
 20
4.123980021873348
 10
-2.149390247773714
 20
1.160134815093831
 42
0.3059733172124315
 10
0.6529945826609317
 20
-2.871380068442359
 42
0.424704669480774
 10
6.131704137584756
 20
-0.5137151409045551
 42
0.3325268863379698
 10
5.223812220351613
 20
2.625395310998303
 42
0.2786034044180048
 10
2.943539053365217
 20
2.56034930032397
 42
0.2737360848055883
  0
LWPOLYLINE
  5
52
330
17
100
AcDbEntity
  8
ADP1DETAIL
100
AcDbPolyline
 90
        8
 70
     0
 43
0.0
 10
-2.15116297353356
 20
4.121735357512079
 10
-3.151161617318835
 20
4.123382302444923
 10
-3.149386386144144
 20
1.153375350769771
 42
0.3056273275408288
 10
0.2791287320634495
 20
-3.798944607907262
 42
0.4239364611748133
 10
7.067300373659234
 20
-0.8667870428270596
 42
0.3374138740449472
 10
5.774427918481147
 20
3.46201478436326
 42
0.3458208578365529
 10
1.846910165852558
 20
2.94848249336455
 42
0.2802044760178204
 10
1.456269396484321
 20
0.5357892517367855
 42
0.3545126204712046
  0
ARC
  5
5C
330
17
100
AcDbEntity
  8
ADP1DETAIL
100
AcDbCircle
 10
4.137513052050578
 20
0.7055311456130813
 30
0.0
 40
2.330884017028505
100
AcDbArc
 50
60.29385550794056
 51
133.8624362401712
  0
ARC
  5
5D
330
17
100
AcDbEntity
  8
ADP1DETAIL
100
AcDbCircle
 10
4.13751305205058
 20
0.7055311456130813
 30
0.0
 40
3.080884017028506
100
AcDbArc
 50
59.40540389594152
 51
135.5228724435483
  0
ARC
  5
5E
330
17
100
AcDbEntity
  8
ADP1DETAIL
100
AcDbCircle
 10
3.635196318238416
 20
1.420968817246905
 30
0.0
 40
2.22686423790606
100
AcDbArc
 50
139.605741388401
 51
202.1092340045839
  0
DIMENSION
  5
5F
330
17
100
AcDbEntity
  8
ADPDIM
100
AcDbDimension
  2
*D0
 10
-3.367581197367061
 20
5.75641662211842
 30
0.0
 11
-3.367581197367061
 21
6.277249955451753
 31
0.0
100
AcDbAlignedDimension
 13
-3.145883040158465
 23
5.256416622118419
 33
0.0
 14
-3.145883040158465
 24
5.75641662211842
 34
0.0
 50
90.0
100
AcDbRotatedDimension
  0
LINE
  5
60
330
17
100
AcDbEntity
  8
ADP1DETAIL
100
AcDbLine
 10
-3.020883040158465
 20
5.381416622118419
 30
0.0
 11
-3.020883040158465
 21
5.75641662211842
 31
0.0
  0
LINE
  5
61
330
17
100
AcDbEntity
  8
ADP1DETAIL
100
AcDbLine
 10
-2.270883040158465
 20
5.75641662211842
 30
0.0
 11
-2.270883040158465
 21
5.381416622118419
 31
0.0
  0
LINE
  5
62
330
17
100
AcDbEntity
  8
ADP1DETAIL
100
AcDbLine
 10
-2.145883040158465
 20
5.75641662211842
 30
0.0
 11
-2.145883040158465
 21
5.256416622118419
 31
0.0
  0
LINE
  5
63
330
17
100
AcDbEntity
  8
ADP1DETAIL
100
AcDbLine
 10
-3.145883040158465
 20
5.256416622118419
 30
0.0
 11
-3.145883040158465
 21
5.75641662211842
 31
0.0
  0
DIMENSION
  5
64
330
17
100
AcDbEntity
  8
ADPDIM
100
AcDbDimension
  2
*D1
 10
-2.145883040158465
 20
4.967856817444539
 30
0.0
 11
-2.645883040158465
 21
4.967856817444539
 31
0.0
100
AcDbAlignedDimension
 13
-3.145883040158465
 23
5.256416622118419
 33
0.0
 14
-2.145883040158465
 24
5.256416622118419
 34
0.0
 50
180.0
100
AcDbRotatedDimension
  0
LINE
  5
65
330
17
100
AcDbEntity
  8
ADP1DETAIL
100
AcDbLine
 10
-2.145883040158465
 20
5.256416622118419
 30
0.0
 11
-3.145883040158465
 21
5.256416622118419
 31
0.0
  0
LINE
  5
66
330
17
100
AcDbEntity
  8
ADP1DETAIL
100
AcDbLine
 10
-2.270883040158465
 20
5.381416622118419
 30
0.0
 11
-3.020883040158465
 21
5.381416622118419
 31
0.0
  0
LINE
  5
67
330
17
100
AcDbEntity
  8
ADP1DETAIL
100
AcDbLine
 10
-2.276161773623823
 20
4.123905306944795
 30
0.0
 11
-2.274389743588961
 21
1.159253943696676
 31
0.0
  0
LINE
  5
68
330
17
100
AcDbEntity
  8
ADP1DETAIL
100
AcDbLine
 10
-2.270883040158465
 20
5.75641662211842
 30
0.0
 11
-2.145883040158465
 21
5.75641662211842
 31
0.0
  0
LINE
  5
69
330
17
100
AcDbEntity
  8
ADP1DETAIL
100
AcDbLine
 10
-3.02616147193784
 20
4.12317643380968
 30
0.0
 11
-3.024386848957337
 21
1.154187006490985
 31
0.0
  0
LINE
  5
6A
330
17
100
AcDbEntity
  8
ADP1DETAIL
100
AcDbLine
 10
-3.145883040158465
 20
5.75641662211842
 30
0.0
 11
-3.020883040158465
 21
5.75641662211842
 31
0.0
  0
ARC
  5
6B
330
17
100
AcDbEntity
  8
ADP1DETAIL
100
AcDbCircle
 10
2.254828200666959
 20
0.9508084501888696
 30
0.0
 40
4.269272692507091
100
AcDbArc
 50
247.2849706179553
 51
339.3066388355806
  0
ARC
  5
6C
330
17
100
AcDbEntity
  8
ADP1DETAIL
100
AcDbCircle
 10
2.254851070091039
 20
0.9507553844476817
 30
0.0
 40
5.01923257389844
100
AcDbArc
 50
247.3984516103294
 51
339.3093308350904
  0
TEXT
  5
76
330
17
100
AcDbEntity
  8
ADPDIM
100
AcDbText
 10
-8.176014383709802
 20
-5.195220132521624
 30
0.0
 40
0.1875
  1
J U L I U S  B L U M  &  C O . ,  I N C .      ( 8 0 0 )  5 2 6 - 6 2 9 3        W W W . J U L I U S B L U M . C O M        P A R T  N O .  1 0 0 - C R
 41
1.25
  7
ARIAL_WIDE
 72
     1
 11
1.939760897668098
 21
-5.007720132521624
 31
0.0
100
AcDbText
 73
     3
  0
ENDSEC
  0
SECTION
  2
OBJECTS
  0
DICTIONARY
  5
C
330
0
100
AcDbDictionary
  3
ACAD_GROUP
350
D
  3
ACAD_LAYOUT
350
7B
  3
ACAD_MLINESTYLE
350
1A
  3
ACAD_PLOTSETTINGS
350
7C
  3
ACAD_PLOTSTYLENAME
350
79
  3
ACDBHEADERROUNDTRIPXREC
350
168
  3
ACDBVARIABLEDICTIONARY
350
29
  0
DICTIONARY
  5
A8
330
17
100
AcDbDictionary
280
     1
  3
ACAD_LAYOUTSELFREF
360
18A
  0
DICTIONARY
  5
A6
330
14
100
AcDbDictionary
280
     1
  3
ACAD_LAYOUTSELFREF
360
189
  0
DICTIONARY
  5
D
102
{ACAD_REACTORS
330
C
102
}
330
C
100
AcDbDictionary
  0
DICTIONARY
  5
7B
102
{ACAD_REACTORS
330
C
102
}
330
C
100
AcDbDictionary
  0
DICTIONARY
  5
1A
102
{ACAD_REACTORS
330
C
102
}
330
C
100
AcDbDictionary
  3
STANDARD
350
1B
  0
DICTIONARY
  5
7C
102
{ACAD_REACTORS
330
C
102
}
330
C
100
AcDbDictionary
  0
ACDBDICTIONARYWDFLT
  5
79
102
{ACAD_REACTORS
330
C
102
}
330
C
100
AcDbDictionary
281
     1
  3
Normal
350
7A
100
AcDbDictionaryWithDefault
340
7A
  0
DICTIONARY
  5
168
102
{ACAD_REACTORS
330
C
102
}
330
C
100
AcDbDictionary
  3
CEPSNTYPE
350
172
  3
DIMSTYLEDATA
350
176
  3
FINGERPRINTGUID
350
173
  3
HYPERLINKBASE
350
16B
  3
INSUNITS
350
171
  3
LAYOUTDICT
350
16D
  3
LWETCUNION
350
170
  3
PLOTSETDICT
350
16E
  3
PLOTSTYLNAMDICT
350
16F
  3
PSVPSCALE
350
175
  3
PUCSBASE
350
179
  3
PUCSORGBACK
350
17F
  3
PUCSORGBOTTOM
350
17B
  3
PUCSORGFRONT
350
17E
  3
PUCSORGLEFT
350
17C
  3
PUCSORGRIGHT
350
17D
  3
PUCSORGTOP
350
17A
  3
PUCSORTHOREF
350
177
  3
PUCSORTHOVIEW
350
178
  3
STYLESHEET
350
16C
  3
TSTACKALIGN
350
169
  3
TSTACKSIZE
350
16A
  3
UCSBASE
350
182
  3
UCSORGBACK
350
188
  3
UCSORGBOTTOM
350
184
  3
UCSORGFRONT
350
187
  3
UCSORGLEFT
350
185
  3
UCSORGRIGHT
350
186
  3
UCSORGTOP
350
183
  3
UCSORTHOREF
350
180
  3
UCSORTHOVIEW
350
181
  3
VERSIONGUID
350
174
  0
DICTIONARY
  5
29
102
{ACAD_REACTORS
330
C
102
}
330
C
100
AcDbDictionary
  3
DIMADEC
350
2A
  3
DIMASSOC
350
AE
  0
XRECORD
  5
18A
102
{ACAD_REACTORS
330
A8
102
}
330
A8
100
AcDbXrecord
340
17
  0
XRECORD
  5
189
102
{ACAD_REACTORS
330
A6
102
}
330
A6
100
AcDbXrecord
340
14
  0
MLINESTYLE
  5
1B
102
{ACAD_REACTORS
330
1A
102
}
330
1A
100
AcDbMlineStyle
  2
STANDARD
 70
     0
  3

 62
   256
 51
90.0
 52
90.0
 71
     2
 49
0.5
 62
   256
  6
BYLAYER
 49
-0.5
 62
   256
  6
BYLAYER
  0
ACDBPLACEHOLDER
  5
7A
102
{ACAD_REACTORS
330
79
102
}
330
79
100
AcDbPlaceHolder
280
     0
  0
XRECORD
  5
172
102
{ACAD_REACTORS
330
168
102
}
330
168
100
AcDbXrecord
 90
        0
  0
XRECORD
  5
176
102
{ACAD_REACTORS
330
168
102
}
330
168
100
AcDbXrecord
1000
DSTYLE
1002
{
1070
   277
 70
     5
1070
   279
 70
     2
1002
}
  0
XRECORD
  5
173
102
{ACAD_REACTORS
330
168
102
}
330
168
100
AcDbXrecord
  1
{032412A5-4567-4909-BF27-6413EF5BB166}
  0
XRECORD
  5
16B
102
{ACAD_REACTORS
330
168
102
}
330
168
100
AcDbXrecord
  1

  0
XRECORD
  5
171
102
{ACAD_REACTORS
330
168
102
}
330
168
100
AcDbXrecord
 90
        0
  0
XRECORD
  5
16D
102
{ACAD_REACTORS
330
168
102
}
330
168
100
AcDbXrecord
340
7B
  0
XRECORD
  5
170
102
{ACAD_REACTORS
330
168
102
}
330
168
100
AcDbXrecord
 90
    14877
  0
XRECORD
  5
16E
102
{ACAD_REACTORS
330
168
102
}
330
168
100
AcDbXrecord
340
7C
  0
XRECORD
  5
16F
102
{ACAD_REACTORS
330
168
102
}
330
168
100
AcDbXrecord
340
79
  0
XRECORD
  5
175
102
{ACAD_REACTORS
330
168
102
}
330
168
100
AcDbXrecord
 40
0.0
  0
XRECORD
  5
179
102
{ACAD_REACTORS
330
168
102
}
330
168
100
AcDbXrecord
340
0
  0
XRECORD
  5
17F
102
{ACAD_REACTORS
330
168
102
}
330
168
100
AcDbXrecord
 10
0.0
 20
0.0
 30
0.0
  0
XRECORD
  5
17B
102
{ACAD_REACTORS
330
168
102
}
330
168
100
AcDbXrecord
 10
0.0
 20
0.0
 30
0.0
  0
XRECORD
  5
17E
102
{ACAD_REACTORS
330
168
102
}
330
168
100
AcDbXrecord
 10
0.0
 20
0.0
 30
0.0
  0
XRECORD
  5
17C
102
{ACAD_REACTORS
330
168
102
}
330
168
100
AcDbXrecord
 10
0.0
 20
0.0
 30
0.0
  0
XRECORD
  5
17D
102
{ACAD_REACTORS
330
168
102
}
330
168
100
AcDbXrecord
 10
0.0
 20
0.0
 30
0.0
  0
XRECORD
  5
17A
102
{ACAD_REACTORS
330
168
102
}
330
168
100
AcDbXrecord
 10
0.0
 20
0.0
 30
0.0
  0
XRECORD
  5
177
102
{ACAD_REACTORS
330
168
102
}
330
168
100
AcDbXrecord
340
0
  0
XRECORD
  5
178
102
{ACAD_REACTORS
330
168
102
}
330
168
100
AcDbXrecord
 70
     0
  0
XRECORD
  5
16C
102
{ACAD_REACTORS
330
168
102
}
330
168
100
AcDbXrecord
  1

  0
XRECORD
  5
169
102
{ACAD_REACTORS
330
168
102
}
330
168
100
AcDbXrecord
 90
        1
  0
XRECORD
  5
16A
102
{ACAD_REACTORS
330
168
102
}
330
168
100
AcDbXrecord
 90
       70
  0
XRECORD
  5
182
102
{ACAD_REACTORS
330
168
102
}
330
168
100
AcDbXrecord
340
0
  0
XRECORD
  5
188
102
{ACAD_REACTORS
330
168
102
}
330
168
100
AcDbXrecord
 10
0.0
 20
0.0
 30
0.0
  0
XRECORD
  5
184
102
{ACAD_REACTORS
330
168
102
}
330
168
100
AcDbXrecord
 10
0.0
 20
0.0
 30
0.0
  0
XRECORD
  5
187
102
{ACAD_REACTORS
330
168
102
}
330
168
100
AcDbXrecord
 10
0.0
 20
0.0
 30
0.0
  0
XRECORD
  5
185
102
{ACAD_REACTORS
330
168
102
}
330
168
100
AcDbXrecord
 10
0.0
 20
0.0
 30
0.0
  0
XRECORD
  5
186
102
{ACAD_REACTORS
330
168
102
}
330
168
100
AcDbXrecord
 10
0.0
 20
0.0
 30
0.0
  0
XRECORD
  5
183
102
{ACAD_REACTORS
330
168
102
}
330
168
100
AcDbXrecord
 10
0.0
 20
0.0
 30
0.0
  0
XRECORD
  5
180
102
{ACAD_REACTORS
330
168
102
}
330
168
100
AcDbXrecord
340
0
  0
XRECORD
  5
181
102
{ACAD_REACTORS
330
168
102
}
330
168
100
AcDbXrecord
 70
     0
  0
XRECORD
  5
174
102
{ACAD_REACTORS
330
168
102
}
330
168
100
AcDbXrecord
  1
{983404BB-EEDB-4DBC-9AE0-717C7AED23DA}
  0
DICTIONARYVAR
  5
2A
102
{ACAD_REACTORS
330
29
102
}
330
29
100
DictionaryVariables
280
     0
  1
0
  0
DICTIONARYVAR
  5
AE
102
{ACAD_REACTORS
330
29
102
}
330
29
100
DictionaryVariables
280
     0
  1
1
  0
ENDSEC
  0
EOF
